  0
SECTION
  2
HEADER
  9
$ACADVER
  1
AC1009
  9
$INSBASE
 10
0.0
 20
0.0
 30
0.0
  9
$EXTMIN
 10
-0.0141076315900364
 20
-0.5198132847748412
 30
-0.0000000000000129
  9
$EXTMAX
 10
349.80003245895591
 20
241.5220307859625
 30
0.0000000000000023
  9
$LIMMIN
 10
0.0
 20
0.0
  9
$LIMMAX
 10
420.0
 20
300.0
  9
$ORTHOMODE
 70
     1
  9
$REGENMODE
 70
     1
  9
$FILLMODE
 70
     1
  9
$QTEXTMODE
 70
     0
  9
$MIRRTEXT
 70
     1
  9
$DRAGMODE
 70
     2
  9
$LTSCALE
 40
7.0
  9
$OSMODE
 70
   951
  9
$ATTMODE
 70
     1
  9
$TEXTSIZE
 40
3.0
  9
$TRACEWID
 40
1.0
  9
$TEXTSTYLE
  7
STANDARD
  9
$CLAYER
  8
0
  9
$CELTYPE
  6
CONTINUOUS
  9
$CECOLOR
 62
   256
  9
$DIMSCALE
 40
1.0
  9
$DIMASZ
 40
2.5
  9
$DIMEXO
 40
0.6
  9
$DIMDLI
 40
1.0
  9
$DIMRND
 40
0.0
  9
$DIMDLE
 40
0.0
  9
$DIMEXE
 40
1.0
  9
$DIMTP
 40
0.1
  9
$DIMTM
 40
0.1
  9
$DIMTXT
 40
3.0
  9
$DIMCEN
 40
-0.2
  9
$DIMTSZ
 40
0.0
  9
$DIMTOL
 70
     0
  9
$DIMLIM
 70
     0
  9
$DIMTIH
 70
     0
  9
$DIMTOH
 70
     0
  9
$DIMSE1
 70
     0
  9
$DIMSE2
 70
     0
  9
$DIMTAD
 70
     1
  9
$DIMZIN
 70
     8
  9
$DIMBLK
  1

  9
$DIMASO
 70
     1
  9
$DIMSHO
 70
     1
  9
$DIMPOST
  1

  9
$DIMAPOST
  1

  9
$DIMALT
 70
     0
  9
$DIMALTD
 70
     2
  9
$DIMALTF
 40
0.0394
  9
$DIMLFAC
 40
1.0
  9
$DIMTOFL
 70
     1
  9
$DIMTVP
 40
1.0
  9
$DIMTIX
 70
     0
  9
$DIMSOXD
 70
     0
  9
$DIMSAH
 70
     0
  9
$DIMBLK1
  1

  9
$DIMBLK2
  1

  9
$DIMSTYLE
  2
ISO-25
  9
$DIMCLRD
 70
     2
  9
$DIMCLRE
 70
     2
  9
$DIMCLRT
 70
     3
  9
$DIMTFAC
 40
0.7
  9
$DIMGAP
 40
0.6
  9
$LUNITS
 70
     2
  9
$LUPREC
 70
     4
  9
$SKETCHINC
 40
1.0
  9
$FILLETRAD
 40
0.0
  9
$AUNITS
 70
     0
  9
$AUPREC
 70
     0
  9
$MENU
  1
acad
  9
$ELEVATION
 40
0.0
  9
$PELEVATION
 40
0.0
  9
$THICKNESS
 40
0.0
  9
$LIMCHECK
 70
     0
  9
$BLIPMODE
 70
     0
  9
$CHAMFERA
 40
0.5
  9
$CHAMFERB
 40
0.5
  9
$SKPOLY
 70
     0
  9
$TDCREATE
 40
2450166.8692156249
  9
$TDUPDATE
 40
2457465.7308775699
  9
$TDINDWG
 40
6.6484316781999997
  9
$TDUSRTIMER
 40
6.6484316781999997
  9
$USRTIMER
 70
     1
  9
$ANGBASE
 50
0.0
  9
$ANGDIR
 70
     0
  9
$PDMODE
 70
     0
  9
$PDSIZE
 40
0.0
  9
$PLINEWID
 40
1.0
  9
$COORDS
 70
     0
  9
$SPLFRAME
 70
     0
  9
$SPLINETYPE
 70
     6
  9
$SPLINESEGS
 70
     8
  9
$ATTDIA
 70
     0
  9
$ATTREQ
 70
     1
  9
$HANDLING
 70
     1
  9
$HANDSEED
  5
67BCD
  9
$SURFTAB1
 70
     6
  9
$SURFTAB2
 70
     6
  9
$SURFTYPE
 70
     6
  9
$SURFU
 70
     6
  9
$SURFV
 70
     6
  9
$UCSNAME
  2

  9
$UCSORG
 10
0.0
 20
0.0
 30
0.0
  9
$UCSXDIR
 10
1.0
 20
0.0
 30
0.0
  9
$UCSYDIR
 10
0.0
 20
1.0
 30
0.0
  9
$PUCSNAME
  2

  9
$PUCSORG
 10
0.0
 20
0.0
 30
0.0
  9
$PUCSXDIR
 10
1.0
 20
0.0
 30
0.0
  9
$PUCSYDIR
 10
0.0
 20
1.0
 30
0.0
  9
$USERI1
 70
     0
  9
$USERI2
 70
     0
  9
$USERI3
 70
     0
  9
$USERI4
 70
     0
  9
$USERI5
 70
     0
  9
$USERR1
 40
0.0
  9
$USERR2
 40
0.0
  9
$USERR3
 40
0.0
  9
$USERR4
 40
0.0
  9
$USERR5
 40
0.0
  9
$WORLDVIEW
 70
     1
  9
$SHADEDGE
 70
     3
  9
$SHADEDIF
 70
    70
  9
$TILEMODE
 70
     1
  9
$MAXACTVP
 70
    16
  9
$PLIMCHECK
 70
     0
  9
$PEXTMIN
 10
1.0000000000000000E+020
 20
1.0000000000000000E+020
 30
1.0000000000000000E+020
  9
$PEXTMAX
 10
-1.0000000000000000E+020
 20
-1.0000000000000000E+020
 30
-1.0000000000000000E+020
  9
$PLIMMIN
 10
0.0
 20
0.0
  9
$PLIMMAX
 10
420.0
 20
297.0
  9
$UNITMODE
 70
     0
  9
$VISRETAIN
 70
     0
  9
$PLINEGEN
 70
     0
  9
$PSLTSCALE
 70
     1
  0
ENDSEC
  0
SECTION
  2
TABLES
  0
TABLE
  2
VPORT
 70
     1
  0
VPORT
  2
*ACTIVE
 70
     0
 10
0.0
 20
0.0
 11
1.0
 21
1.0
 12
174.89296241368291
 22
120.5011087505938
 13
0.0
 23
0.0
 14
1.0
 24
1.0
 15
2.0
 25
2.0
 16
0.0
 26
0.0
 36
1.0
 17
0.0
 27
0.0
 37
0.0
 40
243.72074703538979
 41
2.1307870370370372
 42
50.0
 43
0.0
 44
0.0
 50
0.0
 51
0.0
 71
     0
 72
   100
 73
     1
 74
     1
 75
     0
 76
     0
 77
     0
 78
     2
  0
ENDTAB
  0
TABLE
  2
LTYPE
 70
     8
  0
LTYPE
  2
CONTINUOUS
 70
     0
  3
Solid line
 72
    65
 73
     0
 40
0.0
  0
LTYPE
  2
CENTER
 70
     0
  3
____ _ ____ _ ____ _ ____ _ ____ _ ____ _ ____ 
 72
    65
 73
     4
 40
2.0
 49
1.25
 49
-0.25
 49
0.25
 49
-0.25
  0
LTYPE
  2
PHANTOM
 70
     0
  3
Phantom ______  __  __  ______  __  __  ______
 72
    65
 73
     6
 40
2.5
 49
1.25
 49
-0.25
 49
0.25
 49
-0.25
 49
0.25
 49
-0.25
  0
LTYPE
  2
PHANTOM2
 70
     0
  3
___ _ _ ___ _ _ ___ _ _ ___ _ _ ___ _ _ ___ _ _
 72
    65
 73
     6
 40
1.25
 49
0.625
 49
-0.125
 49
0.125
 49
-0.125
 49
0.125
 49
-0.125
  0
LTYPE
  2
HIDDEN
 70
     0
  3
Hidden __ __ __ __ __ __ __ __ __ __ __ __ __ _
 72
    65
 73
     2
 40
0.375
 49
0.25
 49
-0.125
  0
LTYPE
  2
HIDDEN2
 70
     0
  3
_ _ _ _ _ _ _ _ _ _ _ _ _ _ _ _ _ _ _ _ _ _ _ _
 72
    65
 73
     2
 40
0.1875
 49
0.125
 49
-0.0625
  0
LTYPE
  2
CENTER2
 70
     0
  3
___ _ ___ _ ___ _ ___ _ ___ _ ___ _ ___ _ ___ _
 72
    65
 73
     4
 40
1.125
 49
0.75
 49
-0.125
 49
0.125
 49
-0.125
  0
ENDTAB
  0
TABLE
  2
LAYER
 70
     3
  0
LAYER
  2
0
 70
     0
 62
     7
  6
CONTINUOUS
  0
LAYER
  2
DEFPOINTS
 70
     0
 62
     7
  6
CONTINUOUS
  0
LAYER
  2
CT
 70
     0
 62
     2
  6
CENTER
  0
ENDTAB
  0
TABLE
  2
STYLE
 70
     1
  0
STYLE
  2
STANDARD
 70
     0
 40
3.0
 41
1.0
 50
0.0
 71
     0
 42
3.0
  3
ISOCP
  4
WHGTXT.SHX
  0
ENDTAB
  0
TABLE
  2
VIEW
 70
     0
  0
ENDTAB
  0
TABLE
  2
UCS
 70
     0
  0
ENDTAB
  0
TABLE
  2
APPID
 70
     7
  0
APPID
  2
ACAD
 70
     0
  0
APPID
  2
ACAD_MLEADERVER
 70
     0
  0
APPID
  2
ACAD_DSTYLE_DIMJAG
 70
     0
  0
APPID
  2
ACAD_DSTYLE_DIMTALN
 70
     0
  0
APPID
  2
ACAD_EXEMPT_FROM_CAD_STANDARDS
 70
     0
  0
APPID
  2
ACAD_DSTYLE_DIMRADIAL_EXTENSION
 70
     0
  0
APPID
  2
CONTENTBLOCKICON
 70
     0
  0
ENDTAB
  0
TABLE
  2
DIMSTYLE
 70
     2
  0
DIMSTYLE
  2
ISO-25
 70
     0
  3

  4

  5

  6

  7

 40
1.0
 41
2.5
 42
0.625
 43
3.75
 44
1.25
 45
0.0
 46
0.0
 47
0.0
 48
0.0
140
2.5
141
2.5
142
0.0
143
0.0394
144
1.0
145
1.0
146
1.0
147
0.625
 71
     0
 72
     0
 73
     1
 74
     0
 75
     0
 76
     0
 77
     1
 78
     8
170
     0
171
     2
172
     1
173
     0
174
     0
175
     0
176
     2
177
     2
178
     0
  0
DIMSTYLE
  2
KSM
 70
     0
  3

  4

  5

  6

  7

 40
1.0
 41
2.0
 42
0.0
 43
0.1
 44
1.1999999999999991
 45
0.0
 46
0.0
 47
0.25
 48
0.25
140
3.0
141
0.0
142
0.0
143
0.0394
144
1.0
145
1.0
146
1.0
147
1.0
 71
     1
 72
     0
 73
     0
 74
     0
 75
     0
 76
     0
 77
     1
 78
     8
170
     0
171
     2
172
     1
173
     0
174
     0
175
     0
176
     2
177
     2
178
     3
  0
ENDTAB
  0
ENDSEC
  0
SECTION
  2
BLOCKS
  0
BLOCK
  8
0
  2
$MODEL_SPACE
 70
     0
 10
0.0
 20
0.0
 30
0.0
  3
$MODEL_SPACE
  1

  0
ENDBLK
  5
9
  8
0
  0
BLOCK
 67
     1
  8
0
  2
$PAPER_SPACE
 70
     0
 10
0.0
 20
0.0
 30
0.0
  3
$PAPER_SPACE
  1

  0
ENDBLK
  5
E
 67
     1
  8
0
  0
BLOCK
  8
0
  2
_CLOSEDBLANK
 70
     0
 10
0.0
 20
0.0
 30
0.0
  3
_CLOSEDBLANK
  1

  0
LINE
  5
1E017
  8
0
  6
BYBLOCK
 62
     0
 10
-1.0
 20
0.1666666666666666
 30
0.0
 11
0.0
 21
0.0
 31
0.0
  0
LINE
  5
1E018
  8
0
  6
BYBLOCK
 62
     0
 10
0.0
 20
0.0
 30
0.0
 11
-1.0
 21
-0.1666666666666666
 31
0.0
  0
LINE
  5
1E019
  8
0
  6
BYBLOCK
 62
     0
 10
-1.0
 20
0.1666666666666666
 30
0.0
 11
-1.0
 21
-0.1666666666666666
 31
0.0
  0
ENDBLK
  5
1E01A
  8
0
  0
BLOCK
  8
0
  2
DFG
 70
     0
 10
0.0
 20
0.0
 30
0.0
  3
DFG
  1

  0
LINE
  5
1F55F
  8
0
  6
CONTINUOUS
 62
     4
 10
86.283570637268895
 20
194.3173600391579
 30
0.0
 11
87.100067218196514
 21
195.13385662008551
 31
0.0
  0
LINE
  5
1F560
  8
0
  6
CONTINUOUS
 62
     4
 10
85.827275012060909
 20
196.40664882622119
 30
0.0
 11
85.010778431133076
 21
195.5901522452935
 31
0.0
  0
LINE
  5
1F561
  8
0
  6
CONTINUOUS
 62
     4
 10
85.364331821726182
 20
196.65081241707321
 30
0.0
 11
84.657225040539743
 21
195.94370563588669
 31
0.0
  0
LINE
  5
1F562
  8
0
  6
CONTINUOUS
 62
     4
 10
85.364331821726182
 20
196.65081241707321
 30
0.0
 11
84.248976750075826
 21
196.35195392635069
 31
0.0
  0
LINE
  5
1F563
  8
0
  6
CONTINUOUS
 10
87.953595175868358
 20
196.1995166121132
 30
0.0
 11
84.418061269935833
 21
192.6639827061806
 31
0.0
  0
LINE
  5
1F564
  8
0
  6
CONTINUOUS
 10
84.913036016766455
 20
199.24007577121549
 30
0.0
 11
81.377502110833461
 21
195.70454186528281
 31
0.0
  0
LINE
  5
1F565
  8
0
  6
CONTINUOUS
 10
84.418061269935606
 20
199.24007577121529
 30
0.0
 11
81.377502110833802
 21
196.1995166121134
 31
0.0
  0
LINE
  5
1F566
  8
0
  6
CONTINUOUS
 10
87.953595175868585
 20
195.70454186528261
 30
0.0
 11
84.913036016766227
 21
192.66398270618041
 31
0.0
  0
LINE
  5
1F567
  8
0
  6
CONTINUOUS
 10
84.418061269935606
 20
199.24007577121529
 30
0.0
 11
84.913036016766455
 21
199.24007577121549
 31
0.0
  0
LINE
  5
1F568
  8
0
  6
CONTINUOUS
 62
     4
 10
85.717885212319516
 20
196.29725902647991
 30
0.0
 11
85.364331821726182
 21
196.65081241707321
 31
0.0
  0
LINE
  5
1F569
  8
0
  6
CONTINUOUS
 62
     4
 10
87.100067218196514
 20
195.13385662008551
 30
0.0
 11
85.827275012060909
 21
196.40664882622119
 31
0.0
  0
LINE
  5
1F56A
  8
0
  6
CONTINUOUS
 62
     4
 10
86.691818927732811
 20
194.72560832962171
 30
0.0
 11
85.419026721596978
 21
195.9984005357575
 31
0.0
  0
LINE
  5
1F56B
  8
0
  6
CONTINUOUS
 10
87.953595175868585
 20
195.70454186528261
 30
0.0
 11
87.953595175868358
 21
196.1995166121132
 31
0.0
  0
LINE
  5
1F56C
  8
0
  6
CONTINUOUS
 62
     4
 10
87.100067218196514
 20
195.13385662008551
 30
0.0
 11
87.382909930671289
 21
195.1338566200854
 31
0.0
  0
LINE
  5
1F56D
  8
0
  6
CONTINUOUS
 10
81.377502110833802
 20
196.1995166121134
 30
0.0
 11
81.377502110833802
 21
195.70454186528269
 31
0.0
  0
LINE
  5
1F56E
  8
0
  6
CONTINUOUS
 62
     4
 10
85.467074056341076
 20
193.5008634582301
 30
0.0
 11
85.467074056341175
 21
193.21802074575541
 31
0.0
  0
LINE
  5
1F56F
  8
0
  6
CONTINUOUS
 62
     4
 10
86.283570637268653
 20
194.31736003915771
 30
0.0
 11
85.467074056341076
 21
193.5008634582301
 31
0.0
  0
LINE
  5
1F570
  8
0
  6
CONTINUOUS
 62
     4
 10
84.194281850205485
 20
194.7736556643658
 30
0.0
 11
85.010778431133076
 21
195.5901522452935
 31
0.0
  0
LINE
  5
1F571
  8
0
  6
CONTINUOUS
 62
     4
 10
83.950118259353076
 20
195.23659885470019
 30
0.0
 11
84.657225040539743
 21
195.94370563588669
 31
0.0
  0
LINE
  5
1F572
  8
0
  6
CONTINUOUS
 62
     4
 10
83.950118259353076
 20
195.23659885470019
 30
0.0
 11
84.248976750075826
 21
196.35195392635069
 31
0.0
  0
LINE
  5
1F573
  8
0
  6
CONTINUOUS
 62
     4
 10
84.303671649946395
 20
194.88304546410691
 30
0.0
 11
83.950118259353076
 21
195.23659885470019
 31
0.0
  0
LINE
  5
1F574
  8
0
  6
CONTINUOUS
 62
     4
 10
85.467074056341076
 20
193.5008634582301
 30
0.0
 11
84.194281850205485
 21
194.7736556643658
 31
0.0
  0
LINE
  5
1F575
  8
0
  6
CONTINUOUS
 62
     4
 10
85.875322346804978
 20
193.9091117486939
 30
0.0
 11
84.60253014066916
 21
195.18190395482961
 31
0.0
  0
LINE
  5
1F576
  8
0
  6
CONTINUOUS
 10
84.913036016766569
 20
192.66398270618069
 30
0.0
 11
84.418061269935606
 21
192.66398270618069
 31
0.0
  0
LINE
  5
1F577
  8
0
  6
CONTINUOUS
 10
81.377502110833461
 20
195.70454186528229
 30
0.0
 11
84.418061269935833
 21
192.66398270618041
 31
0.0
  0
LINE
  5
1F578
  8
0
  6
CONTINUOUS
 10
84.913036016766455
 20
199.24007577121549
 30
0.0
 11
87.953595175868713
 21
196.19951661211331
 31
0.0
  0
ENDBLK
  5
1F579
  8
0
  0
BLOCK
  8
0
  2
SZGFG
 70
     0
 10
0.0
 20
0.0
 30
0.0
  3
SZGFG
  1

  0
LINE
  5
1F57D
  8
0
  6
CONTINUOUS
 62
     3
 10
288.6152800117635
 20
143.94755516990219
 30
0.0
 11
297.2722104434265
 21
147.0986609094744
 31
0.0
  0
LINE
  5
1F57E
  8
0
  6
CENTER
 62
     6
 10
295.73281909903773
 20
151.43665890697039
 30
0.0
 11
298.91643289771213
 21
142.6897518828473
 31
0.0
  0
LINE
  5
1F57F
  8
0
  6
CONTINUOUS
 62
     3
 10
297.2722104434265
 20
147.0986609094744
 30
0.0
 11
292.09540705571192
 21
142.75459046597831
 31
0.0
  0
LINE
  5
1F580
  8
0
  6
CONTINUOUS
 62
     3
 10
290.51423431846371
 20
147.09849496112241
 30
0.0
 11
292.09540705571192
 21
142.75459046597831
 31
0.0
  0
LINE
  5
1F581
  8
0
  6
CONTINUOUS
 62
     3
 10
297.2722104434265
 20
147.0986609094744
 30
0.0
 11
290.51423431846371
 21
147.09849496112241
 31
0.0
  0
INSERT
  5
1F582
  8
0
  6
CONTINUOUS
 62
     7
  2
*X162
 10
0.0
 20
0.0
 30
0.0
1001
ACAD
1000
HATCH
1002
{
1070
    19
1000
ANSI31
1040
0.5
1040
24.756814761131292
1000
R14_HATCH_DATA
1000
1F582
1011
1.0
1021
0.0
1031
-1.8348436898229032E+108
1021
0.0
1031
0.0
1011
0.0
1021
0.0
1031
-1.8348436898229032E+108
1021
1.0
1031
0.0
1011
0.0
1021
0.0
1031
-1.8348436898229032E+108
1021
0.0
1031
1.0
1040
0.0
1010
0.0
1020
0.0
1030
1.0
1000
ANSI31
1070
     0
1070
     0
1071
        1
1071
        7
1070
     0
1070
     1
1071
        3
1040
291.30482068708812
1040
144.9265427135503
1040
297.27221044342679
1040
147.09866090947449
1040
290.51423431846388
1040
147.09849496112241
1071
        0
1070
     0
1070
     1
1040
24.756814761131292
1040
0.5
1070
     0
1070
     1
1040
0.409471695810392
1040
-352.79435710434569
1040
-667.39905656787869
1040
-0.0248827971004312
1040
0.0573332051123847
1070
     0
1040
0.0067328972234235
1071
        1
1040
162.70487846657139
1040
40.765216351816299
1040
0.0
1002
}
  0
ENDBLK
  5
1F583
  8
0
  0
BLOCK
  8
0
  2
_OBLIQUE
 70
     0
 10
0.0
 20
0.0
 30
0.0
  3
_OBLIQUE
  1

  0
LINE
  5
4D491
  8
0
  6
BYBLOCK
 62
     0
 10
-0.5
 20
-0.5
 30
0.0
 11
0.5
 21
0.5
 31
0.0
  0
ENDBLK
  5
4D492
  8
0
  0
BLOCK
  8
0
  2
SGDG
 70
     0
 10
0.0
 20
0.0
 30
0.0
  3
SGDG
  1

  0
LINE
  5
58A77
  8
0
  6
CONTINUOUS
 62
     4
 10
133.76639623704719
 20
383.45902981058208
 30
0.0
 11
133.7663962370471
 21
384.95902981058202
 31
0.0
  0
LINE
  5
58A78
  8
0
  6
CONTINUOUS
 62
     4
 10
125.7663962370473
 20
385.45902981058202
 30
0.0
 11
133.26639623704719
 21
385.45902981058202
 31
0.0
  0
LINE
  5
58A79
  8
0
  6
CONTINUOUS
 62
     4
 10
125.2663962370473
 20
384.95902981058191
 30
0.0
 11
133.7663962370471
 21
384.95902981058202
 31
0.0
  0
LINE
  5
58A7A
  8
0
  6
CONTINUOUS
 62
     4
 10
133.51639623704719
 20
373.70902981058219
 30
0.0
 11
133.51639623704739
 21
380.609029810582
 31
0.0
  0
LINE
  5
58A7B
  8
0
  6
CONTINUOUS
 62
     4
 10
132.8398962370471
 20
373.0325298105821
 30
0.0
 11
132.8398962370473
 21
381.28552981058181
 31
0.0
  0
LINE
  5
58A7C
  8
0
  6
CONTINUOUS
 62
     4
 10
126.3663962370473
 20
381.45902981058202
 30
0.0
 11
132.66639623704731
 21
381.45902981058191
 31
0.0
  0
LINE
  5
58A7D
  8
0
  6
CONTINUOUS
 62
     4
 10
133.51639623704739
 20
380.609029810582
 30
0.0
 11
125.5163962370472
 21
380.609029810582
 31
0.0
  0
LINE
  5
58A7E
  8
0
  6
CONTINUOUS
 62
     4
 10
125.2663962370472
 20
383.45902981058208
 30
0.0
 11
133.76639623704719
 21
383.45902981058208
 31
0.0
  0
LINE
  5
58A7F
  8
0
  6
CONTINUOUS
 62
     4
 10
132.66639623704719
 20
381.45902981058191
 30
0.0
 11
132.66639623704731
 21
383.45902981058208
 31
0.0
  0
LINE
  5
58A80
  8
0
  6
CONTINUOUS
 62
     4
 10
132.66639623704719
 20
381.45902981058191
 30
0.0
 11
133.51639623704739
 21
380.609029810582
 31
0.0
  0
POINT
  5
58A81
  8
DEFPOINTS
  6
BYBLOCK
 62
     4
 10
133.76639623704719
 20
383.45902981058208
 30
0.0
 50
40.0
  0
POINT
  5
58A82
  8
DEFPOINTS
  6
BYBLOCK
 62
     4
 10
133.76639623704719
 20
383.45902981058208
 30
0.0
 50
40.0
  0
LINE
  5
58A83
  8
0
  6
HIDDEN2
 62
     4
 10
131.82579731380571
 20
385.45902981058202
 30
0.0
 11
131.82579731380579
 21
380.45902981058208
 31
0.0
  0
LINE
  5
58A84
  8
0
  6
HIDDEN2
 62
     4
 10
130.67109677542641
 20
385.45902981058202
 30
0.0
 11
130.67109677542641
 21
380.45902981058191
 31
0.0
  0
LINE
  5
58A85
  8
0
  6
CONTINUOUS
 62
     4
 10
133.26639623704719
 20
385.45902981058202
 30
0.0
 11
133.7663962370471
 21
384.95902981058202
 31
0.0
  0
POINT
  5
58A86
  8
DEFPOINTS
  6
BYBLOCK
 62
     4
 10
133.26639623704719
 20
385.45902981058202
 30
0.0
 50
40.0
  0
LINE
  5
58A87
  8
0
  6
CONTINUOUS
 62
     4
 10
125.5163962370473
 20
373.70902981058202
 30
0.0
 11
125.5163962370472
 21
380.609029810582
 31
0.0
  0
LINE
  5
58A88
  8
0
  6
CONTINUOUS
 62
     4
 10
126.1908633154313
 20
373.03456273219791
 30
0.0
 11
126.1908633154315
 21
381.28349688896623
 31
0.0
  0
LINE
  5
58A89
  8
0
  6
CENTER
 62
     4
 10
126.19289623704719
 20
373.28252981058188
 30
0.0
 11
126.19289623704719
 21
381.28552981058198
 31
0.0
  0
LINE
  5
58A8A
  8
0
  6
CONTINUOUS
 62
     4
 10
125.2663962370473
 20
384.95902981058191
 30
0.0
 11
125.7663962370473
 21
385.45902981058202
 31
0.0
  0
LINE
  5
58A8B
  8
0
  6
HIDDEN2
 62
     4
 10
128.36169569866789
 20
385.45902981058208
 30
0.0
 11
128.361695698668
 21
380.45902981058202
 31
0.0
  0
LINE
  5
58A8C
  8
0
  6
HIDDEN2
 62
     4
 10
127.2069951602887
 20
385.45902981058202
 30
0.0
 11
127.2069951602886
 21
380.45902981058202
 31
0.0
  0
LINE
  5
58A8D
  8
0
  6
CONTINUOUS
 62
     4
 10
125.2663962370472
 20
383.45902981058208
 30
0.0
 11
125.2663962370473
 21
384.95902981058191
 31
0.0
  0
LINE
  5
58A8E
  8
0
  6
CONTINUOUS
 62
     4
 10
126.3663962370472
 20
381.45902981058191
 30
0.0
 11
126.3663962370472
 21
383.45902981058191
 31
0.0
  0
LINE
  5
58A8F
  8
0
  6
CONTINUOUS
 62
     4
 10
125.5163962370472
 20
380.609029810582
 30
0.0
 11
126.3663962370472
 21
381.45902981058191
 31
0.0
  0
LINE
  5
58A90
  8
0
  6
CONTINUOUS
 62
     4
 10
126.666396237047
 20
371.45902981058219
 30
0.0
 11
126.66639623704719
 21
372.95902981058202
 31
0.0
  0
LINE
  5
58A91
  8
0
  6
CONTINUOUS
 62
     4
 10
126.666396237047
 20
371.45902981058219
 30
0.0
 11
127.16639623704719
 21
370.95902981058208
 31
0.0
  0
LINE
  5
58A92
  8
0
  6
CONTINUOUS
 62
     4
 10
126.2663962370473
 20
372.95902981058202
 30
0.0
 11
125.5163962370473
 21
373.70902981058202
 31
0.0
  0
LINE
  5
58A93
  8
0
  6
HIDDEN2
 62
     4
 10
127.2069951602886
 20
380.45902981058202
 30
0.0
 11
131.82579731380579
 21
380.45902981058208
 31
0.0
  0
LINE
  5
58A94
  8
0
  6
HIDDEN2
 62
     4
 10
131.5163962370471
 20
380.45902981058202
 30
0.0
 11
131.5163962370471
 21
378.45902981058202
 31
0.0
  0
LINE
  5
58A95
  8
0
  6
HIDDEN2
 62
     4
 10
131.5163962370471
 20
378.45902981058202
 30
0.0
 11
129.51639623704719
 21
377.30432927220278
 31
0.0
  0
LINE
  5
58A96
  8
0
  6
HIDDEN2
 62
     4
 10
127.5163962370471
 20
378.45902981058202
 30
0.0
 11
131.5163962370471
 21
378.45902981058202
 31
0.0
  0
LINE
  5
58A97
  8
0
  6
HIDDEN2
 62
     4
 10
127.5163962370473
 20
380.45902981058191
 30
0.0
 11
127.5163962370471
 21
378.45902981058202
 31
0.0
  0
LINE
  5
58A98
  8
0
  6
HIDDEN2
 62
     4
 10
127.5163962370471
 20
378.45902981058202
 30
0.0
 11
129.51639623704719
 21
377.30432927220278
 31
0.0
  0
POLYLINE
  5
58A99
  8
0
  6
CONTINUOUS
 62
     4
 66
     1
 10
0.0
 20
0.0
 30
0.0
 70
     1
  0
VERTEX
  5
6786F
  8
0
  6
CONTINUOUS
 62
     4
 10
126.666396237047
 20
357.65902981058269
 30
0.0
  0
VERTEX
  5
67870
  8
0
  6
CONTINUOUS
 62
     4
 10
126.46639623704689
 20
357.12569647724899
 30
0.0
  0
VERTEX
  5
67871
  8
0
  6
CONTINUOUS
 62
     4
 10
126.46639623704711
 20
356.35592091925793
 30
0.0
  0
VERTEX
  5
67872
  8
0
  6
CONTINUOUS
 62
     4
 10
126.75327645239869
 20
355.85902981058263
 30
0.0
  0
VERTEX
  5
67873
  8
0
  6
CONTINUOUS
 62
     4
 10
127.47044088564761
 20
355.85902981058229
 30
0.0
  0
VERTEX
  5
67874
  8
0
  6
CONTINUOUS
 62
     4
 10
128.01639623704719
 20
354.35902981058268
 30
0.0
  0
VERTEX
  5
67875
  8
0
  6
CONTINUOUS
 62
     4
 10
129.51639623704719
 20
354.35902981058268
 30
0.0
  0
VERTEX
  5
67876
  8
0
  6
CONTINUOUS
 62
     4
 10
131.0163962370473
 20
354.3590298105824
 30
0.0
  0
VERTEX
  5
67877
  8
0
  6
CONTINUOUS
 62
     4
 10
131.5623515884466
 20
355.85902981058268
 30
0.0
  0
VERTEX
  5
67878
  8
0
  6
CONTINUOUS
 62
     4
 10
132.2795160216954
 20
355.85902981058263
 30
0.0
  0
VERTEX
  5
67879
  8
0
  6
CONTINUOUS
 62
     4
 10
132.56639623704689
 20
356.35592091925798
 30
0.0
  0
VERTEX
  5
6787A
  8
0
  6
CONTINUOUS
 62
     4
 10
132.566396237047
 20
357.12569647724922
 30
0.0
  0
VERTEX
  5
6787B
  8
0
  6
CONTINUOUS
 62
     4
 10
132.36639623704701
 20
357.65902981058241
 30
0.0
  0
VERTEX
  5
6787C
  8
0
  6
CONTINUOUS
 62
     4
 10
132.3663962370469
 20
360.95902981058242
 30
0.0
  0
VERTEX
  5
6787D
  8
0
  6
CONTINUOUS
 62
     4
 10
129.51639623704679
 20
360.95902981058242
 30
0.0
  0
VERTEX
  5
6787E
  8
0
  6
CONTINUOUS
 62
     4
 10
126.66639623704719
 20
360.95902981058271
 30
0.0
  0
SEQEND
  5
6787F
  8
0
  6
CONTINUOUS
 62
     4
  0
LINE
  5
58A9A
  8
0
  6
CONTINUOUS
 62
     4
 10
126.46639623704711
 20
356.35592091925793
 30
0.0
 11
132.56639623704689
 21
356.35592091925798
 31
0.0
  0
LINE
  5
58A9B
  8
0
  6
CONTINUOUS
 62
     4
 10
127.47044088564761
 20
355.85902981058229
 30
0.0
 11
131.5623515884466
 21
355.85902981058268
 31
0.0
  0
LINE
  5
58A9C
  8
0
  6
CONTINUOUS
 62
     4
 10
126.46639623704689
 20
357.12569647724899
 30
0.0
 11
132.566396237047
 21
357.12569647724922
 31
0.0
  0
LINE
  5
58A9D
  8
0
  6
CONTINUOUS
 62
     4
 10
126.666396237047
 20
357.65902981058269
 30
0.0
 11
132.36639623704701
 21
357.65902981058241
 31
0.0
  0
LINE
  5
58A9E
  8
0
  6
CONTINUOUS
 62
     4
 10
126.2663962370473
 20
372.95902981058202
 30
0.0
 11
132.76639623704719
 21
372.95902981058208
 31
0.0
  0
LINE
  5
58A9F
  8
0
  6
CONTINUOUS
 62
     4
 10
131.8663962370473
 20
370.95902981058191
 30
0.0
 11
132.36639623704721
 21
371.45902981058202
 31
0.0
  0
LINE
  5
58AA0
  8
0
  6
CONTINUOUS
 62
     4
 10
126.666396237047
 20
371.45902981058219
 30
0.0
 11
132.36639623704721
 21
371.45902981058202
 31
0.0
  0
LINE
  5
58AA1
  8
0
  6
CONTINUOUS
 62
     4
 10
125.5163962370473
 20
373.70902981058202
 30
0.0
 11
133.51639623704719
 21
373.70902981058219
 31
0.0
  0
POLYLINE
  5
58AA2
  8
0
  6
CONTINUOUS
 62
     4
 66
     1
 10
0.0
 20
0.0
 30
0.0
 70
     1
  0
VERTEX
  5
67880
  8
0
  6
CONTINUOUS
 62
     4
 10
126.51639623704681
 20
361.1590298105823
 30
0.0
  0
VERTEX
  5
67881
  8
0
  6
CONTINUOUS
 62
     4
 10
126.71639623704721
 20
360.95902981058259
 30
0.0
  0
VERTEX
  5
67882
  8
0
  6
CONTINUOUS
 62
     4
 10
132.3163962370468
 20
360.95902981058219
 30
0.0
  0
VERTEX
  5
67883
  8
0
  6
CONTINUOUS
 62
     4
 10
132.51639623704699
 20
361.15902981058258
 30
0.0
  0
VERTEX
  5
67884
  8
0
  6
CONTINUOUS
 62
     4
 10
132.51639623704699
 20
370.75902981058209
 30
0.0
  0
VERTEX
  5
67885
  8
0
  6
CONTINUOUS
 62
     4
 10
132.3163962370468
 20
370.95902981058202
 30
0.0
  0
VERTEX
  5
67886
  8
0
  6
CONTINUOUS
 62
     4
 10
126.71639623704689
 20
370.95902981058191
 30
0.0
  0
VERTEX
  5
67887
  8
0
  6
CONTINUOUS
 62
     4
 10
126.5163962370472
 20
370.75902981058209
 30
0.0
  0
SEQEND
  5
67888
  8
0
  6
CONTINUOUS
 62
     4
  0
LINE
  5
58AA3
  8
0
  6
CONTINUOUS
 62
     4
 10
126.51639623704681
 20
361.1590298105823
 30
0.0
 11
132.51639623704699
 21
361.15902981058258
 31
0.0
  0
LINE
  5
58AA4
  8
0
  6
CONTINUOUS
 62
     4
 10
126.5163962370472
 20
370.75902981058209
 30
0.0
 11
132.51639623704699
 21
370.75902981058232
 31
0.0
  0
LINE
  5
58AA5
  8
0
  6
CONTINUOUS
 62
     4
 10
127.16639623704719
 20
370.95902981058208
 30
0.0
 11
131.8663962370473
 21
370.95902981058191
 31
0.0
  0
LINE
  5
58AA6
  8
0
  6
CONTINUOUS
 62
     4
 10
132.36639623704721
 20
371.45902981058202
 30
0.0
 11
132.36639623704721
 21
372.95902981058202
 31
0.0
  0
LINE
  5
58AA7
  8
0
  6
CONTINUOUS
 62
     4
 10
132.76639623704719
 20
372.95902981058208
 30
0.0
 11
133.51639623704719
 21
373.70902981058219
 31
0.0
  0
ENDBLK
  5
58AA8
  8
0
  0
BLOCK
  8
0
  2
RGZXGF
 70
     0
 10
0.0
 20
0.0
 30
0.0
  3
RGZXGF
  1

  0
LINE
  5
60143
  8
0
  6
PHANTOM
 62
     4
 10
-59.169390128505263
 20
108.417927748804
 30
0.0
 11
-58.419390128505249
 21
107.667927748804
 31
0.0
  0
LINE
  5
60144
  8
0
  6
PHANTOM
 62
     4
 10
-58.419390128505249
 20
107.667927748804
 30
0.0
 11
-56.669390128505263
 21
107.667927748804
 31
0.0
  0
LINE
  5
60145
  8
0
  6
PHANTOM
 62
     4
 10
-67.669390128505256
 20
108.417927748804
 30
0.0
 11
-68.669390128505256
 21
107.417927748804
 31
0.0
  0
LINE
  5
60146
  8
0
  6
PHANTOM
 62
     4
 10
-67.669390128505256
 20
108.417927748804
 30
0.0
 11
-59.169390128505263
 21
108.417927748804
 31
0.0
  0
LINE
  5
60147
  8
0
  6
PHANTOM
 62
     4
 10
-68.169390128505256
 20
107.917927748804
 30
0.0
 11
-58.669390128505263
 21
107.917927748804
 31
0.0
  0
LINE
  5
60148
  8
0
  6
PHANTOM
 62
     4
 10
-54.869390128505302
 20
108.417927748804
 30
0.0
 11
-54.669390128505249
 21
108.217927748804
 31
0.0
  0
LINE
  5
60149
  8
0
  6
PHANTOM
 62
     4
 10
-56.669390128505263
 20
108.417927748804
 30
0.0
 11
-54.869390128505302
 21
108.417927748804
 31
0.0
  0
LINE
  5
6014A
  8
0
  6
PHANTOM
 62
     4
 10
-58.419390128505249
 20
100.417927748804
 30
0.0
 11
-58.419390128505249
 21
107.667927748804
 31
0.0
  0
LINE
  5
6014B
  8
0
  6
PHANTOM
 62
     4
 10
-59.169390128505263
 20
108.417927748804
 30
0.0
 11
-59.169390128505263
 21
100.417927748804
 31
0.0
  0
LINE
  5
6014C
  8
0
  6
CONTINUOUS
 62
     4
 10
-68.669390128505256
 20
107.417927748804
 30
0.0
 11
-68.669390128505256
 21
100.417927748804
 31
0.0
  0
LINE
  5
6014D
  8
0
  6
PHANTOM
 62
     4
 10
-67.669390128505256
 20
108.417927748804
 30
0.0
 11
-67.669390128505256
 21
100.417927748804
 31
0.0
  0
LINE
  5
6014E
  8
0
  6
PHANTOM
 62
     4
 10
-54.669390128505249
 20
108.217927748804
 30
0.0
 11
-54.669390128505249
 21
100.417927748804
 31
0.0
  0
LINE
  5
6014F
  8
0
  6
PHANTOM
 62
     4
 10
-54.869390128505302
 20
108.417927748804
 30
0.0
 11
-54.869390128505302
 21
100.417927748804
 31
0.0
  0
LINE
  5
60150
  8
0
  6
CONTINUOUS
 62
     4
 10
-56.669390128505263
 20
108.417927748804
 30
0.0
 11
-56.669390128505263
 21
100.417927748804
 31
0.0
  0
ENDBLK
  5
60151
  8
0
  0
BLOCK
  8
0
  2
DFHHG
 70
     0
 10
0.0
 20
0.0
 30
0.0
  3
DFHHG
  1

  0
LINE
  5
64D4B
  8
0
  6
BYBLOCK
 62
     4
 10
-480.74948824731422
 20
203.1681465514288
 30
0.0
 11
-480.7494882473141
 21
201.1681465514288
 31
0.0
  0
LINE
  5
64D4C
  8
0
  6
BYBLOCK
 62
     4
 10
-465.74948824731428
 20
203.1681465514288
 30
0.0
 11
-465.74948824731428
 21
201.1681465514288
 31
0.0
  0
LINE
  5
64D4D
  8
0
  6
BYBLOCK
 62
     4
 10
-480.24948824731422
 20
203.6681465514288
 30
0.0
 11
-466.24948824731428
 21
203.6681465514288
 31
0.0
  0
LINE
  5
64D4E
  8
0
  6
BYBLOCK
 62
     4
 10
-466.24948824731428
 20
203.6681465514288
 30
0.0
 11
-465.74948824731428
 21
203.1681465514288
 31
0.0
  0
LINE
  5
64D4F
  8
0
  6
BYBLOCK
 62
     4
 10
-480.74948824731422
 20
203.1681465514288
 30
0.0
 11
-480.24948824731422
 21
203.6681465514288
 31
0.0
  0
LINE
  5
64D50
  8
0
  6
BYBLOCK
 62
     4
 10
-480.68248824731432
 20
203.23514655142881
 30
0.0
 11
-465.81648824731423
 21
203.23514655142881
 31
0.0
  0
LINE
  5
64D51
  8
0
  6
BYBLOCK
 62
     4
 10
-480.24948824731422
 20
203.6681465514288
 30
0.0
 11
-480.24948824731422
 21
201.1681465514288
 31
0.0
  0
LINE
  5
64D52
  8
0
  6
BYBLOCK
 62
     4
 10
-466.24948824731428
 20
203.6681465514288
 30
0.0
 11
-466.24948824731428
 21
201.1681465514288
 31
0.0
  0
LINE
  5
64D53
  8
0
  6
BYBLOCK
 62
     4
 10
-468.74948824731422
 20
202.6115222244029
 30
0.0
 11
-468.74948824731422
 21
201.16814655142869
 31
0.0
  0
LINE
  5
64D54
  8
0
  6
BYBLOCK
 62
     4
 10
-465.74948824731428
 20
202.6115222244029
 30
0.0
 11
-468.74948824731422
 21
202.6115222244029
 31
0.0
  0
LINE
  5
64D55
  8
0
  6
BYBLOCK
 62
     4
 10
-465.74948824731428
 20
201.8898343879159
 30
0.0
 11
-468.74948824731422
 21
201.8898343879159
 31
0.0
  0
LINE
  5
64D56
  8
0
  6
BYBLOCK
 62
     4
 10
-468.74948824731422
 20
202.4181465514288
 30
0.0
 11
-480.74948824731422
 21
202.4181465514288
 31
0.0
  0
ENDBLK
  5
64D57
  8
0
  0
BLOCK
  8
0
  2
AEDD
 70
     0
 10
0.0
 20
0.0
 30
0.0
  3
AEDD
  1

  0
LINE
  5
64E51
  8
0
  6
CONTINUOUS
 62
     4
 10
129.9946428198879
 20
888.03816932183645
 30
0.0
 11
129.9946428198877
 21
889.53816932183634
 31
0.0
  0
LINE
  5
64E52
  8
0
  6
CONTINUOUS
 62
     4
 10
121.994642819888
 20
890.03816932183622
 30
0.0
 11
129.49464281988779
 21
890.03816932183622
 31
0.0
  0
LINE
  5
64E53
  8
0
  6
CONTINUOUS
 62
     4
 10
121.494642819888
 20
889.53816932183611
 30
0.0
 11
129.9946428198877
 21
889.53816932183634
 31
0.0
  0
LINE
  5
64E54
  8
0
  6
CONTINUOUS
 62
     4
 10
129.74464281988779
 20
878.28816932183645
 30
0.0
 11
129.7446428198881
 21
885.18816932183609
 31
0.0
  0
LINE
  5
64E55
  8
0
  6
CONTINUOUS
 62
     4
 10
129.0681428198877
 20
877.61166932183619
 30
0.0
 11
129.0681428198879
 21
885.86466932183589
 31
0.0
  0
LINE
  5
64E56
  8
0
  6
CONTINUOUS
 62
     4
 10
122.59464281988799
 20
886.03816932183622
 30
0.0
 11
128.89464281988791
 21
886.03816932183611
 31
0.0
  0
LINE
  5
64E57
  8
0
  6
CONTINUOUS
 62
     4
 10
129.7446428198881
 20
885.18816932183609
 30
0.0
 11
121.7446428198879
 21
885.18816932183609
 31
0.0
  0
LINE
  5
64E58
  8
0
  6
CONTINUOUS
 62
     4
 10
121.4946428198878
 20
888.03816932183645
 30
0.0
 11
129.9946428198879
 21
888.03816932183645
 31
0.0
  0
LINE
  5
64E59
  8
0
  6
CONTINUOUS
 62
     4
 10
128.89464281988779
 20
886.03816932183611
 30
0.0
 11
128.89464281988791
 21
888.03816932183645
 31
0.0
  0
LINE
  5
64E5A
  8
0
  6
CONTINUOUS
 62
     4
 10
128.89464281988779
 20
886.03816932183611
 30
0.0
 11
129.7446428198881
 21
885.18816932183609
 31
0.0
  0
POINT
  5
64E5B
  8
DEFPOINTS
  6
BYBLOCK
 62
     4
 10
129.9946428198879
 20
888.03816932183645
 30
0.0
 50
40.0
  0
POINT
  5
64E5C
  8
DEFPOINTS
  6
BYBLOCK
 62
     4
 10
129.9946428198879
 20
888.03816932183645
 30
0.0
 50
40.0
  0
LINE
  5
64E5D
  8
0
  6
HIDDEN2
 62
     4
 10
128.05404389664631
 20
890.03816932183622
 30
0.0
 11
128.05404389664639
 21
885.03816932183634
 31
0.0
  0
LINE
  5
64E5E
  8
0
  6
HIDDEN2
 62
     4
 10
126.899343358267
 20
890.03816932183622
 30
0.0
 11
126.899343358267
 21
885.03816932183611
 31
0.0
  0
LINE
  5
64E5F
  8
0
  6
CONTINUOUS
 62
     4
 10
129.49464281988779
 20
890.03816932183622
 30
0.0
 11
129.9946428198877
 21
889.53816932183634
 31
0.0
  0
POINT
  5
64E60
  8
DEFPOINTS
  6
BYBLOCK
 62
     4
 10
129.49464281988779
 20
890.03816932183622
 30
0.0
 50
40.0
  0
LINE
  5
64E61
  8
0
  6
CONTINUOUS
 62
     4
 10
121.744642819888
 20
878.28816932183622
 30
0.0
 11
121.7446428198879
 21
885.18816932183609
 31
0.0
  0
LINE
  5
64E62
  8
0
  6
CONTINUOUS
 62
     4
 10
122.4191098982719
 20
877.61370224345205
 30
0.0
 11
122.4191098982721
 21
885.86263640022025
 31
0.0
  0
LINE
  5
64E63
  8
0
  6
CENTER
 62
     4
 10
122.4211428198879
 20
877.86166932183596
 30
0.0
 11
122.4211428198879
 21
885.86466932183623
 31
0.0
  0
LINE
  5
64E64
  8
0
  6
CONTINUOUS
 62
     4
 10
121.494642819888
 20
889.53816932183611
 30
0.0
 11
121.994642819888
 21
890.03816932183622
 31
0.0
  0
LINE
  5
64E65
  8
0
  6
HIDDEN2
 62
     4
 10
124.5899422815085
 20
890.03816932183634
 30
0.0
 11
124.5899422815087
 21
885.03816932183634
 31
0.0
  0
LINE
  5
64E66
  8
0
  6
HIDDEN2
 62
     4
 10
123.4352417431294
 20
890.03816932183622
 30
0.0
 11
123.4352417431292
 21
885.03816932183634
 31
0.0
  0
LINE
  5
64E67
  8
0
  6
CONTINUOUS
 62
     4
 10
121.4946428198878
 20
888.03816932183645
 30
0.0
 11
121.494642819888
 21
889.53816932183611
 31
0.0
  0
LINE
  5
64E68
  8
0
  6
CONTINUOUS
 62
     4
 10
122.59464281988789
 20
886.03816932183611
 30
0.0
 11
122.59464281988789
 21
888.03816932183599
 31
0.0
  0
LINE
  5
64E69
  8
0
  6
CONTINUOUS
 62
     4
 10
121.7446428198879
 20
885.18816932183609
 30
0.0
 11
122.59464281988789
 21
886.03816932183611
 31
0.0
  0
LINE
  5
64E6A
  8
0
  6
CONTINUOUS
 62
     4
 10
122.89464281988769
 20
876.03816932183634
 30
0.0
 11
122.89464281988781
 21
877.53816932183622
 31
0.0
  0
LINE
  5
64E6B
  8
0
  6
CONTINUOUS
 62
     4
 10
122.89464281988769
 20
876.03816932183634
 30
0.0
 11
123.39464281988781
 21
875.53816932183645
 31
0.0
  0
LINE
  5
64E6C
  8
0
  6
CONTINUOUS
 62
     4
 10
122.4946428198879
 20
877.53816932183622
 30
0.0
 11
121.744642819888
 21
878.28816932183622
 31
0.0
  0
LINE
  5
64E6D
  8
0
  6
HIDDEN2
 62
     4
 10
123.4352417431292
 20
885.03816932183634
 30
0.0
 11
128.05404389664639
 21
885.03816932183634
 31
0.0
  0
LINE
  5
64E6E
  8
0
  6
HIDDEN2
 62
     4
 10
127.7446428198877
 20
885.03816932183634
 30
0.0
 11
127.7446428198877
 21
883.03816932183611
 31
0.0
  0
LINE
  5
64E6F
  8
0
  6
HIDDEN2
 62
     4
 10
127.7446428198877
 20
883.03816932183611
 30
0.0
 11
125.7446428198878
 21
881.88346878345703
 31
0.0
  0
LINE
  5
64E70
  8
0
  6
HIDDEN2
 62
     4
 10
123.7446428198877
 20
883.03816932183611
 30
0.0
 11
127.7446428198877
 21
883.03816932183611
 31
0.0
  0
LINE
  5
64E71
  8
0
  6
HIDDEN2
 62
     4
 10
123.744642819888
 20
885.03816932183611
 30
0.0
 11
123.7446428198877
 21
883.03816932183611
 31
0.0
  0
LINE
  5
64E72
  8
0
  6
HIDDEN2
 62
     4
 10
123.7446428198877
 20
883.03816932183611
 30
0.0
 11
125.7446428198878
 21
881.88346878345703
 31
0.0
  0
POLYLINE
  5
64E73
  8
0
  6
CONTINUOUS
 62
     4
 66
     1
 10
0.0
 20
0.0
 30
0.0
 70
     1
  0
VERTEX
  5
67A34
  8
0
  6
CONTINUOUS
 62
     4
 10
122.89464281988769
 20
864.23816932183684
 30
0.0
  0
VERTEX
  5
67A35
  8
0
  6
CONTINUOUS
 62
     4
 10
122.6946428198876
 20
863.70483598850319
 30
0.0
  0
VERTEX
  5
67A36
  8
0
  6
CONTINUOUS
 62
     4
 10
122.6946428198878
 20
862.93506043051195
 30
0.0
  0
VERTEX
  5
67A37
  8
0
  6
CONTINUOUS
 62
     4
 10
122.98152303523941
 20
862.43816932183665
 30
0.0
  0
VERTEX
  5
67A38
  8
0
  6
CONTINUOUS
 62
     4
 10
123.6986874684883
 20
862.43816932183654
 30
0.0
  0
VERTEX
  5
67A39
  8
0
  6
CONTINUOUS
 62
     4
 10
124.2446428198878
 20
860.93816932183677
 30
0.0
  0
VERTEX
  5
67A3A
  8
0
  6
CONTINUOUS
 62
     4
 10
125.7446428198878
 20
860.93816932183677
 30
0.0
  0
VERTEX
  5
67A3B
  8
0
  6
CONTINUOUS
 62
     4
 10
127.244642819888
 20
860.93816932183665
 30
0.0
  0
VERTEX
  5
67A3C
  8
0
  6
CONTINUOUS
 62
     4
 10
127.7905981712872
 20
862.43816932183688
 30
0.0
  0
VERTEX
  5
67A3D
  8
0
  6
CONTINUOUS
 62
     4
 10
128.50776260453611
 20
862.43816932183665
 30
0.0
  0
VERTEX
  5
67A3E
  8
0
  6
CONTINUOUS
 62
     4
 10
128.7946428198876
 20
862.93506043051218
 30
0.0
  0
VERTEX
  5
67A3F
  8
0
  6
CONTINUOUS
 62
     4
 10
128.79464281988771
 20
863.70483598850331
 30
0.0
  0
VERTEX
  5
67A40
  8
0
  6
CONTINUOUS
 62
     4
 10
128.59464281988761
 20
864.23816932183661
 30
0.0
  0
VERTEX
  5
67A41
  8
0
  6
CONTINUOUS
 62
     4
 10
128.5946428198875
 20
867.53816932183656
 30
0.0
  0
VERTEX
  5
67A42
  8
0
  6
CONTINUOUS
 62
     4
 10
125.7446428198875
 20
867.53816932183656
 30
0.0
  0
VERTEX
  5
67A43
  8
0
  6
CONTINUOUS
 62
     4
 10
122.89464281988781
 20
867.5381693218369
 30
0.0
  0
SEQEND
  5
67A44
  8
0
  6
CONTINUOUS
 62
     4
  0
LINE
  5
64E74
  8
0
  6
CONTINUOUS
 62
     4
 10
122.6946428198878
 20
862.93506043051195
 30
0.0
 11
128.7946428198876
 21
862.93506043051218
 31
0.0
  0
LINE
  5
64E75
  8
0
  6
CONTINUOUS
 62
     4
 10
123.6986874684883
 20
862.43816932183654
 30
0.0
 11
127.7905981712872
 21
862.43816932183688
 31
0.0
  0
LINE
  5
64E76
  8
0
  6
CONTINUOUS
 62
     4
 10
122.6946428198876
 20
863.70483598850319
 30
0.0
 11
128.79464281988771
 21
863.70483598850331
 31
0.0
  0
LINE
  5
64E77
  8
0
  6
CONTINUOUS
 62
     4
 10
122.89464281988769
 20
864.23816932183684
 30
0.0
 11
128.59464281988761
 21
864.23816932183661
 31
0.0
  0
LINE
  5
64E78
  8
0
  6
CONTINUOUS
 62
     4
 10
122.4946428198879
 20
877.53816932183622
 30
0.0
 11
128.9946428198879
 21
877.53816932183634
 31
0.0
  0
LINE
  5
64E79
  8
0
  6
CONTINUOUS
 62
     4
 10
128.09464281988801
 20
875.53816932183599
 30
0.0
 11
128.59464281988789
 21
876.03816932183611
 31
0.0
  0
LINE
  5
64E7A
  8
0
  6
CONTINUOUS
 62
     4
 10
122.89464281988769
 20
876.03816932183634
 30
0.0
 11
128.59464281988789
 21
876.03816932183611
 31
0.0
  0
LINE
  5
64E7B
  8
0
  6
CONTINUOUS
 62
     4
 10
121.744642819888
 20
878.28816932183622
 30
0.0
 11
129.74464281988779
 21
878.28816932183645
 31
0.0
  0
POLYLINE
  5
64E7C
  8
0
  6
CONTINUOUS
 62
     4
 66
     1
 10
0.0
 20
0.0
 30
0.0
 70
     1
  0
VERTEX
  5
67A45
  8
0
  6
CONTINUOUS
 62
     4
 10
122.7446428198875
 20
867.73816932183638
 30
0.0
  0
VERTEX
  5
67A46
  8
0
  6
CONTINUOUS
 62
     4
 10
122.9446428198879
 20
867.53816932183668
 30
0.0
  0
VERTEX
  5
67A47
  8
0
  6
CONTINUOUS
 62
     4
 10
128.54464281988751
 20
867.53816932183645
 30
0.0
  0
VERTEX
  5
67A48
  8
0
  6
CONTINUOUS
 62
     4
 10
128.74464281988759
 20
867.73816932183684
 30
0.0
  0
VERTEX
  5
67A49
  8
0
  6
CONTINUOUS
 62
     4
 10
128.74464281988759
 20
875.33816932183629
 30
0.0
  0
VERTEX
  5
67A4A
  8
0
  6
CONTINUOUS
 62
     4
 10
128.54464281988751
 20
875.53816932183622
 30
0.0
  0
VERTEX
  5
67A4B
  8
0
  6
CONTINUOUS
 62
     4
 10
122.94464281988751
 20
875.53816932183599
 30
0.0
  0
VERTEX
  5
67A4C
  8
0
  6
CONTINUOUS
 62
     4
 10
122.7446428198879
 20
875.33816932183629
 30
0.0
  0
SEQEND
  5
67A4D
  8
0
  6
CONTINUOUS
 62
     4
  0
LINE
  5
64E7D
  8
0
  6
CONTINUOUS
 62
     4
 10
122.7446428198875
 20
867.73816932183638
 30
0.0
 11
128.74464281988759
 21
867.73816932183684
 31
0.0
  0
LINE
  5
64E7E
  8
0
  6
CONTINUOUS
 62
     4
 10
122.7446428198879
 20
875.33816932183629
 30
0.0
 11
128.74464281988759
 21
875.33816932183652
 31
0.0
  0
LINE
  5
64E7F
  8
0
  6
CONTINUOUS
 62
     4
 10
123.39464281988781
 20
875.53816932183645
 30
0.0
 11
128.09464281988801
 21
875.53816932183599
 31
0.0
  0
LINE
  5
64E80
  8
0
  6
CONTINUOUS
 62
     4
 10
128.59464281988789
 20
876.03816932183611
 30
0.0
 11
128.59464281988789
 21
877.53816932183622
 31
0.0
  0
LINE
  5
64E81
  8
0
  6
CONTINUOUS
 62
     4
 10
128.9946428198879
 20
877.53816932183634
 30
0.0
 11
129.74464281988779
 21
878.28816932183645
 31
0.0
  0
ENDBLK
  5
64E82
  8
0
  0
BLOCK
  8
0
  2
*D100
 70
     1
 10
0.0
 20
0.0
 30
0.0
  3
*D100
  1

  0
LINE
  5
6501E
  8
0
  6
CONTINUOUS
 62
     2
 10
73.737833321102585
 20
182.92677917636371
 30
0.0
 11
74.070878388981697
 21
189.2816576397411
 31
0.0
  0
LINE
  5
6501F
  8
0
  6
CONTINUOUS
 62
     2
 10
79.729610529629994
 20
182.61276343890609
 30
0.0
 11
80.062655597509135
 21
188.96764190228359
 31
0.0
  0
LINE
  5
65020
  8
0
  6
CONTINUOUS
 62
     2
 10
71.511501404603749
 20
188.214142088643
 30
0.0
 11
69.014927567717322
 21
188.34498197925029
 31
0.0
  0
LINE
  5
65021
  8
0
  6
CONTINUOUS
 62
     2
 10
82.496426286904054
 20
187.6384465699708
 30
0.0
 11
84.993000123790495
 21
187.50760667936351
 31
0.0
  0
LINE
  5
65022
  8
0
  6
CONTINUOUS
 62
     2
 10
74.008075241490189
 20
188.08330219803571
 30
0.0
 11
79.999852450017613
 21
187.76928646057809
 31
0.0
  0
SOLID
  5
65023
  8
0
  6
CONTINUOUS
 62
     2
 10
71.533308053038297
 20
188.630237728124
 30
0.0
 11
71.4896947561692
 21
187.79804644916189
 31
0.0
 12
74.008075241490189
 22
188.08330219803571
 32
0.0
 13
74.008075241490189
 23
188.08330219803571
 33
0.0
  0
SOLID
  5
65024
  8
0
  6
CONTINUOUS
 62
     2
 10
82.518232935338602
 20
188.05454220945191
 30
0.0
 11
82.474619638469505
 21
187.22235093048971
 31
0.0
 12
79.999852450017613
 22
187.76928646057809
 32
0.0
 13
79.999852450017613
 23
187.76928646057809
 33
0.0
  0
INSERT
  5
65025
  8
0
  6
CONTINUOUS
  2
*U255
 10
0.0
 20
0.0
 30
0.0
  0
POINT
  5
65026
  8
DEFPOINTS
  6
CONTINUOUS
 62
     0
 10
73.737833321102585
 20
182.92677917636371
 30
0.0
  0
POINT
  5
65027
  8
DEFPOINTS
  6
CONTINUOUS
 62
     0
 10
79.729610529629994
 20
182.61276343890609
 30
0.0
  0
POINT
  5
65028
  8
DEFPOINTS
  6
CONTINUOUS
 62
     0
 10
79.999852450017613
 20
187.76928646057809
 30
0.0
  0
ENDBLK
  5
65029
  8
0
  0
BLOCK
  8
0
  2
*D101
 70
     1
 10
0.0
 20
0.0
 30
0.0
  3
*D101
  1

  0
LINE
  5
6502C
  8
0
  6
CONTINUOUS
 62
     2
 10
58.758390299783962
 20
183.71181852000791
 30
0.0
 11
59.091435367663053
 21
190.0666969833849
 31
0.0
  0
LINE
  5
6502D
  8
0
  6
CONTINUOUS
 62
     2
 10
73.737833321102585
 20
182.92677917636371
 30
0.0
 11
74.070878388981697
 21
189.28165763974101
 31
0.0
  0
LINE
  5
6502E
  8
0
  6
CONTINUOUS
 62
     2
 10
61.525206057057972
 20
188.73750165107211
 30
0.0
 11
71.511501404603749
 21
188.21414208864289
 31
0.0
  0
SOLID
  5
6502F
  8
0
  6
CONTINUOUS
 62
     2
 10
61.547012705492527
 20
189.15359729055319
 30
0.0
 11
61.503399408623423
 21
188.32140601159099
 31
0.0
 12
59.028632220171538
 22
188.8683415416794
 32
0.0
 13
59.028632220171538
 23
188.8683415416794
 33
0.0
  0
SOLID
  5
65030
  8
0
  6
CONTINUOUS
 62
     2
 10
71.533308053038297
 20
188.63023772812389
 30
0.0
 11
71.4896947561692
 21
187.7980464491618
 31
0.0
 12
74.008075241490189
 22
188.0833021980356
 32
0.0
 13
74.008075241490189
 23
188.0833021980356
 33
0.0
  0
INSERT
  5
65031
  8
0
  6
CONTINUOUS
  2
*U256
 10
0.0
 20
0.0
 30
0.0
  0
POINT
  5
65032
  8
DEFPOINTS
  6
CONTINUOUS
 62
     0
 10
58.758390299783962
 20
183.71181852000791
 30
0.0
  0
POINT
  5
65033
  8
DEFPOINTS
  6
CONTINUOUS
 62
     0
 10
73.737833321102585
 20
182.92677917636371
 30
0.0
  0
POINT
  5
65034
  8
DEFPOINTS
  6
CONTINUOUS
 62
     0
 10
74.008075241490189
 20
188.0833021980356
 30
0.0
  0
ENDBLK
  5
65035
  8
0
  0
BLOCK
  8
0
  2
*D102
 70
     1
 10
0.0
 20
0.0
 30
0.0
  3
*D102
  1

  0
LINE
  5
65051
  8
0
  6
CONTINUOUS
 62
     2
 10
52.766613091256531
 20
184.02583425746531
 30
0.0
 11
53.099658159135643
 21
190.38071272084281
 31
0.0
  0
LINE
  5
65052
  8
0
  6
CONTINUOUS
 62
     2
 10
58.758390299783947
 20
183.7118185200078
 30
0.0
 11
59.091435367663067
 21
190.0666969833853
 31
0.0
  0
LINE
  5
65053
  8
0
  6
CONTINUOUS
 62
     2
 10
50.540281174757702
 20
189.3131971697446
 30
0.0
 11
48.043707337871261
 21
189.44403706035189
 31
0.0
  0
LINE
  5
65054
  8
0
  6
CONTINUOUS
 62
     2
 10
61.525206057057993
 20
188.73750165107239
 30
0.0
 11
64.021779893944426
 21
188.6066617604651
 31
0.0
  0
LINE
  5
65055
  8
0
  6
CONTINUOUS
 62
     2
 10
53.036855011644128
 20
189.18235727913731
 30
0.0
 11
59.028632220171559
 21
188.8683415416798
 31
0.0
  0
SOLID
  5
65056
  8
0
  6
CONTINUOUS
 62
     2
 10
50.562087823192257
 20
189.72929280922571
 30
0.0
 11
50.518474526323153
 21
188.8971015302636
 31
0.0
 12
53.036855011644128
 22
189.18235727913731
 32
0.0
 13
53.036855011644128
 23
189.18235727913731
 33
0.0
  0
SOLID
  5
65057
  8
0
  6
CONTINUOUS
 62
     2
 10
61.547012705492548
 20
189.15359729055351
 30
0.0
 11
61.503399408623437
 21
188.32140601159139
 31
0.0
 12
59.028632220171559
 22
188.8683415416798
 32
0.0
 13
59.028632220171559
 23
188.8683415416798
 33
0.0
  0
INSERT
  5
65058
  8
0
  6
CONTINUOUS
  2
*U257
 10
0.0
 20
0.0
 30
0.0
  0
POINT
  5
65059
  8
DEFPOINTS
  6
CONTINUOUS
 62
     0
 10
52.766613091256531
 20
184.02583425746531
 30
0.0
  0
POINT
  5
6505A
  8
DEFPOINTS
  6
CONTINUOUS
 62
     0
 10
58.758390299783947
 20
183.7118185200078
 30
0.0
  0
POINT
  5
6505B
  8
DEFPOINTS
  6
CONTINUOUS
 62
     0
 10
59.028632220171559
 20
188.8683415416798
 30
0.0
  0
ENDBLK
  5
6505C
  8
0
  0
BLOCK
  8
0
  2
GFDGSD
 70
     0
 10
0.0
 20
0.0
 30
0.0
  3
GFDGSD
  1

  0
LINE
  5
65060
  8
0
  6
CONTINUOUS
 62
     3
 10
82.192617874430482
 20
175.4310635089281
 30
0.0
 11
84.960329531165655
 21
178.31054456362361
 31
0.0
  0
POLYLINE
  5
65061
  8
0
  6
CONTINUOUS
 62
     7
 66
     1
 10
0.0
 20
0.0
 30
0.0
 70
     1
 40
0.5
 41
0.5
  0
VERTEX
  5
67A5D
  8
0
  6
CONTINUOUS
 62
     7
 10
79.207892992188803
 20
175.58596633221259
 30
0.0
 42
-1.0
  0
VERTEX
  5
67A5E
  8
0
  6
CONTINUOUS
 62
     7
 10
79.707207759566074
 20
175.55979835409121
 30
0.0
 42
-1.0
  0
SEQEND
  5
67A5F
  8
0
  6
CONTINUOUS
 62
     7
  0
CIRCLE
  5
65062
  8
0
  6
PHANTOM2
 62
     4
 10
76.631672286546745
 20
180.82254820038699
 30
0.0
 40
5.961927422267074
  0
LINE
  5
65063
  8
0
  6
CONTINUOUS
 62
     3
 10
42.17272514435399
 20
180.96057509519619
 30
0.0
 11
45.176829130457911
 21
177.24960184239009
 31
0.0
  0
INSERT
  5
65064
  8
0
  6
CONTINUOUS
 62
     2
  2
*X258
 10
0.0
 20
0.0
 30
0.0
1001
ACAD
1000
HATCH
1002
{
1070
    19
1000
ANSI31
1040
20.0
1040
6.2308254296197561
1000
R14_HATCH_DATA
1000
65064
1011
1.0
1021
0.0
1031
-1.8348436898229032E+108
1021
0.0
1031
0.0
1011
0.0
1021
0.0
1031
-1.8348436898229032E+108
1021
1.0
1031
0.0
1011
0.0
1021
0.0
1031
-1.8348436898229032E+108
1021
0.0
1031
1.0
1040
0.0
1010
0.0
1020
0.0
1030
1.0
1000
ANSI31
1070
     0
1070
     0
1071
        4
1071
       23
1070
     1
1070
     1
1071
        8
1040
51.792279289525467
1040
181.98186458513041
1040
0.2679491924311664
1040
50.785874607991062
1040
182.63543142714889
1040
0.0
1040
44.794097399463418
1040
182.94944716460631
1040
-0.2679491924311162
1040
45.800502080997937
1040
182.29588032258829
1040
0.0
1040
46.115035925679251
1040
181.67857289468
1040
0.2679491924312273
1040
46.618238266446937
1040
181.35178947367129
1040
0.0
1040
52.61001547497397
1040
181.03777373621361
1040
-0.2679491924310426
1040
52.106813134206668
1040
181.36455715722229
1040
0.0
1071
        0
1071
        7
1070
     1
1070
     1
1071
       19
1040
60.582941419213569
1040
182.12198891208459
1040
0.2679491924310495
1040
59.513733590187769
1040
181.57720031239751
1040
0.0
1040
59.136396598014642
1040
180.9961522985993
1040
-0.267949192430959
1040
58.601792683501863
1040
180.7237579987559
1040
0.0
1040
46.61823826644649
1040
181.35178947367129
1040
-0.2679491924311177
1040
46.115035925679251
1040
181.6785728946802
1040
0.0
1040
45.800502080997937
1040
182.2958803225884
1040
0.2679491924310966
1040
44.794097399463404
1040
182.94944716460631
1040
0.0
1040
41.945062330986502
1040
183.0987587656445
1040
0.0
1040
42.17272514435399
1040
180.96057509519639
1040
0.0
1040
45.176829130457911
1040
177.24960184239009
1040
0.0
1040
53.178323122749582
1040
174.5963806039918
1040
0.0
1040
66.687455405675337
1040
173.44639555775399
1040
0.0
1040
74.370360565169051
1040
173.48575298315129
1040
0.0
1040
79.915323009238989
1040
174.8647249833073
1040
0.0
1040
79.59326980213325
1040
175.36292940238471
1040
-0.4441191269304323
1040
79.234981400944363
1040
175.45902694627861
1040
-0.5709145023684346
1040
70.677915478607645
1040
181.13457137308251
1040
-0.0192153241715212
1040
70.719444838186519
1040
181.59075727820141
1040
0.0
1071
        0
1071
        7
1070
     1
1070
     1
1071
       14
1040
73.581235704820017
1040
179.9387186551117
1040
-0.267949192431125
1040
73.078033364052715
1040
180.26550207612061
1040
0.0
1040
72.763499519371521
1040
180.88280950402881
1040
0.2679491924311041
1040
71.757094837837144
1040
181.53637634604661
1040
0.0
1040
70.719444838186519
1040
181.59075727820141
1040
0.0192153241715212
1040
70.677915478607645
1040
181.13457137308251
1040
0.5709145023684346
1040
79.234981400944363
1040
175.45902694627861
1040
-0.979248883116705
1040
79.675150452947719
1040
175.69596851808231
1040
0.2507365363306366
1040
82.585429094485846
1040
180.51052502769181
1040
0.0192153241715104
1040
82.591811648710404
1040
180.96855289882791
1040
0.0
1040
81.554161649059381
1040
181.02293383098259
1040
0.2679491924310668
1040
80.484953820033525
1040
180.47814523129551
1040
0.0
1040
80.107616827860681
1040
179.8970972174975
1040
-0.267949192430999
1040
79.573012913347782
1040
179.6247029176541
1040
0.0
1071
        0
1071
        7
1070
     1
1070
     1
1071
        9
1040
84.960329531165655
1040
178.31054456362361
1040
0.0
1040
85.667283733651516
1040
180.80737423660921
1040
0.0
1040
82.591811648710404
1040
180.9685528988278
1040
-0.0192153241715092
1040
82.585429094485846
1040
180.51052502769181
1040
-0.2507365363306379
1040
79.675150452947719
1040
175.69596851808231
1040
-0.1427431609333959
1040
79.707207759566074
1040
175.55979835409121
1040
-0.2406337495410551
1040
79.593269802133364
1040
175.36292940238471
1040
0.0
1040
79.915323009239103
1040
174.8647249833073
1040
0.0
1040
82.192617874430482
1040
175.4310635089281
1040
0.0
1071
        0
1070
     0
1070
     1
1040
6.2308254296197561
1040
20.0
1070
     0
1070
     1
1040
0.7330382858376187
1040
0.0
1040
0.0
1040
-1.672826515897144
1040
1.8578620636934859
1070
     0
1040
0.0152357963139015
1071
        4
1040
48.326243435448987
1040
181.95214309844789
1040
0.0
1040
64.240795955933834
1040
179.46095732254389
1040
0.0
1040
75.01244689979967
1040
177.95018648903761
1040
0.0
1040
83.478778121422181
1040
178.30715962531221
1040
0.0
1002
}
  0
LINE
  5
65065
  8
0
  6
CONTINUOUS
 62
     3
 10
45.176829130457911
 20
177.24960184239009
 30
0.0
 11
53.178323122749582
 21
174.5963806039918
 31
0.0
  0
LINE
  5
65066
  8
0
  6
CONTINUOUS
 62
     2
 10
85.649262419686053
 20
167.913923686712
 30
0.0
 11
90.470261299307424
 21
167.913923686712
 31
0.0
  0
TEXT
  5
65067
  8
0
  6
CONTINUOUS
 62
     3
 10
86.482335424811538
 20
168.47174772170101
 30
0.0
 40
3.0
  1
Y
  0
TEXT
  5
65068
  8
0
  6
CONTINUOUS
 62
     7
 10
54.898355885921937
 20
164.83469792811309
 30
0.0
 40
3.0
  1
DETAIL X
  0
LINE
  5
65069
  8
0
  6
CONTINUOUS
 62
     7
 10
54.876404020448433
 20
163.17182602553351
 30
0.0
 11
71.669684797154957
 21
163.17182602553351
 31
0.0
  0
LINE
  5
6506A
  8
0
  6
CONTINUOUS
 62
     3
 10
54.876404020448433
 20
164.17182602553351
 30
0.0
 11
71.669684797154957
 21
164.17182602553351
 31
0.0
  0
LINE
  5
6506B
  8
0
  6
CONTINUOUS
 62
     3
 10
66.687455405675792
 20
173.44639555775399
 30
0.0
 11
74.370360565169165
 21
173.48575298315151
 31
0.0
  0
LINE
  5
6506C
  8
0
  6
CONTINUOUS
 62
     3
 10
53.178323122749582
 20
174.5963806039918
 30
0.0
 11
66.687455405675792
 21
173.44639555775399
 31
0.0
  0
LINE
  5
6506D
  8
0
  6
CONTINUOUS
 62
     2
 10
79.457550375877474
 20
175.572882343152
 30
0.0
 11
85.649262419686053
 21
167.913923686712
 31
0.0
  0
LINE
  5
6506E
  8
0
  6
CONTINUOUS
 62
     3
 10
74.370360565169165
 20
173.48575298315151
 30
0.0
 11
82.192617874430482
 21
175.4310635089281
 31
0.0
  0
LINE
  5
6506F
  8
0
  6
CONTINUOUS
 10
52.61001547497397
 20
181.03777373621361
 30
0.0
 11
58.601792683501287
 21
180.7237579987559
 31
0.0
  0
LINE
  5
65070
  8
0
  6
CONTINUOUS
 62
     7
 10
41.945062330986502
 20
183.0987587656445
 30
0.0
 11
50.785874607991062
 21
182.63543142714889
 31
0.0
  0
LINE
  5
65071
  8
0
  6
CONTINUOUS
 62
     3
 10
42.17272514435399
 20
180.96057509519619
 30
0.0
 11
41.945062330986502
 21
183.0987587656445
 31
0.0
  0
DIMENSION
  5
65072
  8
0
  6
CONTINUOUS
 62
     7
  2
*D100
 10
79.999852450017613
 20
187.76928646057809
 30
0.0
 11
77.134819189891601
 21
190.42316303711891
 31
0.0
  1
2
  3
KSM
 13
73.737833321102585
 23
182.92677917636371
 33
0.0
 14
79.729610529629994
 24
182.61276343890609
 34
0.0
 50
357.00000000000108
1001
ACAD
1000
DSTYLE
1002
{
1070
    47
1040
0.1
1070
    71
1070
     0
1070
    48
1040
-0.02
1070
   146
1040
0.7
1070
   272
1070
     3
1070
   271
1070
     3
1070
    41
1040
2.5
1002
}
  0
DIMENSION
  5
65073
  8
0
  6
CONTINUOUS
 62
     7
  2
*D101
 10
74.008075241490189
 20
188.0833021980356
 30
0.0
 11
66.649193621438172
 21
190.9723957067439
 31
0.0
  1
5
  3
KSM
 13
58.758390299783969
 23
183.71181852000791
 33
0.0
 14
73.737833321102585
 24
182.92677917636371
 34
0.0
 50
357.00000000000108
1001
ACAD
1000
DSTYLE
1002
{
1070
    47
1040
0.1
1070
    71
1070
     0
1070
    48
1040
-0.02
1070
   146
1040
0.7
1070
   272
1070
     3
1070
   271
1070
     3
1070
    41
1040
2.5
1002
}
  0
LINE
  5
65074
  8
0
  6
CONTINUOUS
 62
     7
 10
60.582941419213569
 20
182.12198891208459
 30
0.0
 11
71.757094837837144
 21
181.53637634604661
 31
0.0
  0
LINE
  5
65075
  8
0
  6
CENTER
 62
     2
 10
58.722683999229268
 20
183.03050171851061
 30
0.0
 11
58.448541708314217
 21
177.79955519367289
 31
0.0
  0
ARC
  5
65076
  8
0
  6
CONTINUOUS
 62
     7
 10
60.520138271722033
 20
180.9236334703792
 30
0.0
 40
1.1999999999999991
 50
87.000000000000909
 51
146.99999999998781
  0
LINE
  5
65077
  8
0
  6
CONTINUOUS
 62
     7
 10
59.136396598014642
 20
180.9961522985993
 30
0.0
 11
59.513733590187712
 21
181.57720031239739
 31
0.0
  0
ARC
  5
65078
  8
0
  6
CONTINUOUS
 62
     7
 10
58.633194257247169
 20
181.32293571960861
 30
0.0
 40
0.6
 50
267.00000000000091
 51
326.9999999999996
  0
LINE
  5
65079
  8
0
  6
CENTER
 62
     2
 10
73.702127020547891
 20
182.24546237486629
 30
0.0
 11
73.42798472963284
 21
177.0145158500286
 31
0.0
  0
LINE
  5
6507A
  8
0
  6
CENTER
 62
     2
 10
79.693904229075315
 20
181.93144663740881
 30
0.0
 11
79.419761938160264
 21
176.70050011257109
 31
0.0
  0
LINE
  5
6507B
  8
0
  6
CONTINUOUS
 10
73.581235704819903
 20
179.9387186551117
 30
0.0
 11
79.573012913347327
 21
179.6247029176541
 31
0.0
  0
ARC
  5
6507C
  8
0
  6
CONTINUOUS
 62
     7
 10
71.694291690345608
 20
180.33802090434119
 30
0.0
 40
1.1999999999999991
 50
27.000000000001759
 51
87.000000000000909
  0
LINE
  5
6507D
  8
0
  6
CONTINUOUS
 62
     7
 10
73.078033364052715
 20
180.26550207612061
 30
0.0
 11
72.763499519371521
 21
180.88280950402881
 31
0.0
  0
ARC
  5
6507E
  8
0
  6
CONTINUOUS
 62
     7
 10
73.612637278565785
 20
180.53789637596449
 30
0.0
 40
0.6
 50
206.99999999999011
 51
267.00000000000091
  0
ARC
  5
6507F
  8
0
  6
CONTINUOUS
 62
     7
 10
81.491358501567845
 20
179.82457838927721
 30
0.0
 40
1.1999999999999991
 50
87.000000000000909
 51
146.99999999998781
  0
LINE
  5
65080
  8
0
  6
CONTINUOUS
 62
     7
 10
80.107616827860681
 20
179.8970972174975
 30
0.0
 11
80.484953820033525
 21
180.47814523129551
 31
0.0
  0
LINE
  5
65081
  8
0
  6
CONTINUOUS
 62
     7
 10
81.554161649059381
 20
181.02293383098259
 30
0.0
 11
85.667283733651644
 21
180.80737423660921
 31
0.0
  0
LINE
  5
65082
  8
0
  6
CONTINUOUS
 62
     3
 10
84.960329531165655
 20
178.31054456362361
 30
0.0
 11
85.667283733651644
 21
180.80737423660941
 31
0.0
  0
ARC
  5
65083
  8
0
  6
CONTINUOUS
 62
     7
 10
79.604414487093209
 20
180.22388063850681
 30
0.0
 40
0.6
 50
267.00000000000091
 51
326.9999999999996
  0
LINE
  5
65084
  8
0
  6
CENTER
 62
     2
 10
52.730906790701837
 20
183.344517455968
 30
0.0
 11
52.456764499786793
 21
178.11357093113031
 31
0.0
  0
ARC
  5
65085
  8
0
  6
CONTINUOUS
 62
     7
 10
50.723071460499561
 20
181.4370759854429
 30
0.0
 40
1.1999999999999991
 50
27.000000000001801
 51
87.000000000000924
  0
LINE
  5
65086
  8
0
  6
CONTINUOUS
 62
     7
 10
52.106813134206668
 20
181.36455715722229
 30
0.0
 11
51.792279289525467
 21
181.98186458513041
 31
0.0
  0
ARC
  5
65087
  8
0
  6
CONTINUOUS
 62
     7
 10
52.641417048719738
 20
181.63695145706609
 30
0.0
 40
0.6
 50
206.99999999999
 51
267.00000000000091
  0
DIMENSION
  5
65088
  8
0
  6
CONTINUOUS
 62
     7
  2
*D102
 10
59.028632220171559
 20
188.8683415416798
 30
0.0
 11
56.163598960045547
 21
191.52221811822059
 31
0.0
  1
2
  3
KSM
 13
52.766613091256531
 23
184.02583425746531
 33
0.0
 14
58.758390299783962
 24
183.7118185200078
 34
0.0
 50
357.00000000000108
1001
ACAD
1000
DSTYLE
1002
{
1070
    47
1040
0.1
1070
    71
1070
     0
1070
    48
1040
-0.02
1070
   146
1040
0.7
1070
   272
1070
     3
1070
   271
1070
     3
1070
    41
1040
2.5
1002
}
  0
ENDBLK
  5
65089
  8
0
  0
BLOCK
  8
0
  2
*D152
 70
     1
 10
0.0
 20
0.0
 30
0.0
  3
*D152
  1

  0
LINE
  5
67B99
  8
0
  6
CONTINUOUS
 62
     2
 10
257.24187227596099
 20
129.54619270304869
 30
0.0
 11
271.39167935597891
 21
129.54619270304869
 31
0.0
  0
LINE
  5
67B9A
  8
0
  6
CONTINUOUS
 62
     2
 10
257.24187227596099
 20
148.5961927030487
 30
0.0
 11
271.39167935597891
 21
148.5961927030487
 31
0.0
  0
LINE
  5
67B9B
  8
0
  6
CONTINUOUS
 62
     2
 10
270.39167935597879
 20
132.04619270304869
 30
0.0
 11
270.39167935597879
 21
146.0961927030487
 31
0.0
  0
SOLID
  5
67B9C
  8
0
  6
CONTINUOUS
 62
     2
 10
269.97501268931222
 20
132.04619270304869
 30
0.0
 11
270.80834602264548
 21
132.04619270304869
 31
0.0
 12
270.39167935597879
 22
129.54619270304869
 32
0.0
 13
270.39167935597879
 23
129.54619270304869
 33
0.0
  0
SOLID
  5
67B9D
  8
0
  6
CONTINUOUS
 62
     2
 10
269.97501268931222
 20
146.0961927030487
 30
0.0
 11
270.80834602264548
 21
146.0961927030487
 31
0.0
 12
270.39167935597879
 22
148.5961927030487
 32
0.0
 13
270.39167935597879
 23
148.5961927030487
 33
0.0
  0
TEXT
  8
0
  40
3
  5
67BC4
  62
3
  72
0
  71
0
 10
268.292
 20
135.171
 30
0.000000
  1
%%c19.05
  0
POINT
  5
67B9F
  8
DEFPOINTS
  6
CONTINUOUS
 62
     0
 10
256.64187227596102
 20
129.54619270304869
 30
0.0
  0
POINT
  5
67BA0
  8
DEFPOINTS
  6
CONTINUOUS
 62
     0
 10
256.64187227596102
 20
148.5961927030487
 30
0.0
  0
POINT
  5
67BA1
  8
DEFPOINTS
  6
CONTINUOUS
 62
     0
 10
270.39167935597879
 20
148.5961927030487
 30
0.0
  0
ENDBLK
  5
67673
  8
0
  0
BLOCK
  8
0
  2
*D153
 70
     1
 10
0.0
 20
0.0
 30
0.0
  3
*D153
  1

  0
LINE
  5
67B57
  8
0
  6
CONTINUOUS
 62
     2
 10
69.891872275960964
 20
127.49643367066339
 30
0.0
 11
69.891872275960964
 21
82.007883224331664
 31
0.0
  0
LINE
  5
67B58
  8
0
  6
CONTINUOUS
 62
     2
 10
258.14187227596079
 20
121.9456749864062
 30
0.0
 11
258.14187227596079
 21
82.007883224331664
 31
0.0
  0
LINE
  5
67B59
  8
0
  6
CONTINUOUS
 62
     2
 10
72.391872275960964
 20
83.007883224331664
 30
0.0
 11
255.64187227596079
 21
83.007883224331664
 31
0.0
  0
SOLID
  5
67B5A
  8
0
  6
CONTINUOUS
 62
     2
 10
72.391872275960964
 20
83.424549890998335
 30
0.0
 11
72.391872275960964
 21
82.591216557664993
 31
0.0
 12
69.891872275960964
 22
83.007883224331664
 32
0.0
 13
69.891872275960964
 23
83.007883224331664
 33
0.0
  0
SOLID
  5
67B5B
  8
0
  6
CONTINUOUS
 62
     2
 10
255.64187227596079
 20
83.424549890998335
 30
0.0
 11
255.64187227596079
 21
82.591216557664993
 31
0.0
 12
258.14187227596079
 22
83.007883224331664
 32
0.0
 13
258.14187227596079
 23
83.007883224331664
 33
0.0
  0
TEXT
  8
0
  40
3
  5
67BC5
  62
3
  72
0
  71
0
 10
164.017
 20
81.2082
 30
0.000000
  1
188.25
  0
POINT
  5
67B5D
  8
DEFPOINTS
  6
CONTINUOUS
 62
     0
 10
69.891872275960964
 20
128.0964336706634
 30
0.0
  0
POINT
  5
67B5E
  8
DEFPOINTS
  6
CONTINUOUS
 62
     0
 10
258.14187227596079
 20
122.5456749864061
 30
0.0
  0
POINT
  5
67B5F
  8
DEFPOINTS
  6
CONTINUOUS
 62
     0
 10
258.14187227596079
 20
83.007883224331664
 30
0.0
  0
ENDBLK
  5
6767F
  8
0
  0
BLOCK
  8
0
  2
*D154
 70
     1
 10
0.0
 20
0.0
 30
0.0
  3
*D154
  1

  0
LINE
  5
67B60
  8
0
  6
CONTINUOUS
 62
     2
 10
138.14187227596079
 20
116.24619270304881
 30
0.0
 11
138.14187227596079
 21
90.007883224331636
 31
0.0
  0
LINE
  5
67B61
  8
0
  6
CONTINUOUS
 62
     2
 10
258.14187227596079
 20
121.9456749864062
 30
0.0
 11
258.14187227596079
 21
90.007883224331636
 31
0.0
  0
LINE
  5
67B62
  8
0
  6
CONTINUOUS
 62
     2
 10
140.64187227596079
 20
91.007883224331636
 30
0.0
 11
255.64187227596079
 21
91.007883224331636
 31
0.0
  0
SOLID
  5
67B63
  8
0
  6
CONTINUOUS
 62
     2
 10
140.64187227596079
 20
91.424549890998307
 30
0.0
 11
140.64187227596079
 21
90.591216557664964
 31
0.0
 12
138.14187227596079
 22
91.007883224331636
 32
0.0
 13
138.14187227596079
 23
91.007883224331636
 33
0.0
  0
SOLID
  5
67B64
  8
0
  6
CONTINUOUS
 62
     2
 10
255.64187227596079
 20
91.424549890998307
 30
0.0
 11
255.64187227596079
 21
90.591216557664964
 31
0.0
 12
258.14187227596079
 22
91.007883224331636
 32
0.0
 13
258.14187227596079
 23
91.007883224331636
 33
0.0
  0
TEXT
  8
0
  40
3
  5
67BC6
  62
3
  72
0
  71
0
 10
198.142
 20
89.2082
 30
0.000000
  1
120
  0
POINT
  5
67B66
  8
DEFPOINTS
  6
CONTINUOUS
 62
     0
 10
138.14187227596079
 20
116.8461927030488
 30
0.0
  0
POINT
  5
67B67
  8
DEFPOINTS
  6
CONTINUOUS
 62
     0
 10
258.14187227596079
 20
122.5456749864061
 30
0.0
  0
POINT
  5
67B68
  8
DEFPOINTS
  6
CONTINUOUS
 62
     0
 10
258.14187227596079
 20
91.007883224331636
 30
0.0
  0
ENDBLK
  5
6768B
  8
0
  0
BLOCK
  8
0
  2
*D155
 70
     1
 10
0.0
 20
0.0
 30
0.0
  3
*D155
  1

  0
LINE
  5
67B69
  8
0
  6
CONTINUOUS
 62
     2
 10
69.891872275960964
 20
127.49643367066339
 30
0.0
 11
69.891872275960964
 21
90.007883224331636
 31
0.0
  0
LINE
  5
67B6A
  8
0
  6
CONTINUOUS
 62
     2
 10
138.14187227596079
 20
116.24619270304881
 30
0.0
 11
138.14187227596079
 21
90.007883224331636
 31
0.0
  0
LINE
  5
67B6B
  8
0
  6
CONTINUOUS
 62
     2
 10
72.391872275960964
 20
91.007883224331636
 30
0.0
 11
135.64187227596079
 21
91.007883224331636
 31
0.0
  0
SOLID
  5
67B6C
  8
0
  6
CONTINUOUS
 62
     2
 10
72.391872275960964
 20
91.424549890998307
 30
0.0
 11
72.391872275960964
 21
90.591216557664964
 31
0.0
 12
69.891872275960964
 22
91.007883224331636
 32
0.0
 13
69.891872275960964
 23
91.007883224331636
 33
0.0
  0
SOLID
  5
67B6D
  8
0
  6
CONTINUOUS
 62
     2
 10
135.64187227596079
 20
91.424549890998307
 30
0.0
 11
135.64187227596079
 21
90.591216557664964
 31
0.0
 12
138.14187227596079
 22
91.007883224331636
 32
0.0
 13
138.14187227596079
 23
91.007883224331636
 33
0.0
  0
TEXT
  8
0
  40
3
  5
67BC7
  62
3
  72
0
  71
0
 10
104.017
 20
89.2082
 30
0.000000
  1
68.25
  0
POINT
  5
67B6F
  8
DEFPOINTS
  6
CONTINUOUS
 62
     0
 10
69.891872275960964
 20
128.0964336706634
 30
0.0
  0
POINT
  5
67B70
  8
DEFPOINTS
  6
CONTINUOUS
 62
     0
 10
138.14187227596079
 20
116.8461927030488
 30
0.0
  0
POINT
  5
67B71
  8
DEFPOINTS
  6
CONTINUOUS
 62
     0
 10
138.14187227596079
 20
91.007883224331636
 30
0.0
  0
ENDBLK
  5
67697
  8
0
  0
BLOCK
  8
0
  2
*D156
 70
     1
 10
0.0
 20
0.0
 30
0.0
  3
*D156
  1

  0
LINE
  5
67B72
  8
0
  6
CONTINUOUS
 62
     2
 10
188.14187227596079
 20
117.80264815323631
 30
0.0
 11
188.14187227596079
 21
98.007883224331636
 31
0.0
  0
LINE
  5
67B73
  8
0
  6
CONTINUOUS
 62
     2
 10
258.14187227596079
 20
121.9456749864062
 30
0.0
 11
258.14187227596079
 21
98.007883224331636
 31
0.0
  0
LINE
  5
67B74
  8
0
  6
CONTINUOUS
 62
     2
 10
190.64187227596079
 20
99.007883224331636
 30
0.0
 11
255.64187227596079
 21
99.007883224331636
 31
0.0
  0
SOLID
  5
67B75
  8
0
  6
CONTINUOUS
 62
     2
 10
190.64187227596079
 20
99.424549890998307
 30
0.0
 11
190.64187227596079
 21
98.591216557664964
 31
0.0
 12
188.14187227596079
 22
99.007883224331636
 32
0.0
 13
188.14187227596079
 23
99.007883224331636
 33
0.0
  0
SOLID
  5
67B76
  8
0
  6
CONTINUOUS
 62
     2
 10
255.64187227596079
 20
99.424549890998307
 30
0.0
 11
255.64187227596079
 21
98.591216557664964
 31
0.0
 12
258.14187227596079
 22
99.007883224331636
 32
0.0
 13
258.14187227596079
 23
99.007883224331636
 33
0.0
  0
TEXT
  8
0
  40
3
  5
67BC8
  62
3
  72
0
  71
0
 10
223.142
 20
97.2079
 30
0.000000
  1
70
  0
POINT
  5
67B78
  8
DEFPOINTS
  6
CONTINUOUS
 62
     0
 10
188.14187227596079
 20
118.4026481532363
 30
0.0
  0
POINT
  5
67B79
  8
DEFPOINTS
  6
CONTINUOUS
 62
     0
 10
258.14187227596079
 20
122.5456749864061
 30
0.0
  0
POINT
  5
67B7A
  8
DEFPOINTS
  6
CONTINUOUS
 62
     0
 10
258.14187227596079
 20
99.007883224331636
 30
0.0
  0
ENDBLK
  5
676A3
  8
0
  0
BLOCK
  8
0
  2
*D157
 70
     1
 10
0.0
 20
0.0
 30
0.0
  3
*D157
  1

  0
LINE
  5
67B7B
  8
0
  6
CONTINUOUS
 62
     2
 10
258.7418722759611
 20
122.07119270304869
 30
0.0
 11
279.39167935597868
 21
122.07119270304869
 31
0.0
  0
LINE
  5
67B7C
  8
0
  6
CONTINUOUS
 62
     2
 10
258.74187227596082
 20
156.07119270304881
 30
0.0
 11
279.39167935597879
 21
156.07119270304881
 31
0.0
  0
LINE
  5
67B7D
  8
0
  6
CONTINUOUS
 62
     2
 10
278.39167935597868
 20
124.57119270304869
 30
0.0
 11
278.39167935597879
 21
153.57119270304869
 31
0.0
  0
SOLID
  5
67B7E
  8
0
  6
CONTINUOUS
 62
     2
 10
277.975012689312
 20
124.57119270304869
 30
0.0
 11
278.80834602264542
 21
124.57119270304869
 31
0.0
 12
278.39167935597868
 22
122.07119270304869
 32
0.0
 13
278.39167935597868
 23
122.07119270304869
 33
0.0
  0
SOLID
  5
67B7F
  8
0
  6
CONTINUOUS
 62
     2
 10
277.97501268931211
 20
153.57119270304869
 30
0.0
 11
278.80834602264548
 21
153.57119270304869
 31
0.0
 12
278.39167935597879
 22
156.07119270304881
 32
0.0
 13
278.39167935597879
 23
156.07119270304881
 33
0.0
  0
TEXT
  8
0
  40
3
  5
67BC9
  62
3
  72
0
  71
0
 10
276.292
 20
135.171
 30
0.000000
  1
%%c34
  0
POINT
  5
67B81
  8
DEFPOINTS
  6
CONTINUOUS
 62
     0
 10
258.14187227596108
 20
122.07119270304869
 30
0.0
  0
POINT
  5
67B82
  8
DEFPOINTS
  6
CONTINUOUS
 62
     0
 10
258.14187227596068
 20
156.07119270304881
 30
0.0
  0
POINT
  5
67B83
  8
DEFPOINTS
  6
CONTINUOUS
 62
     0
 10
278.39167935597879
 20
156.07119270304881
 30
0.0
  0
ENDBLK
  5
676AF
  8
0
  0
BLOCK
  8
0
  2
*D158
 70
     1
 10
0.0
 20
0.0
 30
0.0
  3
*D158
  1

  0
LINE
  5
67B8E
  8
0
  6
CONTINUOUS
 62
     2
 10
185.77411800770429
 20
114.30157746077811
 30
0.0
 11
177.9490291759364
 21
100.7481260304164
 31
0.0
  0
LINE
  5
67B8F
  8
0
  6
CONTINUOUS
 62
     2
 10
188.14187227596079
 20
117.80264815323631
 30
0.0
 11
188.14187227596059
 21
98.016961953187717
 31
0.0
  0
ARC
  5
67B90
  8
0
  6
CONTINUOUS
 62
     2
 10
188.14187227596079
 20
118.4026481532364
 30
0.0
 40
19.385686200048688
 50
247.39405829048971
 51
262.60594170950941
  0
SOLID
  5
67B91
  8
0
  6
CONTINUOUS
 62
     2
 10
180.50555545023511
 20
100.1328308091403
 30
0.0
 11
180.87482017867109
 21
100.8798836886458
 31
0.0
 12
178.4490291759364
 22
101.61415143420091
 32
0.0
 13
178.4490291759364
 23
101.61415143420091
 33
0.0
  0
SOLID
  5
67B92
  8
0
  6
CONTINUOUS
 62
     2
 10
185.67394177054319
 20
99.593962933724939
 30
0.0
 11
185.6202079663374
 21
98.762363797884817
 31
0.0
 12
188.14187227596059
 22
99.016961953187746
 32
0.0
 13
188.14187227596059
 23
99.016961953187746
 33
0.0
  0
TEXT
  8
0
  40
3
  5
67BCA
  62
3
  72
0
  71
0
 10
183.668
 20
97.8060
 30
0.000000
  1
30?
  0
POINT
  5
67B94
  8
DEFPOINTS
  6
CONTINUOUS
 62
     0
 10
181.5115771033536
 20
100.1860618821795
 30
0.0
  0
POINT
  5
67B95
  8
DEFPOINTS
  6
CONTINUOUS
 62
     0
 10
187.87039442614159
 20
117.9324347242199
 30
0.0
  0
POINT
  5
67B96
  8
DEFPOINTS
  6
CONTINUOUS
 62
     0
 10
188.14187227596099
 20
139.07119270304969
 30
0.0
  0
POINT
  5
67B97
  8
DEFPOINTS
  6
CONTINUOUS
 62
     0
 10
188.14187227596079
 20
118.4026481532363
 30
0.0
  0
POINT
  5
67B98
  8
DEFPOINTS
  6
CONTINUOUS
 62
     0
 10
186.0741180077043
 20
114.82119270304869
 30
0.0
  0
ENDBLK
  5
676BB
  8
0
  0
BLOCK
  8
0
  2
*D159
 70
     1
 10
0.0
 20
0.0
 30
0.0
  3
*D159
  1

  0
LINE
  5
67BA2
  8
0
  6
CONTINUOUS
 62
     2
 10
185.80809260392101
 20
163.82119270304861
 30
0.0
 11
287.39167935597879
 21
163.82119270304861
 31
0.0
  0
LINE
  5
67BA3
  8
0
  6
CONTINUOUS
 62
     2
 10
185.8080926039199
 20
114.32119270304869
 30
0.0
 11
287.39167935597879
 21
114.32119270304869
 31
0.0
  0
LINE
  5
67BA4
  8
0
  6
CONTINUOUS
 62
     2
 10
286.39167935597891
 20
161.32119270304861
 30
0.0
 11
286.39167935597879
 21
116.82119270304869
 31
0.0
  0
SOLID
  5
67BA5
  8
0
  6
CONTINUOUS
 62
     2
 10
285.97501268931222
 20
161.32119270304861
 30
0.0
 11
286.80834602264559
 21
161.32119270304861
 31
0.0
 12
286.39167935597891
 22
163.82119270304861
 32
0.0
 13
286.39167935597891
 23
163.82119270304861
 33
0.0
  0
SOLID
  5
67BA6
  8
0
  6
CONTINUOUS
 62
     2
 10
285.97501268931211
 20
116.82119270304869
 30
0.0
 11
286.80834602264548
 21
116.82119270304869
 31
0.0
 12
286.39167935597879
 22
114.32119270304869
 32
0.0
 13
286.39167935597879
 23
114.32119270304869
 33
0.0
  0
TEXT
  8
0
  40
3
  5
67BCB
  62
3
  72
0
  71
0
 10
284.292
 20
135.171
 30
0.000000
  1
%%c49.5
  0
POINT
  5
67BA8
  8
DEFPOINTS
  6
CONTINUOUS
 62
     0
 10
185.20809260392099
 20
163.82119270304861
 30
0.0
  0
POINT
  5
67BA9
  8
DEFPOINTS
  6
CONTINUOUS
 62
     0
 10
185.20809260391991
 20
114.32119270304869
 30
0.0
  0
POINT
  5
67BAA
  8
DEFPOINTS
  6
CONTINUOUS
 62
     0
 10
286.39167935597879
 20
114.32119270304869
 30
0.0
  0
ENDBLK
  5
676C9
  8
0
  0
BLOCK
  8
0
  2
*D160
 70
     1
 10
0.0
 20
0.0
 30
0.0
  3
*D160
  1

  0
LINE
  5
67BAB
  8
0
  6
CONTINUOUS
 62
     2
 10
216.14187227596099
 20
149.4211927030488
 30
0.0
 11
216.14187227596099
 21
181.79474341275221
 31
0.0
  0
LINE
  5
67BAC
  8
0
  6
CONTINUOUS
 62
     2
 10
258.14187227596108
 20
156.1967104196913
 30
0.0
 11
258.14187227596108
 21
181.79474341275221
 31
0.0
  0
LINE
  5
67BAD
  8
0
  6
CONTINUOUS
 62
     2
 10
218.64187227596099
 20
180.79474341275221
 30
0.0
 11
255.64187227596111
 21
180.79474341275221
 31
0.0
  0
SOLID
  5
67BAE
  8
0
  6
CONTINUOUS
 62
     2
 10
218.64187227596099
 20
181.2114100794189
 30
0.0
 11
218.64187227596099
 21
180.37807674608561
 31
0.0
 12
216.14187227596099
 22
180.79474341275221
 32
0.0
 13
216.14187227596099
 23
180.79474341275221
 33
0.0
  0
SOLID
  5
67BAF
  8
0
  6
CONTINUOUS
 62
     2
 10
255.64187227596111
 20
181.2114100794189
 30
0.0
 11
255.64187227596111
 21
180.37807674608561
 31
0.0
 12
258.14187227596108
 22
180.79474341275221
 32
0.0
 13
258.14187227596108
 23
180.79474341275221
 33
0.0
  0
TEXT
  8
0
  40
3
  5
67BCC
  62
3
  72
0
  71
0
 10
237.142
 20
178.995
 30
0.000000
  1
42
  0
POINT
  5
67BB1
  8
DEFPOINTS
  6
CONTINUOUS
 62
     0
 10
216.14187227596099
 20
148.82119270304881
 30
0.0
  0
POINT
  5
67BB2
  8
DEFPOINTS
  6
CONTINUOUS
 62
     0
 10
258.14187227596108
 20
155.59671041969131
 30
0.0
  0
POINT
  5
67BB3
  8
DEFPOINTS
  6
CONTINUOUS
 62
     0
 10
258.14187227596108
 20
180.79474341275221
 30
0.0
  0
ENDBLK
  5
676D5
  8
0
  0
BLOCK
  8
0
  2
*X162
 70
     1
 10
0.0
 20
0.0
 30
0.0
  3
*X162
  1

  0
LINE
  5
67831
  8
0
  6
CONTINUOUS
 62
     0
 10
296.9863583648297
 20
146.99461131214369
 30
0.0
 11
297.22609957894878
 21
147.09865977717971
 31
0.0
  0
LINE
  5
67832
  8
0
  6
CONTINUOUS
 62
     0
 10
296.0131104100642
 20
146.64035096079891
 30
0.0
 11
297.06910472774467
 21
147.0986559220259
 31
0.0
  0
LINE
  5
67833
  8
0
  6
CONTINUOUS
 62
     0
 10
295.0398624552987
 20
146.28609060945399
 30
0.0
 11
296.91210987654091
 21
147.09865206687221
 31
0.0
  0
LINE
  5
67834
  8
0
  6
CONTINUOUS
 62
     0
 10
294.06661450053321
 20
145.9318302581091
 30
0.0
 11
296.75511502533709
 21
147.09864821171851
 31
0.0
  0
LINE
  5
67835
  8
0
  6
CONTINUOUS
 62
     0
 10
293.09336654576771
 20
145.5775699067643
 30
0.0
 11
296.5981201741331
 21
147.09864435656471
 31
0.0
  0
LINE
  5
67836
  8
0
  6
CONTINUOUS
 62
     0
 10
292.12011859100232
 20
145.22330955541941
 30
0.0
 11
296.44112532292922
 21
147.09864050141101
 31
0.0
  0
LINE
  5
67837
  8
0
  6
CONTINUOUS
 62
     0
 10
291.30134492973377
 20
144.93609154881671
 30
0.0
 11
296.2841304717254
 21
147.09863664625729
 31
0.0
  0
LINE
  5
67838
  8
0
  6
CONTINUOUS
 62
     0
 10
291.27992819882309
 20
144.994929037905
 30
0.0
 11
296.12713562052141
 21
147.0986327911036
 31
0.0
  0
LINE
  5
67839
  8
0
  6
CONTINUOUS
 62
     0
 10
291.25851146791229
 20
145.05376652699329
 30
0.0
 11
295.97014076931748
 21
147.09862893594979
 31
0.0
  0
LINE
  5
6783A
  8
0
  6
CONTINUOUS
 62
     0
 10
291.2370947370016
 20
145.11260401608149
 30
0.0
 11
295.81314591811361
 21
147.0986250807961
 31
0.0
  0
LINE
  5
6783B
  8
0
  6
CONTINUOUS
 62
     0
 10
291.2156780060908
 20
145.1714415051697
 30
0.0
 11
295.65615106690962
 21
147.09862122564229
 31
0.0
  0
LINE
  5
6783C
  8
0
  6
CONTINUOUS
 62
     0
 10
291.19426127518011
 20
145.23027899425799
 30
0.0
 11
295.4991562157058
 21
147.09861737048871
 31
0.0
  0
LINE
  5
6783D
  8
0
  6
CONTINUOUS
 62
     0
 10
291.17284454426931
 20
145.28911648334619
 30
0.0
 11
295.34216136450198
 21
147.09861351533499
 31
0.0
  0
LINE
  5
6783E
  8
0
  6
CONTINUOUS
 62
     0
 10
291.15142781335862
 20
145.3479539724344
 30
0.0
 11
295.18516651329787
 21
147.0986096601811
 31
0.0
  0
LINE
  5
6783F
  8
0
  6
CONTINUOUS
 62
     0
 10
291.13001108244799
 20
145.40679146152269
 30
0.0
 11
295.028171662094
 21
147.09860580502749
 31
0.0
  0
LINE
  5
67840
  8
0
  6
CONTINUOUS
 62
     0
 10
291.10859435153719
 20
145.46562895061089
 30
0.0
 11
294.87117681089012
 21
147.0986019498738
 31
0.0
  0
LINE
  5
67841
  8
0
  6
CONTINUOUS
 62
     0
 10
291.08717762062628
 20
145.52446643969921
 30
0.0
 11
294.71418195968607
 21
147.09859809471999
 31
0.0
  0
LINE
  5
67842
  8
0
  6
CONTINUOUS
 62
     0
 10
291.0657608897157
 20
145.58330392878739
 30
0.0
 11
294.55718710848231
 21
147.0985942395663
 31
0.0
  0
LINE
  5
67843
  8
0
  6
CONTINUOUS
 62
     0
 10
291.04434415880502
 20
145.64214141787559
 30
0.0
 11
294.40019225727832
 21
147.0985903844126
 31
0.0
  0
LINE
  5
67844
  8
0
  6
CONTINUOUS
 62
     0
 10
291.0229274278941
 20
145.70097890696391
 30
0.0
 11
294.24319740607439
 21
147.0985865292588
 31
0.0
  0
LINE
  5
67845
  8
0
  6
CONTINUOUS
 62
     0
 10
291.00151069698347
 20
145.75981639605209
 30
0.0
 11
294.08620255487062
 21
147.0985826741051
 31
0.0
  0
LINE
  5
67846
  8
0
  6
CONTINUOUS
 62
     0
 10
290.98009396607279
 20
145.81865388514029
 30
0.0
 11
293.92920770366658
 21
147.09857881895141
 31
0.0
  0
LINE
  5
67847
  8
0
  6
CONTINUOUS
 62
     0
 10
290.9586772351621
 20
145.87749137422861
 30
0.0
 11
293.77221285246259
 21
147.0985749637976
 31
0.0
  0
LINE
  5
67848
  8
0
  6
CONTINUOUS
 62
     0
 10
290.9372605042513
 20
145.93632886331679
 30
0.0
 11
293.61521800125888
 21
147.09857110864399
 31
0.0
  0
LINE
  5
67849
  8
0
  6
CONTINUOUS
 62
     0
 10
290.9158437733405
 20
145.99516635240499
 30
0.0
 11
293.45822315005501
 21
147.09856725349019
 31
0.0
  0
LINE
  5
6784A
  8
0
  6
CONTINUOUS
 62
     0
 10
290.8944270424297
 20
146.05400384149331
 30
0.0
 11
293.30122829885079
 21
147.09856339833641
 31
0.0
  0
LINE
  5
6784B
  8
0
  6
CONTINUOUS
 62
     0
 10
290.8730103115189
 20
146.11284133058149
 30
0.0
 11
293.14423344764708
 21
147.0985595431828
 31
0.0
  0
LINE
  5
6784C
  8
0
  6
CONTINUOUS
 62
     0
 10
290.85159358060832
 20
146.17167881966981
 30
0.0
 11
292.98723859644309
 21
147.09855568802899
 31
0.0
  0
LINE
  5
6784D
  8
0
  6
CONTINUOUS
 62
     0
 10
290.83017684969752
 20
146.2305163087579
 30
0.0
 11
292.83024374523922
 21
147.0985518328753
 31
0.0
  0
LINE
  5
6784E
  8
0
  6
CONTINUOUS
 62
     0
 10
290.80876011878672
 20
146.28935379784619
 30
0.0
 11
292.67324889403551
 21
147.09854797772161
 31
0.0
  0
LINE
  5
6784F
  8
0
  6
CONTINUOUS
 62
     0
 10
290.78734338787598
 20
146.34819128693451
 30
0.0
 11
292.51625404283141
 21
147.09854412256789
 31
0.0
  0
LINE
  5
67850
  8
0
  6
CONTINUOUS
 62
     0
 10
290.76592665696512
 20
146.40702877602271
 30
0.0
 11
292.35925919162742
 21
147.09854026741411
 31
0.0
  0
LINE
  5
67851
  8
0
  6
CONTINUOUS
 62
     0
 10
290.74450992605438
 20
146.46586626511089
 30
0.0
 11
292.20226434042382
 21
147.0985364122605
 31
0.0
  0
LINE
  5
67852
  8
0
  6
CONTINUOUS
 62
     0
 10
290.72309319514358
 20
146.52470375419909
 30
0.0
 11
292.04526948921972
 21
147.09853255710669
 31
0.0
  0
LINE
  5
67853
  8
0
  6
CONTINUOUS
 62
     0
 10
290.701676464233
 20
146.58354124328741
 30
0.0
 11
291.88827463801579
 21
147.098528701953
 31
0.0
  0
LINE
  5
67854
  8
0
  6
CONTINUOUS
 62
     0
 10
290.68025973332232
 20
146.64237873237559
 30
0.0
 11
291.73127978681191
 21
147.09852484679919
 31
0.0
  0
LINE
  5
67855
  8
0
  6
CONTINUOUS
 62
     0
 10
290.65884300241152
 20
146.7012162214638
 30
0.0
 11
291.57428493560798
 21
147.0985209916455
 31
0.0
  0
LINE
  5
67856
  8
0
  6
CONTINUOUS
 62
     0
 10
290.63742627150071
 20
146.76005371055211
 30
0.0
 11
291.41729008440421
 21
147.09851713649181
 31
0.0
  0
LINE
  5
67857
  8
0
  6
CONTINUOUS
 62
     0
 10
290.61600954059008
 20
146.8188911996404
 30
0.0
 11
291.26029523320022
 21
147.09851328133809
 31
0.0
  0
LINE
  5
67858
  8
0
  6
CONTINUOUS
 62
     0
 10
290.59459280967928
 20
146.8777286887285
 30
0.0
 11
291.10330038199629
 21
147.09850942618431
 31
0.0
  0
LINE
  5
67859
  8
0
  6
CONTINUOUS
 62
     0
 10
290.5731760787686
 20
146.93656617781679
 30
0.0
 11
290.9463055307923
 21
147.0985055710305
 31
0.0
  0
LINE
  5
6785A
  8
0
  6
CONTINUOUS
 62
     0
 10
290.5517593478578
 20
146.9954036669051
 30
0.0
 11
290.78931067958843
 21
147.09850171587689
 31
0.0
  0
LINE
  5
6785B
  8
0
  6
CONTINUOUS
 62
     0
 10
290.53034261694711
 20
147.05424115599331
 30
0.0
 11
290.63231582838432
 21
147.0984978607232
 31
0.0
  0
ENDBLK
  5
6785D
  8
0
  0
BLOCK
  8
0
  2
*U163
 70
     1
 10
0.0
 20
0.0
 30
0.0
  3
*U163
  1

  0
TEXT
  5
6785F
  8
0
  6
CONTINUOUS
 62
     3
 10
325.53744297531591
 20
136.289816777814
 30
0.0
 40
3.0
  1
20¡Æ
 50
9.9999999999999627
  0
TEXT
  5
67860
  8
0
  6
CONTINUOUS
 62
     3
 10
331.4462894933892
 20
137.3317058438156
 30
0.0
 40
2.1000000000000001
  1
¡¾1¡Æ
 50
9.9999999999999627
  0
ENDBLK
  5
67862
  8
0
  0
BLOCK
  8
0
  2
*U164
 70
     1
 10
0.0
 20
0.0
 30
0.0
  3
*U164
  1

  0
TEXT
  5
67864
  8
0
  6
CONTINUOUS
 62
     3
 10
54.721262662223168
 20
50.898082538781068
 30
0.0
 40
3.0
  1
68.25
  0
ENDBLK
  5
67866
  8
0
  0
BLOCK
  8
0
  2
*U165
 70
     1
 10
0.0
 20
0.0
 30
0.0
  3
*U165
  1

  0
TEXT
  5
67868
  8
0
  6
CONTINUOUS
 62
     3
 10
125.3390278407597
 20
82.335929762865703
 30
0.0
 40
3.0
  1
\U+220549.5
 50
90.0
  0
TEXT
  5
67869
  8
0
  6
CONTINUOUS
 62
     3
 10
125.3390278407597
 20
92.546412754348523
 30
0.0
 40
2.1000000000000001
  1
¡¾0.05
 50
90.0
  0
ENDBLK
  5
6786B
  8
0
  0
BLOCK
  8
0
  2
*U166
 70
     1
 10
0.0
 20
0.0
 30
0.0
  3
*U166
  1

  0
TEXT
  5
6788A
  8
0
  6
CONTINUOUS
 62
     3
 10
315.47077104539937
 20
132.3534595443536
 30
0.0
 40
3.0
  1
11.5
 50
20.00000000001096
  0
ENDBLK
  5
6788C
  8
0
  0
BLOCK
  8
0
  2
*U167
 70
     1
 10
0.0
 20
0.0
 30
0.0
  3
*U167
  1

  0
TEXT
  5
6788E
  8
0
  6
CONTINUOUS
 62
     3
 10
290.76145516995979
 20
101.2891734848226
 30
0.0
 40
3.0
  1
21.92
 50
290.0000000000004
  0
TEXT
  5
6788F
  8
0
  6
CONTINUOUS
 62
     3
 10
293.74061581114267
 20
93.103996894245071
 30
0.0
 40
2.1000000000000001
  1
¡¾0.05
 50
290.0000000000004
  0
ENDBLK
  5
67891
  8
0
  0
BLOCK
  8
0
  2
*U168
 70
     1
 10
0.0
 20
0.0
 30
0.0
  3
*U168
  1

  0
TEXT
  5
67893
  8
0
  6
CONTINUOUS
 62
     3
 10
82.224182124350847
 20
89.278342148027946
 30
0.0
 40
3.0
  1
\U+220513.5
 50
90.0
  0
TEXT
  5
67894
  8
0
  6
CONTINUOUS
 62
     3
 10
79.632528581043744
 20
98.263342148027974
 30
0.0
 40
2.1000000000000001
  1
+0
 50
90.0
  0
TEXT
  5
67895
  8
0
  6
CONTINUOUS
 62
     3
 10
82.224182124350847
 20
98.263342148027974
 30
0.0
 40
2.1000000000000001
  1
-0.1
 50
90.0
  0
ENDBLK
  5
67897
  8
0
  0
BLOCK
  8
0
  2
*U169
 70
     1
 10
0.0
 20
0.0
 30
0.0
  3
*U169
  1

  0
TEXT
  5
67899
  8
0
  6
CONTINUOUS
 62
     3
 10
327.12217891367192
 20
58.48244756634891
 30
0.0
 40
3.0
  1
21¡Æ
 50
349.49999999999972
  0
ENDBLK
  5
6789B
  8
0
  0
BLOCK
  8
0
  2
*U170
 70
     1
 10
0.0
 20
0.0
 30
0.0
  3
*U170
  1

  0
TEXT
  5
678AF
  8
0
  6
CONTINUOUS
 62
     3
 10
710.09630641494459
 20
86.984027992275529
 30
0.0
 40
3.0
  1
30max
 50
90.0
  0
ENDBLK
  5
678B1
  8
0
  0
BLOCK
  8
0
  2
*U171
 70
     1
 10
0.0
 20
0.0
 30
0.0
  3
*U171
  1

  0
TEXT
  5
678B3
  8
0
  6
CONTINUOUS
 62
     3
 10
733.38624288062158
 20
96.447934250312386
 30
0.0
 40
3.0
  1
R1
 50
323.4393503018261
  0
ENDBLK
  5
678B5
  8
0
  0
BLOCK
  8
0
  2
*U172
 70
     1
 10
0.0
 20
0.0
 30
0.0
  3
*U172
  1

  0
TEXT
  5
678B7
  8
0
  6
CONTINUOUS
 62
     3
 10
717.94630641494473
 20
75.488466120749791
 30
0.0
 40
3.0
  1
(\U+220526.54)
 50
90.0
  0
ENDBLK
  5
678B9
  8
0
  0
BLOCK
  8
0
  2
*U173
 70
     1
 10
0.0
 20
0.0
 30
0.0
  3
*U173
  1

  0
TEXT
  5
678BB
  8
0
  6
CONTINUOUS
 62
     3
 10
648.87862864239833
 20
186.9618654533443
 30
0.0
 40
3.0
  1
\U+220518.8
 50
90.0
  0
TEXT
  5
678BC
  8
0
  6
CONTINUOUS
 62
     3
 10
646.28697509909125
 20
195.94686545334429
 30
0.0
 40
2.1000000000000001
  1
+0
 50
90.0
  0
TEXT
  5
678BD
  8
0
  6
CONTINUOUS
 62
     3
 10
648.87862864239844
 20
195.94686545334429
 30
0.0
 40
2.1000000000000001
  1
-0.1
 50
90.0
  0
ENDBLK
  5
678BF
  8
0
  0
BLOCK
  8
0
  2
*U174
 70
     1
 10
0.0
 20
0.0
 30
0.0
  3
*U174
  1

  0
TEXT
  5
678C1
  8
0
  6
CONTINUOUS
 62
     3
 10
658.02330400913638
 20
106.44574377106289
 30
0.0
 40
3.0
  1
\U+220518
 50
90.0
  0
ENDBLK
  5
678C3
  8
0
  0
BLOCK
  8
0
  2
*U175
 70
     1
 10
0.0
 20
0.0
 30
0.0
  3
*U175
  1

  0
TEXT
  5
678C5
  8
0
  6
CONTINUOUS
 62
     3
 10
665.87330400913652
 20
95.656357590282198
 30
0.0
 40
3.0
  1
\U+220519.05
 50
90.0
  0
TEXT
  5
678C6
  8
0
  6
CONTINUOUS
 62
     3
 10
663.19549238938464
 20
106.75184058176499
 30
0.0
 40
2.1000000000000001
  1
-0.02
 50
90.0
  0
TEXT
  5
678C7
  8
0
  6
CONTINUOUS
 62
     3
 10
665.87330400913663
 20
106.75184058176499
 30
0.0
 40
2.1000000000000001
  1
-0.03
 50
90.0
  0
TEXT
  5
678C8
  8
0
  6
CONTINUOUS
 62
     3
 10
665.87330400913652
 20
113.3863110542059
 30
0.0
 40
3.0
  1
(È²»è)
 50
90.0
  0
ENDBLK
  5
678CA
  8
0
  0
BLOCK
  8
0
  2
*U176
 70
     1
 10
0.0
 20
0.0
 30
0.0
  3
*U176
  1

  0
TEXT
  5
678CC
  8
0
  6
CONTINUOUS
 62
     3
 10
673.87330400913663
 20
94.909246445204374
 30
0.0
 40
3.0
  1
\U+220519.05
 50
90.0
  0
TEXT
  5
678CD
  8
0
  6
CONTINUOUS
 62
     3
 10
671.17706385165616
 20
106.0047294366872
 30
0.0
 40
2.1000000000000001
  1
+0.009
 50
90.0
  0
TEXT
  5
678CE
  8
0
  6
CONTINUOUS
 62
     3
 10
673.87330400913663
 20
106.0047294366872
 30
0.0
 40
2.1000000000000001
  1
+0.002
 50
90.0
  0
TEXT
  5
678CF
  8
0
  6
CONTINUOUS
 62
     3
 10
673.87330400913663
 20
114.1334221992838
 30
0.0
 40
3.0
  1
(Á¤»è)
 50
90.0
  0
ENDBLK
  5
678D1
  8
0
  0
BLOCK
  8
0
  2
*U177
 70
     1
 10
0.0
 20
0.0
 30
0.0
  3
*U177
  1

  0
TEXT
  5
678D3
  8
0
  6
CONTINUOUS
 62
     3
 10
552.86155781474486
 20
52.942656473118099
 30
0.0
 40
3.0
  1
4.5
  0
ENDBLK
  5
678D5
  8
0
  0
BLOCK
  8
0
  2
*U178
 70
     1
 10
0.0
 20
0.0
 30
0.0
  3
*U178
  1

  0
TEXT
  5
678D7
  8
0
  6
CONTINUOUS
 62
     3
 10
567.20769742505138
 20
71.442656473118092
 30
0.0
 40
3.0
  1
8.4
  0
TEXT
  5
678D8
  8
0
  6
CONTINUOUS
 62
     3
 10
572.60769742505147
 20
71.442656473118092
 30
0.0
 40
2.1000000000000001
  1
¡¾0.05
  0
ENDBLK
  5
678DA
  8
0
  0
BLOCK
  8
0
  2
*U179
 70
     1
 10
0.0
 20
0.0
 30
0.0
  3
*U179
  1

  0
TEXT
  5
678DC
  8
0
  6
CONTINUOUS
 62
     3
 10
568.02368984910083
 20
61.092656473118161
 30
0.0
 40
3.0
  1
(10.15)
  0
ENDBLK
  5
678DE
  8
0
  0
BLOCK
  8
0
  2
*U180
 70
     1
 10
0.0
 20
0.0
 30
0.0
  3
*U180
  1

  0
TEXT
  5
678E0
  8
0
  6
CONTINUOUS
 62
     3
 10
549.93714836592608
 20
60.942656473118149
 30
0.0
 40
3.0
  1
1.5
  0
ENDBLK
  5
678E2
  8
0
  0
BLOCK
  8
0
  2
*U181
 70
     1
 10
0.0
 20
0.0
 30
0.0
  3
*U181
  1

  0
TEXT
  5
678E4
  8
0
  6
CONTINUOUS
 62
     3
 10
541.93283355247343
 20
104.87837024096559
 30
0.0
 40
3.0
  1
\U+220519.5
 50
90.0
  0
ENDBLK
  5
678E6
  8
0
  0
BLOCK
  8
0
  2
*U182
 70
     1
 10
0.0
 20
0.0
 30
0.0
  3
*U182
  1

  0
TEXT
  5
678E8
  8
0
  6
CONTINUOUS
 62
     3
 10
533.93283355247343
 20
101.71768176318891
 30
0.0
 40
3.0
  1
\U+220521.5
 50
90.0
  0
TEXT
  5
678E9
  8
0
  6
CONTINUOUS
 62
     3
 10
531.23659339499295
 20
110.70268176318891
 30
0.0
 40
2.1000000000000001
  1
-0.01
 50
90.0
  0
TEXT
  5
678EA
  8
0
  6
CONTINUOUS
 62
     3
 10
533.93283355247343
 20
110.70268176318891
 30
0.0
 40
2.1000000000000001
  1
-0.02
 50
90.0
  0
ENDBLK
  5
678EC
  8
0
  0
BLOCK
  8
0
  2
*U183
 70
     1
 10
0.0
 20
0.0
 30
0.0
  3
*U183
  1

  0
TEXT
  5
678EE
  8
0
  6
CONTINUOUS
 62
     3
 10
525.93283355247343
 20
102.9372513470137
 30
0.0
 40
3.0
  1
\U+220523
 50
90.0
  0
TEXT
  5
678EF
  8
0
  6
CONTINUOUS
 62
     3
 10
523.25502193272155
 20
109.52225134701381
 30
0.0
 40
2.1000000000000001
  1
+0
 50
90.0
  0
TEXT
  5
678F0
  8
0
  6
CONTINUOUS
 62
     3
 10
525.93283355247354
 20
109.52225134701381
 30
0.0
 40
2.1000000000000001
  1
-0.05
 50
90.0
  0
ENDBLK
  5
678F2
  8
0
  0
BLOCK
  8
0
  2
*U184
 70
     1
 10
0.0
 20
0.0
 30
0.0
  3
*U184
  1

  0
TEXT
  5
678F4
  8
0
  6
CONTINUOUS
 62
     3
 10
574.81360785822608
 20
101.6757437710629
 30
0.0
 40
3.0
  1
\U+220521.25
 50
90.0
  0
TEXT
  5
678F5
  8
0
  6
CONTINUOUS
 62
     3
 10
572.221954314919
 20
112.76074377106291
 30
0.0
 40
2.1000000000000001
  1
+0.1
 50
90.0
  0
TEXT
  5
678F6
  8
0
  6
CONTINUOUS
 62
     3
 10
574.81360785822619
 20
112.76074377106291
 30
0.0
 40
2.1000000000000001
  1
-0
 50
90.0
  0
ENDBLK
  5
678F8
  8
0
  0
BLOCK
  8
0
  2
*U185
 70
     1
 10
0.0
 20
0.0
 30
0.0
  3
*U185
  1

  0
TEXT
  5
678FA
  8
0
  6
CONTINUOUS
 62
     3
 10
598.38922159133244
 20
174.9778750968911
 30
0.0
 40
3.0
  1
41
  0
ENDBLK
  5
678FC
  8
0
  0
BLOCK
  8
0
  2
*U186
 70
     1
 10
0.0
 20
0.0
 30
0.0
  3
*U186
  1

  0
TEXT
  5
678FE
  8
0
  6
CONTINUOUS
 62
     3
 10
634.07708955697672
 20
182.9778750968911
 30
0.0
 40
3.0
  1
4.5
  0
ENDBLK
  5
67900
  8
0
  0
BLOCK
  8
0
  2
*U187
 70
     1
 10
0.0
 20
0.0
 30
0.0
  3
*U187
  1

  0
TEXT
  5
67902
  8
0
  6
CONTINUOUS
 62
     3
 10
704.10329449724543
 20
169.26780701944151
 30
0.0
 40
3.0
  1
60¡Æ
  0
ENDBLK
  5
67904
  8
0
  0
BLOCK
  8
0
  2
*U188
 70
     1
 10
0.0
 20
0.0
 30
0.0
  3
*U188
  1

  0
TEXT
  5
67906
  8
0
  6
CONTINUOUS
 62
     3
 10
697.40215004141999
 20
204.73113144613981
 30
0.0
 40
3.0
  1
R0.2
 50
308.9533704989766
  0
ENDBLK
  5
67908
  8
0
  0
BLOCK
  8
0
  2
*U189
 70
     1
 10
0.0
 20
0.0
 30
0.0
  3
*U189
  1

  0
TEXT
  5
6790A
  8
0
  6
CONTINUOUS
 62
     3
 10
733.00271521425373
 20
168.4336952719093
 30
0.0
 40
3.0
  1
\U+220519.25
 50
90.0
  0
TEXT
  5
6790B
  8
0
  6
CONTINUOUS
 62
     3
 10
733.00271521425373
 20
179.84417826339211
 30
0.0
 40
2.1000000000000001
  1
¡¾0.05
 50
90.0
  0
ENDBLK
  5
6790D
  8
0
  0
BLOCK
  8
0
  2
*U190
 70
     1
 10
0.0
 20
0.0
 30
0.0
  3
*U190
  1

  0
TEXT
  5
6790F
  8
0
  6
CONTINUOUS
 62
     3
 10
552.01155781474495
 20
153.17146318803469
 30
0.0
 40
3.0
  1
3.5
  0
ENDBLK
  5
67911
  8
0
  0
BLOCK
  8
0
  2
*U191
 70
     1
 10
0.0
 20
0.0
 30
0.0
  3
*U191
  1

  0
TEXT
  5
67913
  8
0
  6
CONTINUOUS
 62
     3
 10
616.36481214251364
 20
182.97787509689121
 30
0.0
 40
3.0
  1
12.6
  0
ENDBLK
  5
67915
  8
0
  0
BLOCK
  8
0
  2
*U192
 70
     1
 10
0.0
 20
0.0
 30
0.0
  3
*U192
  1

  0
TEXT
  5
67917
  8
0
  6
CONTINUOUS
 62
     3
 10
596.71685333650407
 20
182.9778750968911
 30
0.0
 40
3.0
  1
6.85
  0
ENDBLK
  5
67919
  8
0
  0
BLOCK
  8
0
  2
*U193
 70
     1
 10
0.0
 20
0.0
 30
0.0
  3
*U193
  1

  0
TEXT
  5
6791B
  8
0
  6
CONTINUOUS
 62
     3
 10
583.01685333650403
 20
182.9778750968911
 30
0.0
 40
3.0
  1
6.85
  0
ENDBLK
  5
6791D
  8
0
  0
BLOCK
  8
0
  2
*U194
 70
     1
 10
0.0
 20
0.0
 30
0.0
  3
*U194
  1

  0
TEXT
  5
6791F
  8
0
  6
CONTINUOUS
 62
     3
 10
566.14913300865521
 20
182.9778750968911
 30
0.0
 40
3.0
  1
10.2
  0
ENDBLK
  5
67921
  8
0
  0
BLOCK
  8
0
  2
*U195
 70
     1
 10
0.0
 20
0.0
 30
0.0
  3
*U195
  1

  0
TEXT
  5
67923
  8
0
  6
CONTINUOUS
 62
     3
 10
542.68328717465783
 20
137.65290034826481
 30
0.0
 40
3.0
  1
45¡Æ
 50
67.499999999997371
  0
ENDBLK
  5
67925
  8
0
  0
BLOCK
  8
0
  2
*U196
 70
     1
 10
0.0
 20
0.0
 30
0.0
  3
*U196
  1

  0
TEXT
  5
67927
  8
0
  6
CONTINUOUS
 62
     3
 10
603.79765036919787
 20
144.4444499686627
 30
0.0
 40
3.0
  1
45¡Æ
 50
292.50000000000142
  0
ENDBLK
  5
67929
  8
0
  0
BLOCK
  8
0
  2
*U197
 70
     1
 10
0.0
 20
0.0
 30
0.0
  3
*U197
  1

  0
TEXT
  5
6792B
  8
0
  6
CONTINUOUS
 62
     3
 10
645.20701436592515
 20
126.1890357137262
 30
0.0
 40
3.0
  1
R1.5
 50
313.89757389650089
  0
ENDBLK
  5
6792D
  8
0
  0
BLOCK
  8
0
  2
*U198
 70
     1
 10
0.0
 20
0.0
 30
0.0
  3
*U198
  1

  0
TEXT
  5
6792F
  8
0
  6
CONTINUOUS
 62
     3
 10
596.40461913675745
 20
102.9372513470138
 30
0.0
 40
3.0
  1
\U+220523
 50
90.0
  0
TEXT
  5
67930
  8
0
  6
CONTINUOUS
 62
     3
 10
593.72680751700568
 20
109.52225134701381
 30
0.0
 40
2.1000000000000001
  1
+0
 50
90.0
  0
TEXT
  5
67931
  8
0
  6
CONTINUOUS
 62
     3
 10
596.40461913675756
 20
109.52225134701381
 30
0.0
 40
2.1000000000000001
  1
-0.05
 50
90.0
  0
ENDBLK
  5
67933
  8
0
  0
BLOCK
  8
0
  2
*U199
 70
     1
 10
0.0
 20
0.0
 30
0.0
  3
*U199
  1

  0
TEXT
  5
67938
  8
0
  6
CONTINUOUS
 62
     3
 10
217.3989330701969
 20
78.278498465800155
 30
0.0
 40
3.0
  1
R0.5
 50
315.17497972704871
  0
ENDBLK
  5
6793A
  8
0
  0
BLOCK
  8
0
  2
*U200
 70
     1
 10
0.0
 20
0.0
 30
0.0
  3
*U200
  1

  0
TEXT
  5
6793C
  8
0
  6
CONTINUOUS
 62
     3
 10
153.40304369984571
 20
82.936873124782963
 30
0.0
 40
3.0
  1
(\U+220541.34)
 50
90.0
  0
ENDBLK
  5
6793E
  8
0
  0
BLOCK
  8
0
  2
*U201
 70
     1
 10
0.0
 20
0.0
 30
0.0
  3
*U201
  1

  0
TEXT
  5
67940
  8
0
  6
CONTINUOUS
 62
     3
 10
113.8814988826956
 20
42.898082538781097
 30
0.0
 40
3.0
  1
188.25
  0
ENDBLK
  5
67942
  8
0
  0
BLOCK
  8
0
  2
*U202
 70
     1
 10
0.0
 20
0.0
 30
0.0
  3
*U202
  1

  0
TEXT
  5
67944
  8
0
  6
CONTINUOUS
 62
     3
 10
150.61744981468931
 20
50.898082538781068
 30
0.0
 40
3.0
  1
120
  0
ENDBLK
  5
67946
  8
0
  0
BLOCK
  8
0
  2
*U203
 70
     1
 10
0.0
 20
0.0
 30
0.0
  3
*U203
  1

  0
TEXT
  5
67948
  8
0
  6
CONTINUOUS
 62
     3
 10
176.36744981468931
 20
58.898082538781082
 30
0.0
 40
3.0
  1
70
  0
ENDBLK
  5
6794A
  8
0
  0
BLOCK
  8
0
  2
*U204
 70
     1
 10
0.0
 20
0.0
 30
0.0
  3
*U204
  1

  0
TEXT
  5
6794C
  8
0
  6
CONTINUOUS
 62
     3
 10
191.12634088899091
 20
92.928063105390294
 30
0.0
 40
3.0
  1
30¡Æ
 50
284.99999999999972
  0
ENDBLK
  5
6794E
  8
0
  0
BLOCK
  8
0
  2
*U205
 70
     1
 10
0.0
 20
0.0
 30
0.0
  3
*U205
  1

  0
TEXT
  5
67950
  8
0
  6
CONTINUOUS
 62
     3
 10
226.7396312239068
 20
92.999259983142494
 30
0.0
 40
3.0
  1
5.5
 50
90.0
  0
ENDBLK
  5
67952
  8
0
  0
BLOCK
  8
0
  2
*U206
 70
     1
 10
0.0
 20
0.0
 30
0.0
  3
*U206
  1

  0
TEXT
  5
67954
  8
0
  6
CONTINUOUS
 62
     3
 10
234.73963122390671
 20
87.699259983142312
 30
0.0
 40
3.0
  1
14.3
 50
90.0
  0
ENDBLK
  5
67956
  8
0
  0
BLOCK
  8
0
  2
*U207
 70
     1
 10
0.0
 20
0.0
 30
0.0
  3
*U207
  1

  0
TEXT
  5
67958
  8
0
  6
CONTINUOUS
 62
     3
 10
242.33963122390671
 20
91.552899593449325
 30
0.0
 40
3.0
  1
\U+220524
 50
90.0
  0
TEXT
  5
67959
  8
0
  6
CONTINUOUS
 62
     3
 10
239.7479776805996
 20
98.43789959344933
 30
0.0
 40
2.1000000000000001
  1
+0.05
 50
90.0
  0
TEXT
  5
6795A
  8
0
  6
CONTINUOUS
 62
     3
 10
242.33963122390671
 20
98.43789959344933
 30
0.0
 40
2.1000000000000001
  1
-0
 50
90.0
  0
ENDBLK
  5
6795C
  8
0
  0
BLOCK
  8
0
  2
*U208
 70
     1
 10
0.0
 20
0.0
 30
0.0
  3
*U208
  1

  0
TEXT
  5
6795E
  8
0
  6
CONTINUOUS
 62
     3
 10
258.73963122390762
 20
94.761392017498224
 30
0.0
 40
3.0
  1
\U+220534
 50
90.0
  0
ENDBLK
  5
67960
  8
0
  0
BLOCK
  8
0
  2
*U209
 70
     1
 10
0.0
 20
0.0
 30
0.0
  3
*U209
  1

  0
TEXT
  5
67962
  8
0
  6
CONTINUOUS
 62
     3
 10
250.73963122390759
 20
90.333330009624206
 30
0.0
 40
3.0
  1
\U+220531.4
 50
90.0
  0
TEXT
  5
67963
  8
0
  6
CONTINUOUS
 62
     3
 10
248.04339106642729
 20
99.618330009624216
 30
0.0
 40
2.1000000000000001
  1
+0.05
 50
90.0
  0
TEXT
  5
67964
  8
0
  6
CONTINUOUS
 62
     3
 10
250.73963122390759
 20
99.618330009624216
 30
0.0
 40
2.1000000000000001
  1
+0.02
 50
90.0
  0
ENDBLK
  5
67966
  8
0
  0
BLOCK
  8
0
  2
*U210
 70
     1
 10
0.0
 20
0.0
 30
0.0
  3
*U210
  1

  0
TEXT
  5
67968
  8
0
  6
CONTINUOUS
 62
     3
 10
235.25775827337461
 20
176.76343253476929
 30
0.0
 40
3.0
  1
0.5
  0
ENDBLK
  5
6796A
  8
0
  0
BLOCK
  8
0
  2
*U211
 70
     1
 10
0.0
 20
0.0
 30
0.0
  3
*U211
  1

  0
TEXT
  5
6796C
  8
0
  6
CONTINUOUS
 62
     3
 10
224.2313154939342
 20
173.50562035230189
 30
0.0
 40
3.0
  1
R0.4max
 50
323.26457729793151
  0
ENDBLK
  5
6796E
  8
0
  0
BLOCK
  8
0
  2
*U212
 70
     1
 10
0.0
 20
0.0
 30
0.0
  3
*U212
  1

  0
TEXT
  5
67970
  8
0
  6
CONTINUOUS
 62
     3
 10
270.06844635980917
 20
130.77918591880891
 30
0.0
 40
3.0
  1
\U+220524
 50
90.0
  0
TEXT
  5
67971
  8
0
  6
CONTINUOUS
 62
     3
 10
267.4767928165021
 20
137.6641859188089
 30
0.0
 40
2.1000000000000001
  1
+0.05
 50
90.0
  0
TEXT
  5
67972
  8
0
  6
CONTINUOUS
 62
     3
 10
270.06844635980917
 20
137.6641859188089
 30
0.0
 40
2.1000000000000001
  1
-0
 50
90.0
  0
ENDBLK
  5
67974
  8
0
  0
BLOCK
  8
0
  2
*U213
 70
     1
 10
0.0
 20
0.0
 30
0.0
  3
*U213
  1

  0
TEXT
  5
67976
  8
0
  6
CONTINUOUS
 62
     3
 10
286.46844635980909
 20
133.25961633498389
 30
0.0
 40
3.0
  1
\U+220531.4
 50
90.0
  0
TEXT
  5
67977
  8
0
  6
CONTINUOUS
 62
     3
 10
283.7722062023289
 20
142.54461633498391
 30
0.0
 40
2.1000000000000001
  1
+0.05
 50
90.0
  0
TEXT
  5
67978
  8
0
  6
CONTINUOUS
 62
     3
 10
286.46844635980909
 20
142.54461633498391
 30
0.0
 40
2.1000000000000001
  1
+0.02
 50
90.0
  0
ENDBLK
  5
6797A
  8
0
  0
BLOCK
  8
0
  2
*U214
 70
     1
 10
0.0
 20
0.0
 30
0.0
  3
*U214
  1

  0
TEXT
  5
6797C
  8
0
  6
CONTINUOUS
 62
     3
 10
249.5163941724625
 20
135.3928420723164
 30
0.0
 40
3.0
  1
45¡Æ
 50
22.500000000000831
  0
ENDBLK
  5
6797E
  8
0
  0
BLOCK
  8
0
  2
*U215
 70
     1
 10
0.0
 20
0.0
 30
0.0
  3
*U215
  1

  0
TEXT
  5
67980
  8
0
  6
CONTINUOUS
 62
     3
 10
278.46844635980909
 20
132.6026783428575
 30
0.0
 40
3.0
  1
\U+220526
 50
90.0
  0
TEXT
  5
67981
  8
0
  6
CONTINUOUS
 62
     3
 10
275.87679281650207
 20
139.18767834285751
 30
0.0
 40
2.1000000000000001
  1
+0.4
 50
90.0
  0
TEXT
  5
67982
  8
0
  6
CONTINUOUS
 62
     3
 10
278.46844635980909
 20
139.18767834285751
 30
0.0
 40
2.1000000000000001
  1
-0
 50
90.0
  0
ENDBLK
  5
67984
  8
0
  0
BLOCK
  8
0
  2
*U216
 70
     1
 10
0.0
 20
0.0
 30
0.0
  3
*U216
  1

  0
TEXT
  5
67986
  8
0
  6
CONTINUOUS
 62
     3
 10
204.1064988826956
 20
130.22709394981729
 30
0.0
 40
3.0
  1
15
  0
ENDBLK
  5
67988
  8
0
  0
BLOCK
  8
0
  2
*U217
 70
     1
 10
0.0
 20
0.0
 30
0.0
  3
*U217
  1

  0
TEXT
  5
6798A
  8
0
  6
CONTINUOUS
 62
     3
 10
182.64863091705161
 20
146.22709394981729
 30
0.0
 40
3.0
  1
53
  0
TEXT
  5
6798B
  8
0
  6
CONTINUOUS
 62
     3
 10
186.5336309170516
 20
148.81874749312439
 30
0.0
 40
2.1000000000000001
  1
+0
  0
TEXT
  5
6798C
  8
0
  6
CONTINUOUS
 62
     3
 10
186.5336309170516
 20
146.22709394981729
 30
0.0
 40
2.1000000000000001
  1
-0.1
  0
ENDBLK
  5
6798E
  8
0
  0
BLOCK
  8
0
  2
*U218
 70
     1
 10
0.0
 20
0.0
 30
0.0
  3
*U218
  1

  0
TEXT
  5
67990
  8
0
  6
CONTINUOUS
 62
     3
 10
183.25263849300259
 20
138.2270939498174
 30
0.0
 40
3.0
  1
35.5
  0
TEXT
  5
67991
  8
0
  6
CONTINUOUS
 62
     3
 10
190.45263849300261
 20
138.2270939498174
 30
0.0
 40
2.1000000000000001
  1
¡¾0.03
  0
ENDBLK
  5
67993
  8
0
  0
BLOCK
  8
0
  2
*U219
 70
     1
 10
0.0
 20
0.0
 30
0.0
  3
*U219
  1

  0
TEXT
  5
67995
  8
0
  6
CONTINUOUS
 62
     3
 10
218.6186309170518
 20
138.2270939498174
 30
0.0
 40
3.0
  1
5.5
  0
ENDBLK
  5
67997
  8
0
  0
BLOCK
  8
0
  2
*U220
 70
     1
 10
0.0
 20
0.0
 30
0.0
  3
*U220
  1

  0
TEXT
  5
67999
  8
0
  6
CONTINUOUS
 62
     3
 10
148.26426538699019
 20
146.22709394981729
 30
0.0
 40
3.0
  1
15min
  0
ENDBLK
  5
6799B
  8
0
  0
BLOCK
  8
0
  2
*U221
 70
     1
 10
0.0
 20
0.0
 30
0.0
  3
*U221
  1

  0
TEXT
  5
6799D
  8
0
  6
CONTINUOUS
 62
     3
 10
174.80649888269551
 20
154.22709394981729
 30
0.0
 40
3.0
  1
73
  0
ENDBLK
  5
6799F
  8
0
  0
BLOCK
  8
0
  2
*U222
 70
     1
 10
0.0
 20
0.0
 30
0.0
  3
*U222
  1

  0
TEXT
  5
679A1
  8
0
  6
CONTINUOUS
 62
     3
 10
135.70876007429189
 20
60.323725137804288
 30
0.0
 40
3.0
  1
30¡Æ
 50
344.99999999999937
  0
ENDBLK
  5
679A3
  8
0
  0
BLOCK
  8
0
  2
*U223
 70
     1
 10
0.0
 20
0.0
 30
0.0
  3
*U223
  1

  0
TEXT
  5
679A5
  8
0
  6
CONTINUOUS
 62
     3
 10
178.20322669543779
 20
92.606214097375855
 30
0.0
 40
3.0
  1
2¡Æ
 50
271.0
  0
ENDBLK
  5
679A7
  8
0
  0
BLOCK
  8
0
  2
*U224
 70
     1
 10
0.0
 20
0.0
 30
0.0
  3
*U224
  1

  0
TEXT
  5
679A9
  8
0
  6
CONTINUOUS
 62
     3
 10
65.881915012579512
 20
214.8087143275028
 30
0.0
 40
3.0
  1
0.5
 50
87.000000000000924
  0
ENDBLK
  5
679AB
  8
0
  0
BLOCK
  8
0
  2
*U225
 70
     1
 10
0.0
 20
0.0
 30
0.0
  3
*U225
  1

  0
TEXT
  5
679AD
  8
0
  6
CONTINUOUS
 62
     3
 10
45.872719202992933
 20
245.7741491773819
 30
0.0
 40
3.0
  1
60¡Æ
 50
356.99999999999329
  0
ENDBLK
  5
679AF
  8
0
  0
BLOCK
  8
0
  2
*U226
 70
     1
 10
0.0
 20
0.0
 30
0.0
  3
*U226
  1

  0
TEXT
  5
679B1
  8
0
  6
CONTINUOUS
 62
     3
 10
47.17053390398673
 20
235.987338451185
 30
0.0
 40
3.0
  1
2
 50
357.00000000000091
  0
ENDBLK
  5
679B3
  8
0
  0
BLOCK
  8
0
  2
*U227
 70
     1
 10
0.0
 20
0.0
 30
0.0
  3
*U227
  1

  0
TEXT
  5
679B5
  8
0
  6
CONTINUOUS
 62
     3
 10
103.8622831503104
 20
233.70915663519449
 30
0.0
 40
3.0
  1
48
 50
50.000000000000249
  0
ENDBLK
  5
679B7
  8
0
  0
BLOCK
  8
0
  2
*U228
 70
     1
 10
0.0
 20
0.0
 30
0.0
  3
*U228
  1

  0
TEXT
  5
679B9
  8
0
  6
CONTINUOUS
 62
     3
 10
129.83515712622801
 20
248.52060093822291
 30
0.0
 40
3.0
  1
27.5
  0
ENDBLK
  5
679BB
  8
0
  0
BLOCK
  8
0
  2
*U229
 70
     1
 10
0.0
 20
0.0
 30
0.0
  3
*U229
  1

  0
TEXT
  5
679BD
  8
0
  6
CONTINUOUS
 62
     3
 10
158.39340662708531
 20
226.78837420436761
 30
0.0
 40
3.0
  1
50¡Æ
 50
294.99999999999989
  0
ENDBLK
  5
679BF
  8
0
  0
BLOCK
  8
0
  2
*U230
 70
     1
 10
0.0
 20
0.0
 30
0.0
  3
*U230
  1

  0
TEXT
  5
679C1
  8
0
  6
CONTINUOUS
 62
     3
 10
637.0736898491009
 20
52.942656473118149
 30
0.0
 40
3.0
  1
7
  0
ENDBLK
  5
679C3
  8
0
  0
BLOCK
  8
0
  2
*U231
 70
     1
 10
0.0
 20
0.0
 30
0.0
  3
*U231
  1

  0
TEXT
  5
679C5
  8
0
  6
CONTINUOUS
 62
     3
 10
650.27250874673859
 20
61.492656473118188
 30
0.0
 40
3.0
  1
(1.5)
  0
ENDBLK
  5
679C7
  8
0
  0
BLOCK
  8
0
  2
*U232
 70
     1
 10
0.0
 20
0.0
 30
0.0
  3
*U232
  1

  0
TEXT
  5
679C9
  8
0
  6
CONTINUOUS
 62
     3
 10
595.87368984910086
 20
44.942656473118163
 30
0.0
 40
3.0
  1
47
  0
ENDBLK
  5
679CB
  8
0
  0
BLOCK
  8
0
  2
*U233
 70
     1
 10
0.0
 20
0.0
 30
0.0
  3
*U233
  1

  0
TEXT
  5
679CD
  8
0
  6
CONTINUOUS
 62
     3
 10
588.63812784122706
 20
52.942656473118099
 30
0.0
 40
3.0
  1
35.5
  0
TEXT
  5
679CE
  8
0
  6
CONTINUOUS
 62
     3
 10
595.83812784122711
 20
52.942656473118099
 30
0.0
 40
2.1000000000000001
  1
¡¾0.02
  0
ENDBLK
  5
679D0
  8
0
  0
BLOCK
  8
0
  2
*U234
 70
     1
 10
0.0
 20
0.0
 30
0.0
  3
*U234
  1

  0
TEXT
  5
679D2
  8
0
  6
CONTINUOUS
 62
     3
 10
614.44868984910113
 20
61.092656473118161
 30
0.0
 40
3.0
  1
(10.075)
  0
ENDBLK
  5
679D4
  8
0
  0
BLOCK
  8
0
  2
*U235
 70
     1
 10
0.0
 20
0.0
 30
0.0
  3
*U235
  1

  0
TEXT
  5
679D6
  8
0
  6
CONTINUOUS
 62
     3
 10
618.32721977143899
 20
67.479707180296359
 30
0.0
 40
3.0
  1
R0.5
 50
42.237755721102943
  0
TEXT
  5
679D7
  8
0
  6
CONTINUOUS
 62
     3
 10
621.90458747190576
 20
74.228287284599233
 30
0.0
 40
2.1000000000000001
  1
+0.1
 50
42.237755721102943
  0
TEXT
  5
679D8
  8
0
  6
CONTINUOUS
 62
     3
 10
623.64671928557493
 20
72.309526009104374
 30
0.0
 40
2.1000000000000001
  1
-0
 50
42.237755721102943
  0
ENDBLK
  5
679DA
  8
0
  0
BLOCK
  8
0
  2
*U236
 70
     1
 10
0.0
 20
0.0
 30
0.0
  3
*U236
  1

  0
TEXT
  5
679DC
  8
0
  6
CONTINUOUS
 62
     3
 10
682.02330400913638
 20
101.5676817631889
 30
0.0
 40
3.0
  1
\U+220531.4
 50
90.0
  0
TEXT
  5
679DD
  8
0
  6
CONTINUOUS
 62
     3
 10
679.32706385165613
 20
110.8526817631889
 30
0.0
 40
2.1000000000000001
  1
-0.01
 50
90.0
  0
TEXT
  5
679DE
  8
0
  6
CONTINUOUS
 62
     3
 10
682.02330400913638
 20
110.8526817631889
 30
0.0
 40
2.1000000000000001
  1
-0.02
 50
90.0
  0
ENDBLK
  5
679E0
  8
0
  0
BLOCK
  8
0
  2
*U237
 70
     1
 10
0.0
 20
0.0
 30
0.0
  3
*U237
  1

  0
TEXT
  5
679E2
  8
0
  6
CONTINUOUS
 62
     3
 10
617.87142533109875
 20
82.951502774951763
 30
0.0
 40
3.0
  1
9.2
  0
TEXT
  5
679E3
  8
0
  6
CONTINUOUS
 62
     3
 10
622.9819083225816
 20
82.951502774951763
 30
0.0
 40
2.1000000000000001
  1
¡¾0.05
  0
ENDBLK
  5
679E5
  8
0
  0
BLOCK
  8
0
  2
*U238
 70
     1
 10
0.0
 20
0.0
 30
0.0
  3
*U238
  1

  0
TEXT
  5
679E7
  8
0
  6
CONTINUOUS
 62
     3
 10
730.06330463457334
 20
130.49203291875821
 30
0.0
 40
3.0
  1
30¡Æ
 50
14.999999999997391
  0
ENDBLK
  5
679E9
  8
0
  0
BLOCK
  8
0
  2
*U239
 70
     1
 10
0.0
 20
0.0
 30
0.0
  3
*U239
  1

  0
TEXT
  5
679EB
  8
0
  6
CONTINUOUS
 62
     3
 10
746.64058503676097
 20
132.24562663906471
 30
0.0
 40
3.0
  1
1
  0
ENDBLK
  5
679ED
  8
0
  0
BLOCK
  8
0
  2
*U240
 70
     1
 10
0.0
 20
0.0
 30
0.0
  3
*U240
  1

  0
TEXT
  5
679EF
  8
0
  6
CONTINUOUS
 62
     3
 10
363.24827938149519
 20
178.76969078412691
 30
0.0
 40
3.0
  1
R0.4
 50
312.66855132996989
  0
TEXT
  5
679F0
  8
0
  6
CONTINUOUS
 62
     3
 10
370.226892850963
 20
175.0225789453506
 30
0.0
 40
2.1000000000000001
  1
+0.1
 50
312.66855132996989
  0
TEXT
  5
679F1
  8
0
  6
CONTINUOUS
 62
     3
 10
368.3212844316447
 20
173.2660697251188
 30
0.0
 40
2.1000000000000001
  1
-0
 50
312.66855132996989
  0
ENDBLK
  5
679F3
  8
0
  0
BLOCK
  8
0
  2
*U241
 70
     1
 10
0.0
 20
0.0
 30
0.0
  3
*U241
  1

  0
TEXT
  5
679F5
  8
0
  6
CONTINUOUS
 62
     3
 10
371.82976914357403
 20
181.34439787627659
 30
0.0
 40
3.0
  1
15¡Æ
 50
58.019816355069821
  0
ENDBLK
  5
679F7
  8
0
  0
BLOCK
  8
0
  2
*U242
 70
     1
 10
0.0
 20
0.0
 30
0.0
  3
*U242
  1

  0
TEXT
  5
679F9
  8
0
  6
CONTINUOUS
 62
     3
 10
393.01307868325807
 20
179.50452690070529
 30
0.0
 40
3.0
  1
\U+220525.4
 50
90.0
  0
ENDBLK
  5
679FB
  8
0
  0
BLOCK
  8
0
  2
*U243
 70
     1
 10
0.0
 20
0.0
 30
0.0
  3
*U243
  1

  0
TEXT
  5
679FD
  8
0
  6
CONTINUOUS
 62
     3
 10
340.95383088160122
 20
210.53722451502799
 30
0.0
 40
3.0
  1
R0.5
 50
310.81727217728519
  0
ENDBLK
  5
679FF
  8
0
  0
BLOCK
  8
0
  2
*U244
 70
     1
 10
0.0
 20
0.0
 30
0.0
  3
*U244
  1

  0
TEXT
  5
67A01
  8
0
  6
CONTINUOUS
 62
     3
 10
316.61608026069149
 20
204.52355399643119
 30
0.0
 40
3.0
  1
R0.5
 50
316.6108168953341
  0
ENDBLK
  5
67A03
  8
0
  0
BLOCK
  8
0
  2
*U245
 70
     1
 10
0.0
 20
0.0
 30
0.0
  3
*U245
  1

  0
TEXT
  5
67A05
  8
0
  6
CONTINUOUS
 62
     3
 10
319.19216097001993
 20
216.38827608941159
 30
0.0
 40
3.0
  1
4.5
  0
ENDBLK
  5
67A07
  8
0
  0
BLOCK
  8
0
  2
*U246
 70
     1
 10
0.0
 20
0.0
 30
0.0
  3
*U246
  1

  0
TEXT
  5
67A09
  8
0
  6
CONTINUOUS
 62
     3
 10
302.92504144515868
 20
203.5595079185818
 30
0.0
 40
3.0
  1
15¡Æ
 50
70.892977241990081
  0
ENDBLK
  5
67A0B
  8
0
  0
BLOCK
  8
0
  2
*U247
 70
     1
 10
0.0
 20
0.0
 30
0.0
  3
*U247
  1

  0
TEXT
  5
67A0D
  8
0
  6
CONTINUOUS
 62
     3
 10
311.8300289356639
 20
208.39244361068691
 30
0.0
 40
3.0
  1
3.5*\U+220523
  0
ENDBLK
  5
67A0F
  8
0
  0
BLOCK
  8
0
  2
*U248
 70
     1
 10
0.0
 20
0.0
 30
0.0
  3
*U248
  1

  0
TEXT
  5
67A11
  8
0
  6
CONTINUOUS
 62
     3
 10
337.34216097001979
 20
216.39244361068691
 30
0.0
 40
3.0
  1
7.5
  0
ENDBLK
  5
67A13
  8
0
  0
BLOCK
  8
0
  2
*U249
 70
     1
 10
0.0
 20
0.0
 30
0.0
  3
*U249
  1

  0
TEXT
  5
67A15
  8
0
  6
CONTINUOUS
 62
     3
 10
325.49855489721199
 20
172.89736161631711
 30
0.0
 40
3.0
  1
\U+220519.4
 50
90.0
  0
ENDBLK
  5
67A17
  8
0
  0
BLOCK
  8
0
  2
*U250
 70
     1
 10
0.0
 20
0.0
 30
0.0
  3
*U250
  1

  0
TEXT
  5
67A19
  8
0
  6
CONTINUOUS
 62
     3
 10
385.01307868325802
 20
175.39411068800939
 30
0.0
 40
3.0
  1
\U+220524
 50
90.0
  0
TEXT
  5
67A1A
  8
0
  6
CONTINUOUS
 62
     3
 10
382.421425139951
 20
182.27911068800941
 30
0.0
 40
2.1000000000000001
  1
+0.05
 50
90.0
  0
TEXT
  5
67A1B
  8
0
  6
CONTINUOUS
 62
     3
 10
385.01307868325802
 20
182.27911068800941
 30
0.0
 40
2.1000000000000001
  1
-0
 50
90.0
  0
ENDBLK
  5
67A1D
  8
0
  0
BLOCK
  8
0
  2
*U251
 70
     1
 10
0.0
 20
0.0
 30
0.0
  3
*U251
  1

  0
TEXT
  5
67A1F
  8
0
  6
CONTINUOUS
 62
     3
 10
375.62619131514998
 20
107.3948159887417
 30
0.0
 40
3.0
  1
13
 50
290.00000000000028
  0
ENDBLK
  5
67A21
  8
0
  0
BLOCK
  8
0
  2
*U252
 70
     1
 10
0.0
 20
0.0
 30
0.0
  3
*U252
  1

  0
TEXT
  5
67A23
  8
0
  6
CONTINUOUS
 62
     3
 10
245.02008971165489
 20
231.80764870397201
 30
0.0
 40
3.0
  1
21.02
 50
90.0
  0
ENDBLK
  5
67A25
  8
0
  0
BLOCK
  8
0
  2
*U253
 70
     1
 10
0.0
 20
0.0
 30
0.0
  3
*U253
  1

  0
TEXT
  5
67A27
  8
0
  6
CONTINUOUS
 62
     3
 10
261.1138234916171
 20
258.59033121224718
 30
0.0
 40
3.0
  1
18
  0
ENDBLK
  5
67A29
  8
0
  0
BLOCK
  8
0
  2
*U254
 70
     1
 10
0.0
 20
0.0
 30
0.0
  3
*U254
  1

  0
TEXT
  5
67A2B
  8
0
  6
CONTINUOUS
 62
     3
 10
226.00772660819939
 20
245.4579958209722
 30
0.0
 40
3.0
  1
60¡Æ
 50
60.000000000000099
  0
ENDBLK
  5
67A2D
  8
0
  0
BLOCK
  8
0
  2
*U255
 70
     1
 10
0.0
 20
0.0
 30
0.0
  3
*U255
  1

  0
TEXT
  5
67A4F
  8
0
  6
CONTINUOUS
 62
     3
 10
75.955812020503458
 20
188.9825979848176
 30
0.0
 40
3.0
  1
2
 50
357.00000000000108
  0
ENDBLK
  5
67A51
  8
0
  0
BLOCK
  8
0
  2
*U256
 70
     1
 10
0.0
 20
0.0
 30
0.0
  3
*U256
  1

  0
TEXT
  5
67A53
  8
0
  6
CONTINUOUS
 62
     3
 10
65.460081791019235
 20
189.53265589809851
 30
0.0
 40
3.0
  1
5
 50
357.00000000000108
  0
ENDBLK
  5
67A55
  8
0
  0
BLOCK
  8
0
  2
*U257
 70
     1
 10
0.0
 20
0.0
 30
0.0
  3
*U257
  1

  0
TEXT
  5
67A57
  8
0
  6
CONTINUOUS
 62
     3
 10
54.984591790657397
 20
190.08165306591931
 30
0.0
 40
3.0
  1
2
 50
357.00000000000108
  0
ENDBLK
  5
67A59
  8
0
  0
BLOCK
  8
0
  2
*X258
 70
     1
 10
0.0
 20
0.0
 30
0.0
  3
*X258
  1

  0
LINE
  5
67A61
  8
0
  6
CONTINUOUS
 62
     0
 10
79.448998409797639
 20
175.8227360280886
 30
0.0
 11
81.897982584308693
 21
178.02781128323971
 31
0.0
  0
LINE
  5
67A62
  8
0
  6
CONTINUOUS
 62
     0
 10
78.86062001992812
 20
175.29295774627261
 30
0.0
 11
79.209959339442008
 21
175.60750428239521
 31
0.0
  0
LINE
  5
67A63
  8
0
  6
CONTINUOUS
 62
     0
 10
81.897982584308693
 20
178.02781128323971
 30
0.0
 11
85.022527832778422
 21
180.84116446155349
 31
0.0
  0
LINE
  5
67A64
  8
0
  6
CONTINUOUS
 62
     0
 10
77.801067813701906
 20
174.33893265464189
 30
0.0
 11
78.86062001992812
 21
175.29295774627261
 31
0.0
  0
LINE
  5
67A65
  8
0
  6
CONTINUOUS
 62
     0
 10
74.922271644475813
 20
175.11093476517749
 30
0.0
 11
81.490037454055539
 21
181.02457766212419
 31
0.0
  0
LINE
  5
67A66
  8
0
  6
CONTINUOUS
 62
     0
 10
73.110154647456653
 20
173.47929729232061
 30
0.0
 11
74.922271644475813
 21
175.11093476517749
 31
0.0
  0
LINE
  5
67A67
  8
0
  6
CONTINUOUS
 62
     0
 10
72.625622509998493
 20
176.40710442017689
 30
0.0
 11
76.384702437101154
 21
179.791795189379
 31
0.0
  0
LINE
  5
67A68
  8
0
  6
CONTINUOUS
 62
     0
 10
69.352585089295872
 20
173.46004828943811
 30
0.0
 11
72.625622509998465
 21
176.40710442017689
 31
0.0
  0
LINE
  5
67A69
  8
0
  6
CONTINUOUS
 62
     0
 10
71.161073441257457
 20
178.4525003396258
 30
0.0
 11
73.111203614469815
 21
180.2084054344935
 31
0.0
  0
LINE
  5
67A6A
  8
0
  6
CONTINUOUS
 62
     0
 10
65.695054892856533
 20
173.53087513243861
 30
0.0
 11
71.161073441257457
 21
178.4525003396258
 31
0.0
  0
LINE
  5
67A6B
  8
0
  6
CONTINUOUS
 62
     0
 10
70.697714684999241
 20
181.399372065546
 30
0.0
 11
70.899773514416225
 21
181.58130665273919
 31
0.0
  0
LINE
  5
67A6C
  8
0
  6
CONTINUOUS
 62
     0
 10
62.281581947226087
 20
173.82145211110759
 30
0.0
 11
70.697714684999241
 21
181.399372065546
 31
0.0
  0
LINE
  5
67A6D
  8
0
  6
CONTINUOUS
 62
     0
 10
58.868109001595592
 20
174.1120290897766
 30
0.0
 11
67.369084934825565
 21
181.76634220053549
 31
0.0
  0
LINE
  5
67A6E
  8
0
  6
CONTINUOUS
 62
     0
 10
55.454636055965132
 20
174.40260606844561
 30
0.0
 11
63.838396355234877
 21
181.95137774833179
 31
0.0
  0
LINE
  5
67A6F
  8
0
  6
CONTINUOUS
 62
     0
 10
59.270271356341802
 20
181.20230134848629
 30
0.0
 11
60.262414585621841
 21
182.09563112465281
 31
0.0
  0
LINE
  5
67A70
  8
0
  6
CONTINUOUS
 62
     0
 10
52.268655370747076
 20
174.89801799843639
 30
0.0
 11
58.750810409307647
 21
180.73457661092201
 31
0.0
  0
LINE
  5
67A71
  8
0
  6
CONTINUOUS
 62
     0
 10
49.538057893634843
 20
175.80345881071099
 30
0.0
 11
55.200570959557439
 21
180.90200847615711
 31
0.0
  0
LINE
  5
67A72
  8
0
  6
CONTINUOUS
 62
     0
 10
51.669882379966822
 20
181.0870440239535
 30
0.0
 11
52.066330949114437
 21
181.4440079189701
 31
0.0
  0
LINE
  5
67A73
  8
0
  6
CONTINUOUS
 62
     0
 10
46.807460416522652
 20
176.70889962298571
 30
0.0
 11
51.669882379966822
 21
181.0870440239535
 31
0.0
  0
LINE
  5
67A74
  8
0
  6
CONTINUOUS
 62
     0
 10
48.139193800376191
 20
181.2720795717498
 30
0.0
 11
49.715642036872822
 21
182.69151993951749
 31
0.0
  0
LINE
  5
67A75
  8
0
  6
CONTINUOUS
 62
     0
 10
44.542306831653839
 20
178.03342799823
 30
0.0
 11
48.139193800376169
 21
181.2720795717498
 31
0.0
  0
LINE
  5
67A76
  8
0
  6
CONTINUOUS
 62
     0
 10
45.708502497744867
 20
182.44755711643691
 30
0.0
 11
46.184953457281978
 21
182.87655548731371
 31
0.0
  0
LINE
  5
67A77
  8
0
  6
CONTINUOUS
 62
     0
 10
42.967144792686248
 20
179.97922755193511
 30
0.0
 11
45.708502497744838
 21
182.44755711643691
 31
0.0
  0
LINE
  5
67A78
  8
0
  6
CONTINUOUS
 62
     0
 10
42.010716955004298
 20
182.48213788282311
 30
0.0
 11
42.654264877691112
 21
183.0615910351099
 31
0.0
  0
ENDBLK
  5
67A7A
  8
0
  0
BLOCK
  8
0
  2
*U259
 70
     1
 10
0.0
 20
0.0
 30
0.0
  3
*U259
  1

  0
TEXT
  5
67A7C
  8
0
  6
CONTINUOUS
 62
     3
 10
150.61744981468931
 20
-166.0542916371096
 30
0.0
 40
3.0
  1
120
  0
ENDBLK
  5
67A7E
  8
0
  0
BLOCK
  8
0
  2
*U260
 70
     1
 10
0.0
 20
0.0
 30
0.0
  3
*U260
  1

  0
TEXT
  5
67A80
  8
0
  6
CONTINUOUS
 62
     3
 10
54.721262662223168
 20
-166.0542916371096
 30
0.0
 40
3.0
  1
68.25
  0
ENDBLK
  5
67A82
  8
0
  0
BLOCK
  8
0
  2
*U261
 70
     1
 10
0.0
 20
0.0
 30
0.0
  3
*U261
  1

  0
TEXT
  5
67A84
  8
0
  6
CONTINUOUS
 62
     3
 10
113.8814988826956
 20
-174.05429163710949
 30
0.0
 40
3.0
  1
188.25
  0
ENDBLK
  5
67A86
  8
0
  0
BLOCK
  8
0
  2
*U262
 70
     1
 10
0.0
 20
0.0
 30
0.0
  3
*U262
  1

  0
TEXT
  5
67A88
  8
0
  6
CONTINUOUS
 62
     3
 10
125.3390278407597
 20
-134.61644441302491
 30
0.0
 40
3.0
  1
\U+220549.5
 50
90.0
  0
TEXT
  5
67A89
  8
0
  6
CONTINUOUS
 62
     3
 10
125.3390278407597
 20
-124.4059614215421
 30
0.0
 40
2.1000000000000001
  1
¡¾0.05
 50
90.0
  0
ENDBLK
  5
67A8B
  8
0
  0
BLOCK
  8
0
  2
*U263
 70
     1
 10
0.0
 20
0.0
 30
0.0
  3
*U263
  1

  0
TEXT
  5
67A8D
  8
0
  6
CONTINUOUS
 62
     3
 10
82.224182124350847
 20
-127.67403202786269
 30
0.0
 40
3.0
  1
\U+220513.5
 50
90.0
  0
TEXT
  5
67A8E
  8
0
  6
CONTINUOUS
 62
     3
 10
79.632528581043744
 20
-118.68903202786269
 30
0.0
 40
2.1000000000000001
  1
+0
 50
90.0
  0
TEXT
  5
67A8F
  8
0
  6
CONTINUOUS
 62
     3
 10
82.224182124350847
 20
-118.68903202786269
 30
0.0
 40
2.1000000000000001
  1
-0.1
 50
90.0
  0
ENDBLK
  5
67A91
  8
0
  0
BLOCK
  8
0
  2
*U264
 70
     1
 10
0.0
 20
0.0
 30
0.0
  3
*U264
  1

  0
TEXT
  5
67A93
  8
0
  6
CONTINUOUS
 62
     3
 10
176.36744981468931
 20
-158.0542916371096
 30
0.0
 40
3.0
  1
70
  0
ENDBLK
  5
67A95
  8
0
  0
BLOCK
  8
0
  2
*U265
 70
     1
 10
0.0
 20
0.0
 30
0.0
  3
*U265
  1

  0
TEXT
  5
67A97
  8
0
  6
CONTINUOUS
 62
     3
 10
242.33963122390679
 20
-125.3994745824413
 30
0.0
 40
3.0
  1
\U+220524
 50
90.0
  0
TEXT
  5
67A98
  8
0
  6
CONTINUOUS
 62
     3
 10
239.74797768059969
 20
-118.5144745824413
 30
0.0
 40
2.1000000000000001
  1
+0.05
 50
90.0
  0
TEXT
  5
67A99
  8
0
  6
CONTINUOUS
 62
     3
 10
242.33963122390679
 20
-118.5144745824413
 30
0.0
 40
2.1000000000000001
  1
-0
 50
90.0
  0
ENDBLK
  5
67A9B
  8
0
  0
BLOCK
  8
0
  2
*U266
 70
     1
 10
0.0
 20
0.0
 30
0.0
  3
*U266
  1

  0
TEXT
  5
67A9D
  8
0
  6
CONTINUOUS
 62
     3
 10
250.73963122390771
 20
-126.61904416626641
 30
0.0
 40
3.0
  1
\U+220531.4
 50
90.0
  0
TEXT
  5
67A9E
  8
0
  6
CONTINUOUS
 62
     3
 10
248.0433910664274
 20
-117.33404416626639
 30
0.0
 40
2.1000000000000001
  1
+0.05
 50
90.0
  0
TEXT
  5
67A9F
  8
0
  6
CONTINUOUS
 62
     3
 10
250.73963122390771
 20
-117.33404416626639
 30
0.0
 40
2.1000000000000001
  1
+0.02
 50
90.0
  0
ENDBLK
  5
67AA1
  8
0
  0
BLOCK
  8
0
  2
*U267
 70
     1
 10
0.0
 20
0.0
 30
0.0
  3
*U267
  1

  0
TEXT
  5
67AA3
  8
0
  6
CONTINUOUS
 62
     3
 10
153.40304369984571
 20
-134.01550105110769
 30
0.0
 40
3.0
  1
(\U+220541.34)
 50
90.0
  0
ENDBLK
  5
67AA5
  8
0
  0
BLOCK
  8
0
  2
*U268
 70
     1
 10
0.0
 20
0.0
 30
0.0
  3
*U268
  1

  0
TEXT
  5
67AA7
  8
0
  6
CONTINUOUS
 62
     3
 10
217.3989330701969
 20
-138.6738757100905
 30
0.0
 40
3.0
  1
R0.5
 50
315.17497972704871
  0
ENDBLK
  5
67AA9
  8
0
  0
BLOCK
  8
0
  2
*U269
 70
     1
 10
0.0
 20
0.0
 30
0.0
  3
*U269
  1

  0
TEXT
  5
67AAB
  8
0
  6
CONTINUOUS
 62
     3
 10
234.7396312239068
 20
-129.25311419274831
 30
0.0
 40
3.0
  1
14.3
 50
90.0
  0
ENDBLK
  5
67AAD
  8
0
  0
BLOCK
  8
0
  2
*U270
 70
     1
 10
0.0
 20
0.0
 30
0.0
  3
*U270
  1

  0
TEXT
  5
67AAF
  8
0
  6
CONTINUOUS
 62
     3
 10
226.7396312239068
 20
-123.9531141927482
 30
0.0
 40
3.0
  1
5.5
 50
90.0
  0
ENDBLK
  5
67AB1
  8
0
  0
BLOCK
  8
0
  2
*U271
 70
     1
 10
0.0
 20
0.0
 30
0.0
  3
*U271
  1

  0
TEXT
  5
67AB3
  8
0
  6
CONTINUOUS
 62
     3
 10
191.126340888991
 20
-124.0243110705004
 30
0.0
 40
3.0
  1
30¡Æ
 50
284.99999999999972
  0
ENDBLK
  5
67AB5
  8
0
  0
BLOCK
  8
0
  2
*U272
 70
     1
 10
0.0
 20
0.0
 30
0.0
  3
*U272
  1

  0
TEXT
  5
67AB7
  8
0
  6
CONTINUOUS
 62
     3
 10
204.1064988826956
 20
-86.725280226073295
 30
0.0
 40
3.0
  1
15
  0
ENDBLK
  5
67AB9
  8
0
  0
BLOCK
  8
0
  2
*U273
 70
     1
 10
0.0
 20
0.0
 30
0.0
  3
*U273
  1

  0
TEXT
  5
67ABB
  8
0
  6
CONTINUOUS
 62
     3
 10
182.64863091705161
 20
-70.725280226073295
 30
0.0
 40
3.0
  1
53
  0
TEXT
  5
67ABC
  8
0
  6
CONTINUOUS
 62
     3
 10
186.5336309170516
 20
-68.133626682766206
 30
0.0
 40
2.1000000000000001
  1
+0
  0
TEXT
  5
67ABD
  8
0
  6
CONTINUOUS
 62
     3
 10
186.5336309170516
 20
-70.725280226073295
 30
0.0
 40
2.1000000000000001
  1
-0.1
  0
ENDBLK
  5
67ABF
  8
0
  0
BLOCK
  8
0
  2
*U274
 70
     1
 10
0.0
 20
0.0
 30
0.0
  3
*U274
  1

  0
TEXT
  5
67AC1
  8
0
  6
CONTINUOUS
 62
     3
 10
183.25263849300259
 20
-78.725280226073295
 30
0.0
 40
3.0
  1
35.5
  0
TEXT
  5
67AC2
  8
0
  6
CONTINUOUS
 62
     3
 10
190.45263849300261
 20
-78.725280226073295
 30
0.0
 40
2.1000000000000001
  1
¡¾0.03
  0
ENDBLK
  5
67AC4
  8
0
  0
BLOCK
  8
0
  2
*U275
 70
     1
 10
0.0
 20
0.0
 30
0.0
  3
*U275
  1

  0
TEXT
  5
67AC6
  8
0
  6
CONTINUOUS
 62
     3
 10
218.6186309170518
 20
-78.725280226073295
 30
0.0
 40
3.0
  1
5.5
  0
ENDBLK
  5
67AC8
  8
0
  0
BLOCK
  8
0
  2
*U276
 70
     1
 10
0.0
 20
0.0
 30
0.0
  3
*U276
  1

  0
TEXT
  5
67ACA
  8
0
  6
CONTINUOUS
 62
     3
 10
148.26426538699019
 20
-70.725280226073295
 30
0.0
 40
3.0
  1
15min
  0
ENDBLK
  5
67ACC
  8
0
  0
BLOCK
  8
0
  2
*U277
 70
     1
 10
0.0
 20
0.0
 30
0.0
  3
*U277
  1

  0
TEXT
  5
67ACE
  8
0
  6
CONTINUOUS
 62
     3
 10
174.80649888269551
 20
-62.725280226073281
 30
0.0
 40
3.0
  1
73
  0
ENDBLK
  5
67AD0
  8
0
  0
BLOCK
  8
0
  2
*U278
 70
     1
 10
0.0
 20
0.0
 30
0.0
  3
*U278
  1

  0
TEXT
  5
67AD2
  8
0
  6
CONTINUOUS
 62
     3
 10
135.708760074292
 20
-156.62864903808631
 30
0.0
 40
3.0
  1
30¡Æ
 50
344.99999999999949
  0
ENDBLK
  5
67AD4
  8
0
  0
BLOCK
  8
0
  2
*U279
 70
     1
 10
0.0
 20
0.0
 30
0.0
  3
*U279
  1

  0
TEXT
  5
67AD6
  8
0
  6
CONTINUOUS
 62
     3
 10
178.20322669543771
 20
-124.3461600785146
 30
0.0
 40
3.0
  1
2¡Æ
 50
270.99999999999989
  0
ENDBLK
  5
67AD8
  8
0
  0
BLOCK
  8
0
  2
*U280
 70
     1
 10
0.0
 20
0.0
 30
0.0
  3
*U280
  1

  0
TEXT
  5
67ADA
  8
0
  6
CONTINUOUS
 62
     3
 10
395.33582687973052
 20
-143.41949443485561
 30
0.0
 40
3.0
  1
\U+220518
 50
90.0
  0
ENDBLK
  5
67ADC
  8
0
  0
BLOCK
  8
0
  2
*U281
 70
     1
 10
0.0
 20
0.0
 30
0.0
  3
*U281
  1

  0
TEXT
  5
67ADE
  8
0
  6
CONTINUOUS
 62
     3
 10
411.18582687973048
 20
-154.95599176071411
 30
0.0
 40
3.0
  1
\U+220519.05
 50
90.0
  0
TEXT
  5
67ADF
  8
0
  6
CONTINUOUS
 62
     3
 10
408.48958672225018
 20
-143.8605087692313
 30
0.0
 40
2.1000000000000001
  1
+0.009
 50
90.0
  0
TEXT
  5
67AE0
  8
0
  6
CONTINUOUS
 62
     3
 10
411.18582687973048
 20
-143.8605087692313
 30
0.0
 40
2.1000000000000001
  1
+0.002
 50
90.0
  0
TEXT
  5
67AE1
  8
0
  6
CONTINUOUS
 62
     3
 10
411.18582687973048
 20
-135.73181600663469
 30
0.0
 40
3.0
  1
(Á¤»è)
 50
90.0
  0
ENDBLK
  5
67AE3
  8
0
  0
BLOCK
  8
0
  2
*U282
 70
     1
 10
0.0
 20
0.0
 30
0.0
  3
*U282
  1

  0
TEXT
  5
67AE5
  8
0
  6
CONTINUOUS
 62
     3
 10
419.3358268797304
 20
-148.29755644272959
 30
0.0
 40
3.0
  1
\U+220531.4
 50
90.0
  0
TEXT
  5
67AE6
  8
0
  6
CONTINUOUS
 62
     3
 10
416.6395867222501
 20
-139.01255644272959
 30
0.0
 40
2.1000000000000001
  1
-0.01
 50
90.0
  0
TEXT
  5
67AE7
  8
0
  6
CONTINUOUS
 62
     3
 10
419.3358268797304
 20
-139.01255644272959
 30
0.0
 40
2.1000000000000001
  1
-0.02
 50
90.0
  0
ENDBLK
  5
67AE9
  8
0
  0
BLOCK
  8
0
  2
*U283
 70
     1
 10
0.0
 20
0.0
 30
0.0
  3
*U283
  1

  0
TEXT
  5
67AEB
  8
0
  6
CONTINUOUS
 62
     3
 10
374.38621271969492
 20
-196.92258173280041
 30
0.0
 40
3.0
  1
7
  0
ENDBLK
  5
67AED
  8
0
  0
BLOCK
  8
0
  2
*U284
 70
     1
 10
0.0
 20
0.0
 30
0.0
  3
*U284
  1

  0
TEXT
  5
67AEF
  8
0
  6
CONTINUOUS
 62
     3
 10
387.5850316173325
 20
-188.3725817328004
 30
0.0
 40
3.0
  1
(1.5)
  0
ENDBLK
  5
67AF1
  8
0
  0
BLOCK
  8
0
  2
*U285
 70
     1
 10
0.0
 20
0.0
 30
0.0
  3
*U285
  1

  0
TEXT
  5
67AF3
  8
0
  6
CONTINUOUS
 62
     3
 10
333.18621271969482
 20
-204.92258173280041
 30
0.0
 40
3.0
  1
47
  0
ENDBLK
  5
67AF5
  8
0
  0
BLOCK
  8
0
  2
*U286
 70
     1
 10
0.0
 20
0.0
 30
0.0
  3
*U286
  1

  0
TEXT
  5
67AF7
  8
0
  6
CONTINUOUS
 62
     3
 10
325.95065071182103
 20
-196.92258173280041
 30
0.0
 40
3.0
  1
35.5
  0
TEXT
  5
67AF8
  8
0
  6
CONTINUOUS
 62
     3
 10
333.15065071182102
 20
-196.92258173280041
 30
0.0
 40
2.1000000000000001
  1
¡¾0.02
  0
ENDBLK
  5
67AFA
  8
0
  0
BLOCK
  8
0
  2
*U287
 70
     1
 10
0.0
 20
0.0
 30
0.0
  3
*U287
  1

  0
TEXT
  5
67AFC
  8
0
  6
CONTINUOUS
 62
     3
 10
290.17408068533888
 20
-196.92258173280041
 30
0.0
 40
3.0
  1
4.5
  0
ENDBLK
  5
67AFE
  8
0
  0
BLOCK
  8
0
  2
*U288
 70
     1
 10
0.0
 20
0.0
 30
0.0
  3
*U288
  1

  0
TEXT
  5
67B00
  8
0
  6
CONTINUOUS
 62
     3
 10
304.52022029564552
 20
-178.4225817328005
 30
0.0
 40
3.0
  1
8.4
  0
TEXT
  5
67B01
  8
0
  6
CONTINUOUS
 62
     3
 10
309.92022029564549
 20
-178.4225817328005
 30
0.0
 40
2.1000000000000001
  1
¡¾0.05
  0
ENDBLK
  5
67B03
  8
0
  0
BLOCK
  8
0
  2
*U289
 70
     1
 10
0.0
 20
0.0
 30
0.0
  3
*U289
  1

  0
TEXT
  5
67B05
  8
0
  6
CONTINUOUS
 62
     3
 10
355.18394820169277
 20
-166.91373543096671
 30
0.0
 40
3.0
  1
9.2
  0
TEXT
  5
67B06
  8
0
  6
CONTINUOUS
 62
     3
 10
360.29443119317563
 20
-166.91373543096671
 30
0.0
 40
2.1000000000000001
  1
¡¾0.05
  0
ENDBLK
  5
67B08
  8
0
  0
BLOCK
  8
0
  2
*U290
 70
     1
 10
0.0
 20
0.0
 30
0.0
  3
*U290
  1

  0
TEXT
  5
67B0A
  8
0
  6
CONTINUOUS
 62
     3
 10
305.3362127196948
 20
-188.7725817328004
 30
0.0
 40
3.0
  1
(10.15)
  0
ENDBLK
  5
67B0C
  8
0
  0
BLOCK
  8
0
  2
*U291
 70
     1
 10
0.0
 20
0.0
 30
0.0
  3
*U291
  1

  0
TEXT
  5
67B0E
  8
0
  6
CONTINUOUS
 62
     3
 10
351.76121271969498
 20
-188.7725817328004
 30
0.0
 40
3.0
  1
(10.075)
  0
ENDBLK
  5
67B10
  8
0
  0
BLOCK
  8
0
  2
*U292
 70
     1
 10
0.0
 20
0.0
 30
0.0
  3
*U292
  1

  0
TEXT
  5
67B12
  8
0
  6
CONTINUOUS
 62
     3
 10
287.2496712365201
 20
-188.92258173280041
 30
0.0
 40
3.0
  1
1.5
  0
ENDBLK
  5
67B14
  8
0
  0
BLOCK
  8
0
  2
*U293
 70
     1
 10
0.0
 20
0.0
 30
0.0
  3
*U293
  1

  0
TEXT
  5
67B16
  8
0
  6
CONTINUOUS
 62
     3
 10
355.63974264203159
 20
-182.38553102562059
 30
0.0
 40
3.0
  1
R0.5
 50
42.237755721096619
  0
TEXT
  5
67B17
  8
0
  6
CONTINUOUS
 62
     3
 10
359.21711034249932
 20
-175.6369509213182
 30
0.0
 40
2.1000000000000001
  1
+0.1
 50
42.237755721096619
  0
TEXT
  5
67B18
  8
0
  6
CONTINUOUS
 62
     3
 10
360.95924215616799
 20
-177.5557121968132
 30
0.0
 40
2.1000000000000001
  1
-0
 50
42.237755721096619
  0
ENDBLK
  5
67B1A
  8
0
  0
BLOCK
  8
0
  2
*U294
 70
     1
 10
0.0
 20
0.0
 30
0.0
  3
*U294
  1

  0
TEXT
  5
67B1C
  8
0
  6
CONTINUOUS
 62
     3
 10
279.24535642306739
 20
-144.98686796495301
 30
0.0
 40
3.0
  1
\U+220519.5
 50
90.0
  0
ENDBLK
  5
67B1E
  8
0
  0
BLOCK
  8
0
  2
*U295
 70
     1
 10
0.0
 20
0.0
 30
0.0
  3
*U295
  1

  0
TEXT
  5
67B20
  8
0
  6
CONTINUOUS
 62
     3
 10
271.24535642306739
 20
-148.14755644272961
 30
0.0
 40
3.0
  1
\U+220521.5
 50
90.0
  0
TEXT
  5
67B21
  8
0
  6
CONTINUOUS
 62
     3
 10
268.54911626558709
 20
-139.16255644272971
 30
0.0
 40
2.1000000000000001
  1
-0.01
 50
90.0
  0
TEXT
  5
67B22
  8
0
  6
CONTINUOUS
 62
     3
 10
271.24535642306739
 20
-139.16255644272971
 30
0.0
 40
2.1000000000000001
  1
-0.02
 50
90.0
  0
ENDBLK
  5
67B24
  8
0
  0
BLOCK
  8
0
  2
*U296
 70
     1
 10
0.0
 20
0.0
 30
0.0
  3
*U296
  1

  0
TEXT
  5
67B26
  8
0
  6
CONTINUOUS
 62
     3
 10
263.24535642306739
 20
-146.9279868589048
 30
0.0
 40
3.0
  1
\U+220523
 50
90.0
  0
TEXT
  5
67B27
  8
0
  6
CONTINUOUS
 62
     3
 10
260.56754480331551
 20
-140.34298685890479
 30
0.0
 40
2.1000000000000001
  1
+0
 50
90.0
  0
TEXT
  5
67B28
  8
0
  6
CONTINUOUS
 62
     3
 10
263.24535642306739
 20
-140.34298685890479
 30
0.0
 40
2.1000000000000001
  1
-0.05
 50
90.0
  0
ENDBLK
  5
67B2A
  8
0
  0
BLOCK
  8
0
  2
*U297
 70
     1
 10
0.0
 20
0.0
 30
0.0
  3
*U297
  1

  0
TEXT
  5
67B2C
  8
0
  6
CONTINUOUS
 62
     3
 10
312.12613072881987
 20
-148.18949443485559
 30
0.0
 40
3.0
  1
\U+220521.25
 50
90.0
  0
TEXT
  5
67B2D
  8
0
  6
CONTINUOUS
 62
     3
 10
309.53447718551291
 20
-137.10449443485561
 30
0.0
 40
2.1000000000000001
  1
+0.1
 50
90.0
  0
TEXT
  5
67B2E
  8
0
  6
CONTINUOUS
 62
     3
 10
312.12613072881987
 20
-137.10449443485561
 30
0.0
 40
2.1000000000000001
  1
-0
 50
90.0
  0
ENDBLK
  5
67B30
  8
0
  0
BLOCK
  8
0
  2
*U298
 70
     1
 10
0.0
 20
0.0
 30
0.0
  3
*U298
  1

  0
TEXT
  5
67B32
  8
0
  6
CONTINUOUS
 62
     3
 10
289.32408068533903
 20
-96.693775017883837
 30
0.0
 40
3.0
  1
3.5
  0
ENDBLK
  5
67B34
  8
0
  0
BLOCK
  8
0
  2
*U299
 70
     1
 10
0.0
 20
0.0
 30
0.0
  3
*U299
  1

  0
TEXT
  5
67B36
  8
0
  6
CONTINUOUS
 62
     3
 10
279.9958100452518
 20
-112.21233785765411
 30
0.0
 40
3.0
  1
45¡Æ
 50
67.499999999997371
  0
ENDBLK
  5
67B38
  8
0
  0
BLOCK
  8
0
  2
*U300
 70
     1
 10
0.0
 20
0.0
 30
0.0
  3
*U300
  1

  0
TEXT
  5
67B3A
  8
0
  6
CONTINUOUS
 62
     3
 10
341.11017323979212
 20
-105.42078823725581
 30
0.0
 40
3.0
  1
45¡Æ
 50
292.50000000000142
  0
ENDBLK
  5
67B3C
  8
0
  0
BLOCK
  8
0
  2
*U301
 70
     1
 10
0.0
 20
0.0
 30
0.0
  3
*U301
  1

  0
TEXT
  5
67B3E
  8
0
  6
CONTINUOUS
 62
     3
 10
382.51953723651911
 20
-123.6762024921923
 30
0.0
 40
3.0
  1
R1.5
 50
313.89757389650129
  0
ENDBLK
  5
67B40
  8
0
  0
BLOCK
  8
0
  2
*U302
 70
     1
 10
0.0
 20
0.0
 30
0.0
  3
*U302
  1

  0
TEXT
  5
67B42
  8
0
  6
CONTINUOUS
 62
     3
 10
333.71714200735153
 20
-146.9279868589048
 30
0.0
 40
3.0
  1
\U+220523
 50
90.0
  0
TEXT
  5
67B43
  8
0
  6
CONTINUOUS
 62
     3
 10
331.0393303875997
 20
-140.34298685890479
 30
0.0
 40
2.1000000000000001
  1
+0
 50
90.0
  0
TEXT
  5
67B44
  8
0
  6
CONTINUOUS
 62
     3
 10
333.71714200735153
 20
-140.34298685890479
 30
0.0
 40
2.1000000000000001
  1
-0.05
 50
90.0
  0
ENDBLK
  5
67B46
  8
0
  0
BLOCK
  8
0
  2
*U303
 70
     1
 10
0.0
 20
0.0
 30
0.0
  3
*U303
  1

  0
TEXT
  5
67B48
  8
0
  6
CONTINUOUS
 62
     3
 10
225.11843799706949
 20
-124.35835568848979
 30
0.0
 40
3.0
  1
\U+220519.05
 50
90.0
  0
ENDBLK
  5
67B4A
  8
0
  0
BLOCK
  8
0
  2
*U304
 70
     1
 10
0.0
 20
0.0
 30
0.0
  3
*U304
  1

  0
TEXT
  5
67B4C
  8
0
  6
CONTINUOUS
 62
     3
 10
233.11843799706949
 20
-122.1909821583924
 30
0.0
 40
3.0
  1
\U+220534
 50
90.0
  0
ENDBLK
  5
67B4E
  8
0
  0
BLOCK
  8
0
  2
*U305
 70
     1
 10
0.0
 20
0.0
 30
0.0
  3
*U305
  1

  0
TEXT
  5
67B50
  8
0
  6
CONTINUOUS
 62
     3
 10
241.11843799706949
 20
-123.7583556884899
 30
0.0
 40
3.0
  1
\U+220549.5
 50
90.0
  0
ENDBLK
  5
67B52
  8
0
  0
BLOCK
  8
0
  2
*U306
 70
     1
 10
0.0
 20
0.0
 30
0.0
  3
*U306
  1

  0
TEXT
  5
67B54
  8
0
  6
CONTINUOUS
 62
     3
 10
190.12854233437449
 20
-76.267431448688995
 30
0.0
 40
3.0
  1
42
  0
ENDBLK
  5
67B56
  8
0
  0
BLOCK
  8
0
  2
*U307
 70
     1
 10
0.0
 20
0.0
 30
0.0
  3
*U307
  1

  0
SOLID
  5
67B85
  8
0
  6
CONTINUOUS
 62
     2
 10
204.6054366790118
 20
116.76572372003329
 30
0.0
 11
204.03720036347499
 21
119.2356869992778
 31
0.0
 12
205.37579037414309
 22
117.0835281077341
 32
0.0
 13
205.37579037414309
 23
117.0835281077341
 33
0.0
  0
POLYLINE
  5
67B86
  8
0
  6
CONTINUOUS
 62
     2
 66
     1
 10
0.0
 20
0.0
 30
0.0
  0
VERTEX
  5
67B87
  8
0
  6
CONTINUOUS
 62
     2
 10
204.9906135265775
 20
116.9246259138837
 30
0.0
  0
VERTEX
  5
67B88
  8
0
  6
CONTINUOUS
 62
     2
 10
209.7696372223711
 20
105.3403347409098
 30
0.0
  0
VERTEX
  5
67B89
  8
0
  6
CONTINUOUS
 62
     2
 10
222.66617013059181
 20
105.3403347409098
 30
0.0
  0
VERTEX
  5
67B8A
  8
0
  6
CONTINUOUS
 62
     2
 10
225.06617013059179
 20
105.3403347409098
 30
0.0
  0
SEQEND
  5
67B8B
  8
0
  6
CONTINUOUS
 62
     2
  0
ENDBLK
  5
67B8D
  8
0
  0
BLOCK
  8
0
  2
*U308
 70
     1
 10
0.0
 20
0.0
 30
0.0
  3
*U308
  1

  0
TEXT
  5
67BB5
  8
0
  6
CONTINUOUS
 10
-0.4500003972179459
 20
19.861581534219312
 30
0.0
 40
3.0
  1
Techniks Inc.
  0
TEXT
  5
67BB6
  8
0
  6
CONTINUOUS
 10
-0.0000003972179456
 20
14.86158153421931
 30
0.0
 40
3.0
  1
     9930 East 56th Street
  0
TEXT
  5
67BB7
  8
0
  6
CONTINUOUS
 10
-0.0000003972179456
 20
9.8534909830382116
 30
0.0
 40
3.0
  1
     Indianapolis, IN 46236
  0
TEXT
  5
67BB8
  8
0
  6
CONTINUOUS
 10
-0.0000003972179456
 20
4.850000277738963
 30
0.0
 40
3.0
  1
     800.597.3921
  0
TEXT
  5
67BB9
  8
0
  6
CONTINUOUS
 10
-0.0000003972179456
 20
-0.149999722261037
 30
0.0
 40
3.0
  1
     www.techniksusa.com
  0
ENDBLK
  5
67BBB
  8
0
  0
BLOCK
  8
0
  2
*U309
 70
     1
 10
0.0
 20
0.0
 30
0.0
  3
*U309
  1

  0
TEXT
  5
67BBD
  8
0
  6
CONTINUOUS
 10
134.024615079542
 20
49.478134279788229
 30
0.0
 40
3.0
  1
Techniks Inc.
  0
TEXT
  5
67BBE
  8
0
  6
CONTINUOUS
 10
134.47461507954199
 20
44.478134279788229
 30
0.0
 40
3.0
  1
     9930 East 56th Street
  0
TEXT
  5
67BBF
  8
0
  6
CONTINUOUS
 10
134.47461507954199
 20
39.470043728607138
 30
0.0
 40
3.0
  1
     Indianapolis, IN 46236
  0
TEXT
  5
67BC0
  8
0
  6
CONTINUOUS
 10
134.47461507954199
 20
34.466553023307888
 30
0.0
 40
3.0
  1
     800.597.3921
  0
TEXT
  5
67BC1
  8
0
  6
CONTINUOUS
 10
134.47461507954199
 20
29.466553023307888
 30
0.0
 40
3.0
  1
     www.techniksusa.com
  0
ENDBLK
  5
67BC3
  8
0
  0
ENDSEC
  0
SECTION
  2
ENTITIES
  0
TEXT
  5
2855B
  8
0
  6
CONTINUOUS
 62
     3
 10
19.578119642524481
 20
3.619730907338635
 30
0.0
 40
4.0
  1
ASME B5.50-2009
  0
LINE
  5
5F2C9
  8
0
 62
     2
 10
150.9402968419158
 20
16.5
 30
0.0
 11
198.8597031580839
 21
16.5
 31
0.0
  0
TEXT
  5
5F2CA
  8
0
 62
     3
 10
172.03140362420319
 20
17.9221386666411
 30
0.0
 40
4.0
  1
-
  0
POLYLINE
  5
5F2D0
  8
0
 66
     1
 10
0.0
 20
0.0
 30
0.0
 40
1.0
 41
1.0
1001
ACAD
1000
ASC_BOUNDS
1002
{
1070
    19
1002
}
  0
VERTEX
  5
6789C
  8
0
 10
9.9498014649834658
 20
241.00000000000031
 30
0.0
  0
VERTEX
  5
6789D
  8
0
 10
341.5
 20
241.00000000000031
 30
0.0
  0
SEQEND
  5
6789E
  8
0
  0
POLYLINE
  5
5F2D1
  8
0
 66
     1
 10
0.0
 20
0.0
 30
0.0
 40
1.0
 41
1.0
  0
VERTEX
  5
6789F
  8
0
 10
0.0
 20
0.0
 30
0.0
  0
VERTEX
  5
678A0
  8
0
 10
349.80000000000001
 20
0.0
 30
0.0
  0
SEQEND
  5
678A1
  8
0
  0
POLYLINE
  5
5F2D2
  8
0
 66
     1
 10
0.0
 20
0.0
 30
0.0
 40
0.5
 41
0.5
  0
VERTEX
  5
678A2
  8
0
 10
349.2999999999999
 20
24.0
 30
0.0
  0
VERTEX
  5
678A3
  8
0
 10
0.5
 20
24.0
 30
0.0
  0
SEQEND
  5
678A4
  8
0
  0
POLYLINE
  5
5F2D3
  8
0
 66
     1
 10
0.0
 20
0.0
 30
0.0
 40
1.0
 41
1.0
  0
VERTEX
  5
678A5
  8
0
 10
0.0
 20
241.00000000000011
 30
0.0
  0
VERTEX
  5
678A6
  8
0
 10
349.78500327820348
 20
241.00000000000031
 30
0.0
  0
SEQEND
  5
678A7
  8
0
  0
POLYLINE
  5
5F2DB
  8
0
 66
     1
 10
0.0
 20
0.0
 30
0.0
 40
1.0
 41
1.0
  0
VERTEX
  5
678A8
  8
0
 10
0.5
 20
241.50000000000031
 30
0.0
  0
VERTEX
  5
678A9
  8
0
 10
0.5
 20
-0.5
 30
0.0
  0
SEQEND
  5
678AA
  8
0
  0
LINE
  5
5F2DC
  8
0
 62
     2
 10
150.9402968419158
 20
12.5
 30
0.0
 11
0.5
 21
12.5
 31
0.0
  0
TEXT
  5
5F2DD
  8
0
 62
     7
 10
1.6906758171485301
 20
20.70213863111508
 30
0.0
 40
2.0
  1
DESCRIPTION
  0
TEXT
  5
5F2DE
  8
0
 62
     7
 10
1.7756180239680359
 20
9.4939908967098745
 30
0.0
 40
2.0
  1
KIND
  0
TEXT
  5
5F2E0
  8
0
  6
CONTINUOUS
 62
     3
 10
19.488127647663081
 20
15.53735654761635
 30
0.0
 40
4.0
  1
HYDRAULIC CHUCK
  0
TEXT
  5
5F2E1
  8
0
 62
     7
 10
107.4355084051569
 20
9.4608489407828529
 30
0.0
 40
2.0
  1
ORDER MAKER
  0
TEXT
  5
5F2E2
  8
0
 62
     7
 10
107.6221638096294
 20
20.57165332765112
 30
0.0
 40
2.0
  1
SURFACE TREATMENT
  0
LINE
  5
5F2E4
  8
0
 62
     2
 10
106.5
 20
24.0
 30
0.0
 11
106.5
 21
0.0
 31
0.0
  0
LINE
  5
5F2E5
  8
0
 62
     2
 10
79.5
 20
24.0
 30
0.0
 11
79.5
 21
0.0
 31
0.0
  0
TEXT
  5
5F2E6
  8
0
  6
CONTINUOUS
 62
     3
 10
90.639923537256664
 20
15.03976123407665
 30
0.0
 40
4.0
  1
-
  0
TEXT
  5
5F2E7
  8
0
 62
     7
 10
80.326115960252537
 20
9.6268716546485393
 30
0.0
 40
2.0
  1
HARDNESS
  0
TEXT
  5
5F2E8
  8
0
 62
     7
 10
80.390774020364447
 20
20.753906392070579
 30
0.0
 40
2.0
  1
MATERIAL
  0
LINE
  5
5F2E9
  8
0
 62
     2
 10
150.9402968419158
 20
24.0
 30
0.0
 11
150.9402968419158
 21
0.0
 31
0.0
  0
TEXT
  5
5F2EA
  8
0
 62
     7
 10
151.84057408933469
 20
19.15847313115523
 30
0.0
 40
2.0
  1
DATE
  0
TEXT
  5
5F32D
  8
0
  6
CONTINUOUS
 62
     3
 10
63.438554281229251
 20
229.0555435295031
 30
0.0
 40
2.0
  1
-0.0
  0
TEXT
  5
5F32E
  8
0
  6
CONTINUOUS
 62
     3
 10
63.438554281229251
 20
231.56126401216429
 30
0.0
 40
2.0
  1
+0.35
  0
TEXT
  5
5F32F
  8
0
  6
CONTINUOUS
 62
     7
 10
58.864606803455438
 20
236.15650429128829
 30
0.0
 40
3.0
  1
250-500
  0
TEXT
  5
5F330
  8
0
  6
CONTINUOUS
 62
     3
 10
63.504192757890003
 20
222.79124141525591
 30
0.0
 40
2.0
  1
-0.35
  0
TEXT
  5
5F331
  8
0
  6
CONTINUOUS
 62
     3
 10
62.041925324166407
 20
217.257775021637
 30
0.0
 40
3.0
  1
%%P0.35
  0
TEXT
  5
5F332
  8
0
  6
CONTINUOUS
 62
     3
 10
63.504192757890003
 20
225.2969618979169
 30
0.0
 40
2.0
  1
+0.0
  0
LINE
  5
5F333
  8
0
  6
CONTINUOUS
 62
     2
 10
6.6647981867797617
 20
234.60000000000019
 30
0.0
 11
74.993438436643828
 21
234.60000000000019
 31
0.0
  0
LINE
  5
5F334
  8
0
  6
CONTINUOUS
 62
     2
 10
6.6647981867797617
 20
228.2000000000001
 30
0.0
 11
74.993438436643828
 21
228.2000000000001
 31
0.0
  0
LINE
  5
5F335
  8
0
  6
CONTINUOUS
 62
     2
 10
6.6647981867797617
 20
221.8000000000003
 30
0.0
 11
74.993438436643828
 21
221.8000000000003
 31
0.0
  0
LINE
  5
5F336
  8
0
  6
CONTINUOUS
 62
     2
 10
74.993438436643828
 20
241.00000000000031
 30
0.0
 11
6.6647981867797617
 21
241.00000000000031
 31
0.0
  0
LINE
  5
5F337
  8
0
  6
CONTINUOUS
 62
     2
 10
0.0
 20
215.62385070146439
 30
0.0
 11
74.993438436643828
 21
215.62385070146439
 31
0.0
  0
LINE
  5
5F338
  8
0
  6
CONTINUOUS
 62
     2
 10
6.664798186779989
 20
221.8000000000003
 30
0.0
 11
6.664798186779989
 21
241.00000000000031
 31
0.0
  0
LINE
  5
5F339
  8
0
  6
CONTINUOUS
 62
     2
 10
0.0
 20
241.00000000000031
 30
0.0
 11
0.0
 21
215.62385070146439
 31
0.0
  0
LINE
  5
5F33A
  8
0
  6
CONTINUOUS
 62
     2
 10
6.664798186779989
 20
215.62385070146439
 30
0.0
 11
6.664798186779989
 21
221.8000000000003
 31
0.0
  0
TEXT
  5
5F33B
  8
0
  6
CONTINUOUS
 10
1.2378468086309331
 20
217.77421795343761
 30
0.0
 40
3.0
  1
mm
  0
TEXT
  5
5F33C
  8
0
  6
CONTINUOUS
 10
2.289011192062389
 20
221.7461905260555
 30
0.0
 40
3.0
  1
Â÷
  0
TEXT
  5
5F33D
  8
0
  6
CONTINUOUS
 10
2.289011192062389
 20
235.2461905260555
 30
0.0
 40
3.0
  1
±â
  0
TEXT
  5
5F33E
  8
0
  6
CONTINUOUS
 10
2.289011192062389
 20
226.2461905260555
 30
0.0
 40
3.0
  1
°ø
  0
TEXT
  5
5F33F
  8
0
  6
CONTINUOUS
 10
2.289011192062389
 20
230.7461905260555
 30
0.0
 40
3.0
  1
º»
  0
LINE
  5
5F340
  8
0
  6
CONTINUOUS
 62
     2
 10
6.6647981867797617
 20
241.00000000000031
 30
0.0
 11
0.0
 21
241.00000000000031
 31
0.0
  0
TEXT
  5
5F341
  8
0
  6
CONTINUOUS
 62
     7
 10
28.853706141723482
 20
236.15650429128829
 30
0.0
 40
3.0
  1
50-100
  0
TEXT
  5
5F342
  8
0
  6
CONTINUOUS
 62
     3
 10
32.065439160974158
 20
229.0555435295031
 30
0.0
 40
2.0
  1
-0.0
  0
TEXT
  5
5F343
  8
0
  6
CONTINUOUS
 62
     3
 10
32.065439160974158
 20
231.56126401216429
 30
0.0
 40
2.0
  1
+0.15
  0
TEXT
  5
5F344
  8
0
  6
CONTINUOUS
 62
     3
 10
32.065439160974158
 20
222.6868365716216
 30
0.0
 40
2.0
  1
-0.15
  0
TEXT
  5
5F345
  8
0
  6
CONTINUOUS
 62
     3
 10
30.812067194666952
 20
217.257775021637
 30
0.0
 40
3.0
  1
%%P0.15
  0
TEXT
  5
5F346
  8
0
  6
CONTINUOUS
 62
     3
 10
32.065439160974158
 20
225.1925570542829
 30
0.0
 40
2.0
  1
+0.0
  0
LINE
  5
5F347
  8
0
  6
CONTINUOUS
 62
     2
 10
28.096426956445612
 20
241.00000000000031
 30
0.0
 11
28.096426956445612
 21
215.62385070146439
 31
0.0
  0
TEXT
  5
5F348
  8
0
  6
CONTINUOUS
 62
     3
 10
20.993984417053071
 20
225.1925570542829
 30
0.0
 40
2.0
  1
+0.0
  0
TEXT
  5
5F349
  8
0
  6
CONTINUOUS
 10
9.1748491995331278
 20
223.52224636897429
 30
0.0
 40
3.0
  1
¿Ü°æ
  0
LINE
  5
5F34A
  8
0
  6
CONTINUOUS
 62
     2
 10
18.664798186779759
 20
241.00000000000031
 30
0.0
 11
18.664798186779759
 21
221.8000000000003
 31
0.0
  0
LINE
  5
5F34B
  8
0
  6
CONTINUOUS
 62
     2
 10
18.664798186779759
 20
228.4238507014646
 30
0.0
 11
18.664798186779759
 21
215.62385070146439
 31
0.0
  0
TEXT
  5
5F34C
  8
0
  6
CONTINUOUS
 62
     3
 10
20.993984417053071
 20
222.6868365716216
 30
0.0
 40
2.0
  1
-0.1
  0
TEXT
  5
5F34D
  8
0
  6
CONTINUOUS
 62
     3
 10
19.949507918161999
 20
217.257775021637
 30
0.0
 40
3.0
  1
%%P0.1
  0
TEXT
  5
5F34E
  8
0
  6
CONTINUOUS
 10
9.1748491995331278
 20
217.35439130880519
 30
0.0
 40
3.0
  1
ÀüÀå
  0
TEXT
  5
5F34F
  8
0
  6
CONTINUOUS
 62
     3
 10
20.88953668334489
 20
231.56126401216429
 30
0.0
 40
2.0
  1
+0.1
  0
TEXT
  5
5F350
  8
0
  6
CONTINUOUS
 62
     3
 10
20.993984417053071
 20
229.0555435295031
 30
0.0
 40
2.0
  1
-0.0
  0
TEXT
  5
5F351
  8
0
  6
CONTINUOUS
 62
     7
 10
19.291584210295241
 20
236.15650429128829
 30
0.0
 40
3.0
  1
1-50
  0
TEXT
  5
5F352
  8
0
  6
CONTINUOUS
 10
9.1748491995331278
 20
229.76335097000751
 30
0.0
 40
3.0
  1
³»°æ
  0
TEXT
  5
5F353
  8
0
  6
CONTINUOUS
 10
9.1748491995331278
 20
236.00445557104089
 30
0.0
 40
3.0
  1
±¸ºÐ 
  0
LINE
  5
5F354
  8
0
  6
CONTINUOUS
 62
     2
 10
57.968465385929441
 20
241.00000000000031
 30
0.0
 11
57.968465385929441
 21
215.62385070146439
 31
0.0
  0
LINE
  5
5F355
  8
0
  6
CONTINUOUS
 62
     2
 10
42.092417406004408
 20
241.00000000000031
 30
0.0
 11
42.092417406004408
 21
215.62385070146439
 31
0.0
  0
TEXT
  5
5F356
  8
0
  6
CONTINUOUS
 62
     3
 10
46.688116012782068
 20
225.2969618979169
 30
0.0
 40
2.0
  1
+0.0
  0
TEXT
  5
5F357
  8
0
  6
CONTINUOUS
 62
     3
 10
46.688116012782068
 20
222.79124141525591
 30
0.0
 40
2.0
  1
-0.25
  0
TEXT
  5
5F358
  8
0
  6
CONTINUOUS
 62
     3
 10
45.33029547457636
 20
217.257775021637
 30
0.0
 40
3.0
  1
%%P0.25
  0
TEXT
  5
5F359
  8
0
  6
CONTINUOUS
 62
     7
 10
40.571351574260689
 20
236.15650429128829
 30
0.0
 40
3.0
  1
 100-250
  0
TEXT
  5
5F35A
  8
0
  6
CONTINUOUS
 62
     3
 10
46.479220545365934
 20
229.0555435295031
 30
0.0
 40
2.0
  1
-0.0
  0
TEXT
  5
5F35B
  8
0
  6
CONTINUOUS
 62
     3
 10
46.479220545365934
 20
231.56126401216429
 30
0.0
 40
2.0
  1
+0.25
  0
LINE
  5
5F35F
  8
0
  6
CONTINUOUS
 62
     2
 10
74.993438436643828
 20
241.00000000000031
 30
0.0
 11
74.993438436643828
 21
215.62385070146439
 31
0.0
  0
POLYLINE
  5
5F360
  8
0
 66
     1
 10
0.0
 20
0.0
 30
0.0
 40
1.0
 41
1.0
  0
VERTEX
  5
678AB
  8
0
 10
349.2999999999999
 20
0.0
 30
0.0
  0
VERTEX
  5
678AC
  8
0
 10
349.2999999999999
 20
241.50000000000031
 30
0.0
  0
SEQEND
  5
678AD
  8
0
  0
TEXT
  5
5F365
  8
0
 62
     3
 10
265.187548430493
 20
27.127590477055271
 30
0.0
 40
3.0
  1
3.ANGLES  %%P0%%D15'
  0
TEXT
  5
5F366
  8
0
 62
     3
 10
265.187548430493
 20
38.051021325782813
 30
0.0
 40
3.0
  1
1.ROUND  R=0.2
  0
TEXT
  5
5F367
  8
0
 62
     3
 10
265.187548430493
 20
32.510087232807336
 30
0.0
 40
3.0
  1
2.BREAK SHARP CORNERS  0.2*45%%D
  0
LINE
  5
5F368
  8
0
 62
     2
 10
281.30000000000001
 20
6.5
 30
0.0
 11
349.2999999999999
 21
6.5
 31
0.0
  0
TEXT
  5
5F369
  8
0
 62
     3
 10
264.54916131191339
 20
44.000081334326978
 30
0.0
 40
4.0
  1
NOTE
  0
LINE
  5
5F36A
  8
0
 62
     2
 10
198.8597031580841
 20
16.5
 30
0.0
 11
289.30000000000001
 21
16.5
 31
0.0
  0
LINE
  5
5F36B
  8
0
 62
     2
 10
281.30000000000001
 20
6.5
 30
0.0
 11
198.8597031580841
 21
6.5
 31
0.0
  0
TEXT
  5
5F36C
  8
0
  6
CONTINUOUS
 62
     7
 10
214.0501246930346
 20
17.658983523781899
 30
0.0
 40
4.0
  1
ATOM CONTROL NUMBER
  0
LINE
  5
5F36E
  8
0
 62
     2
 10
198.8597031580839
 20
24.0
 30
0.0
 11
198.8597031580839
 21
0.0
 31
0.0
  0
TEXT
  5
5F36F
  8
0
 62
     7
 10
199.72929511267941
 20
2.2574114378330701
 30
0.0
 40
2.0
  1
Q'TY
  0
TEXT
  5
5F389
  8
0
 62
     7
 10
234.13498021523631
 20
2.269955000430854
 30
0.0
 40
2.0
  1
SCALE
  0
LINE
  5
5F38A
  8
0
 62
     2
 10
233.8597031580839
 20
6.5
 30
0.0
 11
233.8597031580839
 21
0.0
 31
0.0
  0
TEXT
  5
5F38B
  8
0
 62
     7
 10
249.69651417353521
 20
0.9519807885211548
 30
0.0
 40
4.0
  1
1 : 1
  0
TEXT
  5
5F38C
  8
0
 62
     7
 10
270.10520091895279
 20
2.2574114378329559
 30
0.0
 40
2.0
  1
CUTTING SIZE :
  0
LINE
  5
5F38D
  8
0
 62
     2
 10
268.8597031580839
 20
6.5
 30
0.0
 11
268.8597031580839
 21
0.0
 31
0.0
  0
LINE
  5
5F38E
  8
0
 62
     2
 10
289.30000000000001
 20
24.25
 30
0.0
 11
289.30000000000001
 21
6.75
 31
0.0
  0
TEXT
  5
5F38F
  8
0
 62
     7
 10
289.3406550879472
 20
0.9519807885211548
 30
0.0
 40
4.0
  1
-
  0
TEXT
  5
5F390
  8
0
 62
     7
 10
290.83722662870952
 20
20.7469419072163
 30
0.0
 40
2.0
  1
DESIGN
  0
LINE
  5
5F391
  8
0
 62
     2
 10
309.2999999999999
 20
24.25
 30
0.0
 11
309.2999999999999
 21
6.75
 31
0.0
  0
TEXT
  5
5F392
  8
0
 62
     7
 10
310.26938148685667
 20
20.8838933210493
 30
0.0
 40
2.0
  1
CHECK
  0
TEXT
  5
5F393
  8
0
 62
     7
 10
330.49033471004373
 20
20.8838933210493
 30
0.0
 40
2.0
  1
APPROVE
  0
LINE
  5
5F394
  8
0
 62
     2
 10
329.30000000000001
 20
24.25
 30
0.0
 11
329.30000000000001
 21
6.75
 31
0.0
  0
TEXT
  5
5F395
  8
0
 62
     7
 10
287.87643544357428
 20
236.0401664710821
 30
0.0
 40
2.5
  1
REVISIONS
  0
LINE
  5
5F396
  8
0
  6
CONTINUOUS
 62
     2
 10
269.30000000000001
 20
221.8000000000003
 30
0.0
 11
349.2999999999999
 21
221.80000000000001
 31
0.0
  0
LINE
  5
5F397
  8
0
  6
CONTINUOUS
 62
     2
 10
269.30000000000001
 20
228.19999999999939
 30
0.0
 11
349.2999999999999
 21
228.19999999999919
 31
0.0
  0
LINE
  5
5F398
  8
0
  6
CONTINUOUS
 62
     2
 10
269.30000000000001
 20
234.60000000000019
 30
0.0
 11
349.2999999999999
 21
234.60000000000019
 31
0.0
  0
LINE
  5
5F399
  8
0
  6
CONTINUOUS
 62
     2
 10
269.30000000000001
 20
215.62385070146439
 30
0.0
 11
349.2999999999999
 21
215.62385070146439
 31
0.0
  0
LINE
  5
5F39D
  8
0
 62
     2
 10
275.30000000000001
 20
241.00000000000031
 30
0.0
 11
275.29999999999973
 21
215.62385070146439
 31
0.0
  0
TEXT
  5
5F39E
  8
0
 62
     7
 10
271.36049426856789
 20
223.5855929990733
 30
0.0
 40
2.5
  1
2.
  0
LINE
  5
5F39F
  8
0
 62
     2
 10
269.30000000000001
 20
241.00000000000031
 30
0.0
 11
269.30000000000001
 21
215.62385070146439
 31
0.0
  0
TEXT
  5
5F3A0
  8
0
 62
     7
 10
271.36049426856789
 20
217.74007257054271
 30
0.0
 40
2.5
  1
3.
  0
TEXT
  5
5F3A1
  8
0
 62
     7
 10
271.36049426856789
 20
230.294868075549
 30
0.0
 40
2.5
  1
1.
  0
TEXT
  5
5F3A2
  8
0
 62
     7
 10
270.34697788810348
 20
236.25014875277051
 30
0.0
 40
2.5
  1
NO.
  0
TEXT
  5
5F3A3
  8
0
 62
     7
 10
333.83882714560201
 20
236.14515597642301
 30
0.0
 40
2.5
  1
DEVISER
  0
LINE
  5
5F3A4
  8
0
 62
     2
 10
317.30000000000001
 20
241.00000000000031
 30
0.0
 11
317.30000000000001
 21
215.62385070146439
 31
0.0
  0
LINE
  5
5F3A5
  8
0
 62
     2
 10
331.30000000000001
 20
241.00000000000031
 30
0.0
 11
331.30000000000001
 21
215.62385070146439
 31
0.0
  0
TEXT
  5
5F3A6
  8
0
 62
     7
 10
320.14935744422269
 20
236.0401664710821
 30
0.0
 40
2.5
  1
DATE
  0
TEXT
  5
67500
  8
0
  6
CONTINUOUS
 62
     3
 10
90.639923537256664
 20
3.8127106913159419
 30
0.0
 40
4.0
  1
-
  0
TEXT
  5
67501
  8
0
  6
CONTINUOUS
 62
     3
 10
127.01649844568119
 20
3.8127106913159419
 30
0.0
 40
4.0
  1
-
  0
TEXT
  5
67502
  8
0
  6
CONTINUOUS
 62
     3
 10
111.420862103318
 20
14.702721273662631
 30
0.0
 40
4.0
  1
SHOT BLAST
  0
TEXT
  5
67503
  8
0
 62
     7
 10
172.43551174980891
 20
7.1025492947252351
 30
0.0
 40
4.0
  1
-
  0
TEXT
  5
67504
  8
0
  6
CONTINUOUS
 62
     3
 10
205.11220777377969
 20
9.4846782372228517
 30
0.0
 40
4.0
  1
CAT40AD/B-HMC19.05-120-PB25
  0
LINE
  5
67509
  8
0
  6
CONTINUOUS
 10
141.31687227596041
 20
139.07119270304869
 30
0.0
 11
141.31687227596089
 21
170.32119270304869
 31
0.0
  0
LINE
  5
6750A
  8
0
  6
CONTINUOUS
 10
157.1918722759608
 20
170.32119270304869
 30
0.0
 11
157.1918722759608
 21
139.07119270304869
 31
0.0
  0
LINE
  5
6750B
  8
0
  6
CENTER
 62
     2
 10
67.89187227596085
 20
139.07119270304869
 30
0.0
 11
260.14187227596079
 21
139.07119270304869
 31
0.0
  0
LINE
  5
6750C
  8
0
  6
BYBLOCK
 62
     0
 10
158.1918722759608
 20
114.32119270304869
 30
0.0
 11
185.20809260391991
 21
114.32119270304869
 31
0.0
  0
LINE
  5
6750D
  8
0
  6
CONTINUOUS
 62
     7
 10
138.14187227596079
 20
161.29619270304869
 30
0.0
 11
71.175411950174748
 21
151.53025120904459
 31
0.0
1001
ACAD
1000
ASC_BOUNDS
1002
{
1070
    19
1002
}
  0
LINE
  5
6750E
  8
0
  6
HIDDEN
 62
     3
 10
71.391872275960964
 20
147.2211927030487
 30
0.0
 11
74.691872275960804
 21
147.2211927030489
 31
0.0
  0
LINE
  5
6750F
  8
0
  6
CONTINUOUS
 62
     7
 10
138.14187227596079
 20
116.8461927030488
 30
0.0
 11
71.175411950174862
 21
126.6121341970529
 31
0.0
1001
ACAD
1000
ASC_BOUNDS
1002
{
1070
    19
1002
}
  0
LINE
  5
67510
  8
0
  6
CONTINUOUS
 10
69.89187227596085
 20
139.07119270304869
 30
0.0
 11
69.891872275960964
 21
128.0964336706634
 31
0.0
  0
ARC
  5
67511
  8
0
  6
CONTINUOUS
 10
71.391872275960964
 20
128.0964336706634
 30
0.0
 40
1.5
 50
180.0
 51
261.70285556368742
  0
ARC
  5
67512
  8
0
  6
CONTINUOUS
 10
140.8168722759608
 20
161.3719204626849
 30
0.0
 40
0.5
 50
270.0
 51
0.0
  0
ARC
  5
67513
  8
0
  6
CONTINUOUS
 10
71.39187227596085
 20
150.04595173543399
 30
0.0
 40
1.5
 50
98.297144436312578
 51
180.0
1001
ACAD
1000
ASC_BOUNDS
1002
{
1070
    19
1002
}
  0
LINE
  5
67514
  8
0
  6
CONTINUOUS
 10
69.89187227596085
 20
139.07119270304869
 30
0.0
 11
69.89187227596085
 21
150.04578744643871
 31
0.0
  0
POINT
  5
67515
  8
DEFPOINTS
  6
BYBLOCK
 62
     0
 10
69.89187227596085
 20
139.07119270304869
 30
0.0
  0
LINE
  5
67516
  8
0
  6
CONTINUOUS
 10
145.46118810731741
 20
107.32119270304869
 30
0.0
 11
141.81687227596089
 21
107.32119270304869
 31
0.0
  0
LINE
  5
67517
  8
0
  6
CONTINUOUS
 10
139.72527783323949
 20
117.27046494341261
 30
0.0
 11
139.7252778332396
 21
139.07119270304869
 31
0.0
  0
LINE
  5
67518
  8
0
  6
CONTINUOUS
 10
138.14187227596079
 20
116.8461927030488
 30
0.0
 11
138.14187227596079
 21
139.07119270304869
 31
0.0
  0
LINE
  5
67519
  8
0
  6
CONTINUOUS
 10
141.3168722759608
 20
139.07119270304869
 30
0.0
 11
141.31687227596089
 21
107.82119270304869
 31
0.0
  0
ARC
  5
6751A
  8
0
  6
CONTINUOUS
 10
140.8168722759608
 20
116.77046494341251
 30
0.0
 40
0.5
 50
0.0
 51
90.0
  0
LINE
  5
6751B
  8
0
  6
CONTINUOUS
 10
138.14187227596079
 20
116.8461927030488
 30
0.0
 11
139.72527783323949
 21
117.27046494341261
 31
0.0
  0
LINE
  5
6751C
  8
0
  6
CONTINUOUS
 10
139.72527783323949
 20
117.27046494341261
 30
0.0
 11
140.8168722759608
 21
117.27046494341251
 31
0.0
  0
ARC
  5
6751D
  8
0
  6
CONTINUOUS
 10
141.81687227596089
 20
107.82119270304869
 30
0.0
 40
0.5
 50
180.0
 51
270.0
  0
LINE
  5
6751E
  8
0
  6
HIDDEN
 62
     3
 10
114.89187227596091
 20
146.07119270304881
 30
0.0
 11
75.361646604947055
 21
146.07119270304881
 31
0.0
  0
LINE
  5
6751F
  8
0
  6
HIDDEN
 62
     3
 10
99.89187227596085
 20
147.07119270304881
 30
0.0
 11
74.779234144959219
 21
147.07119270304869
 31
0.0
  0
LINE
  5
67520
  8
0
  6
HIDDEN
 62
     3
 10
74.691872275960804
 20
147.2211927030489
 30
0.0
 11
75.361646604947055
 21
146.07119270304881
 31
0.0
  0
POINT
  5
67521
  8
DEFPOINTS
  6
HIDDEN
 62
     3
 10
74.541872275960941
 20
147.2211927030487
 30
0.0
  0
LINE
  5
67522
  8
0
  6
HIDDEN
 62
     3
 10
74.691872275960804
 20
139.07119270304869
 30
0.0
 11
74.691872275960804
 21
147.22119270304881
 31
0.0
1001
ACAD
1000
ASC_BOUNDS
1002
{
1070
    19
1005
0
1002
}
  0
LINE
  5
67523
  8
0
  6
HIDDEN
 62
     3
 10
75.361646604947055
 20
146.07119270304881
 30
0.0
 11
75.361646604947055
 21
139.07119270304881
 31
0.0
  0
LINE
  5
67524
  8
0
  6
HIDDEN
 62
     3
 10
99.89187227596085
 20
147.07119270304881
 30
0.0
 11
101.7114753371913
 21
146.07119270304881
 31
0.0
  0
LINE
  5
67525
  8
0
  6
HIDDEN
 62
     3
 10
99.89187227596085
 20
147.07119270304881
 30
0.0
 11
99.89187227596085
 21
139.07119270304869
 31
0.0
  0
LINE
  5
67526
  8
0
  6
HIDDEN
 62
     3
 10
114.89187227596091
 20
146.07119270304881
 30
0.0
 11
114.89187227596091
 21
139.07119270304869
 31
0.0
  0
LINE
  5
67527
  8
0
  6
CONTINUOUS
 10
139.72527783323949
 20
160.8719204626849
 30
0.0
 11
140.8168722759608
 21
160.8719204626849
 31
0.0
  0
LINE
  5
67528
  8
0
  6
CONTINUOUS
 10
151.17597227596059
 20
168.00468923742949
 30
0.0
 11
152.657743742712
 21
170.57119270304869
 31
0.0
  0
LINE
  5
67529
  8
0
  6
CONTINUOUS
 10
138.14187227596079
 20
161.29619270304869
 30
0.0
 11
139.72527783323949
 21
160.8719204626849
 31
0.0
  0
POINT
  5
6752A
  8
DEFPOINTS
  6
BYBLOCK
 62
     0
 10
151.17597227596079
 20
168.01306999954321
 30
0.0
  0
LINE
  5
6752B
  8
0
  6
CONTINUOUS
 10
145.74986324191249
 20
107.41294441258511
 30
0.0
 11
145.74986324191229
 21
130.89619270304851
 31
0.0
  0
LINE
  5
6752C
  8
0
  6
CONTINUOUS
 10
147.3759722759612
 20
130.89619270304851
 30
0.0
 11
147.37597227596109
 21
110.1293154065543
 31
0.0
  0
LINE
  5
6752D
  8
0
  6
CONTINUOUS
 10
152.8020813100091
 20
107.41294441258511
 30
0.0
 11
152.80208131000941
 21
130.89619270304851
 31
0.0
  0
LINE
  5
6752E
  8
0
  6
CONTINUOUS
 10
151.17597227596079
 20
130.89619270304851
 30
0.0
 11
151.17597227596079
 21
110.1293154065543
 31
0.0
  0
LINE
  5
6752F
  8
0
  6
CONTINUOUS
 10
157.1918722759608
 20
107.82119270304869
 30
0.0
 11
157.19187227596089
 21
139.07119270304869
 31
0.0
  0
ARC
  5
67530
  8
0
  6
CONTINUOUS
 10
158.1918722759608
 20
113.32119270304869
 30
0.0
 40
1.0
 50
90.0
 51
180.0
  0
ARC
  5
67531
  8
0
  6
CONTINUOUS
 10
156.6918722759608
 20
107.82119270304869
 30
0.0
 40
0.5
 50
270.0
 51
0.0
  0
POINT
  5
67532
  8
DEFPOINTS
  6
BYBLOCK
 62
     0
 10
156.6918722759608
 20
107.32119270304869
 30
0.0
  0
LINE
  5
67533
  8
0
  6
CONTINUOUS
 10
147.37597227596089
 20
110.9211927030488
 30
0.0
 11
151.1759722759607
 21
110.9211927030488
 31
0.0
  0
LINE
  5
67534
  8
0
  6
CONTINUOUS
 10
147.37597227596109
 20
110.137696168668
 30
0.0
 11
145.89420080920959
 21
107.57119270304879
 31
0.0
  0
ARC
  5
67535
  8
0
  6
CONTINUOUS
 10
145.46118810731741
 20
107.82119270304869
 30
0.0
 40
0.5
 50
270.0
 51
329.99999999999909
  0
POINT
  5
67536
  8
DEFPOINTS
  6
BYBLOCK
 62
     0
 10
147.37597227596109
 20
110.1293154065543
 30
0.0
  0
LINE
  5
67537
  8
0
  6
CONTINUOUS
 10
151.17597227596059
 20
110.137696168668
 30
0.0
 11
152.657743742712
 21
107.57119270304879
 31
0.0
  0
POINT
  5
67538
  8
DEFPOINTS
  6
BYBLOCK
 62
     0
 10
151.1759722759607
 20
110.9211927030488
 30
0.0
  0
POINT
  5
67539
  8
DEFPOINTS
  6
BYBLOCK
 62
     0
 10
151.17597227596079
 20
110.1293154065543
 30
0.0
  0
ARC
  5
6753A
  8
0
  6
CONTINUOUS
 10
153.09075644460421
 20
107.82119270304869
 30
0.0
 40
0.5
 50
210.00000000000091
 51
270.0
  0
LINE
  5
6753B
  8
0
  6
CONTINUOUS
 10
156.6918722759608
 20
107.32119270304869
 30
0.0
 11
153.08591780934199
 21
107.32119270304869
 31
0.0
  0
LINE
  5
6753C
  8
0
  6
CONTINUOUS
 10
145.46118810731741
 20
170.82119270304869
 30
0.0
 11
141.81687227596089
 21
170.82119270304869
 31
0.0
  0
ARC
  5
6753D
  8
0
  6
CONTINUOUS
 10
141.81687227596089
 20
170.32119270304869
 30
0.0
 40
0.5
 50
90.0
 51
180.0
  0
POINT
  5
6753E
  8
DEFPOINTS
  6
BYBLOCK
 62
     0
 10
156.6918722759608
 20
170.82119270304869
 30
0.0
  0
ARC
  5
6753F
  8
0
  6
CONTINUOUS
 10
156.6918722759608
 20
170.32119270304869
 30
0.0
 40
0.5
 50
0.0
 51
90.0
  0
LINE
  5
67540
  8
0
  6
CONTINUOUS
 10
147.37597227596089
 20
167.2211927030487
 30
0.0
 11
151.1759722759607
 21
167.2211927030487
 31
0.0
  0
ARC
  5
67541
  8
0
  6
CONTINUOUS
 10
145.46118810731741
 20
170.32119270304881
 30
0.0
 40
0.5
 50
30.000000000000949
 51
90.0
  0
LINE
  5
67542
  8
0
  6
CONTINUOUS
 10
147.37597227595799
 20
147.24619270304891
 30
0.0
 11
147.37597227596109
 21
168.00468923742949
 31
0.0
  0
POINT
  5
67543
  8
DEFPOINTS
  6
BYBLOCK
 62
     0
 10
147.37597227596109
 20
168.01306999954321
 30
0.0
  0
LINE
  5
67544
  8
0
  6
CONTINUOUS
 10
147.37597227596109
 20
168.00468923742949
 30
0.0
 11
145.89420080920959
 21
170.57119270304869
 31
0.0
  0
LINE
  5
67545
  8
0
  6
CONTINUOUS
 10
151.17597227596349
 20
147.24619270304891
 30
0.0
 11
151.17597227596059
 21
168.00468923742949
 31
0.0
  0
POINT
  5
67546
  8
DEFPOINTS
  6
BYBLOCK
 62
     0
 10
151.1759722759607
 20
167.2211927030487
 30
0.0
  0
ARC
  5
67547
  8
0
  6
CONTINUOUS
 10
153.09075644460421
 20
170.32119270304881
 30
0.0
 40
0.5
 50
90.0
 51
149.99999999999901
  0
LINE
  5
67548
  8
0
  6
HIDDEN
 62
     3
 10
143.69317865376701
 20
166.7913394301905
 30
0.0
 11
141.31687227596089
 21
168.4552470690262
 31
0.0
1001
ACAD
1000
ASC_BOUNDS
1002
{
1070
    19
1002
}
  0
LINE
  5
67549
  8
0
  6
CONTINUOUS
 10
156.6918722759608
 20
170.82119270304869
 30
0.0
 11
153.09075644460421
 21
170.82119270304869
 31
0.0
  0
ARC
  5
6754A
  8
0
  6
HIDDEN
 62
     3
 10
71.39187227596085
 20
148.7211927030487
 30
0.0
 40
1.5
 50
180.0
 51
224.99999999999969
  0
ARC
  5
6754B
  8
0
  6
HIDDEN
 62
     3
 10
71.39187227596085
 20
148.7211927030487
 30
0.0
 40
1.5
 50
254.99999999999881
 51
270.00000000000648
  0
LINE
  5
6754C
  8
0
  6
HIDDEN
 62
     3
 10
70.331212104181077
 20
147.66053253126881
 30
0.0
 11
71.003643708306981
 21
147.27230396361509
 31
0.0
  0
LINE
  5
6754D
  8
0
  6
HIDDEN
 62
     3
 10
71.003643708306981
 20
147.27230396361509
 30
0.0
 11
71.003643708306981
 21
139.07119270304869
 31
0.0
  0
LINE
  5
6754E
  8
0
  6
HIDDEN
 62
     3
 10
70.331212104181077
 20
147.66053253126881
 30
0.0
 11
70.331212104181077
 21
139.07119270304869
 31
0.0
  0
LINE
  5
6754F
  8
0
  6
HIDDEN
 62
     3
 10
147.14187227596031
 20
167.02619270304851
 30
0.0
 11
147.5918722759603
 21
166.7657552910442
 31
0.0
1001
ACAD
1000
ASC_BOUNDS
1002
{
1070
    19
1002
}
  0
LINE
  5
67550
  8
0
  6
CONTINUOUS
 10
157.19187227596089
 20
130.8961927030486
 30
0.0
 11
141.3168722759608
 21
130.89619270304851
 31
0.0
  0
ARC
  5
67551
  8
0
  6
CONTINUOUS
 10
149.28187227596069
 20
139.07119270304869
 30
0.0
 40
4.7625000000000002
 50
180.0
 51
0.0
  0
LINE
  5
67554
  8
0
  6
CENTER
 62
     2
 10
149.24187227596019
 20
169.2908733009171
 30
0.0
 11
149.24187227596019
 21
145.82119270304881
 31
0.0
1001
ACAD
1000
ASC_BOUNDS
1002
{
1070
    19
1002
}
  0
LINE
  5
67555
  8
0
  6
HIDDEN
 62
     3
 10
150.8918722759602
 20
157.23389391225109
 30
0.0
 11
150.89187227596011
 21
145.82119270304881
 31
0.0
1001
ACAD
1000
ASC_BOUNDS
1002
{
1070
    19
1002
}
  0
LINE
  5
67556
  8
0
  6
HIDDEN
 62
     3
 10
147.5918722759601
 20
159.54457878834361
 30
0.0
 11
147.59187227595979
 21
145.82119270304881
 31
0.0
1001
ACAD
1000
ASC_BOUNDS
1002
{
1070
    19
1002
}
  0
LINE
  5
67557
  8
0
  6
HIDDEN
 62
     3
 10
153.7605062764743
 20
159.37588836251561
 30
0.0
 11
150.8918722759602
 21
161.38452751404029
 31
0.0
1001
ACAD
1000
ASC_BOUNDS
1002
{
1070
    19
1002
}
  0
LINE
  5
67558
  8
0
  6
HIDDEN
 62
     3
 10
147.5918722759601
 20
159.54457878834361
 30
0.0
 11
141.81669145255509
 21
163.5884039354161
 31
0.0
1001
ACAD
1000
ASC_BOUNDS
1002
{
1070
    19
1002
}
  0
LINE
  5
67559
  8
0
  6
HIDDEN
 62
     3
 10
145.9042091519525
 20
160.3600608531039
 30
0.0
 11
146.603285251236
 21
160.23679487523171
 31
0.0
  0
ARC
  5
6755A
  8
0
  6
HIDDEN
 62
     3
 10
150.00147164982451
 20
157.16254224338661
 30
0.0
 40
3.3882543062820369
 50
102.9550200282344
 51
135.32957770095331
  0
ARC
  5
6755B
  8
0
  6
HIDDEN
 62
     3
 10
147.82358779798199
 20
157.70350709587771
 30
0.0
 40
3.1040145263898502
 50
351.29818119443968
 51
62.811499558049753
  0
ARC
  5
6755C
  8
0
  6
HIDDEN
 62
     3
 10
148.89252604871001
 20
163.03076345492499
 30
0.0
 40
2.589879941132633
 50
277.75219938003039
 51
320.5323983491769
  0
LINE
  5
6755D
  8
0
  6
CENTER
 62
     2
 10
154.2579440235489
 20
156.95226190132931
 30
0.0
 11
141.316872275961
 21
166.0136978915032
 31
0.0
  0
ARC
  5
6755E
  8
0
  6
HIDDEN
 62
     3
 10
150.84482224740739
 20
163.31991372304489
 30
0.0
 40
3.2745278447825812
 50
173.4187804253954
 51
240.6909003270857
  0
LINE
  5
6755F
  8
0
  6
HIDDEN
 62
     3
 10
153.76050627647439
 20
159.3758883625157
 30
0.0
 11
153.58942034524941
 21
157.42036722034629
 31
0.0
1001
ACAD
1000
ASC_BOUNDS
1002
{
1070
    19
1002
}
  0
LINE
  5
67560
  8
0
  6
HIDDEN
 62
     3
 10
151.81034639288049
 20
156.59077141193291
 30
0.0
 11
153.58942034524941
 21
157.42036722034629
 31
0.0
1001
ACAD
1000
ASC_BOUNDS
1002
{
1070
    19
1002
}
  0
LINE
  5
67561
  8
0
  6
HIDDEN
 62
     3
 10
151.81034639288049
 20
156.59077141193299
 30
0.0
 11
150.8918722759602
 21
157.23389391225109
 31
0.0
1001
ACAD
1000
ASC_BOUNDS
1002
{
1070
    19
1002
}
  0
LINE
  5
67562
  8
0
  6
HIDDEN
 62
     3
 10
151.8103463928808
 20
156.59077141193271
 30
0.0
 11
152.7854263346776
 21
157.98332988722419
 31
0.0
  0
LINE
  5
67563
  8
0
  6
HIDDEN
 62
     3
 10
153.76050627647439
 20
159.3758883625157
 30
0.0
 11
152.7854263346776
 21
157.98332988722419
 31
0.0
  0
LINE
  5
67564
  8
0
  6
HIDDEN
 62
     3
 10
151.24187227596039
 20
162.2261927030485
 30
0.0
 11
147.75835064755839
 21
162.22619270304861
 31
0.0
1001
ACAD
1000
ASC_BOUNDS
1002
{
1070
    19
1002
}
  0
LINE
  5
67565
  8
0
  6
HIDDEN
 62
     3
 10
147.14187227596031
 20
167.02619270304851
 30
0.0
 11
149.24187227596019
 21
167.02619270304851
 31
0.0
  0
LINE
  5
67566
  8
0
  6
HIDDEN
 62
     3
 10
147.5918722759603
 20
166.7657552910442
 30
0.0
 11
149.24187227596019
 21
166.7657552910442
 31
0.0
  0
LINE
  5
67567
  8
0
  6
HIDDEN
 62
     3
 10
145.9042091519517
 20
160.36006085310399
 30
0.0
 11
141.39887290836359
 21
163.5147312530348
 31
0.0
1001
ACAD
1000
ASC_BOUNDS
1002
{
1070
    19
1002
}
  0
LINE
  5
67568
  8
0
  6
HIDDEN
 62
     3
 10
141.39887290836299
 20
163.51473125303491
 30
0.0
 11
141.31687227596089
 21
163.57214871398071
 31
0.0
1001
ACAD
1000
ASC_BOUNDS
1002
{
1070
    19
1002
}
  0
LINE
  5
67569
  8
0
  6
HIDDEN
 62
     3
 10
147.14187227596031
 20
168.41016233148281
 30
0.0
 11
147.14187227596031
 21
167.02619270304851
 31
0.0
1001
ACAD
1000
ASC_BOUNDS
1002
{
1070
    19
1002
}
  0
LINE
  5
6756A
  8
0
  6
HIDDEN
 62
     3
 10
147.5918722759603
 20
164.0614447667607
 30
0.0
 11
143.69317865376701
 21
166.7913394301905
 31
0.0
1001
ACAD
1000
ASC_BOUNDS
1002
{
1070
    19
1002
}
  0
LINE
  5
6756B
  8
0
  6
HIDDEN
 62
     3
 10
147.59187227596021
 20
166.76575529104429
 30
0.0
 11
147.5918722759601
 21
163.69521239013221
 31
0.0
1001
ACAD
1000
ASC_BOUNDS
1002
{
1070
    19
1002
}
  0
LINE
  5
6756C
  8
0
  6
HIDDEN
 62
     3
 10
147.24187227596019
 20
166.96831772260319
 30
0.0
 11
147.24187227596019
 21
163.94028502850571
 31
0.0
1001
ACAD
1000
ASC_BOUNDS
1002
{
1070
    19
1002
}
  0
LINE
  5
6756D
  8
0
  6
HIDDEN
 62
     3
 10
147.5918722759601
 20
163.69521239013221
 30
0.0
 11
143.76685133614839
 21
166.37352088599849
 31
0.0
1001
ACAD
1000
ASC_BOUNDS
1002
{
1070
    19
1002
}
  0
LINE
  5
6756E
  8
0
  6
HIDDEN
 62
     3
 10
141.81669145255501
 20
163.5884039354161
 30
0.0
 11
141.39887290836299
 21
163.51473125303471
 31
0.0
1001
ACAD
1000
ASC_BOUNDS
1002
{
1070
    19
1002
}
  0
LINE
  5
6756F
  8
0
  6
HIDDEN
 62
     3
 10
143.76685133614839
 20
166.37352088599849
 30
0.0
 11
143.69317865376701
 21
166.7913394301905
 31
0.0
1001
ACAD
1000
ASC_BOUNDS
1002
{
1070
    19
1002
}
  0
LINE
  5
67570
  8
0
  6
HIDDEN
 62
     3
 10
147.59449610388009
 20
162.77404079432171
 30
0.0
 11
145.9042091519525
 21
160.3600608531039
 31
0.0
1001
ACAD
1000
ASC_BOUNDS
1002
{
1070
    19
1002
}
  0
LINE
  5
67571
  8
0
  6
HIDDEN
 62
     3
 10
143.69317865376701
 20
166.79133943019059
 30
0.0
 11
142.5460257810648
 21
165.15303534161251
 31
0.0
  0
LINE
  5
67572
  8
0
  6
HIDDEN
 62
     3
 10
141.81669145255501
 20
163.58840393541621
 30
0.0
 11
142.7917713943518
 21
164.98096241070749
 31
0.0
  0
LINE
  5
67573
  8
0
  6
HIDDEN
 62
     3
 10
142.5460257810648
 20
165.15303534161251
 30
0.0
 11
141.3988729083633
 21
163.51473125303471
 31
0.0
  0
LINE
  5
67574
  8
0
  6
HIDDEN
 62
     3
 10
143.76685133614839
 20
166.37352088599849
 30
0.0
 11
142.7917713943516
 21
164.98096241070721
 31
0.0
  0
LINE
  5
67575
  8
0
  6
HIDDEN
 62
     3
 10
151.3418722759603
 20
168.2920364664048
 30
0.0
 11
151.3418722759601
 21
167.02619270304839
 31
0.0
1001
ACAD
1000
ASC_BOUNDS
1002
{
1070
    19
1002
}
  0
LINE
  5
67576
  8
0
  6
HIDDEN
 62
     3
 10
151.3418722759603
 20
167.02619270304851
 30
0.0
 11
150.8918722759602
 21
166.7657552910442
 31
0.0
1001
ACAD
1000
ASC_BOUNDS
1002
{
1070
    19
1002
}
  0
LINE
  5
67577
  8
0
  6
HIDDEN
 62
     3
 10
151.24187227596019
 20
166.96831772260299
 30
0.0
 11
151.24187227596019
 21
162.2261927030485
 31
0.0
1001
ACAD
1000
ASC_BOUNDS
1002
{
1070
    19
1002
}
  0
LINE
  5
67578
  8
0
  6
HIDDEN
 62
     3
 10
151.24187227596039
 20
162.2261927030485
 30
0.0
 11
150.8918722759602
 21
161.60919395832221
 31
0.0
1001
ACAD
1000
ASC_BOUNDS
1002
{
1070
    19
1002
}
  0
LINE
  5
67579
  8
0
  6
HIDDEN
 62
     3
 10
150.8918722759602
 20
166.7657552910442
 30
0.0
 11
150.8918722759602
 21
161.38452751404029
 31
0.0
1001
ACAD
1000
ASC_BOUNDS
1002
{
1070
    19
1002
}
  0
LINE
  5
6757A
  8
0
  6
HIDDEN
 62
     3
 10
150.8918722759602
 20
166.7657552910442
 30
0.0
 11
149.24187227596019
 21
166.7657552910442
 31
0.0
  0
LINE
  5
6757B
  8
0
  6
HIDDEN
 62
     3
 10
151.3418722759601
 20
167.02619270304851
 30
0.0
 11
149.24187227596019
 21
167.02619270304851
 31
0.0
  0
DIMENSION
  5
6757C
  8
0
  6
CONTINUOUS
  2
*D153
 10
258.14187227596079
 20
83.007883224331664
 30
0.0
 11
164.01687227596091
 21
85.108178499922204
 31
0.0
 70
     0
 13
69.891872275960964
 23
128.0964336706634
 33
0.0
 14
258.14187227596079
 24
122.5456749864061
 34
0.0
1001
ACAD
1000
DSTYLE
1002
{
1070
   287
1070
     2
1070
    42
1040
0.6
1070
    43
1040
1.0
1070
    44
1040
1.0
1070
    47
1040
0.1
1070
    48
1040
0.1
1070
    73
1070
     0
1070
   140
1040
3.0
1070
   141
1040
-0.2
1070
   146
1040
0.7
1070
   147
1040
0.6
1070
   178
1070
     3
1070
   271
1070
     2
1070
   272
1070
     2
1070
   275
1070
     1
1070
   283
1070
     0
1070
   284
1070
     8
1070
   289
1070
     2
1002
}
  0
DIMENSION
  5
6757D
  8
0
  6
CONTINUOUS
  2
*D154
 10
258.14187227596079
 20
91.007883224331636
 30
0.0
 11
198.14187227596079
 21
93.108178499922175
 31
0.0
 70
     0
 13
138.14187227596079
 23
116.8461927030488
 33
0.0
 14
258.14187227596079
 24
122.5456749864061
 34
0.0
1001
ACAD
1000
DSTYLE
1002
{
1070
   287
1070
     2
1070
    42
1040
0.6
1070
    43
1040
1.0
1070
    44
1040
1.0
1070
    47
1040
0.1
1070
    48
1040
0.1
1070
    73
1070
     0
1070
   140
1040
3.0
1070
   141
1040
-0.2
1070
   146
1040
0.7
1070
   147
1040
0.6
1070
   178
1070
     3
1070
   271
1070
     2
1070
   272
1070
     2
1070
   275
1070
     1
1070
   283
1070
     0
1070
   284
1070
     8
1070
   289
1070
     2
1002
}
  0
DIMENSION
  5
6757E
  8
0
  6
CONTINUOUS
  2
*D155
 10
138.14187227596079
 20
91.007883224331636
 30
0.0
 11
104.01687227596091
 21
93.108178499922175
 31
0.0
 70
     0
 13
69.891872275960964
 23
128.0964336706634
 33
0.0
 14
138.14187227596079
 24
116.8461927030488
 34
0.0
1001
ACAD
1000
DSTYLE
1002
{
1070
   287
1070
     2
1070
    42
1040
0.6
1070
    43
1040
1.0
1070
    44
1040
1.0
1070
    47
1040
0.1
1070
    48
1040
0.1
1070
    73
1070
     0
1070
   140
1040
3.0
1070
   141
1040
-0.2
1070
   146
1040
0.7
1070
   147
1040
0.6
1070
   178
1070
     3
1070
   271
1070
     2
1070
   272
1070
     2
1070
   275
1070
     1
1070
   283
1070
     0
1070
   284
1070
     8
1070
   289
1070
     2
1002
}
  0
LINE
  5
67581
  8
0
  6
BYBLOCK
 62
     0
 10
158.1918722759608
 20
163.82119270304881
 30
0.0
 11
185.20809260392099
 21
163.82119270304861
 31
0.0
  0
ARC
  5
67582
  8
0
  6
CONTINUOUS
 10
158.1918722759608
 20
164.82119270304869
 30
0.0
 40
1.0
 50
180.0
 51
270.0
  0
LINE
  5
67583
  8
0
  6
CONTINUOUS
 10
187.87039442614159
 20
117.9324347242199
 30
0.0
 11
186.0741180077043
 21
114.82119270304869
 31
0.0
  0
ARC
  5
67584
  8
0
  6
CONTINUOUS
 10
185.20809260391991
 20
115.32119270304869
 30
0.0
 40
1.0
 50
270.0
 51
329.99999999999909
  0
LINE
  5
67585
  8
0
  6
CONTINUOUS
 10
185.7854428731095
 20
114.32119270304869
 30
0.0
 11
185.7854428731095
 21
139.07119270304869
 31
0.0
  0
DIMENSION
  5
67586
  8
0
  6
CONTINUOUS
  2
*D156
 10
258.14187227596079
 20
99.007883224331636
 30
0.0
 11
223.14187227596091
 21
101.1078832243316
 31
0.0
 70
     0
 13
188.14187227596079
 23
118.4026481532363
 33
0.0
 14
258.14187227596079
 24
122.5456749864061
 34
0.0
1001
ACAD
1000
DSTYLE
1002
{
1070
   287
1070
     2
1070
    42
1040
0.6
1070
    43
1040
1.0
1070
    44
1040
1.0
1070
    47
1040
0.1
1070
    48
1040
0.1
1070
    73
1070
     0
1070
   140
1040
3.0
1070
   141
1040
-0.2
1070
   146
1040
0.7
1070
   147
1040
0.6
1070
   178
1070
     3
1070
   271
1070
     5
1070
   272
1070
     5
1070
   275
1070
     1
1070
   283
1070
     0
1070
   284
1070
     8
1070
   289
1070
     2
1002
}
  0
LINE
  5
67587
  8
0
  6
HIDDEN
 62
     3
 10
114.89187227596091
 20
145.82119270304869
 30
0.0
 11
184.6799920606087
 21
145.82119270304889
 31
0.0
1001
ACAD
1000
ASC_BOUNDS
1002
{
1070
    19
1002
}
  0
DIMENSION
  5
67588
  8
0
  6
CONTINUOUS
  2
*D157
 10
278.39167935597879
 20
156.07119270304881
 30
0.0
 11
276.29167935597872
 21
139.07119270304881
 31
0.0
 70
     0
 13
258.14187227596108
 23
122.07119270304869
 33
0.0
 14
258.14187227596068
 24
156.07119270304881
 34
0.0
 50
90.0
1001
ACAD
1000
DSTYLE
1002
{
1070
   287
1070
     2
1070
     3
1000
%%c<>
1070
    42
1040
0.6
1070
    43
1040
1.0
1070
    44
1040
1.0
1070
    47
1040
-0.02
1070
    48
1040
0.03
1070
    73
1070
     0
1070
   140
1040
3.0
1070
   141
1040
-0.2
1070
   146
1040
0.7
1070
   147
1040
0.6
1070
   178
1070
     3
1070
   271
1070
     5
1070
   272
1070
     5
1070
   275
1070
     1
1070
   283
1070
     0
1070
   284
1070
     8
1070
   289
1070
     2
1002
}
  0
INSERT
  5
67589
  8
0
  6
CONTINUOUS
  2
*U307
 10
0.0
 20
0.0
 30
0.0
1001
ACAD
1000
DSTYLE
1002
{
1070
   284
1070
     8
1070
   140
1040
3.0
1070
    47
1040
0.05
1070
   283
1070
     0
1070
    71
1070
     1
1070
    48
1040
-0.01
1070
    73
1070
     0
1070
   146
1040
0.7
1070
   272
1070
     8
1070
   147
1040
0.6
1070
    42
1040
0.6
1070
    44
1040
1.0
1070
    43
1040
1.0
1070
   271
1070
     8
1070
   178
1070
     3
1070
   141
1040
0.0
1070
   275
1070
     1
1002
}
  0
TEXT
  5
6758A
  8
0
  6
CONTINUOUS
 62
     3
 10
211.28060856201861
 20
105.9403347409098
 30
0.0
 40
3.0
  1
3%%D(Q/2)
  0
LINE
  5
6758B
  8
0
  6
HIDDEN
 62
     3
 10
185.1418722759604
 20
146.62119270304899
 30
0.0
 11
204.6418722759604
 21
146.62119270304891
 31
0.0
1001
ACAD
1000
ASC_BOUNDS
1002
{
1070
    19
1005
0
1005
0
1005
0
1005
0
1005
0
1005
0
1002
}
  0
LINE
  5
6758C
  8
0
  6
HIDDEN
 62
     3
 10
190.1418722759604
 20
147.07119270304861
 30
0.0
 11
189.36244941255521
 21
146.62119270304899
 31
0.0
  0
LINE
  5
6758D
  8
0
  6
HIDDEN
 62
     3
 10
190.1418722759604
 20
147.07119270304861
 30
0.0
 11
205.0918722759607
 21
147.07119270304881
 31
0.0
1001
ACAD
1000
ASC_BOUNDS
1002
{
1070
    19
1005
0
1005
0
1005
0
1005
0
1005
0
1005
0
1002
}
  0
LINE
  5
6758E
  8
0
  6
HIDDEN
 62
     3
 10
205.1418722759604
 20
148.77119270304871
 30
0.0
 11
205.1418722759604
 21
139.07119270304889
 31
0.0
  0
LINE
  5
6758F
  8
0
  6
HIDDEN
 62
     3
 10
204.6418722759604
 20
146.62119270304899
 30
0.0
 11
205.1418722759604
 21
147.12119270304899
 31
0.0
  0
LINE
  5
67590
  8
0
  6
HIDDEN
 62
     3
 10
190.1418722759604
 20
147.07119270304861
 30
0.0
 11
190.1418722759604
 21
139.07119270304889
 31
0.0
  0
LINE
  5
67591
  8
0
  6
HIDDEN
 62
     3
 10
185.1418722759604
 20
146.62119270304899
 30
0.0
 11
185.1418722759604
 21
139.07119270304889
 31
0.0
  0
LINE
  5
67592
  8
0
  6
CONTINUOUS
 10
258.14187227596108
 20
139.07119270304869
 30
0.0
 11
258.14187227596079
 21
122.5456749864061
 31
0.0
  0
LINE
  5
67593
  8
0
  6
CONTINUOUS
 10
188.14187227596111
 20
139.07119270304969
 30
0.0
 11
188.14187227596079
 21
118.4026481532363
 31
0.0
  0
LINE
  5
67594
  8
0
  6
CONTINUOUS
 10
188.68408387368311
 20
118.4310642589744
 30
0.0
 11
233.5199915293876
 21
120.7808146113491
 31
0.0
  0
ARC
  5
67595
  8
0
  6
CONTINUOUS
 10
188.73641982992601
 20
117.4324347242199
 30
0.0
 40
1.0
 50
92.999999999999076
 51
149.99999999999901
  0
LINE
  5
67596
  8
0
  6
CONTINUOUS
 10
243.54546359745859
 20
121.30622733870079
 30
0.0
 11
257.66804025408243
 21
122.0463602190289
 31
0.0
  0
ARC
  5
67597
  8
0
  6
CONTINUOUS
 10
257.64187227596079
 20
122.5456749864061
 30
0.0
 40
0.5
 50
272.99999999999909
 51
0.0
  0
LINE
  5
67598
  8
0
  6
CONTINUOUS
 10
188.6840838736841
 20
159.7113211471233
 30
0.0
 11
233.5199915293876
 21
157.36157079474839
 31
0.0
  0
ARC
  5
67599
  8
0
  6
CONTINUOUS
 10
188.736419829927
 20
160.7099506818779
 30
0.0
 40
1.0
 50
210.00000000000091
 51
267.00000000000091
  0
LINE
  5
6759A
  8
0
  6
CONTINUOUS
 10
236.78568046646171
 20
157.19042328972719
 30
0.0
 11
240.51039827266919
 21
156.99521910104789
 31
0.0
  0
LINE
  5
6759B
  8
0
  6
CONTINUOUS
 10
243.77608720974331
 20
156.82407159602661
 30
0.0
 11
257.6680402540826
 21
156.09602518706859
 31
0.0
  0
LINE
  5
6759C
  8
0
  6
CONTINUOUS
 10
258.14187227596108
 20
139.07119270304869
 30
0.0
 11
258.14187227596108
 21
155.59671041969131
 31
0.0
  0
ARC
  5
6759D
  8
0
  6
CONTINUOUS
 10
257.64187227596108
 20
155.59671041969131
 30
0.0
 40
0.5
 50
0.0
 51
87.000000000000924
  0
LINE
  5
6759E
  8
0
  6
CONTINUOUS
 10
234.12803848504919
 20
156.82901823110359
 30
0.0
 11
236.12529755455779
 21
156.72434631861779
 31
0.0
  0
LINE
  5
6759F
  8
0
  6
CONTINUOUS
 62
     7
 10
243.2939056026776
 20
156.448792724865
 30
0.0
 11
243.41968460006771
 21
156.64247539613041
 31
0.0
  0
ARC
  5
675A0
  8
0
  6
CONTINUOUS
 10
243.75515282724609
 20
156.42461978212481
 30
0.0
 40
0.4
 50
87.000000000066166
 51
146.99999999998761
  0
ARC
  5
675A1
  8
0
  6
CONTINUOUS
 62
     7
 10
243.12617148908839
 20
156.5577205318682
 30
0.0
 40
0.2
 50
267.00000000000091
 51
326.99999999998943
  0
LINE
  5
675A2
  8
0
  6
CONTINUOUS
 10
241.11844522833081
 20
156.46266653740309
 30
0.0
 11
243.11570429783981
 21
156.35799462491721
 31
0.0
  0
ARC
  5
675A3
  8
0
  6
CONTINUOUS
 62
     7
 10
240.48946389017209
 20
156.5957672871462
 30
0.0
 40
0.4
 50
26.9999999999872
 51
87.000000000000924
  0
LINE
  5
675A4
  8
0
  6
CONTINUOUS
 62
     7
 10
240.95071111474141
 20
156.5715943444059
 30
0.0
 11
240.84586649984769
 21
156.77736348704201
 31
0.0
  0
ARC
  5
675A5
  8
0
  6
CONTINUOUS
 62
     7
 10
241.12891241957939
 20
156.662392444354
 30
0.0
 40
0.2
 50
206.9999999999944
 51
267.00000000000091
  0
ARC
  5
675A6
  8
0
  6
CONTINUOUS
 62
     7
 10
236.76474608396461
 20
156.79097147582559
 30
0.0
 40
0.4
 50
87.000000000000924
 51
146.99999999998761
  0
LINE
  5
675A7
  8
0
  6
CONTINUOUS
 62
     7
 10
236.3034988593954
 20
156.81514441856561
 30
0.0
 11
236.429277856786
 21
157.00882708983161
 31
0.0
  0
ARC
  5
675A8
  8
0
  6
CONTINUOUS
 62
     7
 10
236.1357647458064
 20
156.92407222556881
 30
0.0
 40
0.2
 50
267.00000000000091
 51
326.99999999998943
  0
LINE
  5
675A9
  8
0
  6
HIDDEN
 62
     3
 10
185.1418722759604
 20
146.62119270304899
 30
0.0
 11
184.67999206060861
 21
145.82119270304889
 31
0.0
  0
LINE
  5
675AA
  8
0
  6
HIDDEN
 62
     3
 10
184.67999206060861
 20
145.82119270304889
 30
0.0
 11
184.67999206060861
 21
139.07119270304869
 31
0.0
  0
LINE
  5
675AB
  8
0
  6
HIDDEN
 62
     3
 10
204.6418722759604
 20
146.62119270304899
 30
0.0
 11
204.6418722759604
 21
139.07119270304869
 31
0.0
  0
LINE
  5
675AC
  8
0
  6
HIDDEN
 62
     3
 10
202.6418722759604
 20
147.07119270304881
 30
0.0
 11
203.3918722759604
 21
146.32119270304869
 31
0.0
  0
LINE
  5
675AD
  8
0
  6
HIDDEN
 62
     3
 10
203.3918722759604
 20
146.32119270304869
 30
0.0
 11
205.1418722759604
 21
146.32119270304881
 31
0.0
  0
LINE
  5
675AE
  8
0
  6
HIDDEN
 62
     3
 10
194.1418722759604
 20
147.07119270304881
 30
0.0
 11
193.1418722759604
 21
146.07119270304881
 31
0.0
  0
LINE
  5
675AF
  8
0
  6
HIDDEN
 62
     3
 10
194.1418722759604
 20
147.07119270304881
 30
0.0
 11
202.6418722759604
 21
147.07119270304881
 31
0.0
  0
LINE
  5
675B0
  8
0
  6
HIDDEN
 62
     3
 10
193.6418722759604
 20
146.57119270304881
 30
0.0
 11
203.1418722759604
 21
146.57119270304881
 31
0.0
  0
LINE
  5
675B1
  8
0
  6
HIDDEN
 62
     3
 10
206.94187227596029
 20
147.07119270304881
 30
0.0
 11
207.1418722759604
 21
146.87119270304879
 31
0.0
  0
LINE
  5
675B2
  8
0
  6
HIDDEN
 62
     3
 10
205.1418722759604
 20
147.07119270304881
 30
0.0
 11
206.94187227596029
 21
147.07119270304881
 31
0.0
  0
LINE
  5
675B3
  8
0
  6
HIDDEN
 62
     3
 10
203.3918722759604
 20
139.07119270304881
 30
0.0
 11
203.3918722759604
 21
146.32119270304869
 31
0.0
  0
LINE
  5
675B4
  8
0
  6
HIDDEN
 62
     3
 10
202.6418722759604
 20
147.07119270304881
 30
0.0
 11
202.6418722759604
 21
139.07119270304881
 31
0.0
  0
LINE
  5
675B5
  8
0
  6
HIDDEN
 62
     3
 10
193.1418722759604
 20
146.07119270304881
 30
0.0
 11
193.1418722759604
 21
139.07119270304881
 31
0.0
  0
LINE
  5
675B6
  8
0
  6
HIDDEN
 62
     3
 10
194.1418722759604
 20
147.07119270304881
 30
0.0
 11
194.1418722759604
 21
139.07119270304881
 31
0.0
  0
LINE
  5
675B7
  8
0
  6
HIDDEN
 62
     3
 10
207.1418722759604
 20
146.87119270304879
 30
0.0
 11
207.1418722759604
 21
139.07119270304881
 31
0.0
  0
LINE
  5
675B8
  8
0
  6
HIDDEN
 62
     3
 10
206.94187227596029
 20
147.07119270304881
 30
0.0
 11
206.94187227596029
 21
139.07119270304881
 31
0.0
  0
LINE
  5
675B9
  8
0
  6
HIDDEN
 62
     3
 10
205.1418722759604
 20
147.07119270304881
 30
0.0
 11
205.1418722759604
 21
139.07119270304881
 31
0.0
  0
LINE
  5
675BA
  8
0
  6
CONTINUOUS
 10
187.87039442614261
 20
160.2099506818779
 30
0.0
 11
186.07411800770541
 21
163.32119270304861
 31
0.0
  0
ARC
  5
675BB
  8
0
  6
CONTINUOUS
 10
185.20809260392099
 20
162.82119270304861
 30
0.0
 40
1.0
 50
30.000000000000949
 51
90.0
  0
LINE
  5
675BC
  8
0
  6
HIDDEN
 62
     3
 10
219.75430784125891
 20
151.07119270304869
 30
0.0
 11
252.64187227596091
 21
151.07119270304869
 31
0.0
1001
ACAD
1000
ASC_BOUNDS
1002
{
1070
    19
1005
0
1005
0
1002
}
  0
LINE
  5
675BD
  8
0
  6
HIDDEN
 62
     3
 10
212.20885957406861
 20
150.07119270304869
 30
0.0
 11
212.20885957406861
 21
139.07119270304869
 31
0.0
  0
LINE
  5
675BE
  8
0
  6
HIDDEN
 62
     3
 10
209.64187227596079
 20
139.07119270304869
 30
0.0
 11
209.64187227596079
 21
149.57119270304869
 31
0.0
1001
ACAD
1000
ASC_BOUNDS
1002
{
1070
    19
1002
}
  0
LINE
  5
675BF
  8
0
  6
HIDDEN
 62
     3
 10
205.14187227596091
 20
148.77119270304871
 30
0.0
 11
209.64187227596079
 21
148.77119270304871
 31
0.0
  0
LINE
  5
675C0
  8
0
  6
HIDDEN
 62
     3
 10
212.64187227596099
 20
149.9551672992643
 30
0.0
 11
212.20885957406861
 21
150.07119270304869
 31
0.0
1001
ACAD
1000
ASC_BOUNDS
1002
{
1070
    19
1002
}
  0
ARC
  5
675C1
  8
0
  6
HIDDEN
 62
     3
 10
210.14187227596079
 20
149.57119270304869
 30
0.0
 40
0.5
 50
90.0
 51
180.0
1001
ACAD
1000
ASC_BOUNDS
1002
{
1070
    19
1002
}
  0
LINE
  5
675C2
  8
0
  6
HIDDEN
 62
     3
 10
210.14187227596079
 20
150.07119270304869
 30
0.0
 11
212.20885957406861
 21
150.07119270304869
 31
0.0
1001
ACAD
1000
ASC_BOUNDS
1002
{
1070
    19
1002
}
  0
LINE
  5
675C3
  8
0
  6
HIDDEN
 62
     3
 10
219.75430784125891
 20
151.07119270304869
 30
0.0
 11
219.75430784125891
 21
150.69619270304869
 31
0.0
  0
ARC
  5
675C4
  8
0
  6
HIDDEN
 62
     3
 10
220.75430784125891
 20
150.69619270304869
 30
0.0
 40
1.0
 50
180.0
 51
270.0
  0
DIMENSION
  5
675C5
  8
0
  6
CONTINUOUS
  2
*D158
 10
186.0741180077043
 20
114.82119270304869
 30
0.0
 11
183.12448748500711
 21
99.677513192273835
 31
0.0
 70
   130
 13
188.14187227596111
 23
139.07119270304969
 33
0.0
 14
188.14187227596079
 24
118.4026481532363
 34
0.0
 15
187.87039442614159
 25
117.9324347242199
 35
0.0
 16
181.5115771033536
 26
100.1860618821795
 36
0.0
1001
ACAD
1000
DSTYLE
1002
{
1070
   287
1070
     2
1070
   271
1070
     0
1070
    42
1040
0.6
1070
    43
1040
1.0
1070
    44
1040
1.0
1070
    47
1040
0.1
1070
    48
1040
0.1
1070
    73
1070
     0
1070
   140
1040
3.0
1070
   141
1040
-0.2
1070
   146
1040
0.7
1070
   147
1040
0.6
1070
   178
1070
     3
1070
   271
1070
     5
1070
   272
1070
     5
1070
   275
1070
     1
1070
   283
1070
     0
1070
   284
1070
     8
1070
   289
1070
     2
1002
}
  0
ARC
  5
675C6
  8
0
  6
CONTINUOUS
 62
     7
 10
233.49905714689049
 20
156.9621189808465
 30
0.0
 40
0.4
 50
26.9999999999872
 51
87.000000000000924
  0
LINE
  5
675C7
  8
0
  6
CONTINUOUS
 62
     7
 10
233.96030437145981
 20
156.93794603810619
 30
0.0
 11
233.85545975656609
 21
157.14371518074219
 31
0.0
  0
ARC
  5
675C8
  8
0
  6
CONTINUOUS
 62
     7
 10
234.1385056762978
 20
157.02874413805429
 30
0.0
 40
0.2
 50
206.9999999999944
 51
267.00000000000091
  0
ARC
  5
675C9
  8
0
  6
CONTINUOUS
 62
     7
 10
233.49905714689049
 20
121.18026642525101
 30
0.0
 40
0.4
 50
272.99999999999909
 51
333.00000000001279
  0
LINE
  5
675CA
  8
0
  6
CONTINUOUS
 62
     7
 10
233.96030437145981
 20
121.2044393679913
 30
0.0
 11
233.85545975656609
 21
120.9986702253552
 31
0.0
  0
ARC
  5
675CB
  8
0
  6
CONTINUOUS
 62
     7
 10
234.1385056762978
 20
121.1136412680432
 30
0.0
 40
0.2
 50
92.999999999999076
 51
153.00000000000551
  0
LINE
  5
675CC
  8
0
  6
CONTINUOUS
 10
236.5550568541764
 20
120.9398756450001
 30
0.0
 11
240.74102188495419
 21
121.15925277641971
 31
0.0
  0
LINE
  5
675CD
  8
0
  6
CONTINUOUS
 10
234.12803848504919
 20
121.3133671749938
 30
0.0
 11
236.12529755455779
 21
121.4180390874797
 31
0.0
  0
LINE
  5
675CE
  8
0
  6
CONTINUOUS
 62
     7
 10
243.2939056026776
 20
121.6935926812325
 30
0.0
 11
243.41968460006771
 21
121.4999100099671
 31
0.0
  0
ARC
  5
675CF
  8
0
  6
CONTINUOUS
 10
243.75515282724609
 20
121.7177656239727
 30
0.0
 40
0.4
 50
213.00000000001239
 51
272.99999999993378
  0
ARC
  5
675D0
  8
0
  6
CONTINUOUS
 62
     7
 10
243.12617148908839
 20
121.5846648742293
 30
0.0
 40
0.2
 50
33.000000000010481
 51
92.999999999999076
  0
LINE
  5
675D1
  8
0
  6
CONTINUOUS
 10
241.003133422188
 20
121.6736756330094
 30
0.0
 11
243.23101610398231
 21
121.79043401686531
 31
0.0
  0
ARC
  5
675D2
  8
0
  6
CONTINUOUS
 62
     7
 10
240.48946389017209
 20
121.5466181189512
 30
0.0
 40
0.4
 50
272.99999999999909
 51
333.00000000001279
  0
LINE
  5
675D3
  8
0
  6
CONTINUOUS
 62
     7
 10
240.95071111474141
 20
121.57079106169149
 30
0.0
 11
240.84586649984769
 21
121.36502191905549
 31
0.0
  0
ARC
  5
675D4
  8
0
  6
CONTINUOUS
 62
     7
 10
241.12891241957939
 20
121.47999296174341
 30
0.0
 40
0.2
 50
92.999999999999076
 51
153.00000000000551
  0
ARC
  5
675D5
  8
0
  6
CONTINUOUS
 62
     7
 10
236.76474608396461
 20
121.3514139302719
 30
0.0
 40
0.4
 50
213.00000000001239
 51
272.99999999999909
  0
LINE
  5
675D6
  8
0
  6
CONTINUOUS
 62
     7
 10
236.3034988593954
 20
121.32724098753189
 30
0.0
 11
236.429277856786
 21
121.1335583162659
 31
0.0
  0
ARC
  5
675D7
  8
0
  6
CONTINUOUS
 62
     7
 10
236.1357647458064
 20
121.2183131805287
 30
0.0
 40
0.2
 50
33.000000000010481
 51
92.999999999999076
  0
LINE
  5
675D8
  8
0
  6
CONTINUOUS
 62
     7
 10
233.96030437145981
 20
121.2044393679913
 30
0.0
 11
233.85545975656609
 21
120.9986702253552
 31
0.0
  0
LINE
  5
675D9
  8
0
  6
CONTINUOUS
 10
233.75061514167251
 20
120.8692703235692
 30
0.0
 11
233.75061514167251
 21
139.07119270304869
 31
0.0
  0
LINE
  5
675DA
  8
0
  6
CONTINUOUS
 10
234.0127266789064
 20
121.2691393188837
 30
0.0
 11
234.0127266789064
 21
139.07119270304869
 31
0.0
  0
LINE
  5
675DB
  8
0
  6
CONTINUOUS
 10
236.5550568541764
 20
120.9398756450001
 30
0.0
 11
236.5550568541764
 21
139.07119270304869
 31
0.0
  0
LINE
  5
675DC
  8
0
  6
CONTINUOUS
 10
236.24060936070009
 20
121.3886293768454
 30
0.0
 11
236.24060936070009
 21
139.07119270304869
 31
0.0
  0
LINE
  5
675DD
  8
0
  6
CONTINUOUS
 10
240.74102188495419
 20
121.15925277641971
 30
0.0
 11
240.74102188495419
 21
139.07119270304869
 31
0.0
  0
LINE
  5
675DE
  8
0
  6
CONTINUOUS
 10
241.003133422188
 20
121.6354910125841
 30
0.0
 11
241.003133422188
 21
139.07119270304869
 31
0.0
  0
LINE
  5
675DF
  8
0
  6
CONTINUOUS
 10
243.23101610398231
 20
121.7549810705458
 30
0.0
 11
243.23101610398231
 21
139.07119270304869
 31
0.0
  0
LINE
  5
675E0
  8
0
  6
CONTINUOUS
 10
243.54546359745859
 20
121.30622733870079
 30
0.0
 11
243.54546359745859
 21
139.07119270304869
 31
0.0
  0
LINE
  5
675E1
  8
0
  6
HIDDEN
 62
     3
 10
216.2717760865288
 20
148.5961927030487
 30
0.0
 11
256.64187227596102
 21
148.5961927030487
 31
0.0
1001
ACAD
1000
ASC_BOUNDS
1002
{
1070
    19
1005
0
1005
0
1005
0
1002
}
  0
LINE
  5
675E2
  8
0
  6
HIDDEN
 62
     3
 10
216.2717760865288
 20
148.5961927030487
 30
0.0
 11
216.2717760865288
 21
139.07119270304869
 31
0.0
  0
LINE
  5
675E3
  8
0
  6
HIDDEN
 62
     3
 10
216.14187227596099
 20
148.82119270304881
 30
0.0
 11
216.14187227596099
 21
139.07119270304869
 31
0.0
  0
LINE
  5
675E4
  8
0
  6
HIDDEN
 62
     3
 10
212.64187227596099
 20
149.9551672992643
 30
0.0
 11
212.64187227596099
 21
139.07119270304869
 31
0.0
  0
LINE
  5
675E5
  8
0
  6
HIDDEN
 62
     3
 10
212.9418722759608
 20
148.82119270304881
 30
0.0
 11
212.94187227596089
 21
139.07119270304869
 31
0.0
  0
LINE
  5
675E6
  8
0
  6
HIDDEN
 62
     3
 10
212.94187227596089
 20
148.82119270304881
 30
0.0
 11
216.14187227596111
 21
148.82119270304881
 31
0.0
  0
POINT
  5
675E7
  8
DEFPOINTS
  6
HIDDEN
 62
     3
 10
212.64187227596099
 20
149.62119270304871
 30
0.0
  0
LINE
  5
675E8
  8
0
  6
HIDDEN
 62
     3
 10
242.566872275961
 20
150.57119270304869
 30
0.0
 11
243.441872275961
 21
149.69619270304869
 31
0.0
  0
LINE
  5
675E9
  8
0
  6
HIDDEN
 62
     3
 10
252.64187227596091
 20
151.07119270304869
 30
0.0
 11
252.64187227596091
 21
150.69619270304861
 31
0.0
  0
ARC
  5
675EA
  8
0
  6
HIDDEN
 62
     3
 10
251.64187227596079
 20
150.69619270304869
 30
0.0
 40
1.0
 50
270.0
 51
359.99999999999511
  0
ARC
  5
675EB
  8
0
  6
HIDDEN
 62
     3
 10
256.64187227596102
 20
150.0961927030487
 30
0.0
 40
1.5
 50
270.0
 51
0.0
1001
ACAD
1000
ASC_BOUNDS
1002
{
1070
    19
1005
0
1005
0
1005
0
1002
}
  0
DIMENSION
  5
675EC
  8
0
  6
CONTINUOUS
  2
*D152
 10
270.39167935597879
 20
148.5961927030487
 30
0.0
 11
270.39167935597879
 21
139.07119270304881
 31
0.0
 70
   128
 13
256.64187227596102
 23
129.54619270304869
 33
0.0
 14
256.64187227596102
 24
148.5961927030487
 34
0.0
 50
90.0
1001
ACAD
1000
DSTYLE
1002
{
1070
   287
1070
     2
1070
     3
1000
%%c<>
1070
    72
1070
     0
1070
    71
1070
     0
1070
    42
1040
0.6
1070
    43
1040
1.0
1070
    44
1040
1.0
1070
    47
1040
-0.02
1070
    48
1040
0.03
1070
    73
1070
     0
1070
   140
1040
3.0
1070
   141
1040
-0.2
1070
   144
1040
1.0
1070
   146
1040
0.7
1070
   147
1040
0.6
1070
   178
1070
     3
1070
   271
1070
     5
1070
   272
1070
     5
1070
   275
1070
     1
1070
   283
1070
     0
1070
   284
1070
     8
1070
   289
1070
     2
1002
}
  0
LINE
  5
675ED
  8
0
  6
HIDDEN
 62
     3
 10
228.79187227596091
 20
150.57119270304869
 30
0.0
 11
242.566872275961
 21
150.57119270304869
 31
0.0
  0
LINE
  5
675EE
  8
0
  6
HIDDEN
 62
     3
 10
216.14187227596111
 20
148.82119270304881
 30
0.0
 11
216.2717760865288
 21
148.5961927030487
 31
0.0
  0
LINE
  5
675EF
  8
0
  6
HIDDEN
 62
     3
 10
212.94187227596089
 20
148.82119270304881
 30
0.0
 11
212.64187227596099
 21
148.9943977838056
 31
0.0
  0
LINE
  5
675F0
  8
0
  6
HIDDEN
 62
     3
 10
243.441872275961
 20
149.69619270304869
 30
0.0
 11
251.64187227596079
 21
149.69619270304869
 31
0.0
  0
LINE
  5
675F1
  8
0
  6
HIDDEN
 62
     3
 10
220.75430784125891
 20
149.69619270304869
 30
0.0
 11
227.9168722759612
 21
149.69619270304869
 31
0.0
1001
ACAD
1000
ASC_BOUNDS
1002
{
1070
    19
1005
0
1005
0
1005
0
1002
}
  0
LINE
  5
675F2
  8
0
  6
HIDDEN
 62
     3
 10
228.79187227596091
 20
150.57119270304869
 30
0.0
 11
227.9168722759612
 21
149.69619270304869
 31
0.0
  0
DIMENSION
  5
675F3
  8
0
  6
CONTINUOUS
  2
*D159
 10
286.39167935597879
 20
114.32119270304869
 30
0.0
 11
284.29167935597877
 21
139.07119270304869
 31
0.0
 70
     0
 13
185.20809260392099
 23
163.82119270304861
 33
0.0
 14
185.20809260391991
 24
114.32119270304869
 34
0.0
 50
90.0
1001
ACAD
1000
DSTYLE
1002
{
1070
   287
1070
     2
1070
     3
1000
%%c<>
1070
    42
1040
0.6
1070
    43
1040
1.0
1070
    44
1040
1.0
1070
    47
1040
-0.02
1070
    48
1040
0.03
1070
    73
1070
     0
1070
   140
1040
3.0
1070
   141
1040
-0.2
1070
   146
1040
0.7
1070
   147
1040
0.6
1070
   178
1070
     3
1070
   271
1070
     5
1070
   272
1070
     5
1070
   275
1070
     1
1070
   283
1070
     0
1070
   284
1070
     8
1070
   289
1070
     2
1002
}
  0
LINE
  5
675F4
  8
0
  6
HIDDEN
 62
     3
 10
71.391872275960964
 20
130.9211927030488
 30
0.0
 11
74.691872275960804
 21
130.92119270304849
 31
0.0
  0
LINE
  5
675F5
  8
0
  6
CONTINUOUS
 10
139.72527783323949
 20
160.8719204626849
 30
0.0
 11
139.7252778332396
 21
139.07119270304869
 31
0.0
  0
LINE
  5
675F6
  8
0
  6
CONTINUOUS
 10
138.14187227596079
 20
161.29619270304869
 30
0.0
 11
138.14187227596079
 21
139.07119270304869
 31
0.0
  0
LINE
  5
675F7
  8
0
  6
HIDDEN
 62
     3
 10
114.89187227596091
 20
132.07119270304869
 30
0.0
 11
75.361646604947055
 21
132.07119270304869
 31
0.0
  0
LINE
  5
675F8
  8
0
  6
HIDDEN
 62
     3
 10
99.89187227596085
 20
131.07119270304869
 30
0.0
 11
74.779234144959219
 21
131.07119270304881
 31
0.0
  0
LINE
  5
675F9
  8
0
  6
HIDDEN
 62
     3
 10
74.691872275960804
 20
130.92119270304849
 30
0.0
 11
75.361646604947055
 21
132.07119270304861
 31
0.0
  0
POINT
  5
675FA
  8
DEFPOINTS
  6
HIDDEN
 62
     3
 10
74.541872275960941
 20
130.9211927030488
 30
0.0
  0
LINE
  5
675FB
  8
0
  6
HIDDEN
 62
     3
 10
74.691872275960804
 20
139.07119270304869
 30
0.0
 11
74.691872275960804
 21
130.9211927030486
 31
0.0
1001
ACAD
1000
ASC_BOUNDS
1002
{
1070
    19
1005
0
1002
}
  0
LINE
  5
675FC
  8
0
  6
HIDDEN
 62
     3
 10
75.361646604947055
 20
132.07119270304861
 30
0.0
 11
75.361646604947055
 21
139.07119270304861
 31
0.0
  0
LINE
  5
675FD
  8
0
  6
HIDDEN
 62
     3
 10
99.89187227596085
 20
131.07119270304869
 30
0.0
 11
101.7114753371913
 21
132.07119270304869
 31
0.0
  0
LINE
  5
675FE
  8
0
  6
HIDDEN
 62
     3
 10
99.89187227596085
 20
131.07119270304869
 30
0.0
 11
99.89187227596085
 21
139.07119270304869
 31
0.0
  0
LINE
  5
675FF
  8
0
  6
HIDDEN
 62
     3
 10
114.89187227596091
 20
132.07119270304869
 30
0.0
 11
114.89187227596091
 21
139.07119270304869
 31
0.0
  0
LINE
  5
67600
  8
0
  6
CONTINUOUS
 10
145.74986324191249
 20
170.7294409935123
 30
0.0
 11
145.74986324191229
 21
147.24619270304891
 31
0.0
  0
LINE
  5
67601
  8
0
  6
CONTINUOUS
 10
152.8020813100091
 20
170.7294409935123
 30
0.0
 11
152.80208131000941
 21
147.24619270304891
 31
0.0
  0
LINE
  5
67602
  8
0
  6
HIDDEN
 62
     3
 10
143.69317865376701
 20
111.351045975907
 30
0.0
 11
141.31687227596089
 21
109.6871383370713
 31
0.0
1001
ACAD
1000
ASC_BOUNDS
1002
{
1070
    19
1002
}
  0
ARC
  5
67603
  8
0
  6
HIDDEN
 62
     3
 10
71.39187227596085
 20
129.42119270304869
 30
0.0
 40
1.5
 50
135.00000000000011
 51
180.0
  0
ARC
  5
67604
  8
0
  6
HIDDEN
 62
     3
 10
71.39187227596085
 20
129.42119270304869
 30
0.0
 40
1.5
 50
89.999999999993491
 51
105.00000000000119
  0
LINE
  5
67605
  8
0
  6
HIDDEN
 62
     3
 10
70.331212104181077
 20
130.4818528748286
 30
0.0
 11
71.003643708306981
 21
130.8700814424823
 31
0.0
  0
LINE
  5
67606
  8
0
  6
HIDDEN
 62
     3
 10
71.003643708306981
 20
130.8700814424823
 30
0.0
 11
71.003643708306981
 21
139.07119270304869
 31
0.0
  0
LINE
  5
67607
  8
0
  6
HIDDEN
 62
     3
 10
70.331212104181077
 20
130.4818528748286
 30
0.0
 11
70.331212104181077
 21
139.07119270304869
 31
0.0
  0
LINE
  5
67608
  8
0
  6
HIDDEN
 62
     3
 10
147.14187227596031
 20
111.1161927030489
 30
0.0
 11
147.5918722759603
 21
111.3766301150532
 31
0.0
1001
ACAD
1000
ASC_BOUNDS
1002
{
1070
    19
1002
}
  0
LINE
  5
67609
  8
0
  6
CONTINUOUS
 10
157.19187227596089
 20
147.24619270304891
 30
0.0
 11
141.3168722759608
 21
147.24619270304891
 31
0.0
  0
ARC
  5
6760A
  8
0
  6
CONTINUOUS
 10
149.28187227596069
 20
139.07119270304869
 30
0.0
 40
4.7625000000000002
 50
0.0
 51
180.0
  0
LINE
  5
6760B
  8
0
  6
CENTER
 62
     2
 10
149.24187227596019
 20
108.8515121051804
 30
0.0
 11
149.24187227596019
 21
132.32119270304869
 31
0.0
1001
ACAD
1000
ASC_BOUNDS
1002
{
1070
    19
1002
}
  0
LINE
  5
6760C
  8
0
  6
HIDDEN
 62
     3
 10
150.8918722759602
 20
120.9084914938464
 30
0.0
 11
150.89187227596011
 21
132.32119270304861
 31
0.0
1001
ACAD
1000
ASC_BOUNDS
1002
{
1070
    19
1002
}
  0
LINE
  5
6760D
  8
0
  6
HIDDEN
 62
     3
 10
147.5918722759601
 20
118.5978066177539
 30
0.0
 11
147.59187227595979
 21
132.32119270304861
 31
0.0
1001
ACAD
1000
ASC_BOUNDS
1002
{
1070
    19
1002
}
  0
LINE
  5
6760E
  8
0
  6
HIDDEN
 62
     3
 10
153.7605062764743
 20
118.76649704358179
 30
0.0
 11
150.8918722759602
 21
116.7578578920572
 31
0.0
1001
ACAD
1000
ASC_BOUNDS
1002
{
1070
    19
1002
}
  0
LINE
  5
6760F
  8
0
  6
HIDDEN
 62
     3
 10
147.5918722759601
 20
118.5978066177539
 30
0.0
 11
141.81669145255509
 21
114.55398147068129
 31
0.0
1001
ACAD
1000
ASC_BOUNDS
1002
{
1070
    19
1002
}
  0
LINE
  5
67610
  8
0
  6
HIDDEN
 62
     3
 10
145.9042091519525
 20
117.7823245529936
 30
0.0
 11
146.603285251236
 21
117.90559053086579
 31
0.0
  0
ARC
  5
67611
  8
0
  6
HIDDEN
 62
     3
 10
150.00147164982451
 20
120.97984316271091
 30
0.0
 40
3.3882543062820369
 50
224.67042229904669
 51
257.0449799717656
  0
ARC
  5
67612
  8
0
  6
HIDDEN
 62
     3
 10
147.82358779798199
 20
120.43887831021981
 30
0.0
 40
3.1040145263898502
 50
297.18850044195023
 51
8.7018188055603236
  0
ARC
  5
67613
  8
0
  6
HIDDEN
 62
     3
 10
148.89252604871001
 20
115.11162195117249
 30
0.0
 40
2.589879941132633
 50
39.467601650823191
 51
82.247800619969553
  0
LINE
  5
67614
  8
0
  6
CENTER
 62
     2
 10
154.2579440235489
 20
121.1901235047682
 30
0.0
 11
141.316872275961
 21
112.1286875145943
 31
0.0
  0
ARC
  5
67615
  8
0
  6
HIDDEN
 62
     3
 10
150.84482224740739
 20
114.8224716830526
 30
0.0
 40
3.2745278447825812
 50
119.3090996729143
 51
186.5812195746046
  0
LINE
  5
67616
  8
0
  6
HIDDEN
 62
     3
 10
153.76050627647439
 20
118.76649704358179
 30
0.0
 11
153.58942034524941
 21
120.7220181857511
 31
0.0
1001
ACAD
1000
ASC_BOUNDS
1002
{
1070
    19
1002
}
  0
LINE
  5
67617
  8
0
  6
HIDDEN
 62
     3
 10
151.81034639288049
 20
121.5516139941645
 30
0.0
 11
153.58942034524941
 21
120.7220181857511
 31
0.0
1001
ACAD
1000
ASC_BOUNDS
1002
{
1070
    19
1002
}
  0
LINE
  5
67618
  8
0
  6
HIDDEN
 62
     3
 10
151.81034639288049
 20
121.5516139941644
 30
0.0
 11
150.8918722759602
 21
120.9084914938464
 31
0.0
1001
ACAD
1000
ASC_BOUNDS
1002
{
1070
    19
1002
}
  0
LINE
  5
67619
  8
0
  6
HIDDEN
 62
     3
 10
151.8103463928808
 20
121.5516139941647
 30
0.0
 11
152.7854263346776
 21
120.1590555188733
 31
0.0
  0
LINE
  5
6761A
  8
0
  6
HIDDEN
 62
     3
 10
153.76050627647439
 20
118.76649704358179
 30
0.0
 11
152.7854263346776
 21
120.1590555188733
 31
0.0
  0
LINE
  5
6761B
  8
0
  6
HIDDEN
 62
     3
 10
151.24187227596039
 20
115.91619270304901
 30
0.0
 11
147.75835064755839
 21
115.91619270304891
 31
0.0
1001
ACAD
1000
ASC_BOUNDS
1002
{
1070
    19
1002
}
  0
LINE
  5
6761C
  8
0
  6
HIDDEN
 62
     3
 10
147.14187227596031
 20
111.1161927030489
 30
0.0
 11
149.24187227596019
 21
111.1161927030489
 31
0.0
  0
LINE
  5
6761D
  8
0
  6
HIDDEN
 62
     3
 10
147.5918722759603
 20
111.3766301150532
 30
0.0
 11
149.24187227596019
 21
111.3766301150532
 31
0.0
  0
LINE
  5
6761E
  8
0
  6
HIDDEN
 62
     3
 10
145.9042091519517
 20
117.7823245529934
 30
0.0
 11
141.39887290836359
 21
114.62765415306269
 31
0.0
1001
ACAD
1000
ASC_BOUNDS
1002
{
1070
    19
1002
}
  0
LINE
  5
6761F
  8
0
  6
HIDDEN
 62
     3
 10
141.39887290836299
 20
114.62765415306259
 30
0.0
 11
141.31687227596089
 21
114.57023669211669
 31
0.0
1001
ACAD
1000
ASC_BOUNDS
1002
{
1070
    19
1002
}
  0
LINE
  5
67620
  8
0
  6
HIDDEN
 62
     3
 10
147.14187227596031
 20
109.73222307461469
 30
0.0
 11
147.14187227596031
 21
111.1161927030489
 31
0.0
1001
ACAD
1000
ASC_BOUNDS
1002
{
1070
    19
1002
}
  0
LINE
  5
67621
  8
0
  6
HIDDEN
 62
     3
 10
147.5918722759603
 20
114.0809406393368
 30
0.0
 11
143.69317865376701
 21
111.351045975907
 31
0.0
1001
ACAD
1000
ASC_BOUNDS
1002
{
1070
    19
1002
}
  0
LINE
  5
67622
  8
0
  6
HIDDEN
 62
     3
 10
147.59187227596021
 20
111.3766301150532
 30
0.0
 11
147.5918722759601
 21
114.44717301596521
 31
0.0
1001
ACAD
1000
ASC_BOUNDS
1002
{
1070
    19
1002
}
  0
LINE
  5
67623
  8
0
  6
HIDDEN
 62
     3
 10
147.24187227596019
 20
111.1740676834943
 30
0.0
 11
147.24187227596019
 21
114.2021003775918
 31
0.0
1001
ACAD
1000
ASC_BOUNDS
1002
{
1070
    19
1002
}
  0
LINE
  5
67624
  8
0
  6
HIDDEN
 62
     3
 10
147.5918722759601
 20
114.44717301596521
 30
0.0
 11
143.76685133614839
 21
111.768864520099
 31
0.0
1001
ACAD
1000
ASC_BOUNDS
1002
{
1070
    19
1002
}
  0
LINE
  5
67625
  8
0
  6
HIDDEN
 62
     3
 10
141.81669145255501
 20
114.55398147068141
 30
0.0
 11
141.39887290836299
 21
114.62765415306269
 31
0.0
1001
ACAD
1000
ASC_BOUNDS
1002
{
1070
    19
1002
}
  0
LINE
  5
67626
  8
0
  6
HIDDEN
 62
     3
 10
143.76685133614839
 20
111.768864520099
 30
0.0
 11
143.69317865376701
 21
111.351045975907
 31
0.0
1001
ACAD
1000
ASC_BOUNDS
1002
{
1070
    19
1002
}
  0
LINE
  5
67627
  8
0
  6
HIDDEN
 62
     3
 10
147.59449610388009
 20
115.3683446117758
 30
0.0
 11
145.9042091519525
 21
117.7823245529936
 31
0.0
1001
ACAD
1000
ASC_BOUNDS
1002
{
1070
    19
1002
}
  0
LINE
  5
67628
  8
0
  6
HIDDEN
 62
     3
 10
143.69317865376701
 20
111.3510459759069
 30
0.0
 11
142.5460257810648
 21
112.9893500644849
 31
0.0
  0
LINE
  5
67629
  8
0
  6
HIDDEN
 62
     3
 10
141.81669145255501
 20
114.55398147068119
 30
0.0
 11
142.7917713943518
 21
113.16142299539
 31
0.0
  0
LINE
  5
6762A
  8
0
  6
HIDDEN
 62
     3
 10
142.5460257810648
 20
112.9893500644849
 30
0.0
 11
141.3988729083633
 21
114.62765415306269
 31
0.0
  0
LINE
  5
6762B
  8
0
  6
HIDDEN
 62
     3
 10
143.76685133614839
 20
111.768864520099
 30
0.0
 11
142.7917713943516
 21
113.1614229953902
 31
0.0
  0
LINE
  5
6762C
  8
0
  6
HIDDEN
 62
     3
 10
151.3418722759603
 20
109.85034893969269
 30
0.0
 11
151.3418722759601
 21
111.11619270304909
 31
0.0
1001
ACAD
1000
ASC_BOUNDS
1002
{
1070
    19
1002
}
  0
LINE
  5
6762D
  8
0
  6
HIDDEN
 62
     3
 10
151.3418722759603
 20
111.1161927030489
 30
0.0
 11
150.8918722759602
 21
111.3766301150532
 31
0.0
1001
ACAD
1000
ASC_BOUNDS
1002
{
1070
    19
1002
}
  0
LINE
  5
6762E
  8
0
  6
HIDDEN
 62
     3
 10
151.24187227596019
 20
111.1740676834944
 30
0.0
 11
151.24187227596019
 21
115.91619270304901
 31
0.0
1001
ACAD
1000
ASC_BOUNDS
1002
{
1070
    19
1002
}
  0
LINE
  5
6762F
  8
0
  6
HIDDEN
 62
     3
 10
151.24187227596039
 20
115.91619270304901
 30
0.0
 11
150.8918722759602
 21
116.53319144777529
 31
0.0
1001
ACAD
1000
ASC_BOUNDS
1002
{
1070
    19
1002
}
  0
LINE
  5
67630
  8
0
  6
HIDDEN
 62
     3
 10
150.8918722759602
 20
111.3766301150532
 30
0.0
 11
150.8918722759602
 21
116.7578578920572
 31
0.0
1001
ACAD
1000
ASC_BOUNDS
1002
{
1070
    19
1002
}
  0
LINE
  5
67631
  8
0
  6
HIDDEN
 62
     3
 10
150.8918722759602
 20
111.3766301150532
 30
0.0
 11
149.24187227596019
 21
111.3766301150532
 31
0.0
  0
LINE
  5
67632
  8
0
  6
HIDDEN
 62
     3
 10
151.3418722759601
 20
111.1161927030489
 30
0.0
 11
149.24187227596019
 21
111.1161927030489
 31
0.0
  0
LINE
  5
67633
  8
0
  6
CONTINUOUS
 10
185.7854428731095
 20
163.82119270304869
 30
0.0
 11
185.7854428731095
 21
139.07119270304869
 31
0.0
  0
LINE
  5
67634
  8
0
  6
HIDDEN
 62
     3
 10
114.89187227596091
 20
132.32119270304869
 30
0.0
 11
184.6799920606087
 21
132.3211927030485
 31
0.0
1001
ACAD
1000
ASC_BOUNDS
1002
{
1070
    19
1002
}
  0
LINE
  5
67635
  8
0
  6
HIDDEN
 62
     3
 10
185.1418722759604
 20
131.52119270304851
 30
0.0
 11
204.6418722759604
 21
131.52119270304851
 31
0.0
1001
ACAD
1000
ASC_BOUNDS
1002
{
1070
    19
1005
0
1005
0
1005
0
1005
0
1005
0
1005
0
1002
}
  0
LINE
  5
67636
  8
0
  6
HIDDEN
 62
     3
 10
190.1418722759604
 20
131.07119270304881
 30
0.0
 11
189.36244941255521
 21
131.5211927030484
 31
0.0
  0
LINE
  5
67637
  8
0
  6
HIDDEN
 62
     3
 10
190.1418722759604
 20
131.07119270304881
 30
0.0
 11
205.0918722759607
 21
131.07119270304861
 31
0.0
1001
ACAD
1000
ASC_BOUNDS
1002
{
1070
    19
1005
0
1005
0
1005
0
1005
0
1005
0
1005
0
1002
}
  0
LINE
  5
67638
  8
0
  6
HIDDEN
 62
     3
 10
205.1418722759604
 20
129.37119270304879
 30
0.0
 11
205.1418722759604
 21
139.0711927030485
 31
0.0
  0
LINE
  5
67639
  8
0
  6
HIDDEN
 62
     3
 10
204.6418722759604
 20
131.5211927030484
 30
0.0
 11
205.1418722759604
 21
131.0211927030484
 31
0.0
  0
LINE
  5
6763A
  8
0
  6
HIDDEN
 62
     3
 10
190.1418722759604
 20
131.07119270304881
 30
0.0
 11
190.1418722759604
 21
139.0711927030485
 31
0.0
  0
LINE
  5
6763B
  8
0
  6
HIDDEN
 62
     3
 10
185.1418722759604
 20
131.52119270304851
 30
0.0
 11
185.1418722759604
 21
139.0711927030485
 31
0.0
  0
LINE
  5
6763C
  8
0
  6
CONTINUOUS
 10
188.14187227596111
 20
139.07119270304781
 30
0.0
 11
188.14187227596079
 21
159.73973725286109
 31
0.0
  0
LINE
  5
6763D
  8
0
  6
HIDDEN
 62
     3
 10
185.1418722759604
 20
131.52119270304851
 30
0.0
 11
184.67999206060861
 21
132.32119270304861
 31
0.0
  0
LINE
  5
6763E
  8
0
  6
HIDDEN
 62
     3
 10
184.67999206060861
 20
132.32119270304861
 30
0.0
 11
184.67999206060861
 21
139.07119270304869
 31
0.0
  0
LINE
  5
6763F
  8
0
  6
HIDDEN
 62
     3
 10
204.6418722759604
 20
131.5211927030484
 30
0.0
 11
204.6418722759604
 21
139.07119270304869
 31
0.0
  0
LINE
  5
67640
  8
0
  6
HIDDEN
 62
     3
 10
202.6418722759604
 20
131.07119270304869
 30
0.0
 11
203.3918722759604
 21
131.82119270304869
 31
0.0
  0
LINE
  5
67641
  8
0
  6
HIDDEN
 62
     3
 10
203.3918722759604
 20
131.82119270304869
 30
0.0
 11
205.1418722759604
 21
131.82119270304869
 31
0.0
  0
LINE
  5
67642
  8
0
  6
HIDDEN
 62
     3
 10
194.1418722759604
 20
131.07119270304869
 30
0.0
 11
193.1418722759604
 21
132.07119270304869
 31
0.0
  0
LINE
  5
67643
  8
0
  6
HIDDEN
 62
     3
 10
194.1418722759604
 20
131.07119270304869
 30
0.0
 11
202.6418722759604
 21
131.07119270304869
 31
0.0
  0
LINE
  5
67644
  8
0
  6
HIDDEN
 62
     3
 10
193.6418722759604
 20
131.57119270304869
 30
0.0
 11
203.1418722759604
 21
131.57119270304869
 31
0.0
  0
LINE
  5
67645
  8
0
  6
HIDDEN
 62
     3
 10
206.94187227596029
 20
131.07119270304869
 30
0.0
 11
207.1418722759604
 21
131.27119270304871
 31
0.0
  0
LINE
  5
67646
  8
0
  6
HIDDEN
 62
     3
 10
205.1418722759604
 20
131.07119270304869
 30
0.0
 11
206.94187227596029
 21
131.07119270304869
 31
0.0
  0
LINE
  5
67647
  8
0
  6
HIDDEN
 62
     3
 10
203.3918722759604
 20
139.07119270304869
 30
0.0
 11
203.3918722759604
 21
131.82119270304869
 31
0.0
  0
LINE
  5
67648
  8
0
  6
HIDDEN
 62
     3
 10
202.6418722759604
 20
131.07119270304869
 30
0.0
 11
202.6418722759604
 21
139.07119270304869
 31
0.0
  0
LINE
  5
67649
  8
0
  6
HIDDEN
 62
     3
 10
193.1418722759604
 20
132.07119270304869
 30
0.0
 11
193.1418722759604
 21
139.07119270304869
 31
0.0
  0
LINE
  5
6764A
  8
0
  6
HIDDEN
 62
     3
 10
194.1418722759604
 20
131.07119270304869
 30
0.0
 11
194.1418722759604
 21
139.07119270304869
 31
0.0
  0
LINE
  5
6764B
  8
0
  6
HIDDEN
 62
     3
 10
207.1418722759604
 20
131.27119270304871
 30
0.0
 11
207.1418722759604
 21
139.07119270304869
 31
0.0
  0
LINE
  5
6764C
  8
0
  6
HIDDEN
 62
     3
 10
206.94187227596029
 20
131.07119270304869
 30
0.0
 11
206.94187227596029
 21
139.07119270304869
 31
0.0
  0
LINE
  5
6764D
  8
0
  6
HIDDEN
 62
     3
 10
205.1418722759604
 20
131.07119270304869
 30
0.0
 11
205.1418722759604
 21
139.07119270304869
 31
0.0
  0
LINE
  5
6764E
  8
0
  6
HIDDEN
 62
     3
 10
219.75430784125891
 20
127.07119270304869
 30
0.0
 11
252.64187227596091
 21
127.07119270304869
 31
0.0
1001
ACAD
1000
ASC_BOUNDS
1002
{
1070
    19
1005
0
1005
0
1002
}
  0
LINE
  5
6764F
  8
0
  6
HIDDEN
 62
     3
 10
212.20885957406861
 20
128.07119270304869
 30
0.0
 11
212.20885957406861
 21
139.07119270304869
 31
0.0
  0
LINE
  5
67650
  8
0
  6
HIDDEN
 62
     3
 10
209.64187227596079
 20
139.07119270304869
 30
0.0
 11
209.64187227596079
 21
128.57119270304869
 31
0.0
1001
ACAD
1000
ASC_BOUNDS
1002
{
1070
    19
1002
}
  0
LINE
  5
67651
  8
0
  6
HIDDEN
 62
     3
 10
205.14187227596091
 20
129.37119270304879
 30
0.0
 11
209.64187227596079
 21
129.37119270304879
 31
0.0
  0
LINE
  5
67652
  8
0
  6
HIDDEN
 62
     3
 10
212.64187227596099
 20
128.1872181068332
 30
0.0
 11
212.20885957406861
 21
128.07119270304869
 31
0.0
1001
ACAD
1000
ASC_BOUNDS
1002
{
1070
    19
1002
}
  0
ARC
  5
67653
  8
0
  6
HIDDEN
 62
     3
 10
210.14187227596079
 20
128.57119270304869
 30
0.0
 40
0.5
 50
180.0
 51
270.0
1001
ACAD
1000
ASC_BOUNDS
1002
{
1070
    19
1002
}
  0
LINE
  5
67654
  8
0
  6
HIDDEN
 62
     3
 10
210.14187227596079
 20
128.07119270304869
 30
0.0
 11
212.20885957406861
 21
128.07119270304869
 31
0.0
1001
ACAD
1000
ASC_BOUNDS
1002
{
1070
    19
1002
}
  0
LINE
  5
67655
  8
0
  6
HIDDEN
 62
     3
 10
219.75430784125891
 20
127.07119270304869
 30
0.0
 11
219.75430784125891
 21
127.44619270304869
 31
0.0
  0
ARC
  5
67656
  8
0
  6
HIDDEN
 62
     3
 10
220.75430784125891
 20
127.44619270304869
 30
0.0
 40
1.0
 50
90.0
 51
180.0
  0
LINE
  5
67657
  8
0
  6
CONTINUOUS
 10
233.75061514167251
 20
157.27311508252831
 30
0.0
 11
233.75061514167251
 21
139.07119270304869
 31
0.0
  0
LINE
  5
67658
  8
0
  6
CONTINUOUS
 10
234.0127266789064
 20
156.87324608721369
 30
0.0
 11
234.0127266789064
 21
139.07119270304869
 31
0.0
  0
LINE
  5
67659
  8
0
  6
CONTINUOUS
 10
236.5550568541764
 20
157.2025097610973
 30
0.0
 11
236.5550568541764
 21
139.07119270304869
 31
0.0
  0
LINE
  5
6765A
  8
0
  6
CONTINUOUS
 10
236.24060936070009
 20
156.75375602925209
 30
0.0
 11
236.24060936070009
 21
139.07119270304869
 31
0.0
  0
LINE
  5
6765B
  8
0
  6
CONTINUOUS
 10
240.74102188495419
 20
156.9831326296777
 30
0.0
 11
240.74102188495419
 21
139.07119270304869
 31
0.0
  0
LINE
  5
6765C
  8
0
  6
CONTINUOUS
 10
241.003133422188
 20
156.50689439351331
 30
0.0
 11
241.003133422188
 21
139.07119270304869
 31
0.0
  0
LINE
  5
6765D
  8
0
  6
CONTINUOUS
 10
243.23101610398231
 20
156.38740433555159
 30
0.0
 11
243.23101610398231
 21
139.07119270304869
 31
0.0
  0
LINE
  5
6765E
  8
0
  6
CONTINUOUS
 10
243.54546359745859
 20
156.8361580673967
 30
0.0
 11
243.54546359745859
 21
139.07119270304869
 31
0.0
  0
LINE
  5
6765F
  8
0
  6
HIDDEN
 62
     3
 10
216.2717760865288
 20
129.54619270304869
 30
0.0
 11
256.64187227596102
 21
129.54619270304869
 31
0.0
1001
ACAD
1000
ASC_BOUNDS
1002
{
1070
    19
1005
0
1005
0
1005
0
1002
}
  0
LINE
  5
67660
  8
0
  6
HIDDEN
 62
     3
 10
216.2717760865288
 20
129.54619270304869
 30
0.0
 11
216.2717760865288
 21
139.07119270304869
 31
0.0
  0
LINE
  5
67661
  8
0
  6
HIDDEN
 62
     3
 10
216.14187227596099
 20
129.32119270304869
 30
0.0
 11
216.14187227596099
 21
139.07119270304869
 31
0.0
  0
LINE
  5
67662
  8
0
  6
HIDDEN
 62
     3
 10
212.64187227596099
 20
128.1872181068332
 30
0.0
 11
212.64187227596099
 21
139.07119270304869
 31
0.0
  0
LINE
  5
67663
  8
0
  6
HIDDEN
 62
     3
 10
212.9418722759608
 20
129.32119270304869
 30
0.0
 11
212.94187227596089
 21
139.07119270304869
 31
0.0
  0
LINE
  5
67664
  8
0
  6
HIDDEN
 62
     3
 10
212.94187227596089
 20
129.32119270304869
 30
0.0
 11
216.14187227596111
 21
129.32119270304869
 31
0.0
  0
POINT
  5
67665
  8
DEFPOINTS
  6
HIDDEN
 62
     3
 10
212.64187227596099
 20
128.52119270304871
 30
0.0
  0
LINE
  5
67666
  8
0
  6
HIDDEN
 62
     3
 10
242.566872275961
 20
127.57119270304869
 30
0.0
 11
243.441872275961
 21
128.44619270304881
 31
0.0
  0
LINE
  5
67667
  8
0
  6
HIDDEN
 62
     3
 10
252.64187227596091
 20
127.07119270304869
 30
0.0
 11
252.64187227596091
 21
127.44619270304879
 31
0.0
  0
ARC
  5
67668
  8
0
  6
HIDDEN
 62
     3
 10
251.64187227596079
 20
127.44619270304869
 30
0.0
 40
1.0
 50
0.0000000000048853
 51
90.0
  0
ARC
  5
67669
  8
0
  6
HIDDEN
 62
     3
 10
256.64187227596102
 20
128.04619270304869
 30
0.0
 40
1.5
 50
0.0
 51
90.0
1001
ACAD
1000
ASC_BOUNDS
1002
{
1070
    19
1005
0
1005
0
1005
0
1002
}
  0
LINE
  5
6766A
  8
0
  6
HIDDEN
 62
     3
 10
228.79187227596091
 20
127.57119270304869
 30
0.0
 11
242.566872275961
 21
127.57119270304869
 31
0.0
  0
LINE
  5
6766B
  8
0
  6
HIDDEN
 62
     3
 10
216.14187227596111
 20
129.32119270304869
 30
0.0
 11
216.2717760865288
 21
129.54619270304869
 31
0.0
  0
LINE
  5
6766C
  8
0
  6
HIDDEN
 62
     3
 10
212.94187227596089
 20
129.32119270304869
 30
0.0
 11
212.64187227596099
 21
129.14798762229179
 31
0.0
  0
LINE
  5
6766D
  8
0
  6
HIDDEN
 62
     3
 10
243.441872275961
 20
128.44619270304881
 30
0.0
 11
251.64187227596079
 21
128.44619270304869
 31
0.0
  0
LINE
  5
6766E
  8
0
  6
HIDDEN
 62
     3
 10
220.75430784125891
 20
128.44619270304869
 30
0.0
 11
227.9168722759612
 21
128.44619270304869
 31
0.0
1001
ACAD
1000
ASC_BOUNDS
1002
{
1070
    19
1005
0
1005
0
1005
0
1002
}
  0
LINE
  5
6766F
  8
0
  6
HIDDEN
 62
     3
 10
228.79187227596091
 20
127.57119270304869
 30
0.0
 11
227.9168722759612
 21
128.44619270304869
 31
0.0
  0
DIMENSION
  5
67670
  8
0
  6
CONTINUOUS
  2
*D160
 10
258.14187227596108
 20
180.79474341275221
 30
0.0
 11
237.14187227596099
 21
182.89503868834279
 31
0.0
 70
     0
 13
216.14187227596099
 23
148.82119270304881
 33
0.0
 14
258.14187227596108
 24
155.59671041969131
 34
0.0
1001
ACAD
1000
DSTYLE
1002
{
1070
   287
1070
     2
1070
    42
1040
0.6
1070
    43
1040
1.0
1070
    44
1040
1.0
1070
    47
1040
0.1
1070
    48
1040
0.1
1070
    73
1070
     0
1070
   140
1040
3.0
1070
   141
1040
-0.2
1070
   146
1040
0.7
1070
   147
1040
0.6
1070
   178
1070
     3
1070
   271
1070
     5
1070
   272
1070
     5
1070
   275
1070
     1
1070
   283
1070
     0
1070
   284
1070
     8
1070
   289
1070
     2
1002
}
  0
TEXT
  5
677AE
  8
0
 62
     7
 10
134.1643689266684
 20
54.552714486279463
 30
0.0
 40
4.0
  1
CODE : 854040
  0
INSERT
  5
677AF
  8
0
  6
CONTINUOUS
  2
*U309
 10
0.0
 20
0.0
 30
0.0
  0
ENDSEC
  0
EOF
