  0
SECTION
  2
HEADER
  9
$ACADVER
  1
AC1009
  9
$INSBASE
 10
0.0
 20
0.0
 30
0.0
  9
$EXTMIN
 10
-0.025721676224407
 20
-0.5022490125406875
 30
-0.0000000000000058
  9
$EXTMAX
 10
349.80344713760633
 20
241.5209871486318
 30
0.0000000000000104
  9
$LIMMIN
 10
0.0
 20
0.0
  9
$LIMMAX
 10
420.0
 20
300.0
  9
$ORTHOMODE
 70
     1
  9
$REGENMODE
 70
     1
  9
$FILLMODE
 70
     1
  9
$QTEXTMODE
 70
     0
  9
$MIRRTEXT
 70
     1
  9
$DRAGMODE
 70
     2
  9
$LTSCALE
 40
7.0
  9
$OSMODE
 70
   951
  9
$ATTMODE
 70
     1
  9
$TEXTSIZE
 40
3.0
  9
$TRACEWID
 40
1.0
  9
$TEXTSTYLE
  7
STANDARD
  9
$CLAYER
  8
0
  9
$CELTYPE
  6
CONTINUOUS
  9
$CECOLOR
 62
   256
  9
$DIMSCALE
 40
1.0
  9
$DIMASZ
 40
2.5
  9
$DIMEXO
 40
0.6
  9
$DIMDLI
 40
1.0
  9
$DIMRND
 40
0.0
  9
$DIMDLE
 40
0.0
  9
$DIMEXE
 40
1.0
  9
$DIMTP
 40
0.1
  9
$DIMTM
 40
0.1
  9
$DIMTXT
 40
3.0
  9
$DIMCEN
 40
-0.2
  9
$DIMTSZ
 40
0.0
  9
$DIMTOL
 70
     0
  9
$DIMLIM
 70
     0
  9
$DIMTIH
 70
     0
  9
$DIMTOH
 70
     0
  9
$DIMSE1
 70
     0
  9
$DIMSE2
 70
     0
  9
$DIMTAD
 70
     1
  9
$DIMZIN
 70
     8
  9
$DIMBLK
  1

  9
$DIMASO
 70
     1
  9
$DIMSHO
 70
     1
  9
$DIMPOST
  1

  9
$DIMAPOST
  1

  9
$DIMALT
 70
     0
  9
$DIMALTD
 70
     2
  9
$DIMALTF
 40
0.0394
  9
$DIMLFAC
 40
1.0
  9
$DIMTOFL
 70
     1
  9
$DIMTVP
 40
1.0
  9
$DIMTIX
 70
     0
  9
$DIMSOXD
 70
     0
  9
$DIMSAH
 70
     0
  9
$DIMBLK1
  1

  9
$DIMBLK2
  1

  9
$DIMSTYLE
  2
ISO-25
  9
$DIMCLRD
 70
     2
  9
$DIMCLRE
 70
     2
  9
$DIMCLRT
 70
     3
  9
$DIMTFAC
 40
0.7
  9
$DIMGAP
 40
0.6
  9
$LUNITS
 70
     2
  9
$LUPREC
 70
     4
  9
$SKETCHINC
 40
1.0
  9
$FILLETRAD
 40
0.0
  9
$AUNITS
 70
     0
  9
$AUPREC
 70
     0
  9
$MENU
  1
acad
  9
$ELEVATION
 40
0.0
  9
$PELEVATION
 40
0.0
  9
$THICKNESS
 40
0.0
  9
$LIMCHECK
 70
     0
  9
$BLIPMODE
 70
     0
  9
$CHAMFERA
 40
0.5
  9
$CHAMFERB
 40
0.5
  9
$SKPOLY
 70
     0
  9
$TDCREATE
 40
2450166.8692156249
  9
$TDUPDATE
 40
2457465.7319045952
  9
$TDINDWG
 40
6.4844296296000001
  9
$TDUSRTIMER
 40
6.4844296296000001
  9
$USRTIMER
 70
     1
  9
$ANGBASE
 50
0.0
  9
$ANGDIR
 70
     0
  9
$PDMODE
 70
     0
  9
$PDSIZE
 40
0.0
  9
$PLINEWID
 40
1.0
  9
$COORDS
 70
     0
  9
$SPLFRAME
 70
     0
  9
$SPLINETYPE
 70
     6
  9
$SPLINESEGS
 70
     8
  9
$ATTDIA
 70
     0
  9
$ATTREQ
 70
     1
  9
$HANDLING
 70
     1
  9
$HANDSEED
  5
62F6B
  9
$SURFTAB1
 70
     6
  9
$SURFTAB2
 70
     6
  9
$SURFTYPE
 70
     6
  9
$SURFU
 70
     6
  9
$SURFV
 70
     6
  9
$UCSNAME
  2

  9
$UCSORG
 10
0.0
 20
0.0
 30
0.0
  9
$UCSXDIR
 10
1.0
 20
0.0
 30
0.0
  9
$UCSYDIR
 10
0.0
 20
1.0
 30
0.0
  9
$PUCSNAME
  2

  9
$PUCSORG
 10
0.0
 20
0.0
 30
0.0
  9
$PUCSXDIR
 10
1.0
 20
0.0
 30
0.0
  9
$PUCSYDIR
 10
0.0
 20
1.0
 30
0.0
  9
$USERI1
 70
     0
  9
$USERI2
 70
     0
  9
$USERI3
 70
     0
  9
$USERI4
 70
     0
  9
$USERI5
 70
     0
  9
$USERR1
 40
0.0
  9
$USERR2
 40
0.0
  9
$USERR3
 40
0.0
  9
$USERR4
 40
0.0
  9
$USERR5
 40
0.0
  9
$WORLDVIEW
 70
     1
  9
$SHADEDGE
 70
     3
  9
$SHADEDIF
 70
    70
  9
$TILEMODE
 70
     1
  9
$MAXACTVP
 70
    16
  9
$PLIMCHECK
 70
     0
  9
$PEXTMIN
 10
1.0000000000000000E+020
 20
1.0000000000000000E+020
 30
1.0000000000000000E+020
  9
$PEXTMAX
 10
-1.0000000000000000E+020
 20
-1.0000000000000000E+020
 30
-1.0000000000000000E+020
  9
$PLIMMIN
 10
0.0
 20
0.0
  9
$PLIMMAX
 10
420.0
 20
297.0
  9
$UNITMODE
 70
     0
  9
$VISRETAIN
 70
     0
  9
$PLINEGEN
 70
     0
  9
$PSLTSCALE
 70
     1
  0
ENDSEC
  0
SECTION
  2
TABLES
  0
TABLE
  2
VPORT
 70
     1
  0
VPORT
  2
*ACTIVE
 70
     0
 10
0.0
 20
0.0
 11
1.0
 21
1.0
 12
174.8888627306909
 22
120.5093690680455
 13
0.0
 23
0.0
 14
1.0
 24
1.0
 15
2.0
 25
2.0
 16
0.0
 26
0.0
 36
1.0
 17
0.0
 27
0.0
 37
0.0
 40
243.70201005361989
 41
2.1307870370370372
 42
50.0
 43
0.0
 44
0.0
 50
0.0
 51
0.0
 71
     0
 72
   100
 73
     1
 74
     1
 75
     0
 76
     0
 77
     0
 78
     2
  0
ENDTAB
  0
TABLE
  2
LTYPE
 70
     8
  0
LTYPE
  2
CONTINUOUS
 70
     0
  3
Solid line
 72
    65
 73
     0
 40
0.0
  0
LTYPE
  2
CENTER
 70
     0
  3
____ _ ____ _ ____ _ ____ _ ____ _ ____ _ ____ 
 72
    65
 73
     4
 40
2.0
 49
1.25
 49
-0.25
 49
0.25
 49
-0.25
  0
LTYPE
  2
PHANTOM
 70
     0
  3
Phantom ______  __  __  ______  __  __  ______
 72
    65
 73
     6
 40
2.5
 49
1.25
 49
-0.25
 49
0.25
 49
-0.25
 49
0.25
 49
-0.25
  0
LTYPE
  2
PHANTOM2
 70
     0
  3
___ _ _ ___ _ _ ___ _ _ ___ _ _ ___ _ _ ___ _ _
 72
    65
 73
     6
 40
1.25
 49
0.625
 49
-0.125
 49
0.125
 49
-0.125
 49
0.125
 49
-0.125
  0
LTYPE
  2
HIDDEN
 70
     0
  3
Hidden __ __ __ __ __ __ __ __ __ __ __ __ __ _
 72
    65
 73
     2
 40
0.375
 49
0.25
 49
-0.125
  0
LTYPE
  2
HIDDEN2
 70
     0
  3
_ _ _ _ _ _ _ _ _ _ _ _ _ _ _ _ _ _ _ _ _ _ _ _
 72
    65
 73
     2
 40
0.1875
 49
0.125
 49
-0.0625
  0
LTYPE
  2
CENTER2
 70
     0
  3
___ _ ___ _ ___ _ ___ _ ___ _ ___ _ ___ _ ___ _
 72
    65
 73
     4
 40
1.125
 49
0.75
 49
-0.125
 49
0.125
 49
-0.125
  0
ENDTAB
  0
TABLE
  2
LAYER
 70
     2
  0
LAYER
  2
0
 70
     0
 62
     7
  6
CONTINUOUS
  0
LAYER
  2
DEFPOINTS
 70
     0
 62
     7
  6
CONTINUOUS
  0
ENDTAB
  0
TABLE
  2
STYLE
 70
     1
  0
STYLE
  2
STANDARD
 70
     0
 40
3.0
 41
1.0
 50
0.0
 71
     0
 42
3.0
  3
ISOCP
  4
WHGTXT.SHX
  0
ENDTAB
  0
TABLE
  2
VIEW
 70
     0
  0
ENDTAB
  0
TABLE
  2
UCS
 70
     0
  0
ENDTAB
  0
TABLE
  2
APPID
 70
     7
  0
APPID
  2
ACAD
 70
     0
  0
APPID
  2
ACAD_MLEADERVER
 70
     0
  0
APPID
  2
ACAD_DSTYLE_DIMJAG
 70
     0
  0
APPID
  2
ACAD_DSTYLE_DIMTALN
 70
     0
  0
APPID
  2
ACAD_EXEMPT_FROM_CAD_STANDARDS
 70
     0
  0
APPID
  2
ACAD_DSTYLE_DIMRADIAL_EXTENSION
 70
     0
  0
APPID
  2
CONTENTBLOCKICON
 70
     0
  0
ENDTAB
  0
TABLE
  2
DIMSTYLE
 70
     2
  0
DIMSTYLE
  2
ISO-25
 70
     0
  3

  4

  5

  6

  7

 40
1.0
 41
2.5
 42
0.625
 43
3.75
 44
1.25
 45
0.0
 46
0.0
 47
0.0
 48
0.0
140
2.5
141
2.5
142
0.0
143
0.0394
144
1.0
145
1.0
146
1.0
147
0.625
 71
     0
 72
     0
 73
     1
 74
     0
 75
     0
 76
     0
 77
     1
 78
     8
170
     0
171
     2
172
     1
173
     0
174
     0
175
     0
176
     2
177
     2
178
     0
  0
DIMSTYLE
  2
KSM
 70
     0
  3

  4

  5

  6

  7

 40
1.0
 41
2.0
 42
0.0
 43
0.1
 44
1.1999999999999991
 45
0.0
 46
0.0
 47
0.25
 48
0.25
140
3.0
141
0.0
142
0.0
143
0.0394
144
1.0
145
1.0
146
1.0
147
1.0
 71
     1
 72
     0
 73
     0
 74
     0
 75
     0
 76
     0
 77
     1
 78
     8
170
     0
171
     2
172
     1
173
     0
174
     0
175
     0
176
     2
177
     2
178
     3
  0
ENDTAB
  0
ENDSEC
  0
SECTION
  2
BLOCKS
  0
BLOCK
  8
0
  2
$MODEL_SPACE
 70
     0
 10
0.0
 20
0.0
 30
0.0
  3
$MODEL_SPACE
  1

  0
ENDBLK
  5
9
  8
0
  0
BLOCK
 67
     1
  8
0
  2
$PAPER_SPACE
 70
     0
 10
0.0
 20
0.0
 30
0.0
  3
$PAPER_SPACE
  1

  0
ENDBLK
  5
E
 67
     1
  8
0
  0
BLOCK
  8
0
  2
_CLOSEDBLANK
 70
     0
 10
0.0
 20
0.0
 30
0.0
  3
_CLOSEDBLANK
  1

  0
LINE
  5
1E017
  8
0
  6
BYBLOCK
 62
     0
 10
-1.0
 20
0.1666666666666666
 30
0.0
 11
0.0
 21
0.0
 31
0.0
  0
LINE
  5
1E018
  8
0
  6
BYBLOCK
 62
     0
 10
0.0
 20
0.0
 30
0.0
 11
-1.0
 21
-0.1666666666666666
 31
0.0
  0
LINE
  5
1E019
  8
0
  6
BYBLOCK
 62
     0
 10
-1.0
 20
0.1666666666666666
 30
0.0
 11
-1.0
 21
-0.1666666666666666
 31
0.0
  0
ENDBLK
  5
1E01A
  8
0
  0
BLOCK
  8
0
  2
DFG
 70
     0
 10
0.0
 20
0.0
 30
0.0
  3
DFG
  1

  0
LINE
  5
1F55F
  8
0
  6
CONTINUOUS
 62
     4
 10
86.283570637268895
 20
194.3173600391579
 30
0.0
 11
87.100067218196514
 21
195.13385662008551
 31
0.0
  0
LINE
  5
1F560
  8
0
  6
CONTINUOUS
 62
     4
 10
85.827275012060909
 20
196.40664882622119
 30
0.0
 11
85.010778431133076
 21
195.5901522452935
 31
0.0
  0
LINE
  5
1F561
  8
0
  6
CONTINUOUS
 62
     4
 10
85.364331821726182
 20
196.65081241707321
 30
0.0
 11
84.657225040539743
 21
195.94370563588669
 31
0.0
  0
LINE
  5
1F562
  8
0
  6
CONTINUOUS
 62
     4
 10
85.364331821726182
 20
196.65081241707321
 30
0.0
 11
84.248976750075826
 21
196.35195392635069
 31
0.0
  0
LINE
  5
1F563
  8
0
  6
CONTINUOUS
 10
87.953595175868358
 20
196.1995166121132
 30
0.0
 11
84.418061269935833
 21
192.6639827061806
 31
0.0
  0
LINE
  5
1F564
  8
0
  6
CONTINUOUS
 10
84.913036016766455
 20
199.24007577121549
 30
0.0
 11
81.377502110833461
 21
195.70454186528281
 31
0.0
  0
LINE
  5
1F565
  8
0
  6
CONTINUOUS
 10
84.418061269935606
 20
199.24007577121529
 30
0.0
 11
81.377502110833802
 21
196.1995166121134
 31
0.0
  0
LINE
  5
1F566
  8
0
  6
CONTINUOUS
 10
87.953595175868585
 20
195.70454186528261
 30
0.0
 11
84.913036016766227
 21
192.66398270618041
 31
0.0
  0
LINE
  5
1F567
  8
0
  6
CONTINUOUS
 10
84.418061269935606
 20
199.24007577121529
 30
0.0
 11
84.913036016766455
 21
199.24007577121549
 31
0.0
  0
LINE
  5
1F568
  8
0
  6
CONTINUOUS
 62
     4
 10
85.717885212319516
 20
196.29725902647991
 30
0.0
 11
85.364331821726182
 21
196.65081241707321
 31
0.0
  0
LINE
  5
1F569
  8
0
  6
CONTINUOUS
 62
     4
 10
87.100067218196514
 20
195.13385662008551
 30
0.0
 11
85.827275012060909
 21
196.40664882622119
 31
0.0
  0
LINE
  5
1F56A
  8
0
  6
CONTINUOUS
 62
     4
 10
86.691818927732811
 20
194.72560832962171
 30
0.0
 11
85.419026721596978
 21
195.9984005357575
 31
0.0
  0
LINE
  5
1F56B
  8
0
  6
CONTINUOUS
 10
87.953595175868585
 20
195.70454186528261
 30
0.0
 11
87.953595175868358
 21
196.1995166121132
 31
0.0
  0
LINE
  5
1F56C
  8
0
  6
CONTINUOUS
 62
     4
 10
87.100067218196514
 20
195.13385662008551
 30
0.0
 11
87.382909930671289
 21
195.1338566200854
 31
0.0
  0
LINE
  5
1F56D
  8
0
  6
CONTINUOUS
 10
81.377502110833802
 20
196.1995166121134
 30
0.0
 11
81.377502110833802
 21
195.70454186528269
 31
0.0
  0
LINE
  5
1F56E
  8
0
  6
CONTINUOUS
 62
     4
 10
85.467074056341076
 20
193.5008634582301
 30
0.0
 11
85.467074056341175
 21
193.21802074575541
 31
0.0
  0
LINE
  5
1F56F
  8
0
  6
CONTINUOUS
 62
     4
 10
86.283570637268653
 20
194.31736003915771
 30
0.0
 11
85.467074056341076
 21
193.5008634582301
 31
0.0
  0
LINE
  5
1F570
  8
0
  6
CONTINUOUS
 62
     4
 10
84.194281850205485
 20
194.7736556643658
 30
0.0
 11
85.010778431133076
 21
195.5901522452935
 31
0.0
  0
LINE
  5
1F571
  8
0
  6
CONTINUOUS
 62
     4
 10
83.950118259353076
 20
195.23659885470019
 30
0.0
 11
84.657225040539743
 21
195.94370563588669
 31
0.0
  0
LINE
  5
1F572
  8
0
  6
CONTINUOUS
 62
     4
 10
83.950118259353076
 20
195.23659885470019
 30
0.0
 11
84.248976750075826
 21
196.35195392635069
 31
0.0
  0
LINE
  5
1F573
  8
0
  6
CONTINUOUS
 62
     4
 10
84.303671649946395
 20
194.88304546410691
 30
0.0
 11
83.950118259353076
 21
195.23659885470019
 31
0.0
  0
LINE
  5
1F574
  8
0
  6
CONTINUOUS
 62
     4
 10
85.467074056341076
 20
193.5008634582301
 30
0.0
 11
84.194281850205485
 21
194.7736556643658
 31
0.0
  0
LINE
  5
1F575
  8
0
  6
CONTINUOUS
 62
     4
 10
85.875322346804978
 20
193.9091117486939
 30
0.0
 11
84.60253014066916
 21
195.18190395482961
 31
0.0
  0
LINE
  5
1F576
  8
0
  6
CONTINUOUS
 10
84.913036016766569
 20
192.66398270618069
 30
0.0
 11
84.418061269935606
 21
192.66398270618069
 31
0.0
  0
LINE
  5
1F577
  8
0
  6
CONTINUOUS
 10
81.377502110833461
 20
195.70454186528229
 30
0.0
 11
84.418061269935833
 21
192.66398270618041
 31
0.0
  0
LINE
  5
1F578
  8
0
  6
CONTINUOUS
 10
84.913036016766455
 20
199.24007577121549
 30
0.0
 11
87.953595175868713
 21
196.19951661211331
 31
0.0
  0
ENDBLK
  5
1F579
  8
0
  0
BLOCK
  8
0
  2
SZGFG
 70
     0
 10
0.0
 20
0.0
 30
0.0
  3
SZGFG
  1

  0
LINE
  5
1F57D
  8
0
  6
CONTINUOUS
 62
     3
 10
288.6152800117635
 20
143.94755516990219
 30
0.0
 11
297.2722104434265
 21
147.0986609094744
 31
0.0
  0
LINE
  5
1F57E
  8
0
  6
CENTER
 62
     6
 10
295.73281909903773
 20
151.43665890697039
 30
0.0
 11
298.91643289771213
 21
142.6897518828473
 31
0.0
  0
LINE
  5
1F57F
  8
0
  6
CONTINUOUS
 62
     3
 10
297.2722104434265
 20
147.0986609094744
 30
0.0
 11
292.09540705571192
 21
142.75459046597831
 31
0.0
  0
LINE
  5
1F580
  8
0
  6
CONTINUOUS
 62
     3
 10
290.51423431846371
 20
147.09849496112241
 30
0.0
 11
292.09540705571192
 21
142.75459046597831
 31
0.0
  0
LINE
  5
1F581
  8
0
  6
CONTINUOUS
 62
     3
 10
297.2722104434265
 20
147.0986609094744
 30
0.0
 11
290.51423431846371
 21
147.09849496112241
 31
0.0
  0
INSERT
  5
1F582
  8
0
  6
CONTINUOUS
 62
     7
  2
*X156
 10
0.0
 20
0.0
 30
0.0
1001
ACAD
1000
HATCH
1002
{
1070
    19
1000
ANSI31
1040
0.5
1040
24.756814761131292
1000
R14_HATCH_DATA
1000
1F582
1011
1.0
1021
0.0
1031
-1.8492665278881001E+209
1021
0.0
1031
0.0
1011
0.0
1021
0.0
1031
-1.8492665278881001E+209
1021
1.0
1031
0.0
1011
0.0
1021
0.0
1031
-1.8492665278881001E+209
1021
0.0
1031
1.0
1040
0.0
1010
0.0
1020
0.0
1030
1.0
1000
ANSI31
1070
     0
1070
     0
1071
        1
1071
        7
1070
     0
1070
     1
1071
        3
1040
291.30482068708812
1040
144.9265427135503
1040
297.27221044342679
1040
147.09866090947449
1040
290.51423431846388
1040
147.09849496112241
1071
        0
1070
     0
1070
     1
1040
24.756814761131292
1040
0.5
1070
     0
1070
     1
1040
0.409471695810392
1040
-352.79435710434569
1040
-667.39905656787869
1040
-0.0248827971004312
1040
0.0573332051123847
1070
     0
1040
0.0067328972234235
1071
        1
1040
162.70487846657139
1040
40.765216351816299
1040
0.0
1002
}
  0
ENDBLK
  5
1F583
  8
0
  0
BLOCK
  8
0
  2
_OBLIQUE
 70
     0
 10
0.0
 20
0.0
 30
0.0
  3
_OBLIQUE
  1

  0
LINE
  5
4D491
  8
0
  6
BYBLOCK
 62
     0
 10
-0.5
 20
-0.5
 30
0.0
 11
0.5
 21
0.5
 31
0.0
  0
ENDBLK
  5
4D492
  8
0
  0
BLOCK
  8
0
  2
SGDG
 70
     0
 10
0.0
 20
0.0
 30
0.0
  3
SGDG
  1

  0
LINE
  5
58A77
  8
0
  6
CONTINUOUS
 62
     4
 10
133.76639623704719
 20
383.45902981058208
 30
0.0
 11
133.7663962370471
 21
384.95902981058202
 31
0.0
  0
LINE
  5
58A78
  8
0
  6
CONTINUOUS
 62
     4
 10
125.7663962370473
 20
385.45902981058202
 30
0.0
 11
133.26639623704719
 21
385.45902981058202
 31
0.0
  0
LINE
  5
58A79
  8
0
  6
CONTINUOUS
 62
     4
 10
125.2663962370473
 20
384.95902981058191
 30
0.0
 11
133.7663962370471
 21
384.95902981058202
 31
0.0
  0
LINE
  5
58A7A
  8
0
  6
CONTINUOUS
 62
     4
 10
133.51639623704719
 20
373.70902981058219
 30
0.0
 11
133.51639623704739
 21
380.609029810582
 31
0.0
  0
LINE
  5
58A7B
  8
0
  6
CONTINUOUS
 62
     4
 10
132.8398962370471
 20
373.0325298105821
 30
0.0
 11
132.8398962370473
 21
381.28552981058181
 31
0.0
  0
LINE
  5
58A7C
  8
0
  6
CONTINUOUS
 62
     4
 10
126.3663962370473
 20
381.45902981058202
 30
0.0
 11
132.66639623704731
 21
381.45902981058191
 31
0.0
  0
LINE
  5
58A7D
  8
0
  6
CONTINUOUS
 62
     4
 10
133.51639623704739
 20
380.609029810582
 30
0.0
 11
125.5163962370472
 21
380.609029810582
 31
0.0
  0
LINE
  5
58A7E
  8
0
  6
CONTINUOUS
 62
     4
 10
125.2663962370472
 20
383.45902981058208
 30
0.0
 11
133.76639623704719
 21
383.45902981058208
 31
0.0
  0
LINE
  5
58A7F
  8
0
  6
CONTINUOUS
 62
     4
 10
132.66639623704719
 20
381.45902981058191
 30
0.0
 11
132.66639623704731
 21
383.45902981058208
 31
0.0
  0
LINE
  5
58A80
  8
0
  6
CONTINUOUS
 62
     4
 10
132.66639623704719
 20
381.45902981058191
 30
0.0
 11
133.51639623704739
 21
380.609029810582
 31
0.0
  0
POINT
  5
58A81
  8
DEFPOINTS
  6
BYBLOCK
 62
     4
 10
133.76639623704719
 20
383.45902981058208
 30
0.0
 50
40.0
  0
POINT
  5
58A82
  8
DEFPOINTS
  6
BYBLOCK
 62
     4
 10
133.76639623704719
 20
383.45902981058208
 30
0.0
 50
40.0
  0
LINE
  5
58A83
  8
0
  6
HIDDEN2
 62
     4
 10
131.82579731380571
 20
385.45902981058202
 30
0.0
 11
131.82579731380579
 21
380.45902981058208
 31
0.0
  0
LINE
  5
58A84
  8
0
  6
HIDDEN2
 62
     4
 10
130.67109677542641
 20
385.45902981058202
 30
0.0
 11
130.67109677542641
 21
380.45902981058191
 31
0.0
  0
LINE
  5
58A85
  8
0
  6
CONTINUOUS
 62
     4
 10
133.26639623704719
 20
385.45902981058202
 30
0.0
 11
133.7663962370471
 21
384.95902981058202
 31
0.0
  0
POINT
  5
58A86
  8
DEFPOINTS
  6
BYBLOCK
 62
     4
 10
133.26639623704719
 20
385.45902981058202
 30
0.0
 50
40.0
  0
LINE
  5
58A87
  8
0
  6
CONTINUOUS
 62
     4
 10
125.5163962370473
 20
373.70902981058202
 30
0.0
 11
125.5163962370472
 21
380.609029810582
 31
0.0
  0
LINE
  5
58A88
  8
0
  6
CONTINUOUS
 62
     4
 10
126.1908633154313
 20
373.03456273219791
 30
0.0
 11
126.1908633154315
 21
381.28349688896623
 31
0.0
  0
LINE
  5
58A89
  8
0
  6
CENTER
 62
     4
 10
126.19289623704719
 20
373.28252981058188
 30
0.0
 11
126.19289623704719
 21
381.28552981058198
 31
0.0
  0
LINE
  5
58A8A
  8
0
  6
CONTINUOUS
 62
     4
 10
125.2663962370473
 20
384.95902981058191
 30
0.0
 11
125.7663962370473
 21
385.45902981058202
 31
0.0
  0
LINE
  5
58A8B
  8
0
  6
HIDDEN2
 62
     4
 10
128.36169569866789
 20
385.45902981058208
 30
0.0
 11
128.361695698668
 21
380.45902981058202
 31
0.0
  0
LINE
  5
58A8C
  8
0
  6
HIDDEN2
 62
     4
 10
127.2069951602887
 20
385.45902981058202
 30
0.0
 11
127.2069951602886
 21
380.45902981058202
 31
0.0
  0
LINE
  5
58A8D
  8
0
  6
CONTINUOUS
 62
     4
 10
125.2663962370472
 20
383.45902981058208
 30
0.0
 11
125.2663962370473
 21
384.95902981058191
 31
0.0
  0
LINE
  5
58A8E
  8
0
  6
CONTINUOUS
 62
     4
 10
126.3663962370472
 20
381.45902981058191
 30
0.0
 11
126.3663962370472
 21
383.45902981058191
 31
0.0
  0
LINE
  5
58A8F
  8
0
  6
CONTINUOUS
 62
     4
 10
125.5163962370472
 20
380.609029810582
 30
0.0
 11
126.3663962370472
 21
381.45902981058191
 31
0.0
  0
LINE
  5
58A90
  8
0
  6
CONTINUOUS
 62
     4
 10
126.666396237047
 20
371.45902981058219
 30
0.0
 11
126.66639623704719
 21
372.95902981058202
 31
0.0
  0
LINE
  5
58A91
  8
0
  6
CONTINUOUS
 62
     4
 10
126.666396237047
 20
371.45902981058219
 30
0.0
 11
127.16639623704719
 21
370.95902981058208
 31
0.0
  0
LINE
  5
58A92
  8
0
  6
CONTINUOUS
 62
     4
 10
126.2663962370473
 20
372.95902981058202
 30
0.0
 11
125.5163962370473
 21
373.70902981058202
 31
0.0
  0
LINE
  5
58A93
  8
0
  6
HIDDEN2
 62
     4
 10
127.2069951602886
 20
380.45902981058202
 30
0.0
 11
131.82579731380579
 21
380.45902981058208
 31
0.0
  0
LINE
  5
58A94
  8
0
  6
HIDDEN2
 62
     4
 10
131.5163962370471
 20
380.45902981058202
 30
0.0
 11
131.5163962370471
 21
378.45902981058202
 31
0.0
  0
LINE
  5
58A95
  8
0
  6
HIDDEN2
 62
     4
 10
131.5163962370471
 20
378.45902981058202
 30
0.0
 11
129.51639623704719
 21
377.30432927220278
 31
0.0
  0
LINE
  5
58A96
  8
0
  6
HIDDEN2
 62
     4
 10
127.5163962370471
 20
378.45902981058202
 30
0.0
 11
131.5163962370471
 21
378.45902981058202
 31
0.0
  0
LINE
  5
58A97
  8
0
  6
HIDDEN2
 62
     4
 10
127.5163962370473
 20
380.45902981058191
 30
0.0
 11
127.5163962370471
 21
378.45902981058202
 31
0.0
  0
LINE
  5
58A98
  8
0
  6
HIDDEN2
 62
     4
 10
127.5163962370471
 20
378.45902981058202
 30
0.0
 11
129.51639623704719
 21
377.30432927220278
 31
0.0
  0
POLYLINE
  5
58A99
  8
0
  6
CONTINUOUS
 62
     4
 66
     1
 10
0.0
 20
0.0
 30
0.0
 70
     1
  0
VERTEX
  5
62C48
  8
0
  6
CONTINUOUS
 62
     4
 10
126.666396237047
 20
357.65902981058269
 30
0.0
  0
VERTEX
  5
62C49
  8
0
  6
CONTINUOUS
 62
     4
 10
126.46639623704689
 20
357.12569647724899
 30
0.0
  0
VERTEX
  5
62C4A
  8
0
  6
CONTINUOUS
 62
     4
 10
126.46639623704711
 20
356.35592091925793
 30
0.0
  0
VERTEX
  5
62C4B
  8
0
  6
CONTINUOUS
 62
     4
 10
126.75327645239869
 20
355.85902981058263
 30
0.0
  0
VERTEX
  5
62C4C
  8
0
  6
CONTINUOUS
 62
     4
 10
127.47044088564761
 20
355.85902981058229
 30
0.0
  0
VERTEX
  5
62C4D
  8
0
  6
CONTINUOUS
 62
     4
 10
128.01639623704719
 20
354.35902981058268
 30
0.0
  0
VERTEX
  5
62C4E
  8
0
  6
CONTINUOUS
 62
     4
 10
129.51639623704719
 20
354.35902981058268
 30
0.0
  0
VERTEX
  5
62C4F
  8
0
  6
CONTINUOUS
 62
     4
 10
131.0163962370473
 20
354.3590298105824
 30
0.0
  0
VERTEX
  5
62C50
  8
0
  6
CONTINUOUS
 62
     4
 10
131.5623515884466
 20
355.85902981058268
 30
0.0
  0
VERTEX
  5
62C51
  8
0
  6
CONTINUOUS
 62
     4
 10
132.2795160216954
 20
355.85902981058263
 30
0.0
  0
VERTEX
  5
62C52
  8
0
  6
CONTINUOUS
 62
     4
 10
132.56639623704689
 20
356.35592091925798
 30
0.0
  0
VERTEX
  5
62C53
  8
0
  6
CONTINUOUS
 62
     4
 10
132.566396237047
 20
357.12569647724922
 30
0.0
  0
VERTEX
  5
62C54
  8
0
  6
CONTINUOUS
 62
     4
 10
132.36639623704701
 20
357.65902981058241
 30
0.0
  0
VERTEX
  5
62C55
  8
0
  6
CONTINUOUS
 62
     4
 10
132.3663962370469
 20
360.95902981058242
 30
0.0
  0
VERTEX
  5
62C56
  8
0
  6
CONTINUOUS
 62
     4
 10
129.51639623704679
 20
360.95902981058242
 30
0.0
  0
VERTEX
  5
62C57
  8
0
  6
CONTINUOUS
 62
     4
 10
126.66639623704719
 20
360.95902981058271
 30
0.0
  0
SEQEND
  5
62C58
  8
0
  6
CONTINUOUS
 62
     4
  0
LINE
  5
58A9A
  8
0
  6
CONTINUOUS
 62
     4
 10
126.46639623704711
 20
356.35592091925793
 30
0.0
 11
132.56639623704689
 21
356.35592091925798
 31
0.0
  0
LINE
  5
58A9B
  8
0
  6
CONTINUOUS
 62
     4
 10
127.47044088564761
 20
355.85902981058229
 30
0.0
 11
131.5623515884466
 21
355.85902981058268
 31
0.0
  0
LINE
  5
58A9C
  8
0
  6
CONTINUOUS
 62
     4
 10
126.46639623704689
 20
357.12569647724899
 30
0.0
 11
132.566396237047
 21
357.12569647724922
 31
0.0
  0
LINE
  5
58A9D
  8
0
  6
CONTINUOUS
 62
     4
 10
126.666396237047
 20
357.65902981058269
 30
0.0
 11
132.36639623704701
 21
357.65902981058241
 31
0.0
  0
LINE
  5
58A9E
  8
0
  6
CONTINUOUS
 62
     4
 10
126.2663962370473
 20
372.95902981058202
 30
0.0
 11
132.76639623704719
 21
372.95902981058208
 31
0.0
  0
LINE
  5
58A9F
  8
0
  6
CONTINUOUS
 62
     4
 10
131.8663962370473
 20
370.95902981058191
 30
0.0
 11
132.36639623704721
 21
371.45902981058202
 31
0.0
  0
LINE
  5
58AA0
  8
0
  6
CONTINUOUS
 62
     4
 10
126.666396237047
 20
371.45902981058219
 30
0.0
 11
132.36639623704721
 21
371.45902981058202
 31
0.0
  0
LINE
  5
58AA1
  8
0
  6
CONTINUOUS
 62
     4
 10
125.5163962370473
 20
373.70902981058202
 30
0.0
 11
133.51639623704719
 21
373.70902981058219
 31
0.0
  0
POLYLINE
  5
58AA2
  8
0
  6
CONTINUOUS
 62
     4
 66
     1
 10
0.0
 20
0.0
 30
0.0
 70
     1
  0
VERTEX
  5
62C59
  8
0
  6
CONTINUOUS
 62
     4
 10
126.51639623704681
 20
361.1590298105823
 30
0.0
  0
VERTEX
  5
62C5A
  8
0
  6
CONTINUOUS
 62
     4
 10
126.71639623704721
 20
360.95902981058259
 30
0.0
  0
VERTEX
  5
62C5B
  8
0
  6
CONTINUOUS
 62
     4
 10
132.3163962370468
 20
360.95902981058219
 30
0.0
  0
VERTEX
  5
62C5C
  8
0
  6
CONTINUOUS
 62
     4
 10
132.51639623704699
 20
361.15902981058258
 30
0.0
  0
VERTEX
  5
62C5D
  8
0
  6
CONTINUOUS
 62
     4
 10
132.51639623704699
 20
370.75902981058209
 30
0.0
  0
VERTEX
  5
62C5E
  8
0
  6
CONTINUOUS
 62
     4
 10
132.3163962370468
 20
370.95902981058202
 30
0.0
  0
VERTEX
  5
62C5F
  8
0
  6
CONTINUOUS
 62
     4
 10
126.71639623704689
 20
370.95902981058191
 30
0.0
  0
VERTEX
  5
62C60
  8
0
  6
CONTINUOUS
 62
     4
 10
126.5163962370472
 20
370.75902981058209
 30
0.0
  0
SEQEND
  5
62C61
  8
0
  6
CONTINUOUS
 62
     4
  0
LINE
  5
58AA3
  8
0
  6
CONTINUOUS
 62
     4
 10
126.51639623704681
 20
361.1590298105823
 30
0.0
 11
132.51639623704699
 21
361.15902981058258
 31
0.0
  0
LINE
  5
58AA4
  8
0
  6
CONTINUOUS
 62
     4
 10
126.5163962370472
 20
370.75902981058209
 30
0.0
 11
132.51639623704699
 21
370.75902981058232
 31
0.0
  0
LINE
  5
58AA5
  8
0
  6
CONTINUOUS
 62
     4
 10
127.16639623704719
 20
370.95902981058208
 30
0.0
 11
131.8663962370473
 21
370.95902981058191
 31
0.0
  0
LINE
  5
58AA6
  8
0
  6
CONTINUOUS
 62
     4
 10
132.36639623704721
 20
371.45902981058202
 30
0.0
 11
132.36639623704721
 21
372.95902981058202
 31
0.0
  0
LINE
  5
58AA7
  8
0
  6
CONTINUOUS
 62
     4
 10
132.76639623704719
 20
372.95902981058208
 30
0.0
 11
133.51639623704719
 21
373.70902981058219
 31
0.0
  0
ENDBLK
  5
58AA8
  8
0
  0
BLOCK
  8
0
  2
*D98
 70
     1
 10
0.0
 20
0.0
 30
0.0
  3
*D98
  1

  0
LINE
  5
5FA2F
  8
0
  6
CONTINUOUS
 62
     2
 10
73.737833321102585
 20
182.92677917636371
 30
0.0
 11
74.070878388981697
 21
189.2816576397411
 31
0.0
  0
LINE
  5
5FA30
  8
0
  6
CONTINUOUS
 62
     2
 10
79.729610529629994
 20
182.61276343890609
 30
0.0
 11
80.062655597509135
 21
188.96764190228359
 31
0.0
  0
LINE
  5
5FA31
  8
0
  6
CONTINUOUS
 62
     2
 10
71.511501404603749
 20
188.214142088643
 30
0.0
 11
69.014927567717322
 21
188.34498197925029
 31
0.0
  0
LINE
  5
5FA32
  8
0
  6
CONTINUOUS
 62
     2
 10
82.496426286904054
 20
187.6384465699708
 30
0.0
 11
84.993000123790495
 21
187.50760667936351
 31
0.0
  0
LINE
  5
5FA33
  8
0
  6
CONTINUOUS
 62
     2
 10
74.008075241490189
 20
188.08330219803571
 30
0.0
 11
79.999852450017613
 21
187.76928646057809
 31
0.0
  0
SOLID
  5
5FA34
  8
0
  6
CONTINUOUS
 62
     2
 10
71.533308053038297
 20
188.630237728124
 30
0.0
 11
71.4896947561692
 21
187.79804644916189
 31
0.0
 12
74.008075241490189
 22
188.08330219803571
 32
0.0
 13
74.008075241490189
 23
188.08330219803571
 33
0.0
  0
SOLID
  5
5FA35
  8
0
  6
CONTINUOUS
 62
     2
 10
82.518232935338602
 20
188.05454220945191
 30
0.0
 11
82.474619638469505
 21
187.22235093048971
 31
0.0
 12
79.999852450017613
 22
187.76928646057809
 32
0.0
 13
79.999852450017613
 23
187.76928646057809
 33
0.0
  0
INSERT
  5
5FA36
  8
0
  6
CONTINUOUS
  2
*U250
 10
0.0
 20
0.0
 30
0.0
  0
POINT
  5
5FA37
  8
DEFPOINTS
  6
CONTINUOUS
 62
     0
 10
73.737833321102585
 20
182.92677917636371
 30
0.0
  0
POINT
  5
5FA38
  8
DEFPOINTS
  6
CONTINUOUS
 62
     0
 10
79.729610529629994
 20
182.61276343890609
 30
0.0
  0
POINT
  5
5FA39
  8
DEFPOINTS
  6
CONTINUOUS
 62
     0
 10
79.999852450017613
 20
187.76928646057809
 30
0.0
  0
ENDBLK
  5
5FA3A
  8
0
  0
BLOCK
  8
0
  2
*D99
 70
     1
 10
0.0
 20
0.0
 30
0.0
  3
*D99
  1

  0
LINE
  5
5FA3D
  8
0
  6
CONTINUOUS
 62
     2
 10
58.758390299783962
 20
183.71181852000791
 30
0.0
 11
59.091435367663053
 21
190.0666969833849
 31
0.0
  0
LINE
  5
5FA3E
  8
0
  6
CONTINUOUS
 62
     2
 10
73.737833321102585
 20
182.92677917636371
 30
0.0
 11
74.070878388981697
 21
189.28165763974101
 31
0.0
  0
LINE
  5
5FA3F
  8
0
  6
CONTINUOUS
 62
     2
 10
61.525206057057972
 20
188.73750165107211
 30
0.0
 11
71.511501404603749
 21
188.21414208864289
 31
0.0
  0
SOLID
  5
5FA40
  8
0
  6
CONTINUOUS
 62
     2
 10
61.547012705492527
 20
189.15359729055319
 30
0.0
 11
61.503399408623423
 21
188.32140601159099
 31
0.0
 12
59.028632220171538
 22
188.8683415416794
 32
0.0
 13
59.028632220171538
 23
188.8683415416794
 33
0.0
  0
SOLID
  5
5FA41
  8
0
  6
CONTINUOUS
 62
     2
 10
71.533308053038297
 20
188.63023772812389
 30
0.0
 11
71.4896947561692
 21
187.7980464491618
 31
0.0
 12
74.008075241490189
 22
188.0833021980356
 32
0.0
 13
74.008075241490189
 23
188.0833021980356
 33
0.0
  0
INSERT
  5
5FA42
  8
0
  6
CONTINUOUS
  2
*U251
 10
0.0
 20
0.0
 30
0.0
  0
POINT
  5
5FA43
  8
DEFPOINTS
  6
CONTINUOUS
 62
     0
 10
58.758390299783962
 20
183.71181852000791
 30
0.0
  0
POINT
  5
5FA44
  8
DEFPOINTS
  6
CONTINUOUS
 62
     0
 10
73.737833321102585
 20
182.92677917636371
 30
0.0
  0
POINT
  5
5FA45
  8
DEFPOINTS
  6
CONTINUOUS
 62
     0
 10
74.008075241490189
 20
188.0833021980356
 30
0.0
  0
ENDBLK
  5
5FA46
  8
0
  0
BLOCK
  8
0
  2
*D100
 70
     1
 10
0.0
 20
0.0
 30
0.0
  3
*D100
  1

  0
LINE
  5
5FA49
  8
0
  6
CONTINUOUS
 62
     2
 10
52.766613091256531
 20
184.02583425746531
 30
0.0
 11
53.099658159135643
 21
190.38071272084281
 31
0.0
  0
LINE
  5
5FA4A
  8
0
  6
CONTINUOUS
 62
     2
 10
58.758390299783947
 20
183.7118185200078
 30
0.0
 11
59.091435367663067
 21
190.0666969833853
 31
0.0
  0
LINE
  5
5FA4B
  8
0
  6
CONTINUOUS
 62
     2
 10
50.540281174757702
 20
189.3131971697446
 30
0.0
 11
48.043707337871261
 21
189.44403706035189
 31
0.0
  0
LINE
  5
5FA4C
  8
0
  6
CONTINUOUS
 62
     2
 10
61.525206057057993
 20
188.73750165107239
 30
0.0
 11
64.021779893944426
 21
188.6066617604651
 31
0.0
  0
LINE
  5
5FA4D
  8
0
  6
CONTINUOUS
 62
     2
 10
53.036855011644128
 20
189.18235727913731
 30
0.0
 11
59.028632220171559
 21
188.8683415416798
 31
0.0
  0
SOLID
  5
5FA4E
  8
0
  6
CONTINUOUS
 62
     2
 10
50.562087823192257
 20
189.72929280922571
 30
0.0
 11
50.518474526323153
 21
188.8971015302636
 31
0.0
 12
53.036855011644128
 22
189.18235727913731
 32
0.0
 13
53.036855011644128
 23
189.18235727913731
 33
0.0
  0
SOLID
  5
5FA4F
  8
0
  6
CONTINUOUS
 62
     2
 10
61.547012705492548
 20
189.15359729055351
 30
0.0
 11
61.503399408623437
 21
188.32140601159139
 31
0.0
 12
59.028632220171559
 22
188.8683415416798
 32
0.0
 13
59.028632220171559
 23
188.8683415416798
 33
0.0
  0
INSERT
  5
5FA50
  8
0
  6
CONTINUOUS
  2
*U252
 10
0.0
 20
0.0
 30
0.0
  0
POINT
  5
5FA51
  8
DEFPOINTS
  6
CONTINUOUS
 62
     0
 10
52.766613091256531
 20
184.02583425746531
 30
0.0
  0
POINT
  5
5FA52
  8
DEFPOINTS
  6
CONTINUOUS
 62
     0
 10
58.758390299783947
 20
183.7118185200078
 30
0.0
  0
POINT
  5
5FA53
  8
DEFPOINTS
  6
CONTINUOUS
 62
     0
 10
59.028632220171559
 20
188.8683415416798
 30
0.0
  0
ENDBLK
  5
5FA54
  8
0
  0
BLOCK
  8
0
  2
GFDGSD
 70
     0
 10
0.0
 20
0.0
 30
0.0
  3
GFDGSD
  1

  0
LINE
  5
5FA58
  8
0
  6
CONTINUOUS
 62
     3
 10
82.192617874430482
 20
175.4310635089281
 30
0.0
 11
84.960329531165655
 21
178.31054456362361
 31
0.0
  0
POLYLINE
  5
5FA59
  8
0
  6
CONTINUOUS
 62
     7
 66
     1
 10
0.0
 20
0.0
 30
0.0
 70
     1
 40
0.5
 41
0.5
  0
VERTEX
  5
62DF3
  8
0
  6
CONTINUOUS
 62
     7
 10
79.207892992188803
 20
175.58596633221259
 30
0.0
 42
-1.0
  0
VERTEX
  5
62DF4
  8
0
  6
CONTINUOUS
 62
     7
 10
79.707207759566074
 20
175.55979835409121
 30
0.0
 42
-1.0
  0
SEQEND
  5
62DF5
  8
0
  6
CONTINUOUS
 62
     7
  0
CIRCLE
  5
5FA5A
  8
0
  6
PHANTOM2
 62
     4
 10
76.631672286546745
 20
180.82254820038699
 30
0.0
 40
5.961927422267074
  0
LINE
  5
5FA5B
  8
0
  6
CONTINUOUS
 62
     3
 10
42.17272514435399
 20
180.96057509519619
 30
0.0
 11
45.176829130457911
 21
177.24960184239009
 31
0.0
  0
INSERT
  5
5FA5C
  8
0
  6
CONTINUOUS
 62
     2
  2
*X253
 10
0.0
 20
0.0
 30
0.0
1001
ACAD
1000
HATCH
1002
{
1070
    19
1000
ANSI31
1040
20.0
1040
6.2308254296197561
1000
R14_HATCH_DATA
1000
5FA5C
1011
1.0
1021
0.0
1031
-1.8492665278881001E+209
1021
0.0
1031
0.0
1011
0.0
1021
0.0
1031
-1.8492665278881001E+209
1021
1.0
1031
0.0
1011
0.0
1021
0.0
1031
-1.8492665278881001E+209
1021
0.0
1031
1.0
1040
0.0
1010
0.0
1020
0.0
1030
1.0
1000
ANSI31
1070
     0
1070
     0
1071
        4
1071
       23
1070
     1
1070
     1
1071
        8
1040
51.792279289525467
1040
181.98186458513041
1040
0.2679491924311664
1040
50.785874607991062
1040
182.63543142714889
1040
0.0
1040
44.794097399463418
1040
182.94944716460631
1040
-0.2679491924311162
1040
45.800502080997937
1040
182.29588032258829
1040
0.0
1040
46.115035925679251
1040
181.67857289468
1040
0.2679491924312273
1040
46.618238266446937
1040
181.35178947367129
1040
0.0
1040
52.61001547497397
1040
181.03777373621361
1040
-0.2679491924310426
1040
52.106813134206668
1040
181.36455715722229
1040
0.0
1071
        0
1071
        7
1070
     1
1070
     1
1071
       19
1040
60.582941419213569
1040
182.12198891208459
1040
0.2679491924310495
1040
59.513733590187769
1040
181.57720031239751
1040
0.0
1040
59.136396598014642
1040
180.9961522985993
1040
-0.267949192430959
1040
58.601792683501863
1040
180.7237579987559
1040
0.0
1040
46.61823826644649
1040
181.35178947367129
1040
-0.2679491924311177
1040
46.115035925679251
1040
181.6785728946802
1040
0.0
1040
45.800502080997937
1040
182.2958803225884
1040
0.2679491924310966
1040
44.794097399463404
1040
182.94944716460631
1040
0.0
1040
41.945062330986502
1040
183.0987587656445
1040
0.0
1040
42.17272514435399
1040
180.96057509519639
1040
0.0
1040
45.176829130457911
1040
177.24960184239009
1040
0.0
1040
53.178323122749582
1040
174.5963806039918
1040
0.0
1040
66.687455405675337
1040
173.44639555775399
1040
0.0
1040
74.370360565169051
1040
173.48575298315129
1040
0.0
1040
79.915323009238989
1040
174.8647249833073
1040
0.0
1040
79.59326980213325
1040
175.36292940238471
1040
-0.4441191269304323
1040
79.234981400944363
1040
175.45902694627861
1040
-0.5709145023684346
1040
70.677915478607645
1040
181.13457137308251
1040
-0.0192153241715212
1040
70.719444838186519
1040
181.59075727820141
1040
0.0
1071
        0
1071
        7
1070
     1
1070
     1
1071
       14
1040
73.581235704820017
1040
179.9387186551117
1040
-0.267949192431125
1040
73.078033364052715
1040
180.26550207612061
1040
0.0
1040
72.763499519371521
1040
180.88280950402881
1040
0.2679491924311041
1040
71.757094837837144
1040
181.53637634604661
1040
0.0
1040
70.719444838186519
1040
181.59075727820141
1040
0.0192153241715212
1040
70.677915478607645
1040
181.13457137308251
1040
0.5709145023684346
1040
79.234981400944363
1040
175.45902694627861
1040
-0.979248883116705
1040
79.675150452947719
1040
175.69596851808231
1040
0.2507365363306366
1040
82.585429094485846
1040
180.51052502769181
1040
0.0192153241715104
1040
82.591811648710404
1040
180.96855289882791
1040
0.0
1040
81.554161649059381
1040
181.02293383098259
1040
0.2679491924310668
1040
80.484953820033525
1040
180.47814523129551
1040
0.0
1040
80.107616827860681
1040
179.8970972174975
1040
-0.267949192430999
1040
79.573012913347782
1040
179.6247029176541
1040
0.0
1071
        0
1071
        7
1070
     1
1070
     1
1071
        9
1040
84.960329531165655
1040
178.31054456362361
1040
0.0
1040
85.667283733651516
1040
180.80737423660921
1040
0.0
1040
82.591811648710404
1040
180.9685528988278
1040
-0.0192153241715092
1040
82.585429094485846
1040
180.51052502769181
1040
-0.2507365363306379
1040
79.675150452947719
1040
175.69596851808231
1040
-0.1427431609333959
1040
79.707207759566074
1040
175.55979835409121
1040
-0.2406337495410551
1040
79.593269802133364
1040
175.36292940238471
1040
0.0
1040
79.915323009239103
1040
174.8647249833073
1040
0.0
1040
82.192617874430482
1040
175.4310635089281
1040
0.0
1071
        0
1070
     0
1070
     1
1040
6.2308254296197561
1040
20.0
1070
     0
1070
     1
1040
0.7330382858376187
1040
0.0
1040
0.0
1040
-1.672826515897144
1040
1.8578620636934859
1070
     0
1040
0.0152357963139015
1071
        4
1040
48.326243435448987
1040
181.95214309844789
1040
0.0
1040
64.240795955933834
1040
179.46095732254389
1040
0.0
1040
75.01244689979967
1040
177.95018648903761
1040
0.0
1040
83.478778121422181
1040
178.30715962531221
1040
0.0
1002
}
  0
LINE
  5
5FA5D
  8
0
  6
CONTINUOUS
 62
     3
 10
45.176829130457911
 20
177.24960184239009
 30
0.0
 11
53.178323122749582
 21
174.5963806039918
 31
0.0
  0
LINE
  5
5FA5E
  8
0
  6
CONTINUOUS
 62
     2
 10
85.649262419686053
 20
167.913923686712
 30
0.0
 11
90.470261299307424
 21
167.913923686712
 31
0.0
  0
TEXT
  5
5FA5F
  8
0
  6
CONTINUOUS
 62
     3
 10
86.482335424811538
 20
168.47174772170101
 30
0.0
 40
3.0
  1
Y
  0
TEXT
  5
5FA60
  8
0
  6
CONTINUOUS
 62
     7
 10
54.898355885921937
 20
164.83469792811309
 30
0.0
 40
3.0
  1
DETAIL X
  0
LINE
  5
5FA61
  8
0
  6
CONTINUOUS
 62
     7
 10
54.876404020448433
 20
163.17182602553351
 30
0.0
 11
71.669684797154957
 21
163.17182602553351
 31
0.0
  0
LINE
  5
5FA62
  8
0
  6
CONTINUOUS
 62
     3
 10
54.876404020448433
 20
164.17182602553351
 30
0.0
 11
71.669684797154957
 21
164.17182602553351
 31
0.0
  0
LINE
  5
5FA63
  8
0
  6
CONTINUOUS
 62
     3
 10
66.687455405675792
 20
173.44639555775399
 30
0.0
 11
74.370360565169165
 21
173.48575298315151
 31
0.0
  0
LINE
  5
5FA64
  8
0
  6
CONTINUOUS
 62
     3
 10
53.178323122749582
 20
174.5963806039918
 30
0.0
 11
66.687455405675792
 21
173.44639555775399
 31
0.0
  0
LINE
  5
5FA65
  8
0
  6
CONTINUOUS
 62
     2
 10
79.457550375877474
 20
175.572882343152
 30
0.0
 11
85.649262419686053
 21
167.913923686712
 31
0.0
  0
LINE
  5
5FA66
  8
0
  6
CONTINUOUS
 62
     3
 10
74.370360565169165
 20
173.48575298315151
 30
0.0
 11
82.192617874430482
 21
175.4310635089281
 31
0.0
  0
LINE
  5
5FA67
  8
0
  6
CONTINUOUS
 10
52.61001547497397
 20
181.03777373621361
 30
0.0
 11
58.601792683501287
 21
180.7237579987559
 31
0.0
  0
LINE
  5
5FA68
  8
0
  6
CONTINUOUS
 62
     7
 10
41.945062330986502
 20
183.0987587656445
 30
0.0
 11
50.785874607991062
 21
182.63543142714889
 31
0.0
  0
LINE
  5
5FA69
  8
0
  6
CONTINUOUS
 62
     3
 10
42.17272514435399
 20
180.96057509519619
 30
0.0
 11
41.945062330986502
 21
183.0987587656445
 31
0.0
  0
DIMENSION
  5
5FA6A
  8
0
  6
CONTINUOUS
 62
     7
  2
*D98
 10
79.999852450017613
 20
187.76928646057809
 30
0.0
 11
77.134819189891601
 21
190.42316303711891
 31
0.0
  1
2
  3
KSM
 13
73.737833321102585
 23
182.92677917636371
 33
0.0
 14
79.729610529629994
 24
182.61276343890609
 34
0.0
 50
357.00000000000108
1001
ACAD
1000
DSTYLE
1002
{
1070
    47
1040
0.1
1070
    71
1070
     0
1070
    48
1040
-0.02
1070
   146
1040
0.7
1070
   272
1070
     3
1070
   271
1070
     3
1070
    41
1040
2.5
1002
}
  0
DIMENSION
  5
5FA6B
  8
0
  6
CONTINUOUS
 62
     7
  2
*D99
 10
74.008075241490189
 20
188.0833021980356
 30
0.0
 11
66.649193621438172
 21
190.9723957067439
 31
0.0
  1
5
  3
KSM
 13
58.758390299783969
 23
183.71181852000791
 33
0.0
 14
73.737833321102585
 24
182.92677917636371
 34
0.0
 50
357.00000000000108
1001
ACAD
1000
DSTYLE
1002
{
1070
    47
1040
0.1
1070
    71
1070
     0
1070
    48
1040
-0.02
1070
   146
1040
0.7
1070
   272
1070
     3
1070
   271
1070
     3
1070
    41
1040
2.5
1002
}
  0
LINE
  5
5FA6C
  8
0
  6
CONTINUOUS
 62
     7
 10
60.582941419213569
 20
182.12198891208459
 30
0.0
 11
71.757094837837144
 21
181.53637634604661
 31
0.0
  0
LINE
  5
5FA6D
  8
0
  6
CENTER
 62
     2
 10
58.722683999229268
 20
183.03050171851061
 30
0.0
 11
58.448541708314217
 21
177.79955519367289
 31
0.0
  0
ARC
  5
5FA6E
  8
0
  6
CONTINUOUS
 62
     7
 10
60.520138271722033
 20
180.9236334703792
 30
0.0
 40
1.1999999999999991
 50
87.000000000000909
 51
146.99999999998781
  0
LINE
  5
5FA6F
  8
0
  6
CONTINUOUS
 62
     7
 10
59.136396598014642
 20
180.9961522985993
 30
0.0
 11
59.513733590187712
 21
181.57720031239739
 31
0.0
  0
ARC
  5
5FA70
  8
0
  6
CONTINUOUS
 62
     7
 10
58.633194257247169
 20
181.32293571960861
 30
0.0
 40
0.6
 50
267.00000000000091
 51
326.9999999999996
  0
LINE
  5
5FA71
  8
0
  6
CENTER
 62
     2
 10
73.702127020547891
 20
182.24546237486629
 30
0.0
 11
73.42798472963284
 21
177.0145158500286
 31
0.0
  0
LINE
  5
5FA72
  8
0
  6
CENTER
 62
     2
 10
79.693904229075315
 20
181.93144663740881
 30
0.0
 11
79.419761938160264
 21
176.70050011257109
 31
0.0
  0
LINE
  5
5FA73
  8
0
  6
CONTINUOUS
 10
73.581235704819903
 20
179.9387186551117
 30
0.0
 11
79.573012913347327
 21
179.6247029176541
 31
0.0
  0
ARC
  5
5FA74
  8
0
  6
CONTINUOUS
 62
     7
 10
71.694291690345608
 20
180.33802090434119
 30
0.0
 40
1.1999999999999991
 50
27.000000000001759
 51
87.000000000000909
  0
LINE
  5
5FA75
  8
0
  6
CONTINUOUS
 62
     7
 10
73.078033364052715
 20
180.26550207612061
 30
0.0
 11
72.763499519371521
 21
180.88280950402881
 31
0.0
  0
ARC
  5
5FA76
  8
0
  6
CONTINUOUS
 62
     7
 10
73.612637278565785
 20
180.53789637596449
 30
0.0
 40
0.6
 50
206.99999999999011
 51
267.00000000000091
  0
ARC
  5
5FA77
  8
0
  6
CONTINUOUS
 62
     7
 10
81.491358501567845
 20
179.82457838927721
 30
0.0
 40
1.1999999999999991
 50
87.000000000000909
 51
146.99999999998781
  0
LINE
  5
5FA78
  8
0
  6
CONTINUOUS
 62
     7
 10
80.107616827860681
 20
179.8970972174975
 30
0.0
 11
80.484953820033525
 21
180.47814523129551
 31
0.0
  0
LINE
  5
5FA79
  8
0
  6
CONTINUOUS
 62
     7
 10
81.554161649059381
 20
181.02293383098259
 30
0.0
 11
85.667283733651644
 21
180.80737423660921
 31
0.0
  0
LINE
  5
5FA7A
  8
0
  6
CONTINUOUS
 62
     3
 10
84.960329531165655
 20
178.31054456362361
 30
0.0
 11
85.667283733651644
 21
180.80737423660941
 31
0.0
  0
ARC
  5
5FA7B
  8
0
  6
CONTINUOUS
 62
     7
 10
79.604414487093209
 20
180.22388063850681
 30
0.0
 40
0.6
 50
267.00000000000091
 51
326.9999999999996
  0
LINE
  5
5FA7C
  8
0
  6
CENTER
 62
     2
 10
52.730906790701837
 20
183.344517455968
 30
0.0
 11
52.456764499786793
 21
178.11357093113031
 31
0.0
  0
ARC
  5
5FA7D
  8
0
  6
CONTINUOUS
 62
     7
 10
50.723071460499561
 20
181.4370759854429
 30
0.0
 40
1.1999999999999991
 50
27.000000000001801
 51
87.000000000000924
  0
LINE
  5
5FA7E
  8
0
  6
CONTINUOUS
 62
     7
 10
52.106813134206668
 20
181.36455715722229
 30
0.0
 11
51.792279289525467
 21
181.98186458513041
 31
0.0
  0
ARC
  5
5FA7F
  8
0
  6
CONTINUOUS
 62
     7
 10
52.641417048719738
 20
181.63695145706609
 30
0.0
 40
0.6
 50
206.99999999999
 51
267.00000000000091
  0
DIMENSION
  5
5FA80
  8
0
  6
CONTINUOUS
 62
     7
  2
*D100
 10
59.028632220171559
 20
188.8683415416798
 30
0.0
 11
56.163598960045547
 21
191.52221811822059
 31
0.0
  1
2
  3
KSM
 13
52.766613091256531
 23
184.02583425746531
 33
0.0
 14
58.758390299783962
 24
183.7118185200078
 34
0.0
 50
357.00000000000108
1001
ACAD
1000
DSTYLE
1002
{
1070
    47
1040
0.1
1070
    71
1070
     0
1070
    48
1040
-0.02
1070
   146
1040
0.7
1070
   272
1070
     3
1070
   271
1070
     3
1070
    41
1040
2.5
1002
}
  0
ENDBLK
  5
5FA81
  8
0
  0
BLOCK
  8
0
  2
*D104
 70
     1
 10
0.0
 20
0.0
 30
0.0
  3
*D104
  1

  0
LINE
  5
62E2C
  8
0
  6
CONTINUOUS
 62
     2
 10
179.8961775390612
 20
113.3647924731824
 30
0.0
 11
179.8961775390612
 21
92.570027544278304
 31
0.0
  0
LINE
  5
62E2D
  8
0
  6
CONTINUOUS
 62
     2
 10
249.89617753906171
 20
117.50782497839791
 30
0.0
 11
249.89617753906171
 21
92.570027544278304
 31
0.0
  0
LINE
  5
62E2E
  8
0
  6
CONTINUOUS
 62
     2
 10
182.3961775390612
 20
93.570027544278304
 30
0.0
 11
247.39617753906171
 21
93.570027544278304
 31
0.0
  0
SOLID
  5
62E2F
  8
0
  6
CONTINUOUS
 62
     2
 10
182.3961775390612
 20
93.986694210944975
 30
0.0
 11
182.3961775390612
 21
93.153360877611632
 31
0.0
 12
179.8961775390612
 22
93.570027544278304
 32
0.0
 13
179.8961775390612
 23
93.570027544278304
 33
0.0
  0
SOLID
  5
62E30
  8
0
  6
CONTINUOUS
 62
     2
 10
247.39617753906171
 20
93.986694210944975
 30
0.0
 11
247.39617753906171
 21
93.153360877611632
 31
0.0
 12
249.89617753906171
 22
93.570027544278304
 32
0.0
 13
249.89617753906171
 23
93.570027544278304
 33
0.0
  0
TEXT
  8
0
  40
3
  5
62F62
  62
3
  72
0
  71
0
 10
214.896
 20
91.7700
 30
0.000000
  1
70
  0
POINT
  5
62E32
  8
DEFPOINTS
  6
CONTINUOUS
 62
     0
 10
179.8961775390612
 20
113.9647924731824
 30
0.0
  0
POINT
  5
62E33
  8
DEFPOINTS
  6
CONTINUOUS
 62
     0
 10
249.89617753906171
 20
118.1078249783979
 30
0.0
  0
POINT
  5
62E34
  8
DEFPOINTS
  6
CONTINUOUS
 62
     0
 10
249.89617753906171
 20
93.570027544278304
 30
0.0
  0
ENDBLK
  5
620B3
  8
0
  0
BLOCK
  8
0
  2
*D110
 70
     1
 10
0.0
 20
0.0
 30
0.0
  3
*D110
  1

  0
LINE
  5
62E3F
  8
0
  6
CONTINUOUS
 62
     2
 10
250.49617753906151
 20
117.63333702299541
 30
0.0
 11
271.50583474403788
 21
117.63333702299541
 31
0.0
  0
LINE
  5
62E40
  8
0
  6
CONTINUOUS
 62
     2
 10
250.49617753906131
 20
149.63333702299531
 30
0.0
 11
271.505834744038
 21
149.63333702299531
 31
0.0
  0
LINE
  5
62E41
  8
0
  6
CONTINUOUS
 62
     2
 10
270.50583474403788
 20
120.13333702299541
 30
0.0
 11
270.505834744038
 21
147.13333702299531
 31
0.0
  0
SOLID
  5
62E42
  8
0
  6
CONTINUOUS
 62
     2
 10
270.0891680773712
 20
120.13333702299541
 30
0.0
 11
270.92250141070463
 21
120.13333702299541
 31
0.0
 12
270.50583474403788
 22
117.63333702299541
 32
0.0
 13
270.50583474403788
 23
117.63333702299541
 33
0.0
  0
SOLID
  5
62E43
  8
0
  6
CONTINUOUS
 62
     2
 10
270.08916807737131
 20
147.13333702299531
 30
0.0
 11
270.92250141070468
 21
147.13333702299531
 31
0.0
 12
270.505834744038
 22
149.63333702299531
 32
0.0
 13
270.505834744038
 23
149.63333702299531
 33
0.0
  0
TEXT
  8
0
  40
3
  5
62F63
  62
3
  72
0
  71
0
 10
268.406
 20
129.733
 30
0.000000
  1
%%c32
  0
POINT
  5
62E45
  8
DEFPOINTS
  6
CONTINUOUS
 62
     0
 10
249.89617753906151
 20
117.63333702299541
 30
0.0
  0
POINT
  5
62E46
  8
DEFPOINTS
  6
CONTINUOUS
 62
     0
 10
249.89617753906131
 20
149.63333702299531
 30
0.0
  0
POINT
  5
62E47
  8
DEFPOINTS
  6
CONTINUOUS
 62
     0
 10
270.505834744038
 20
149.63333702299531
 30
0.0
  0
ENDBLK
  5
620FB
  8
0
  0
BLOCK
  8
0
  2
*D116
 70
     1
 10
0.0
 20
0.0
 30
0.0
  3
*D116
  1

  0
LINE
  5
62E1A
  8
0
  6
CONTINUOUS
 62
     2
 10
129.8961775390614
 20
110.8083370229954
 30
0.0
 11
129.8961775390614
 21
84.570027544278304
 31
0.0
  0
LINE
  5
62E1B
  8
0
  6
CONTINUOUS
 62
     2
 10
249.8961775390612
 20
112.6442272097927
 30
0.0
 11
249.8961775390612
 21
84.570027544278304
 31
0.0
  0
LINE
  5
62E1C
  8
0
  6
CONTINUOUS
 62
     2
 10
132.3961775390614
 20
85.570027544278304
 30
0.0
 11
247.3961775390612
 21
85.570027544278304
 31
0.0
  0
SOLID
  5
62E1D
  8
0
  6
CONTINUOUS
 62
     2
 10
132.3961775390614
 20
85.986694210944975
 30
0.0
 11
132.3961775390614
 21
85.153360877611632
 31
0.0
 12
129.8961775390614
 22
85.570027544278304
 32
0.0
 13
129.8961775390614
 23
85.570027544278304
 33
0.0
  0
SOLID
  5
62E1E
  8
0
  6
CONTINUOUS
 62
     2
 10
247.3961775390612
 20
85.986694210944975
 30
0.0
 11
247.3961775390612
 21
85.153360877611632
 31
0.0
 12
249.8961775390612
 22
85.570027544278304
 32
0.0
 13
249.8961775390612
 23
85.570027544278304
 33
0.0
  0
TEXT
  8
0
  40
3
  5
62F64
  62
3
  72
0
  71
0
 10
189.896
 20
83.7703
 30
0.000000
  1
120
  0
POINT
  5
62E20
  8
DEFPOINTS
  6
CONTINUOUS
 62
     0
 10
129.8961775390614
 20
111.4083370229954
 30
0.0
  0
POINT
  5
62E21
  8
DEFPOINTS
  6
CONTINUOUS
 62
     0
 10
249.8961775390612
 20
113.2442272097927
 30
0.0
  0
POINT
  5
62E22
  8
DEFPOINTS
  6
CONTINUOUS
 62
     0
 10
249.8961775390612
 20
85.570027544278304
 30
0.0
  0
ENDBLK
  5
6213B
  8
0
  0
BLOCK
  8
0
  2
*D117
 70
     1
 10
0.0
 20
0.0
 30
0.0
  3
*D117
  1

  0
LINE
  5
62E23
  8
0
  6
CONTINUOUS
 62
     2
 10
61.646177539061561
 20
122.0585779906101
 30
0.0
 11
61.646177539061561
 21
84.570027544278304
 31
0.0
  0
LINE
  5
62E24
  8
0
  6
CONTINUOUS
 62
     2
 10
129.8961775390614
 20
110.8083370229954
 30
0.0
 11
129.8961775390614
 21
84.570027544278304
 31
0.0
  0
LINE
  5
62E25
  8
0
  6
CONTINUOUS
 62
     2
 10
64.146177539061554
 20
85.570027544278304
 30
0.0
 11
127.3961775390614
 21
85.570027544278304
 31
0.0
  0
SOLID
  5
62E26
  8
0
  6
CONTINUOUS
 62
     2
 10
64.146177539061554
 20
85.986694210944975
 30
0.0
 11
64.146177539061554
 21
85.153360877611632
 31
0.0
 12
61.646177539061561
 22
85.570027544278304
 32
0.0
 13
61.646177539061561
 23
85.570027544278304
 33
0.0
  0
SOLID
  5
62E27
  8
0
  6
CONTINUOUS
 62
     2
 10
127.3961775390614
 20
85.986694210944975
 30
0.0
 11
127.3961775390614
 21
85.153360877611632
 31
0.0
 12
129.8961775390614
 22
85.570027544278304
 32
0.0
 13
129.8961775390614
 23
85.570027544278304
 33
0.0
  0
TEXT
  8
0
  40
3
  5
62F65
  62
3
  72
0
  71
0
 10
95.7712
 20
83.7703
 30
0.000000
  1
68.25
  0
POINT
  5
62E29
  8
DEFPOINTS
  6
CONTINUOUS
 62
     0
 10
61.646177539061561
 20
122.6585779906101
 30
0.0
  0
POINT
  5
62E2A
  8
DEFPOINTS
  6
CONTINUOUS
 62
     0
 10
129.8961775390614
 20
111.4083370229954
 30
0.0
  0
POINT
  5
62E2B
  8
DEFPOINTS
  6
CONTINUOUS
 62
     0
 10
129.8961775390614
 20
85.570027544278304
 30
0.0
  0
ENDBLK
  5
62147
  8
0
  0
BLOCK
  8
0
  2
*D118
 70
     1
 10
0.0
 20
0.0
 30
0.0
  3
*D118
  1

  0
LINE
  5
62E11
  8
0
  6
CONTINUOUS
 62
     2
 10
61.646177539061561
 20
122.0585779906101
 30
0.0
 11
61.646177539061561
 21
76.570027544278332
 31
0.0
  0
LINE
  5
62E12
  8
0
  6
CONTINUOUS
 62
     2
 10
249.8961775390612
 20
112.6442272097927
 30
0.0
 11
249.8961775390612
 21
76.570027544278332
 31
0.0
  0
LINE
  5
62E13
  8
0
  6
CONTINUOUS
 62
     2
 10
64.146177539061554
 20
77.570027544278332
 30
0.0
 11
247.3961775390612
 21
77.570027544278332
 31
0.0
  0
SOLID
  5
62E14
  8
0
  6
CONTINUOUS
 62
     2
 10
64.146177539061554
 20
77.986694210945004
 30
0.0
 11
64.146177539061554
 21
77.153360877611661
 31
0.0
 12
61.646177539061561
 22
77.570027544278332
 32
0.0
 13
61.646177539061561
 23
77.570027544278332
 33
0.0
  0
SOLID
  5
62E15
  8
0
  6
CONTINUOUS
 62
     2
 10
247.3961775390612
 20
77.986694210945004
 30
0.0
 11
247.3961775390612
 21
77.153360877611661
 31
0.0
 12
249.8961775390612
 22
77.570027544278332
 32
0.0
 13
249.8961775390612
 23
77.570027544278332
 33
0.0
  0
TEXT
  8
0
  40
3
  5
62F66
  62
3
  72
0
  71
0
 10
155.771
 20
75.7703
 30
0.000000
  1
188.25
  0
POINT
  5
62E17
  8
DEFPOINTS
  6
CONTINUOUS
 62
     0
 10
61.646177539061561
 20
122.6585779906101
 30
0.0
  0
POINT
  5
62E18
  8
DEFPOINTS
  6
CONTINUOUS
 62
     0
 10
249.8961775390612
 20
113.2442272097927
 30
0.0
  0
POINT
  5
62E19
  8
DEFPOINTS
  6
CONTINUOUS
 62
     0
 10
249.8961775390612
 20
77.570027544278332
 30
0.0
  0
ENDBLK
  5
62153
  8
0
  0
BLOCK
  8
0
  2
*D126
 70
     1
 10
0.0
 20
0.0
 30
0.0
  3
*D126
  1

  0
LINE
  5
62E48
  8
0
  6
CONTINUOUS
 62
     2
 10
177.2397481362103
 20
109.3637217807248
 30
0.0
 11
169.19075546170319
 21
95.422457518728393
 31
0.0
  0
LINE
  5
62E49
  8
0
  6
CONTINUOUS
 62
     2
 10
179.8961775390612
 20
113.0324865136817
 30
0.0
 11
179.89617753906089
 21
92.553948318466041
 31
0.0
  0
ARC
  5
62E4A
  8
0
  6
CONTINUOUS
 62
     2
 10
179.8961775390612
 20
113.9647924731823
 30
0.0
 40
20.41084415471629
 50
247.0222053328886
 51
262.97779466711103
  0
SOLID
  5
62E4B
  8
0
  6
CONTINUOUS
 62
     2
 10
171.7424639879012
 20
94.800496620614354
 30
0.0
 11
172.11415097628989
 21
95.546347294078515
 31
0.0
 12
169.69075546170311
 22
96.288482922512841
 32
0.0
 13
169.69075546170311
 23
96.288482922512841
 33
0.0
  0
SOLID
  5
62E4C
  8
0
  6
CONTINUOUS
 62
     2
 10
177.42638764579439
 20
94.122937768481762
 30
0.0
 11
177.37535268326309
 21
93.291168643637675
 31
0.0
 12
179.89617753906089
 22
93.553948318465999
 32
0.0
 13
179.89617753906089
 23
93.553948318465999
 33
0.0
  0
TEXT
  8
0
  40
3
  5
62F67
  62
3
  72
0
  71
0
 10
175.157
 20
92.3779
 30
0.000000
  1
30%%d
  0
POINT
  5
62E4E
  8
DEFPOINTS
  6
CONTINUOUS
 62
     0
 10
172.91525769586721
 20
94.784872836984235
 30
0.0
  0
POINT
  5
62E4F
  8
DEFPOINTS
  6
CONTINUOUS
 62
     0
 10
179.3532218394229
 20
113.02436561514951
 30
0.0
  0
POINT
  5
62E50
  8
DEFPOINTS
  6
CONTINUOUS
 62
     0
 10
179.8961775390614
 20
133.6333370229967
 30
0.0
  0
POINT
  5
62E51
  8
DEFPOINTS
  6
CONTINUOUS
 62
     0
 10
179.8961775390612
 20
113.6324865136817
 30
0.0
  0
POINT
  5
62E52
  8
DEFPOINTS
  6
CONTINUOUS
 62
     0
 10
177.53974813621039
 20
109.88333702299541
 30
0.0
  0
ENDBLK
  5
621B2
  8
0
  0
BLOCK
  8
0
  2
*D130
 70
     1
 10
0.0
 20
0.0
 30
0.0
  3
*D130
  1

  0
LINE
  5
62EC9
  8
0
  6
CONTINUOUS
 62
     2
 10
249.49617753906179
 20
125.69583702299541
 30
0.0
 11
263.505834744038
 21
125.69583702299541
 31
0.0
  0
LINE
  5
62ECA
  8
0
  6
CONTINUOUS
 62
     2
 10
249.49617753906179
 20
141.57083702299539
 30
0.0
 11
263.50583474403811
 21
141.57083702299539
 31
0.0
  0
LINE
  5
62ECB
  8
0
  6
CONTINUOUS
 62
     2
 10
262.50583474403811
 20
128.19583702299539
 30
0.0
 11
262.50583474403811
 21
139.07083702299539
 31
0.0
  0
SOLID
  5
62ECC
  8
0
  6
CONTINUOUS
 62
     2
 10
262.08916807737143
 20
128.19583702299539
 30
0.0
 11
262.92250141070468
 21
128.19583702299539
 31
0.0
 12
262.505834744038
 22
125.69583702299541
 32
0.0
 13
262.505834744038
 23
125.69583702299541
 33
0.0
  0
SOLID
  5
62ECD
  8
0
  6
CONTINUOUS
 62
     2
 10
262.08916807737143
 20
139.07083702299539
 30
0.0
 11
262.92250141070468
 21
139.07083702299539
 31
0.0
 12
262.50583474403811
 22
141.57083702299539
 32
0.0
 13
262.50583474403811
 23
141.57083702299539
 33
0.0
  0
TEXT
  8
0
  40
3
  5
62F68
  62
3
  72
0
  71
0
 10
260.406
 20
130.527
 30
0.000000
  1
%%c15.875
  0
POINT
  5
62ECF
  8
DEFPOINTS
  6
CONTINUOUS
 62
     0
 10
248.8961775390618
 20
125.69583702299541
 30
0.0
  0
POINT
  5
62ED0
  8
DEFPOINTS
  6
CONTINUOUS
 62
     0
 10
248.8961775390618
 20
141.57083702299539
 30
0.0
  0
POINT
  5
62ED1
  8
DEFPOINTS
  6
CONTINUOUS
 62
     0
 10
262.50583474403811
 20
141.57083702299539
 30
0.0
  0
ENDBLK
  5
62449
  8
0
  0
BLOCK
  8
0
  2
*D153
 70
     1
 10
0.0
 20
0.0
 30
0.0
  3
*D153
  1

  0
LINE
  5
62F40
  8
0
  6
CONTINUOUS
 62
     2
 10
176.40769732864149
 20
158.38333702299531
 30
0.0
 11
279.505834744038
 21
158.38333702299519
 31
0.0
  0
LINE
  5
62F41
  8
0
  6
CONTINUOUS
 62
     2
 10
176.4076973286414
 20
108.88333702299541
 30
0.0
 11
279.505834744038
 21
108.88333702299541
 31
0.0
  0
LINE
  5
62F42
  8
0
  6
CONTINUOUS
 62
     2
 10
278.50583474403811
 20
155.88333702299531
 30
0.0
 11
278.505834744038
 21
111.38333702299541
 31
0.0
  0
SOLID
  5
62F43
  8
0
  6
CONTINUOUS
 62
     2
 10
278.08916807737143
 20
155.88333702299531
 30
0.0
 11
278.9225014107048
 21
155.88333702299531
 31
0.0
 12
278.50583474403811
 22
158.38333702299519
 32
0.0
 13
278.50583474403811
 23
158.38333702299519
 33
0.0
  0
SOLID
  5
62F44
  8
0
  6
CONTINUOUS
 62
     2
 10
278.08916807737131
 20
111.38333702299541
 30
0.0
 11
278.92250141070468
 21
111.38333702299541
 31
0.0
 12
278.505834744038
 22
108.88333702299541
 32
0.0
 13
278.505834744038
 23
108.88333702299541
 33
0.0
  0
TEXT
  8
0
  40
3
  5
62F69
  62
3
  72
0
  71
0
 10
276.406
 20
129.733
 30
0.000000
  1
%%c49.5
  0
POINT
  5
62F46
  8
DEFPOINTS
  6
CONTINUOUS
 62
     0
 10
175.8076973286415
 20
158.38333702299531
 30
0.0
  0
POINT
  5
62F47
  8
DEFPOINTS
  6
CONTINUOUS
 62
     0
 10
175.80769732864141
 20
108.88333702299541
 30
0.0
  0
POINT
  5
62F48
  8
DEFPOINTS
  6
CONTINUOUS
 62
     0
 10
278.505834744038
 20
108.88333702299541
 30
0.0
  0
ENDBLK
  5
626FE
  8
0
  0
BLOCK
  8
0
  2
*D154
 70
     1
 10
0.0
 20
0.0
 30
0.0
  3
*D154
  1

  0
LINE
  5
62F49
  8
0
  6
CONTINUOUS
 62
     2
 10
207.89617753906191
 20
142.4333370229954
 30
0.0
 11
207.89617753906191
 21
178.06159586758
 31
0.0
  0
LINE
  5
62F4A
  8
0
  6
CONTINUOUS
 62
     2
 10
249.89617753906171
 20
149.75885473963791
 30
0.0
 11
249.89617753906171
 21
178.06159586758
 31
0.0
  0
LINE
  5
62F4B
  8
0
  6
CONTINUOUS
 62
     2
 10
210.39617753906191
 20
177.06159586758
 30
0.0
 11
247.39617753906171
 21
177.06159586758
 31
0.0
  0
SOLID
  5
62F4C
  8
0
  6
CONTINUOUS
 62
     2
 10
210.39617753906191
 20
177.4782625342466
 30
0.0
 11
210.39617753906191
 21
176.64492920091331
 31
0.0
 12
207.89617753906191
 22
177.06159586758
 32
0.0
 13
207.89617753906191
 23
177.06159586758
 33
0.0
  0
SOLID
  5
62F4D
  8
0
  6
CONTINUOUS
 62
     2
 10
247.39617753906171
 20
177.4782625342466
 30
0.0
 11
247.39617753906171
 21
176.64492920091331
 31
0.0
 12
249.89617753906171
 22
177.06159586758
 32
0.0
 13
249.89617753906171
 23
177.06159586758
 33
0.0
  0
TEXT
  8
0
  40
3
  5
62F6A
  62
3
  72
0
  71
0
 10
228.896
 20
175.262
 30
0.000000
  1
42
  0
POINT
  5
62F4F
  8
DEFPOINTS
  6
CONTINUOUS
 62
     0
 10
207.89617753906191
 20
141.83333702299541
 30
0.0
  0
POINT
  5
62F50
  8
DEFPOINTS
  6
CONTINUOUS
 62
     0
 10
249.89617753906171
 20
149.15885473963789
 30
0.0
  0
POINT
  5
62F51
  8
DEFPOINTS
  6
CONTINUOUS
 62
     0
 10
249.89617753906171
 20
177.06159586758
 30
0.0
  0
ENDBLK
  5
62714
  8
0
  0
BLOCK
  8
0
  2
*X156
 70
     1
 10
0.0
 20
0.0
 30
0.0
  3
*X156
  1

  0
LINE
  5
62BF6
  8
0
  6
CONTINUOUS
 62
     0
 10
296.9863583648297
 20
146.99461131214369
 30
0.0
 11
297.22609957894878
 21
147.09865977717971
 31
0.0
  0
LINE
  5
62BF7
  8
0
  6
CONTINUOUS
 62
     0
 10
296.0131104100642
 20
146.64035096079891
 30
0.0
 11
297.06910472774467
 21
147.0986559220259
 31
0.0
  0
LINE
  5
62BF8
  8
0
  6
CONTINUOUS
 62
     0
 10
295.0398624552987
 20
146.28609060945399
 30
0.0
 11
296.91210987654091
 21
147.09865206687221
 31
0.0
  0
LINE
  5
62BF9
  8
0
  6
CONTINUOUS
 62
     0
 10
294.06661450053321
 20
145.9318302581091
 30
0.0
 11
296.75511502533709
 21
147.09864821171851
 31
0.0
  0
LINE
  5
62BFA
  8
0
  6
CONTINUOUS
 62
     0
 10
293.09336654576771
 20
145.5775699067643
 30
0.0
 11
296.5981201741331
 21
147.09864435656471
 31
0.0
  0
LINE
  5
62BFB
  8
0
  6
CONTINUOUS
 62
     0
 10
292.12011859100232
 20
145.22330955541941
 30
0.0
 11
296.44112532292922
 21
147.09864050141101
 31
0.0
  0
LINE
  5
62BFC
  8
0
  6
CONTINUOUS
 62
     0
 10
291.30134492973377
 20
144.93609154881671
 30
0.0
 11
296.2841304717254
 21
147.09863664625729
 31
0.0
  0
LINE
  5
62BFD
  8
0
  6
CONTINUOUS
 62
     0
 10
291.27992819882309
 20
144.994929037905
 30
0.0
 11
296.12713562052141
 21
147.0986327911036
 31
0.0
  0
LINE
  5
62BFE
  8
0
  6
CONTINUOUS
 62
     0
 10
291.25851146791229
 20
145.05376652699329
 30
0.0
 11
295.97014076931748
 21
147.09862893594979
 31
0.0
  0
LINE
  5
62BFF
  8
0
  6
CONTINUOUS
 62
     0
 10
291.2370947370016
 20
145.11260401608149
 30
0.0
 11
295.81314591811361
 21
147.0986250807961
 31
0.0
  0
LINE
  5
62C00
  8
0
  6
CONTINUOUS
 62
     0
 10
291.2156780060908
 20
145.1714415051697
 30
0.0
 11
295.65615106690962
 21
147.09862122564229
 31
0.0
  0
LINE
  5
62C01
  8
0
  6
CONTINUOUS
 62
     0
 10
291.19426127518011
 20
145.23027899425799
 30
0.0
 11
295.4991562157058
 21
147.09861737048871
 31
0.0
  0
LINE
  5
62C02
  8
0
  6
CONTINUOUS
 62
     0
 10
291.17284454426931
 20
145.28911648334619
 30
0.0
 11
295.34216136450198
 21
147.09861351533499
 31
0.0
  0
LINE
  5
62C03
  8
0
  6
CONTINUOUS
 62
     0
 10
291.15142781335862
 20
145.3479539724344
 30
0.0
 11
295.18516651329787
 21
147.0986096601811
 31
0.0
  0
LINE
  5
62C04
  8
0
  6
CONTINUOUS
 62
     0
 10
291.13001108244799
 20
145.40679146152269
 30
0.0
 11
295.028171662094
 21
147.09860580502749
 31
0.0
  0
LINE
  5
62C05
  8
0
  6
CONTINUOUS
 62
     0
 10
291.10859435153719
 20
145.46562895061089
 30
0.0
 11
294.87117681089012
 21
147.0986019498738
 31
0.0
  0
LINE
  5
62C06
  8
0
  6
CONTINUOUS
 62
     0
 10
291.08717762062628
 20
145.52446643969921
 30
0.0
 11
294.71418195968607
 21
147.09859809471999
 31
0.0
  0
LINE
  5
62C07
  8
0
  6
CONTINUOUS
 62
     0
 10
291.0657608897157
 20
145.58330392878739
 30
0.0
 11
294.55718710848231
 21
147.0985942395663
 31
0.0
  0
LINE
  5
62C08
  8
0
  6
CONTINUOUS
 62
     0
 10
291.04434415880502
 20
145.64214141787559
 30
0.0
 11
294.40019225727832
 21
147.0985903844126
 31
0.0
  0
LINE
  5
62C09
  8
0
  6
CONTINUOUS
 62
     0
 10
291.0229274278941
 20
145.70097890696391
 30
0.0
 11
294.24319740607439
 21
147.0985865292588
 31
0.0
  0
LINE
  5
62C0A
  8
0
  6
CONTINUOUS
 62
     0
 10
291.00151069698347
 20
145.75981639605209
 30
0.0
 11
294.08620255487062
 21
147.0985826741051
 31
0.0
  0
LINE
  5
62C0B
  8
0
  6
CONTINUOUS
 62
     0
 10
290.98009396607279
 20
145.81865388514029
 30
0.0
 11
293.92920770366658
 21
147.09857881895141
 31
0.0
  0
LINE
  5
62C0C
  8
0
  6
CONTINUOUS
 62
     0
 10
290.9586772351621
 20
145.87749137422861
 30
0.0
 11
293.77221285246259
 21
147.0985749637976
 31
0.0
  0
LINE
  5
62C0D
  8
0
  6
CONTINUOUS
 62
     0
 10
290.9372605042513
 20
145.93632886331679
 30
0.0
 11
293.61521800125888
 21
147.09857110864399
 31
0.0
  0
LINE
  5
62C0E
  8
0
  6
CONTINUOUS
 62
     0
 10
290.9158437733405
 20
145.99516635240499
 30
0.0
 11
293.45822315005501
 21
147.09856725349019
 31
0.0
  0
LINE
  5
62C0F
  8
0
  6
CONTINUOUS
 62
     0
 10
290.8944270424297
 20
146.05400384149331
 30
0.0
 11
293.30122829885079
 21
147.09856339833641
 31
0.0
  0
LINE
  5
62C10
  8
0
  6
CONTINUOUS
 62
     0
 10
290.8730103115189
 20
146.11284133058149
 30
0.0
 11
293.14423344764708
 21
147.0985595431828
 31
0.0
  0
LINE
  5
62C11
  8
0
  6
CONTINUOUS
 62
     0
 10
290.85159358060832
 20
146.17167881966981
 30
0.0
 11
292.98723859644309
 21
147.09855568802899
 31
0.0
  0
LINE
  5
62C12
  8
0
  6
CONTINUOUS
 62
     0
 10
290.83017684969752
 20
146.2305163087579
 30
0.0
 11
292.83024374523922
 21
147.0985518328753
 31
0.0
  0
LINE
  5
62C13
  8
0
  6
CONTINUOUS
 62
     0
 10
290.80876011878672
 20
146.28935379784619
 30
0.0
 11
292.67324889403551
 21
147.09854797772161
 31
0.0
  0
LINE
  5
62C14
  8
0
  6
CONTINUOUS
 62
     0
 10
290.78734338787598
 20
146.34819128693451
 30
0.0
 11
292.51625404283141
 21
147.09854412256789
 31
0.0
  0
LINE
  5
62C15
  8
0
  6
CONTINUOUS
 62
     0
 10
290.76592665696512
 20
146.40702877602271
 30
0.0
 11
292.35925919162742
 21
147.09854026741411
 31
0.0
  0
LINE
  5
62C16
  8
0
  6
CONTINUOUS
 62
     0
 10
290.74450992605438
 20
146.46586626511089
 30
0.0
 11
292.20226434042382
 21
147.0985364122605
 31
0.0
  0
LINE
  5
62C17
  8
0
  6
CONTINUOUS
 62
     0
 10
290.72309319514358
 20
146.52470375419909
 30
0.0
 11
292.04526948921972
 21
147.09853255710669
 31
0.0
  0
LINE
  5
62C18
  8
0
  6
CONTINUOUS
 62
     0
 10
290.701676464233
 20
146.58354124328741
 30
0.0
 11
291.88827463801579
 21
147.098528701953
 31
0.0
  0
LINE
  5
62C19
  8
0
  6
CONTINUOUS
 62
     0
 10
290.68025973332232
 20
146.64237873237559
 30
0.0
 11
291.73127978681191
 21
147.09852484679919
 31
0.0
  0
LINE
  5
62C1A
  8
0
  6
CONTINUOUS
 62
     0
 10
290.65884300241152
 20
146.7012162214638
 30
0.0
 11
291.57428493560798
 21
147.0985209916455
 31
0.0
  0
LINE
  5
62C1B
  8
0
  6
CONTINUOUS
 62
     0
 10
290.63742627150071
 20
146.76005371055211
 30
0.0
 11
291.41729008440421
 21
147.09851713649181
 31
0.0
  0
LINE
  5
62C1C
  8
0
  6
CONTINUOUS
 62
     0
 10
290.61600954059008
 20
146.8188911996404
 30
0.0
 11
291.26029523320022
 21
147.09851328133809
 31
0.0
  0
LINE
  5
62C1D
  8
0
  6
CONTINUOUS
 62
     0
 10
290.59459280967928
 20
146.8777286887285
 30
0.0
 11
291.10330038199629
 21
147.09850942618431
 31
0.0
  0
LINE
  5
62C1E
  8
0
  6
CONTINUOUS
 62
     0
 10
290.5731760787686
 20
146.93656617781679
 30
0.0
 11
290.9463055307923
 21
147.0985055710305
 31
0.0
  0
LINE
  5
62C1F
  8
0
  6
CONTINUOUS
 62
     0
 10
290.5517593478578
 20
146.9954036669051
 30
0.0
 11
290.78931067958843
 21
147.09850171587689
 31
0.0
  0
LINE
  5
62C20
  8
0
  6
CONTINUOUS
 62
     0
 10
290.53034261694711
 20
147.05424115599331
 30
0.0
 11
290.63231582838432
 21
147.0984978607232
 31
0.0
  0
ENDBLK
  5
62C22
  8
0
  0
BLOCK
  8
0
  2
*U157
 70
     1
 10
0.0
 20
0.0
 30
0.0
  3
*U157
  1

  0
TEXT
  5
62C24
  8
0
  6
CONTINUOUS
 62
     3
 10
74.753496449476543
 20
215.2117006105758
 30
0.0
 40
3.0
  1
0.5
 50
87.000000000000909
  0
ENDBLK
  5
62C26
  8
0
  0
BLOCK
  8
0
  2
*U158
 70
     1
 10
0.0
 20
0.0
 30
0.0
  3
*U158
  1

  0
TEXT
  5
62C28
  8
0
  6
CONTINUOUS
 62
     3
 10
54.74430063989
 20
246.17713546045491
 30
0.0
 40
3.0
  1
60¡Æ
 50
356.99999999999329
  0
ENDBLK
  5
62C2A
  8
0
  0
BLOCK
  8
0
  2
*U159
 70
     1
 10
0.0
 20
0.0
 30
0.0
  3
*U159
  1

  0
TEXT
  5
62C2C
  8
0
  6
CONTINUOUS
 62
     3
 10
56.042115340883761
 20
236.390324734258
 30
0.0
 40
3.0
  1
2
 50
357.00000000000091
  0
ENDBLK
  5
62C2E
  8
0
  0
BLOCK
  8
0
  2
*U160
 70
     1
 10
0.0
 20
0.0
 30
0.0
  3
*U160
  1

  0
TEXT
  5
62C30
  8
0
  6
CONTINUOUS
 62
     3
 10
325.53744297531591
 20
136.289816777814
 30
0.0
 40
3.0
  1
20¡Æ
 50
9.9999999999999627
  0
TEXT
  5
62C31
  8
0
  6
CONTINUOUS
 62
     3
 10
331.4462894933892
 20
137.3317058438156
 30
0.0
 40
2.1000000000000001
  1
¡¾1¡Æ
 50
9.9999999999999627
  0
ENDBLK
  5
62C33
  8
0
  0
BLOCK
  8
0
  2
*U161
 70
     1
 10
0.0
 20
0.0
 30
0.0
  3
*U161
  1

  0
TEXT
  5
62C35
  8
0
  6
CONTINUOUS
 62
     3
 10
54.721262662223168
 20
50.898082538781068
 30
0.0
 40
3.0
  1
68.25
  0
ENDBLK
  5
62C37
  8
0
  0
BLOCK
  8
0
  2
*U162
 70
     1
 10
0.0
 20
0.0
 30
0.0
  3
*U162
  1

  0
TEXT
  5
62C39
  8
0
  6
CONTINUOUS
 62
     3
 10
125.3390278407597
 20
82.335929762865703
 30
0.0
 40
3.0
  1
\U+220549.5
 50
90.0
  0
TEXT
  5
62C3A
  8
0
  6
CONTINUOUS
 62
     3
 10
125.3390278407597
 20
92.546412754348523
 30
0.0
 40
2.1000000000000001
  1
¡¾0.05
 50
90.0
  0
ENDBLK
  5
62C3C
  8
0
  0
BLOCK
  8
0
  2
*U163
 70
     1
 10
0.0
 20
0.0
 30
0.0
  3
*U163
  1

  0
TEXT
  5
62C3E
  8
0
  6
CONTINUOUS
 62
     3
 10
113.8814988826955
 20
42.898082538781097
 30
0.0
 40
3.0
  1
188.25
  0
ENDBLK
  5
62C40
  8
0
  0
BLOCK
  8
0
  2
*U164
 70
     1
 10
0.0
 20
0.0
 30
0.0
  3
*U164
  1

  0
TEXT
  5
62C42
  8
0
  6
CONTINUOUS
 62
     3
 10
150.61744981468919
 20
50.898082538781068
 30
0.0
 40
3.0
  1
120
  0
ENDBLK
  5
62C44
  8
0
  0
BLOCK
  8
0
  2
*U165
 70
     1
 10
0.0
 20
0.0
 30
0.0
  3
*U165
  1

  0
TEXT
  5
62C63
  8
0
  6
CONTINUOUS
 62
     3
 10
154.59840830003691
 20
83.812833365600767
 30
0.0
 40
3.0
  1
(\U+220539.34)
 50
90.0
  0
ENDBLK
  5
62C65
  8
0
  0
BLOCK
  8
0
  2
*U166
 70
     1
 10
0.0
 20
0.0
 30
0.0
  3
*U166
  1

  0
TEXT
  5
62C67
  8
0
  6
CONTINUOUS
 62
     3
 10
176.36744981468931
 20
58.898082538781082
 30
0.0
 40
3.0
  1
70
  0
ENDBLK
  5
62C69
  8
0
  0
BLOCK
  8
0
  2
*U167
 70
     1
 10
0.0
 20
0.0
 30
0.0
  3
*U167
  1

  0
TEXT
  5
62C6B
  8
0
  6
CONTINUOUS
 62
     3
 10
217.62296428274661
 20
79.577094781915591
 30
0.0
 40
3.0
  1
R0.5
 50
318.93997991361181
  0
ENDBLK
  5
62C6D
  8
0
  0
BLOCK
  8
0
  2
*U168
 70
     1
 10
0.0
 20
0.0
 30
0.0
  3
*U168
  1

  0
TEXT
  5
62C6F
  8
0
  6
CONTINUOUS
 62
     3
 10
237.97665458607199
 20
93.531421121446627
 30
0.0
 40
3.0
  1
\U+220521
 50
90.0
  0
TEXT
  5
62C70
  8
0
  6
CONTINUOUS
 62
     3
 10
235.38500104276491
 20
99.516421121446626
 30
0.0
 40
2.1000000000000001
  1
+0.05
 50
90.0
  0
TEXT
  5
62C71
  8
0
  6
CONTINUOUS
 62
     3
 10
237.97665458607199
 20
99.516421121446626
 30
0.0
 40
2.1000000000000001
  1
-0
 50
90.0
  0
ENDBLK
  5
62C73
  8
0
  0
BLOCK
  8
0
  2
*U169
 70
     1
 10
0.0
 20
0.0
 30
0.0
  3
*U169
  1

  0
TEXT
  5
62C75
  8
0
  6
CONTINUOUS
 62
     3
 10
253.9766545860715
 20
94.821303434821019
 30
0.0
 40
3.0
  1
\U+220532
 50
90.0
  0
ENDBLK
  5
62C77
  8
0
  0
BLOCK
  8
0
  2
*U170
 70
     1
 10
0.0
 20
0.0
 30
0.0
  3
*U170
  1

  0
TEXT
  5
62C79
  8
0
  6
CONTINUOUS
 62
     3
 10
245.9766545860715
 20
91.678088513882784
 30
0.0
 40
3.0
  1
\U+220529
 50
90.0
  0
TEXT
  5
62C7A
  8
0
  6
CONTINUOUS
 62
     3
 10
243.2804144285912
 20
98.273571505365624
 30
0.0
 40
2.1000000000000001
  1
+0.05
 50
90.0
  0
TEXT
  5
62C7B
  8
0
  6
CONTINUOUS
 62
     3
 10
245.9766545860715
 20
98.273571505365624
 30
0.0
 40
2.1000000000000001
  1
+0.02
 50
90.0
  0
ENDBLK
  5
62C7D
  8
0
  0
BLOCK
  8
0
  2
*U171
 70
     1
 10
0.0
 20
0.0
 30
0.0
  3
*U171
  1

  0
TEXT
  5
62C7F
  8
0
  6
CONTINUOUS
 62
     3
 10
221.97665458607199
 20
84.487127948786366
 30
0.0
 40
3.0
  1
3.5
 50
90.0
  0
ENDBLK
  5
62C81
  8
0
  0
BLOCK
  8
0
  2
*U172
 70
     1
 10
0.0
 20
0.0
 30
0.0
  3
*U172
  1

  0
TEXT
  5
62C83
  8
0
  6
CONTINUOUS
 62
     3
 10
229.97665458607199
 20
88.661392017498287
 30
0.0
 40
3.0
  1
12.8
 50
90.0
  0
ENDBLK
  5
62C85
  8
0
  0
BLOCK
  8
0
  2
*U173
 70
     1
 10
0.0
 20
0.0
 30
0.0
  3
*U173
  1

  0
TEXT
  5
62C87
  8
0
  6
CONTINUOUS
 62
     3
 10
135.44342967138539
 20
60.333498593364432
 30
0.0
 40
3.0
  1
30¡Æ
 50
344.99999999999937
  0
ENDBLK
  5
62C89
  8
0
  0
BLOCK
  8
0
  2
*U174
 70
     1
 10
0.0
 20
0.0
 30
0.0
  3
*U174
  1

  0
TEXT
  5
62C8B
  8
0
  6
CONTINUOUS
 62
     3
 10
84.80649888269555
 20
141.47046411636859
 30
0.0
 40
3.0
  1
125
  0
ENDBLK
  5
62C8D
  8
0
  0
BLOCK
  8
0
  2
*U175
 70
     1
 10
0.0
 20
0.0
 30
0.0
  3
*U175
  1

  0
TEXT
  5
62C8F
  8
0
  6
CONTINUOUS
 62
     3
 10
183.9486309170515
 20
141.47046411636859
 30
0.0
 40
3.0
  1
51
  0
TEXT
  5
62C90
  8
0
  6
CONTINUOUS
 62
     3
 10
187.2336309170515
 20
144.06211765967569
 30
0.0
 40
2.1000000000000001
  1
+0
  0
TEXT
  5
62C91
  8
0
  6
CONTINUOUS
 62
     3
 10
187.2336309170515
 20
141.47046411636859
 30
0.0
 40
2.1000000000000001
  1
-0.1
  0
ENDBLK
  5
62C93
  8
0
  0
BLOCK
  8
0
  2
*U176
 70
     1
 10
0.0
 20
0.0
 30
0.0
  3
*U176
  1

  0
TEXT
  5
62C95
  8
0
  6
CONTINUOUS
 62
     3
 10
204.1064988826958
 20
125.4704641163686
 30
0.0
 40
3.0
  1
15
  0
ENDBLK
  5
62C97
  8
0
  0
BLOCK
  8
0
  2
*U177
 70
     1
 10
0.0
 20
0.0
 30
0.0
  3
*U177
  1

  0
TEXT
  5
62C99
  8
0
  6
CONTINUOUS
 62
     3
 10
218.6186309170516
 20
133.47046411636859
 30
0.0
 40
3.0
  1
5.5
  0
ENDBLK
  5
62C9B
  8
0
  0
BLOCK
  8
0
  2
*U178
 70
     1
 10
0.0
 20
0.0
 30
0.0
  3
*U178
  1

  0
TEXT
  5
62C9D
  8
0
  6
CONTINUOUS
 62
     3
 10
183.25263849300231
 20
133.47046411636859
 30
0.0
 40
3.0
  1
35.5
  0
TEXT
  5
62C9E
  8
0
  6
CONTINUOUS
 62
     3
 10
190.4526384930023
 20
133.47046411636859
 30
0.0
 40
2.1000000000000001
  1
¡¾0.03
  0
ENDBLK
  5
62CA0
  8
0
  0
BLOCK
  8
0
  2
*U179
 70
     1
 10
0.0
 20
0.0
 30
0.0
  3
*U179
  1

  0
TEXT
  5
62CA2
  8
0
  6
CONTINUOUS
 62
     3
 10
315.47077104539937
 20
132.3534595443536
 30
0.0
 40
3.0
  1
11.5
 50
20.00000000001096
  0
ENDBLK
  5
62CA4
  8
0
  0
BLOCK
  8
0
  2
*U180
 70
     1
 10
0.0
 20
0.0
 30
0.0
  3
*U180
  1

  0
TEXT
  5
62CA6
  8
0
  6
CONTINUOUS
 62
     3
 10
290.76145516995979
 20
101.2891734848226
 30
0.0
 40
3.0
  1
21.92
 50
290.0000000000004
  0
TEXT
  5
62CA7
  8
0
  6
CONTINUOUS
 62
     3
 10
293.74061581114267
 20
93.103996894245071
 30
0.0
 40
2.1000000000000001
  1
¡¾0.05
 50
290.0000000000004
  0
ENDBLK
  5
62CA9
  8
0
  0
BLOCK
  8
0
  2
*U181
 70
     1
 10
0.0
 20
0.0
 30
0.0
  3
*U181
  1

  0
TEXT
  5
62CAB
  8
0
  6
CONTINUOUS
 62
     3
 10
82.224182124350847
 20
89.278342148027946
 30
0.0
 40
3.0
  1
\U+220513.5
 50
90.0
  0
TEXT
  5
62CAC
  8
0
  6
CONTINUOUS
 62
     3
 10
79.632528581043744
 20
98.263342148027974
 30
0.0
 40
2.1000000000000001
  1
+0
 50
90.0
  0
TEXT
  5
62CAD
  8
0
  6
CONTINUOUS
 62
     3
 10
82.224182124350847
 20
98.263342148027974
 30
0.0
 40
2.1000000000000001
  1
-0.1
 50
90.0
  0
ENDBLK
  5
62CAF
  8
0
  0
BLOCK
  8
0
  2
*U182
 70
     1
 10
0.0
 20
0.0
 30
0.0
  3
*U182
  1

  0
TEXT
  5
62CB1
  8
0
  6
CONTINUOUS
 62
     3
 10
143.66699163660959
 20
69.857654550332654
 30
0.0
 40
3.0
  1
R2
 50
301.8912745362901
  0
ENDBLK
  5
62CB3
  8
0
  0
BLOCK
  8
0
  2
*U183
 70
     1
 10
0.0
 20
0.0
 30
0.0
  3
*U183
  1

  0
TEXT
  5
62CB5
  8
0
  6
CONTINUOUS
 62
     3
 10
137.89828022687971
 20
86.479855228614923
 30
0.0
 40
3.0
  1
R2
 50
307.69827235648802
  0
ENDBLK
  5
62CB7
  8
0
  0
BLOCK
  8
0
  2
*U184
 70
     1
 10
0.0
 20
0.0
 30
0.0
  3
*U184
  1

  0
TEXT
  5
62CB9
  8
0
  6
CONTINUOUS
 62
     3
 10
327.12217891367192
 20
58.48244756634891
 30
0.0
 40
3.0
  1
21¡Æ
 50
349.49999999999972
  0
ENDBLK
  5
62CBB
  8
0
  0
BLOCK
  8
0
  2
*U185
 70
     1
 10
0.0
 20
0.0
 30
0.0
  3
*U185
  1

  0
TEXT
  5
62CBD
  8
0
  6
CONTINUOUS
 62
     3
 10
234.37742971198551
 20
172.50357563492491
 30
0.0
 40
3.0
  1
0.5
  0
ENDBLK
  5
62CBF
  8
0
  0
BLOCK
  8
0
  2
*U186
 70
     1
 10
0.0
 20
0.0
 30
0.0
  3
*U186
  1

  0
TEXT
  5
62CC1
  8
0
  6
CONTINUOUS
 62
     3
 10
283.82948633750038
 20
130.0400440076904
 30
0.0
 40
3.0
  1
\U+220529
 50
90.0
  0
TEXT
  5
62CC2
  8
0
  6
CONTINUOUS
 62
     3
 10
281.13324618002008
 20
136.63552699917321
 30
0.0
 40
2.1000000000000001
  1
+0.05
 50
90.0
  0
TEXT
  5
62CC3
  8
0
  6
CONTINUOUS
 62
     3
 10
283.82948633750038
 20
136.63552699917321
 30
0.0
 40
2.1000000000000001
  1
+0.02
 50
90.0
  0
ENDBLK
  5
62CC5
  8
0
  0
BLOCK
  8
0
  2
*U187
 70
     1
 10
0.0
 20
0.0
 30
0.0
  3
*U187
  1

  0
TEXT
  5
62CC7
  8
0
  6
CONTINUOUS
 62
     3
 10
275.8294863375005
 20
127.7383475113057
 30
0.0
 40
3.0
  1
\U+220523
 50
90.0
  0
TEXT
  5
62CC8
  8
0
  6
CONTINUOUS
 62
     3
 10
273.23783279419342
 20
134.32334751130571
 30
0.0
 40
2.1000000000000001
  1
+0.4
 50
90.0
  0
TEXT
  5
62CC9
  8
0
  6
CONTINUOUS
 62
     3
 10
275.8294863375005
 20
134.32334751130571
 30
0.0
 40
2.1000000000000001
  1
-0
 50
90.0
  0
ENDBLK
  5
62CCB
  8
0
  0
BLOCK
  8
0
  2
*U188
 70
     1
 10
0.0
 20
0.0
 30
0.0
  3
*U188
  1

  0
TEXT
  5
62CCD
  8
0
  6
CONTINUOUS
 62
     3
 10
267.8294863375005
 20
127.69337661525419
 30
0.0
 40
3.0
  1
\U+220521
 50
90.0
  0
TEXT
  5
62CCE
  8
0
  6
CONTINUOUS
 62
     3
 10
265.23783279419342
 20
133.67837661525419
 30
0.0
 40
2.1000000000000001
  1
+0.05
 50
90.0
  0
TEXT
  5
62CCF
  8
0
  6
CONTINUOUS
 62
     3
 10
267.8294863375005
 20
133.67837661525419
 30
0.0
 40
2.1000000000000001
  1
-0
 50
90.0
  0
ENDBLK
  5
62CD1
  8
0
  0
BLOCK
  8
0
  2
*U189
 70
     1
 10
0.0
 20
0.0
 30
0.0
  3
*U189
  1

  0
TEXT
  5
62CD3
  8
0
  6
CONTINUOUS
 62
     3
 10
250.44466231966831
 20
124.6621725380127
 30
0.0
 40
3.0
  1
45¡Æ
 50
22.500000000001862
  0
ENDBLK
  5
62CD5
  8
0
  0
BLOCK
  8
0
  2
*U190
 70
     1
 10
0.0
 20
0.0
 30
0.0
  3
*U190
  1

  0
TEXT
  5
62CD7
  8
0
  6
CONTINUOUS
 62
     3
 10
225.29015788160689
 20
169.97463041064179
 30
0.0
 40
3.0
  1
R0.4max
 50
317.24307677333502
  0
ENDBLK
  5
62CD9
  8
0
  0
BLOCK
  8
0
  2
*U191
 70
     1
 10
0.0
 20
0.0
 30
0.0
  3
*U191
  1

  0
TEXT
  5
62CDB
  8
0
  6
CONTINUOUS
 62
     3
 10
391.61720554602311
 20
179.88124546255551
 30
0.0
 40
3.0
  1
\U+220522.4
 50
90.0
  0
ENDBLK
  5
62CDD
  8
0
  0
BLOCK
  8
0
  2
*U192
 70
     1
 10
0.0
 20
0.0
 30
0.0
  3
*U192
  1

  0
TEXT
  5
62CDF
  8
0
  6
CONTINUOUS
 62
     3
 10
365.14231974669639
 20
178.27310583355791
 30
0.0
 40
3.0
  1
R0.4
 50
314.24198155043138
  0
TEXT
  5
62CE0
  8
0
  6
CONTINUOUS
 62
     3
 10
372.2211904901223
 20
174.71902619370661
 30
0.0
 40
2.1000000000000001
  1
+0.1
 50
314.24198155043138
  0
TEXT
  5
62CE1
  8
0
  6
CONTINUOUS
 62
     3
 10
370.36453095160471
 20
172.91085489469549
 30
0.0
 40
2.1000000000000001
  1
-0
 50
314.24198155043138
  0
ENDBLK
  5
62CE3
  8
0
  0
BLOCK
  8
0
  2
*U193
 70
     1
 10
0.0
 20
0.0
 30
0.0
  3
*U193
  1

  0
TEXT
  5
62CE5
  8
0
  6
CONTINUOUS
 62
     3
 10
323.90907048475913
 20
218.4392816463307
 30
0.0
 40
3.0
  1
2.5
  0
ENDBLK
  5
62CE7
  8
0
  0
BLOCK
  8
0
  2
*U194
 70
     1
 10
0.0
 20
0.0
 30
0.0
  3
*U194
  1

  0
TEXT
  5
62CE9
  8
0
  6
CONTINUOUS
 62
     3
 10
306.66060547563939
 20
202.10569299351539
 30
0.0
 40
3.0
  1
15¡Æ
 50
70.60609138749885
  0
ENDBLK
  5
62CEB
  8
0
  0
BLOCK
  8
0
  2
*U195
 70
     1
 10
0.0
 20
0.0
 30
0.0
  3
*U195
  1

  0
TEXT
  5
62CED
  8
0
  6
CONTINUOUS
 62
     3
 10
313.86833153092869
 20
210.4392816463307
 30
0.0
 40
3.0
  1
3.5*\U+220519
  0
ENDBLK
  5
62CEF
  8
0
  0
BLOCK
  8
0
  2
*U196
 70
     1
 10
0.0
 20
0.0
 30
0.0
  3
*U196
  1

  0
TEXT
  5
62CF1
  8
0
  6
CONTINUOUS
 62
     3
 10
318.98371291761703
 20
204.29604880006059
 30
0.0
 40
3.0
  1
R0.5
 50
313.55856172743239
  0
ENDBLK
  5
62CF3
  8
0
  0
BLOCK
  8
0
  2
*U197
 70
     1
 10
0.0
 20
0.0
 30
0.0
  3
*U197
  1

  0
TEXT
  5
62CF5
  8
0
  6
CONTINUOUS
 62
     3
 10
338.87097993357798
 20
218.4392816463307
 30
0.0
 40
3.0
  1
7.5
  0
ENDBLK
  5
62CF7
  8
0
  0
BLOCK
  8
0
  2
*U198
 70
     1
 10
0.0
 20
0.0
 30
0.0
  3
*U198
  1

  0
TEXT
  5
62CF9
  8
0
  6
CONTINUOUS
 62
     3
 10
342.82928953037822
 20
210.5154397138871
 30
0.0
 40
3.0
  1
R0.5
 50
305.14983981775669
  0
ENDBLK
  5
62CFB
  8
0
  0
BLOCK
  8
0
  2
*U199
 70
     1
 10
0.0
 20
0.0
 30
0.0
  3
*U199
  1

  0
TEXT
  5
62CFD
  8
0
  6
CONTINUOUS
 62
     3
 10
349.95850110234409
 20
166.30921797560569
 30
0.0
 40
3.0
  1
\U+220518.5
 50
90.0
  0
TEXT
  5
62CFE
  8
0
  6
CONTINUOUS
 62
     3
 10
347.26226094486378
 20
175.29421797560559
 30
0.0
 40
2.1000000000000001
  1
+0.05
 50
90.0
  0
TEXT
  5
62CFF
  8
0
  6
CONTINUOUS
 62
     3
 10
349.95850110234409
 20
175.29421797560559
 30
0.0
 40
2.1000000000000001
  1
+0.02
 50
90.0
  0
ENDBLK
  5
62D01
  8
0
  0
BLOCK
  8
0
  2
*U200
 70
     1
 10
0.0
 20
0.0
 30
0.0
  3
*U200
  1

  0
TEXT
  5
62D03
  8
0
  6
CONTINUOUS
 62
     3
 10
335.94790395527679
 20
170.71226291130719
 30
0.0
 40
3.0
  1
\U+220516.4
 50
90.0
  0
ENDBLK
  5
62D05
  8
0
  0
BLOCK
  8
0
  2
*U201
 70
     1
 10
0.0
 20
0.0
 30
0.0
  3
*U201
  1

  0
TEXT
  5
62D07
  8
0
  6
CONTINUOUS
 62
     3
 10
384.01720554602298
 20
175.66937304888509
 30
0.0
 40
3.0
  1
\U+220521
 50
90.0
  0
TEXT
  5
62D08
  8
0
  6
CONTINUOUS
 62
     3
 10
381.4255520027159
 20
181.65437304888511
 30
0.0
 40
2.1000000000000001
  1
+0.05
 50
90.0
  0
TEXT
  5
62D09
  8
0
  6
CONTINUOUS
 62
     3
 10
384.01720554602298
 20
181.65437304888511
 30
0.0
 40
2.1000000000000001
  1
-0
 50
90.0
  0
ENDBLK
  5
62D0B
  8
0
  0
BLOCK
  8
0
  2
*U202
 70
     1
 10
0.0
 20
0.0
 30
0.0
  3
*U202
  1

  0
TEXT
  5
62D0D
  8
0
  6
CONTINUOUS
 62
     3
 10
248.4343945294614
 20
240.9753156638476
 30
0.0
 40
3.0
  1
50¡Æ
 50
294.99999999999989
  0
ENDBLK
  5
62D0F
  8
0
  0
BLOCK
  8
0
  2
*U203
 70
     1
 10
0.0
 20
0.0
 30
0.0
  3
*U203
  1

  0
TEXT
  5
62D11
  8
0
  6
CONTINUOUS
 62
     3
 10
197.42902559184961
 20
246.05203054965011
 30
0.0
 40
3.0
  1
48
 50
50.000000000000277
  0
ENDBLK
  5
62D13
  8
0
  0
BLOCK
  8
0
  2
*U204
 70
     1
 10
0.0
 20
0.0
 30
0.0
  3
*U204
  1

  0
TEXT
  5
62D15
  8
0
  6
CONTINUOUS
 62
     3
 10
221.2298186655722
 20
261.08101785093697
 30
0.0
 40
3.0
  1
26.5
  0
ENDBLK
  5
62D17
  8
0
  0
BLOCK
  8
0
  2
*U205
 70
     1
 10
0.0
 20
0.0
 30
0.0
  3
*U205
  1

  0
TEXT
  5
62D19
  8
0
  6
CONTINUOUS
 62
     3
 10
676.47480584721166
 20
180.34174697485261
 30
0.0
 40
3.0
  1
\U+220515.6
 50
90.0
  0
TEXT
  5
62D1A
  8
0
  6
CONTINUOUS
 62
     3
 10
673.88315230390458
 20
189.3267469748526
 30
0.0
 40
2.1000000000000001
  1
+0
 50
90.0
  0
TEXT
  5
62D1B
  8
0
  6
CONTINUOUS
 62
     3
 10
676.47480584721166
 20
189.3267469748526
 30
0.0
 40
2.1000000000000001
  1
-0.1
 50
90.0
  0
ENDBLK
  5
62D1D
  8
0
  0
BLOCK
  8
0
  2
*U206
 70
     1
 10
0.0
 20
0.0
 30
0.0
  3
*U206
  1

  0
TEXT
  5
62D1F
  8
0
  6
CONTINUOUS
 62
     3
 10
680.71807173158743
 20
102.926832458495
 30
0.0
 40
3.0
  1
\U+220515.1
 50
90.0
  0
ENDBLK
  5
62D21
  8
0
  0
BLOCK
  8
0
  2
*U207
 70
     1
 10
0.0
 20
0.0
 30
0.0
  3
*U207
  1

  0
TEXT
  5
62D23
  8
0
  6
CONTINUOUS
 62
     3
 10
688.56807173158745
 20
93.88018777345566
 30
0.0
 40
3.0
  1
\U+220515.875
 50
90.0
  0
TEXT
  5
62D24
  8
0
  6
CONTINUOUS
 62
     3
 10
685.89026011183546
 20
107.06518777345561
 30
0.0
 40
2.1000000000000001
  1
-0.02
 50
90.0
  0
TEXT
  5
62D25
  8
0
  6
CONTINUOUS
 62
     3
 10
688.56807173158745
 20
107.06518777345561
 30
0.0
 40
2.1000000000000001
  1
-0.03
 50
90.0
  0
TEXT
  5
62D26
  8
0
  6
CONTINUOUS
 62
     3
 10
688.56807173158745
 20
113.6996582458966
 30
0.0
 40
3.0
  1
(È²»è)
 50
90.0
  0
ENDBLK
  5
62D28
  8
0
  0
BLOCK
  8
0
  2
*U208
 70
     1
 10
0.0
 20
0.0
 30
0.0
  3
*U208
  1

  0
TEXT
  5
62D2A
  8
0
  6
CONTINUOUS
 62
     3
 10
696.56807173158745
 20
93.145187773455646
 30
0.0
 40
3.0
  1
\U+220515.875
 50
90.0
  0
TEXT
  5
62D2B
  8
0
  6
CONTINUOUS
 62
     3
 10
693.87183157410709
 20
106.33018777345561
 30
0.0
 40
2.1000000000000001
  1
+0.008
 50
90.0
  0
TEXT
  5
62D2C
  8
0
  6
CONTINUOUS
 62
     3
 10
696.56807173158745
 20
106.33018777345561
 30
0.0
 40
2.1000000000000001
  1
+0.002
 50
90.0
  0
TEXT
  5
62D2D
  8
0
  6
CONTINUOUS
 62
     3
 10
696.56807173158745
 20
114.4346582458966
 30
0.0
 40
3.0
  1
(Á¤»è)
 50
90.0
  0
ENDBLK
  5
62D2F
  8
0
  0
BLOCK
  8
0
  2
*U209
 70
     1
 10
0.0
 20
0.0
 30
0.0
  3
*U209
  1

  0
TEXT
  5
62D31
  8
0
  6
CONTINUOUS
 62
     3
 10
574.83662528727916
 20
54.623745160550222
 30
0.0
 40
3.0
  1
4.5
  0
ENDBLK
  5
62D33
  8
0
  0
BLOCK
  8
0
  2
*U210
 70
     1
 10
0.0
 20
0.0
 30
0.0
  3
*U210
  1

  0
TEXT
  5
62D35
  8
0
  6
CONTINUOUS
 62
     3
 10
589.38276489758562
 20
71.023745160550249
 30
0.0
 40
3.0
  1
8.4
  0
TEXT
  5
62D36
  8
0
  6
CONTINUOUS
 62
     3
 10
594.78276489758582
 20
71.023745160550249
 30
0.0
 40
2.1000000000000001
  1
¡¾0.05
  0
ENDBLK
  5
62D38
  8
0
  0
BLOCK
  8
0
  2
*U211
 70
     1
 10
0.0
 20
0.0
 30
0.0
  3
*U211
  1

  0
TEXT
  5
62D3A
  8
0
  6
CONTINUOUS
 62
     3
 10
589.89875732163534
 20
63.173745160550261
 30
0.0
 40
3.0
  1
(10.35)
  0
ENDBLK
  5
62D3C
  8
0
  0
BLOCK
  8
0
  2
*U212
 70
     1
 10
0.0
 20
0.0
 30
0.0
  3
*U212
  1

  0
TEXT
  5
62D3E
  8
0
  6
CONTINUOUS
 62
     3
 10
571.9122158384605
 20
63.023745160550241
 30
0.0
 40
3.0
  1
1.5
  0
ENDBLK
  5
62D40
  8
0
  0
BLOCK
  8
0
  2
*U213
 70
     1
 10
0.0
 20
0.0
 30
0.0
  3
*U213
  1

  0
TEXT
  5
62D42
  8
0
  6
CONTINUOUS
 62
     3
 10
563.90790102500785
 20
102.476832458495
 30
0.0
 40
3.0
  1
\U+220516.4
 50
90.0
  0
ENDBLK
  5
62D44
  8
0
  0
BLOCK
  8
0
  2
*U214
 70
     1
 10
0.0
 20
0.0
 30
0.0
  3
*U214
  1

  0
TEXT
  5
62D46
  8
0
  6
CONTINUOUS
 62
     3
 10
555.90790102500785
 20
99.398770450621015
 30
0.0
 40
3.0
  1
\U+220518.5
 50
90.0
  0
TEXT
  5
62D47
  8
0
  6
CONTINUOUS
 62
     3
 10
553.21166086752737
 20
108.383770450621
 30
0.0
 40
2.1000000000000001
  1
-0.01
 50
90.0
  0
TEXT
  5
62D48
  8
0
  6
CONTINUOUS
 62
     3
 10
555.90790102500785
 20
108.383770450621
 30
0.0
 40
2.1000000000000001
  1
-0.02
 50
90.0
  0
ENDBLK
  5
62D4A
  8
0
  0
BLOCK
  8
0
  2
*U215
 70
     1
 10
0.0
 20
0.0
 30
0.0
  3
*U215
  1

  0
TEXT
  5
62D4C
  8
0
  6
CONTINUOUS
 62
     3
 10
547.90790102500785
 20
100.61834003444579
 30
0.0
 40
3.0
  1
\U+220520
 50
90.0
  0
TEXT
  5
62D4D
  8
0
  6
CONTINUOUS
 62
     3
 10
545.23008940525597
 20
107.2033400344458
 30
0.0
 40
2.1000000000000001
  1
+0
 50
90.0
  0
TEXT
  5
62D4E
  8
0
  6
CONTINUOUS
 62
     3
 10
547.90790102500785
 20
107.2033400344458
 30
0.0
 40
2.1000000000000001
  1
-0.05
 50
90.0
  0
ENDBLK
  5
62D50
  8
0
  0
BLOCK
  8
0
  2
*U216
 70
     1
 10
0.0
 20
0.0
 30
0.0
  3
*U216
  1

  0
TEXT
  5
62D52
  8
0
  6
CONTINUOUS
 62
     3
 10
594.84875732163505
 20
99.356832458495035
 30
0.0
 40
3.0
  1
\U+220518.05
 50
90.0
  0
TEXT
  5
62D53
  8
0
  6
CONTINUOUS
 62
     3
 10
592.25710377832797
 20
110.441832458495
 30
0.0
 40
2.1000000000000001
  1
+0.1
 50
90.0
  0
TEXT
  5
62D54
  8
0
  6
CONTINUOUS
 62
     3
 10
594.84875732163505
 20
110.441832458495
 30
0.0
 40
2.1000000000000001
  1
-0
 50
90.0
  0
ENDBLK
  5
62D56
  8
0
  0
BLOCK
  8
0
  2
*U217
 70
     1
 10
0.0
 20
0.0
 30
0.0
  3
*U217
  1

  0
TEXT
  5
62D58
  8
0
  6
CONTINUOUS
 62
     3
 10
624.14875732163523
 20
168.35775661839941
 30
0.0
 40
3.0
  1
41
  0
ENDBLK
  5
62D5A
  8
0
  0
BLOCK
  8
0
  2
*U218
 70
     1
 10
0.0
 20
0.0
 30
0.0
  3
*U218
  1

  0
TEXT
  5
62D5C
  8
0
  6
CONTINUOUS
 62
     3
 10
659.83662528727928
 20
176.35775661839941
 30
0.0
 40
3.0
  1
4.5
  0
ENDBLK
  5
62D5E
  8
0
  0
BLOCK
  8
0
  2
*U219
 70
     1
 10
0.0
 20
0.0
 30
0.0
  3
*U219
  1

  0
TEXT
  5
62D60
  8
0
  6
CONTINUOUS
 62
     3
 10
740.02108420905972
 20
157.56088707427759
 30
0.0
 40
3.0
  1
60¡Æ
  0
ENDBLK
  5
62D62
  8
0
  0
BLOCK
  8
0
  2
*U220
 70
     1
 10
0.0
 20
0.0
 30
0.0
  3
*U220
  1

  0
TEXT
  5
62D64
  8
0
  6
CONTINUOUS
 62
     3
 10
733.31993975323553
 20
193.02421150097669
 30
0.0
 40
3.0
  1
R0.2
 50
308.95337049897182
  0
ENDBLK
  5
62D66
  8
0
  0
BLOCK
  8
0
  2
*U221
 70
     1
 10
0.0
 20
0.0
 30
0.0
  3
*U221
  1

  0
TEXT
  5
62D68
  8
0
  6
CONTINUOUS
 62
     3
 10
642.09875732163528
 20
176.35775661839949
 30
0.0
 40
3.0
  1
12.7
  0
ENDBLK
  5
62D6A
  8
0
  0
BLOCK
  8
0
  2
*U222
 70
     1
 10
0.0
 20
0.0
 30
0.0
  3
*U222
  1

  0
TEXT
  5
62D6C
  8
0
  6
CONTINUOUS
 62
     3
 10
623.53852110116293
 20
176.35775661839941
 30
0.0
 40
3.0
  1
6.7
  0
ENDBLK
  5
62D6E
  8
0
  0
BLOCK
  8
0
  2
*U223
 70
     1
 10
0.0
 20
0.0
 30
0.0
  3
*U223
  1

  0
TEXT
  5
62D70
  8
0
  6
CONTINUOUS
 62
     3
 10
610.13852110116227
 20
176.35775661839941
 30
0.0
 40
3.0
  1
6.7
  0
ENDBLK
  5
62D72
  8
0
  0
BLOCK
  8
0
  2
*U224
 70
     1
 10
0.0
 20
0.0
 30
0.0
  3
*U224
  1

  0
TEXT
  5
62D74
  8
0
  6
CONTINUOUS
 62
     3
 10
592.04875732163475
 20
176.35775661839941
 30
0.0
 40
3.0
  1
10.4
  0
ENDBLK
  5
62D76
  8
0
  0
BLOCK
  8
0
  2
*U225
 70
     1
 10
0.0
 20
0.0
 30
0.0
  3
*U225
  1

  0
TEXT
  5
62D78
  8
0
  6
CONTINUOUS
 62
     3
 10
613.04712182762864
 20
100.61834003444579
 30
0.0
 40
3.0
  1
\U+220520
 50
90.0
  0
TEXT
  5
62D79
  8
0
  6
CONTINUOUS
 62
     3
 10
610.36931020787688
 20
107.2033400344458
 30
0.0
 40
2.1000000000000001
  1
+0
 50
90.0
  0
TEXT
  5
62D7A
  8
0
  6
CONTINUOUS
 62
     3
 10
613.04712182762876
 20
107.2033400344458
 30
0.0
 40
2.1000000000000001
  1
-0.05
 50
90.0
  0
ENDBLK
  5
62D7C
  8
0
  0
BLOCK
  8
0
  2
*U226
 70
     1
 10
0.0
 20
0.0
 30
0.0
  3
*U226
  1

  0
TEXT
  5
62D7E
  8
0
  6
CONTINUOUS
 62
     3
 10
748.33533613881195
 20
67.976555778842112
 30
0.0
 40
3.0
  1
(\U+220522.54)
 50
90.0
  0
ENDBLK
  5
62D80
  8
0
  0
BLOCK
  8
0
  2
*U227
 70
     1
 10
0.0
 20
0.0
 30
0.0
  3
*U227
  1

  0
TEXT
  5
62D82
  8
0
  6
CONTINUOUS
 62
     3
 10
766.14081707895525
 20
92.611023908404405
 30
0.0
 40
3.0
  1
R1
 50
323.4393503018361
  0
ENDBLK
  5
62D84
  8
0
  0
BLOCK
  8
0
  2
*U228
 70
     1
 10
0.0
 20
0.0
 30
0.0
  3
*U228
  1

  0
TEXT
  5
62D86
  8
0
  6
CONTINUOUS
 62
     3
 10
740.48533613881193
 20
78.585208201549094
 30
0.0
 40
3.0
  1
26max
 50
90.0
  0
ENDBLK
  5
62D88
  8
0
  0
BLOCK
  8
0
  2
*U229
 70
     1
 10
0.0
 20
0.0
 30
0.0
  3
*U229
  1

  0
TEXT
  5
62D8A
  8
0
  6
CONTINUOUS
 62
     3
 10
667.59364622039323
 20
120.53786496941269
 30
0.0
 40
3.0
  1
R1
 50
315.1835758487087
  0
ENDBLK
  5
62D8C
  8
0
  0
BLOCK
  8
0
  2
*U230
 70
     1
 10
0.0
 20
0.0
 30
0.0
  3
*U230
  1

  0
TEXT
  5
62D8E
  8
0
  6
CONTINUOUS
 62
     3
 10
624.33453825791946
 20
138.3641397424
 30
0.0
 40
3.0
  1
45¡Æ
 50
292.49999999999631
  0
ENDBLK
  5
62D90
  8
0
  0
BLOCK
  8
0
  2
*U231
 70
     1
 10
0.0
 20
0.0
 30
0.0
  3
*U231
  1

  0
TEXT
  5
62D92
  8
0
  6
CONTINUOUS
 62
     3
 10
566.56153928075071
 20
131.54566414877621
 30
0.0
 40
3.0
  1
45¡Æ
 50
67.499999999998721
  0
ENDBLK
  5
62D94
  8
0
  0
BLOCK
  8
0
  2
*U232
 70
     1
 10
0.0
 20
0.0
 30
0.0
  3
*U232
  1

  0
TEXT
  5
62D96
  8
0
  6
CONTINUOUS
 62
     3
 10
573.98662528727925
 20
148.690559390511
 30
0.0
 40
3.0
  1
3.5
  0
ENDBLK
  5
62D98
  8
0
  0
BLOCK
  8
0
  2
*U233
 70
     1
 10
0.0
 20
0.0
 30
0.0
  3
*U233
  1

  0
TEXT
  5
62D9A
  8
0
  6
CONTINUOUS
 62
     3
 10
704.71807173158743
 20
100.5935289548796
 30
0.0
 40
3.0
  1
\U+220529
 50
90.0
  0
TEXT
  5
62D9B
  8
0
  6
CONTINUOUS
 62
     3
 10
702.02183157410695
 20
107.1890119463624
 30
0.0
 40
2.1000000000000001
  1
-0.01
 50
90.0
  0
TEXT
  5
62D9C
  8
0
  6
CONTINUOUS
 62
     3
 10
704.71807173158743
 20
107.1890119463624
 30
0.0
 40
2.1000000000000001
  1
-0.02
 50
90.0
  0
ENDBLK
  5
62D9E
  8
0
  0
BLOCK
  8
0
  2
*U234
 70
     1
 10
0.0
 20
0.0
 30
0.0
  3
*U234
  1

  0
TEXT
  5
62DA0
  8
0
  6
CONTINUOUS
 62
     3
 10
659.04875732163509
 20
54.623745160550222
 30
0.0
 40
3.0
  1
7
  0
ENDBLK
  5
62DA2
  8
0
  0
BLOCK
  8
0
  2
*U235
 70
     1
 10
0.0
 20
0.0
 30
0.0
  3
*U235
  1

  0
TEXT
  5
62DA4
  8
0
  6
CONTINUOUS
 62
     3
 10
672.2475762192729
 20
63.173745160550261
 30
0.0
 40
3.0
  1
(1.5)
  0
ENDBLK
  5
62DA6
  8
0
  0
BLOCK
  8
0
  2
*U236
 70
     1
 10
0.0
 20
0.0
 30
0.0
  3
*U236
  1

  0
TEXT
  5
62DA8
  8
0
  6
CONTINUOUS
 62
     3
 10
617.84875732163528
 20
46.623745160550222
 30
0.0
 40
3.0
  1
47
  0
ENDBLK
  5
62DAA
  8
0
  0
BLOCK
  8
0
  2
*U237
 70
     1
 10
0.0
 20
0.0
 30
0.0
  3
*U237
  1

  0
TEXT
  5
62DAC
  8
0
  6
CONTINUOUS
 62
     3
 10
610.61319531376125
 20
54.623745160550222
 30
0.0
 40
3.0
  1
35.5
  0
TEXT
  5
62DAD
  8
0
  6
CONTINUOUS
 62
     3
 10
617.81319531376118
 20
54.623745160550222
 30
0.0
 40
2.1000000000000001
  1
¡¾0.02
  0
ENDBLK
  5
62DAF
  8
0
  0
BLOCK
  8
0
  2
*U238
 70
     1
 10
0.0
 20
0.0
 30
0.0
  3
*U238
  1

  0
TEXT
  5
62DB1
  8
0
  6
CONTINUOUS
 62
     3
 10
636.62375732163514
 20
63.173745160550261
 30
0.0
 40
3.0
  1
(10.175)
  0
ENDBLK
  5
62DB3
  8
0
  0
BLOCK
  8
0
  2
*U239
 70
     1
 10
0.0
 20
0.0
 30
0.0
  3
*U239
  1

  0
TEXT
  5
62DB5
  8
0
  6
CONTINUOUS
 62
     3
 10
640.30228724397568
 20
67.560795867725872
 30
0.0
 40
3.0
  1
R0.5
 50
42.237755721115171
  0
TEXT
  5
62DB6
  8
0
  6
CONTINUOUS
 62
     3
 10
643.87965494444109
 20
74.309375972029514
 30
0.0
 40
2.1000000000000001
  1
+0.1
 50
42.237755721115171
  0
TEXT
  5
62DB7
  8
0
  6
CONTINUOUS
 62
     3
 10
645.6217867581106
 20
72.390614696535039
 30
0.0
 40
2.1000000000000001
  1
-0
 50
42.237755721115171
  0
ENDBLK
  5
62DB9
  8
0
  0
BLOCK
  8
0
  2
*U240
 70
     1
 10
0.0
 20
0.0
 30
0.0
  3
*U240
  1

  0
TEXT
  5
62DBB
  8
0
  6
CONTINUOUS
 62
     3
 10
638.03441394045899
 20
81.493716140986265
 30
0.0
 40
3.0
  1
9.2
  0
TEXT
  5
62DBC
  8
0
  6
CONTINUOUS
 62
     3
 10
643.14489693194173
 20
81.493716140986265
 30
0.0
 40
2.1000000000000001
  1
¡¾0.05
  0
ENDBLK
  5
62DBE
  8
0
  0
BLOCK
  8
0
  2
*U241
 70
     1
 10
0.0
 20
0.0
 30
0.0
  3
*U241
  1

  0
TEXT
  5
62DC0
  8
0
  6
CONTINUOUS
 62
     3
 10
763.83977795916439
 20
121.2413431174505
 30
0.0
 40
3.0
  1
30¡Æ
 50
14.999999999998341
  0
ENDBLK
  5
62DC2
  8
0
  0
BLOCK
  8
0
  2
*U242
 70
     1
 10
0.0
 20
0.0
 30
0.0
  3
*U242
  1

  0
TEXT
  5
62DC4
  8
0
  6
CONTINUOUS
 62
     3
 10
779.39515923509612
 20
122.80871629715681
 30
0.0
 40
3.0
  1
1
  0
ENDBLK
  5
62DC6
  8
0
  0
BLOCK
  8
0
  2
*U243
 70
     1
 10
0.0
 20
0.0
 30
0.0
  3
*U243
  1

  0
TEXT
  5
62DC8
  8
0
  6
CONTINUOUS
 62
     3
 10
175.03251248877561
 20
93.053986344825134
 30
0.0
 40
3.0
  1
3¡Æ
 50
271.50000000000011
  0
ENDBLK
  5
62DCA
  8
0
  0
BLOCK
  8
0
  2
*U244
 70
     1
 10
0.0
 20
0.0
 30
0.0
  3
*U244
  1

  0
TEXT
  5
62DCC
  8
0
  6
CONTINUOUS
 62
     3
 10
191.62497865644019
 20
93.989875922769329
 30
0.0
 40
3.0
  1
30¡Æ
 50
284.99999999999972
  0
ENDBLK
  5
62DCE
  8
0
  0
BLOCK
  8
0
  2
*U245
 70
     1
 10
0.0
 20
0.0
 30
0.0
  3
*U245
  1

  0
TEXT
  5
62DD0
  8
0
  6
CONTINUOUS
 62
     3
 10
375.62619131515009
 20
107.3948159887413
 30
0.0
 40
3.0
  1
13
 50
289.99999999999977
  0
ENDBLK
  5
62DD2
  8
0
  0
BLOCK
  8
0
  2
*U246
 70
     1
 10
0.0
 20
0.0
 30
0.0
  3
*U246
  1

  0
TEXT
  5
62DD4
  8
0
  6
CONTINUOUS
 62
     3
 10
126.8279657756036
 20
216.6585857150277
 30
0.0
 40
3.0
  1
21.02
 50
90.0
  0
ENDBLK
  5
62DD6
  8
0
  0
BLOCK
  8
0
  2
*U247
 70
     1
 10
0.0
 20
0.0
 30
0.0
  3
*U247
  1

  0
TEXT
  5
62DD8
  8
0
  6
CONTINUOUS
 62
     3
 10
143.42169955556599
 20
243.44126822330281
 30
0.0
 40
3.0
  1
17
  0
ENDBLK
  5
62DDA
  8
0
  0
BLOCK
  8
0
  2
*U248
 70
     1
 10
0.0
 20
0.0
 30
0.0
  3
*U248
  1

  0
TEXT
  5
62DDC
  8
0
  6
CONTINUOUS
 62
     3
 10
108.0755270033882
 20
230.73621571860721
 30
0.0
 40
3.0
  1
60¡Æ
 50
60.000000000000099
  0
ENDBLK
  5
62DDE
  8
0
  0
BLOCK
  8
0
  2
*U249
 70
     1
 10
0.0
 20
0.0
 30
0.0
  3
*U249
  1

  0
TEXT
  5
62DE0
  8
0
  6
CONTINUOUS
 62
     3
 10
768.92050492606802
 20
156.7320168224868
 30
0.0
 40
3.0
  1
\U+220516.08
 50
90.0
  0
TEXT
  5
62DE1
  8
0
  6
CONTINUOUS
 62
     3
 10
768.92050492606802
 20
168.1320168224868
 30
0.0
 40
2.1000000000000001
  1
¡¾0.05
 50
90.0
  0
ENDBLK
  5
62DE3
  8
0
  0
BLOCK
  8
0
  2
*U250
 70
     1
 10
0.0
 20
0.0
 30
0.0
  3
*U250
  1

  0
TEXT
  5
62DE5
  8
0
  6
CONTINUOUS
 62
     3
 10
75.955812020503458
 20
188.9825979848176
 30
0.0
 40
3.0
  1
2
 50
357.00000000000108
  0
ENDBLK
  5
62DE7
  8
0
  0
BLOCK
  8
0
  2
*U251
 70
     1
 10
0.0
 20
0.0
 30
0.0
  3
*U251
  1

  0
TEXT
  5
62DE9
  8
0
  6
CONTINUOUS
 62
     3
 10
65.460081791019235
 20
189.53265589809851
 30
0.0
 40
3.0
  1
5
 50
357.00000000000108
  0
ENDBLK
  5
62DEB
  8
0
  0
BLOCK
  8
0
  2
*U252
 70
     1
 10
0.0
 20
0.0
 30
0.0
  3
*U252
  1

  0
TEXT
  5
62DED
  8
0
  6
CONTINUOUS
 62
     3
 10
54.984591790657397
 20
190.08165306591931
 30
0.0
 40
3.0
  1
2
 50
357.00000000000108
  0
ENDBLK
  5
62DEF
  8
0
  0
BLOCK
  8
0
  2
*X253
 70
     1
 10
0.0
 20
0.0
 30
0.0
  3
*X253
  1

  0
LINE
  5
62DF7
  8
0
  6
CONTINUOUS
 62
     0
 10
79.448998409797639
 20
175.8227360280886
 30
0.0
 11
81.897982584308693
 21
178.02781128323971
 31
0.0
  0
LINE
  5
62DF8
  8
0
  6
CONTINUOUS
 62
     0
 10
78.86062001992812
 20
175.29295774627261
 30
0.0
 11
79.209959339442008
 21
175.60750428239521
 31
0.0
  0
LINE
  5
62DF9
  8
0
  6
CONTINUOUS
 62
     0
 10
81.897982584308693
 20
178.02781128323971
 30
0.0
 11
85.022527832778422
 21
180.84116446155349
 31
0.0
  0
LINE
  5
62DFA
  8
0
  6
CONTINUOUS
 62
     0
 10
77.801067813701906
 20
174.33893265464189
 30
0.0
 11
78.86062001992812
 21
175.29295774627261
 31
0.0
  0
LINE
  5
62DFB
  8
0
  6
CONTINUOUS
 62
     0
 10
74.922271644475813
 20
175.11093476517749
 30
0.0
 11
81.490037454055539
 21
181.02457766212419
 31
0.0
  0
LINE
  5
62DFC
  8
0
  6
CONTINUOUS
 62
     0
 10
73.110154647456653
 20
173.47929729232061
 30
0.0
 11
74.922271644475813
 21
175.11093476517749
 31
0.0
  0
LINE
  5
62DFD
  8
0
  6
CONTINUOUS
 62
     0
 10
72.625622509998493
 20
176.40710442017689
 30
0.0
 11
76.384702437101154
 21
179.791795189379
 31
0.0
  0
LINE
  5
62DFE
  8
0
  6
CONTINUOUS
 62
     0
 10
69.352585089295872
 20
173.46004828943811
 30
0.0
 11
72.625622509998465
 21
176.40710442017689
 31
0.0
  0
LINE
  5
62DFF
  8
0
  6
CONTINUOUS
 62
     0
 10
71.161073441257457
 20
178.4525003396258
 30
0.0
 11
73.111203614469815
 21
180.2084054344935
 31
0.0
  0
LINE
  5
62E00
  8
0
  6
CONTINUOUS
 62
     0
 10
65.695054892856533
 20
173.53087513243861
 30
0.0
 11
71.161073441257457
 21
178.4525003396258
 31
0.0
  0
LINE
  5
62E01
  8
0
  6
CONTINUOUS
 62
     0
 10
70.697714684999241
 20
181.399372065546
 30
0.0
 11
70.899773514416225
 21
181.58130665273919
 31
0.0
  0
LINE
  5
62E02
  8
0
  6
CONTINUOUS
 62
     0
 10
62.281581947226087
 20
173.82145211110759
 30
0.0
 11
70.697714684999241
 21
181.399372065546
 31
0.0
  0
LINE
  5
62E03
  8
0
  6
CONTINUOUS
 62
     0
 10
58.868109001595592
 20
174.1120290897766
 30
0.0
 11
67.369084934825565
 21
181.76634220053549
 31
0.0
  0
LINE
  5
62E04
  8
0
  6
CONTINUOUS
 62
     0
 10
55.454636055965132
 20
174.40260606844561
 30
0.0
 11
63.838396355234877
 21
181.95137774833179
 31
0.0
  0
LINE
  5
62E05
  8
0
  6
CONTINUOUS
 62
     0
 10
59.270271356341802
 20
181.20230134848629
 30
0.0
 11
60.262414585621841
 21
182.09563112465281
 31
0.0
  0
LINE
  5
62E06
  8
0
  6
CONTINUOUS
 62
     0
 10
52.268655370747076
 20
174.89801799843639
 30
0.0
 11
58.750810409307647
 21
180.73457661092201
 31
0.0
  0
LINE
  5
62E07
  8
0
  6
CONTINUOUS
 62
     0
 10
49.538057893634843
 20
175.80345881071099
 30
0.0
 11
55.200570959557439
 21
180.90200847615711
 31
0.0
  0
LINE
  5
62E08
  8
0
  6
CONTINUOUS
 62
     0
 10
51.669882379966822
 20
181.0870440239535
 30
0.0
 11
52.066330949114437
 21
181.4440079189701
 31
0.0
  0
LINE
  5
62E09
  8
0
  6
CONTINUOUS
 62
     0
 10
46.807460416522652
 20
176.70889962298571
 30
0.0
 11
51.669882379966822
 21
181.0870440239535
 31
0.0
  0
LINE
  5
62E0A
  8
0
  6
CONTINUOUS
 62
     0
 10
48.139193800376191
 20
181.2720795717498
 30
0.0
 11
49.715642036872822
 21
182.69151993951749
 31
0.0
  0
LINE
  5
62E0B
  8
0
  6
CONTINUOUS
 62
     0
 10
44.542306831653839
 20
178.03342799823
 30
0.0
 11
48.139193800376169
 21
181.2720795717498
 31
0.0
  0
LINE
  5
62E0C
  8
0
  6
CONTINUOUS
 62
     0
 10
45.708502497744867
 20
182.44755711643691
 30
0.0
 11
46.184953457281978
 21
182.87655548731371
 31
0.0
  0
LINE
  5
62E0D
  8
0
  6
CONTINUOUS
 62
     0
 10
42.967144792686248
 20
179.97922755193511
 30
0.0
 11
45.708502497744838
 21
182.44755711643691
 31
0.0
  0
LINE
  5
62E0E
  8
0
  6
CONTINUOUS
 62
     0
 10
42.010716955004298
 20
182.48213788282311
 30
0.0
 11
42.654264877691112
 21
183.0615910351099
 31
0.0
  0
ENDBLK
  5
62E10
  8
0
  0
BLOCK
  8
0
  2
*U254
 70
     1
 10
0.0
 20
0.0
 30
0.0
  3
*U254
  1

  0
SOLID
  5
62E36
  8
0
  6
CONTINUOUS
 62
     2
 10
-204.8865558873585
 20
113.1259454012401
 30
0.0
 11
-203.4270235679937
 21
115.1979918582099
 31
0.0
 12
-204.13564718134859
 22
112.76458607912021
 32
0.0
 13
-204.13564718134859
 23
112.76458607912021
 33
0.0
210
0.0
220
0.0
230
-1.0
  0
POLYLINE
  5
62E37
  8
0
  6
CONTINUOUS
 62
     2
 66
     1
 10
0.0
 20
0.0
 30
0.0
210
0.0
220
0.0
230
-1.0
  0
VERTEX
  5
62E38
  8
0
  6
CONTINUOUS
 62
     2
 10
-204.5111015343536
 20
112.9452657401802
 30
0.0
  0
VERTEX
  5
62E39
  8
0
  6
CONTINUOUS
 62
     2
 10
-210.13233582998831
 20
101.2642781117151
 30
0.0
  0
VERTEX
  5
62E3A
  8
0
  6
CONTINUOUS
 62
     2
 10
-221.9675401062791
 20
101.2642781117151
 30
0.0
  0
VERTEX
  5
62E3B
  8
0
  6
CONTINUOUS
 62
     2
 10
-223.76754010627911
 20
101.2642781117151
 30
0.0
  0
SEQEND
  5
62E3C
  8
0
  6
CONTINUOUS
 62
     2
  0
ENDBLK
  5
62E3E
  8
0
  0
BLOCK
  8
0
  2
*U255
 70
     1
 10
0.0
 20
0.0
 30
0.0
  3
*U255
  1

  0
TEXT
  5
62E54
  8
0
  6
CONTINUOUS
 62
     3
 10
154.59840830003691
 20
-144.78619754806579
 30
0.0
 40
3.0
  1
(\U+220539.34)
 50
90.0
  0
ENDBLK
  5
62E56
  8
0
  0
BLOCK
  8
0
  2
*U256
 70
     1
 10
0.0
 20
0.0
 30
0.0
  3
*U256
  1

  0
TEXT
  5
62E58
  8
0
  6
CONTINUOUS
 62
     3
 10
82.224182124350847
 20
-139.32068876563869
 30
0.0
 40
3.0
  1
\U+220513.5
 50
90.0
  0
TEXT
  5
62E59
  8
0
  6
CONTINUOUS
 62
     3
 10
79.632528581043744
 20
-130.33568876563871
 30
0.0
 40
2.1000000000000001
  1
+0
 50
90.0
  0
TEXT
  5
62E5A
  8
0
  6
CONTINUOUS
 62
     3
 10
82.224182124350847
 20
-130.33568876563871
 30
0.0
 40
2.1000000000000001
  1
-0.1
 50
90.0
  0
ENDBLK
  5
62E5C
  8
0
  0
BLOCK
  8
0
  2
*U257
 70
     1
 10
0.0
 20
0.0
 30
0.0
  3
*U257
  1

  0
TEXT
  5
62E5E
  8
0
  6
CONTINUOUS
 62
     3
 10
183.9486309170515
 20
-87.128566797298006
 30
0.0
 40
3.0
  1
51
  0
TEXT
  5
62E5F
  8
0
  6
CONTINUOUS
 62
     3
 10
187.2336309170515
 20
-84.536913253990932
 30
0.0
 40
2.1000000000000001
  1
+0
  0
TEXT
  5
62E60
  8
0
  6
CONTINUOUS
 62
     3
 10
187.2336309170515
 20
-87.128566797298006
 30
0.0
 40
2.1000000000000001
  1
-0.1
  0
ENDBLK
  5
62E62
  8
0
  0
BLOCK
  8
0
  2
*U258
 70
     1
 10
0.0
 20
0.0
 30
0.0
  3
*U258
  1

  0
TEXT
  5
62E64
  8
0
  6
CONTINUOUS
 62
     3
 10
204.1064988826958
 20
-103.12856679729801
 30
0.0
 40
3.0
  1
15
  0
ENDBLK
  5
62E66
  8
0
  0
BLOCK
  8
0
  2
*U259
 70
     1
 10
0.0
 20
0.0
 30
0.0
  3
*U259
  1

  0
TEXT
  5
62E68
  8
0
  6
CONTINUOUS
 62
     3
 10
237.97665458607199
 20
-135.06760979222
 30
0.0
 40
3.0
  1
\U+220521
 50
90.0
  0
TEXT
  5
62E69
  8
0
  6
CONTINUOUS
 62
     3
 10
235.38500104276491
 20
-129.08260979222001
 30
0.0
 40
2.1000000000000001
  1
+0.05
 50
90.0
  0
TEXT
  5
62E6A
  8
0
  6
CONTINUOUS
 62
     3
 10
237.97665458607199
 20
-129.08260979222001
 30
0.0
 40
2.1000000000000001
  1
-0
 50
90.0
  0
ENDBLK
  5
62E6C
  8
0
  0
BLOCK
  8
0
  2
*U260
 70
     1
 10
0.0
 20
0.0
 30
0.0
  3
*U260
  1

  0
TEXT
  5
62E6E
  8
0
  6
CONTINUOUS
 62
     3
 10
218.6186309170516
 20
-95.128566797298021
 30
0.0
 40
3.0
  1
5.5
  0
ENDBLK
  5
62E70
  8
0
  0
BLOCK
  8
0
  2
*U261
 70
     1
 10
0.0
 20
0.0
 30
0.0
  3
*U261
  1

  0
TEXT
  5
62E72
  8
0
  6
CONTINUOUS
 62
     3
 10
183.25263849300231
 20
-95.128566797298021
 30
0.0
 40
3.0
  1
35.5
  0
TEXT
  5
62E73
  8
0
  6
CONTINUOUS
 62
     3
 10
190.4526384930023
 20
-95.128566797298021
 30
0.0
 40
2.1000000000000001
  1
¡¾0.03
  0
ENDBLK
  5
62E75
  8
0
  0
BLOCK
  8
0
  2
*U262
 70
     1
 10
0.0
 20
0.0
 30
0.0
  3
*U262
  1

  0
TEXT
  5
62E77
  8
0
  6
CONTINUOUS
 62
     3
 10
245.97665458607159
 20
-136.9209423997838
 30
0.0
 40
3.0
  1
\U+220529
 50
90.0
  0
TEXT
  5
62E78
  8
0
  6
CONTINUOUS
 62
     3
 10
243.2804144285912
 20
-130.32545940830099
 30
0.0
 40
2.1000000000000001
  1
+0.05
 50
90.0
  0
TEXT
  5
62E79
  8
0
  6
CONTINUOUS
 62
     3
 10
245.97665458607159
 20
-130.32545940830099
 30
0.0
 40
2.1000000000000001
  1
+0.02
 50
90.0
  0
ENDBLK
  5
62E7B
  8
0
  0
BLOCK
  8
0
  2
*U263
 70
     1
 10
0.0
 20
0.0
 30
0.0
  3
*U263
  1

  0
TEXT
  5
62E7D
  8
0
  6
CONTINUOUS
 62
     3
 10
283.8294863375005
 20
-98.558986905976184
 30
0.0
 40
3.0
  1
\U+220529
 50
90.0
  0
TEXT
  5
62E7E
  8
0
  6
CONTINUOUS
 62
     3
 10
281.13324618002019
 20
-91.963503914493373
 30
0.0
 40
2.1000000000000001
  1
+0.05
 50
90.0
  0
TEXT
  5
62E7F
  8
0
  6
CONTINUOUS
 62
     3
 10
283.8294863375005
 20
-91.963503914493373
 30
0.0
 40
2.1000000000000001
  1
+0.02
 50
90.0
  0
ENDBLK
  5
62E81
  8
0
  0
BLOCK
  8
0
  2
*U264
 70
     1
 10
0.0
 20
0.0
 30
0.0
  3
*U264
  1

  0
TEXT
  5
62E83
  8
0
  6
CONTINUOUS
 62
     3
 10
275.8294863375005
 20
-100.86068340236091
 30
0.0
 40
3.0
  1
\U+220523
 50
90.0
  0
TEXT
  5
62E84
  8
0
  6
CONTINUOUS
 62
     3
 10
273.23783279419342
 20
-94.275683402360897
 30
0.0
 40
2.1000000000000001
  1
+0.4
 50
90.0
  0
TEXT
  5
62E85
  8
0
  6
CONTINUOUS
 62
     3
 10
275.8294863375005
 20
-94.275683402360897
 30
0.0
 40
2.1000000000000001
  1
-0
 50
90.0
  0
ENDBLK
  5
62E87
  8
0
  0
BLOCK
  8
0
  2
*U265
 70
     1
 10
0.0
 20
0.0
 30
0.0
  3
*U265
  1

  0
TEXT
  5
62E89
  8
0
  6
CONTINUOUS
 62
     3
 10
267.8294863375005
 20
-100.9056542984124
 30
0.0
 40
3.0
  1
\U+220521
 50
90.0
  0
TEXT
  5
62E8A
  8
0
  6
CONTINUOUS
 62
     3
 10
265.23783279419342
 20
-94.920654298412444
 30
0.0
 40
2.1000000000000001
  1
+0.05
 50
90.0
  0
TEXT
  5
62E8B
  8
0
  6
CONTINUOUS
 62
     3
 10
267.8294863375005
 20
-94.920654298412444
 30
0.0
 40
2.1000000000000001
  1
-0
 50
90.0
  0
ENDBLK
  5
62E8D
  8
0
  0
BLOCK
  8
0
  2
*U266
 70
     1
 10
0.0
 20
0.0
 30
0.0
  3
*U266
  1

  0
TEXT
  5
62E8F
  8
0
  6
CONTINUOUS
 62
     3
 10
250.4446623196682
 20
-103.9368583756539
 30
0.0
 40
3.0
  1
45¡Æ
 50
22.500000000001862
  0
ENDBLK
  5
62E91
  8
0
  0
BLOCK
  8
0
  2
*U267
 70
     1
 10
0.0
 20
0.0
 30
0.0
  3
*U267
  1

  0
TEXT
  5
62E93
  8
0
  6
CONTINUOUS
 62
     3
 10
84.80649888269555
 20
-87.128566797298006
 30
0.0
 40
3.0
  1
125
  0
ENDBLK
  5
62E95
  8
0
  0
BLOCK
  8
0
  2
*U268
 70
     1
 10
0.0
 20
0.0
 30
0.0
  3
*U268
  1

  0
TEXT
  5
62E97
  8
0
  6
CONTINUOUS
 62
     3
 10
125.3390278407597
 20
-146.26310115080091
 30
0.0
 40
3.0
  1
\U+220549.5
 50
90.0
  0
TEXT
  5
62E98
  8
0
  6
CONTINUOUS
 62
     3
 10
125.3390278407597
 20
-136.05261815931809
 30
0.0
 40
2.1000000000000001
  1
¡¾0.05
 50
90.0
  0
ENDBLK
  5
62E9A
  8
0
  0
BLOCK
  8
0
  2
*U269
 70
     1
 10
0.0
 20
0.0
 30
0.0
  3
*U269
  1

  0
TEXT
  5
62E9C
  8
0
  6
CONTINUOUS
 62
     3
 10
229.97665458607199
 20
-139.93763889616829
 30
0.0
 40
3.0
  1
12.8
 50
90.0
  0
ENDBLK
  5
62E9E
  8
0
  0
BLOCK
  8
0
  2
*U270
 70
     1
 10
0.0
 20
0.0
 30
0.0
  3
*U270
  1

  0
TEXT
  5
62EA0
  8
0
  6
CONTINUOUS
 62
     3
 10
221.97665458607199
 20
-144.1119029648803
 30
0.0
 40
3.0
  1
3.5
 50
90.0
  0
ENDBLK
  5
62EA2
  8
0
  0
BLOCK
  8
0
  2
*U271
 70
     1
 10
0.0
 20
0.0
 30
0.0
  3
*U271
  1

  0
TEXT
  5
62EA4
  8
0
  6
CONTINUOUS
 62
     3
 10
217.62296428274649
 20
-149.02193613175109
 30
0.0
 40
3.0
  1
R0.5
 50
318.93997991360987
  0
ENDBLK
  5
62EA6
  8
0
  0
BLOCK
  8
0
  2
*U272
 70
     1
 10
0.0
 20
0.0
 30
0.0
  3
*U272
  1

  0
TEXT
  5
62EA8
  8
0
  6
CONTINUOUS
 62
     3
 10
191.62497865644019
 20
-134.6091549908972
 30
0.0
 40
3.0
  1
30¡Æ
 50
284.99999999999972
  0
ENDBLK
  5
62EAA
  8
0
  0
BLOCK
  8
0
  2
*U273
 70
     1
 10
0.0
 20
0.0
 30
0.0
  3
*U273
  1

  0
TEXT
  5
62EAC
  8
0
  6
CONTINUOUS
 62
     3
 10
175.03251248877561
 20
-135.5450445688416
 30
0.0
 40
3.0
  1
3¡Æ
 50
271.50000000000011
  0
ENDBLK
  5
62EAE
  8
0
  0
BLOCK
  8
0
  2
*U274
 70
     1
 10
0.0
 20
0.0
 30
0.0
  3
*U274
  1

  0
TEXT
  5
62EB0
  8
0
  6
CONTINUOUS
 62
     3
 10
143.66699163660951
 20
-158.74137636333401
 30
0.0
 40
3.0
  1
R2
 50
301.8912745362897
  0
ENDBLK
  5
62EB2
  8
0
  0
BLOCK
  8
0
  2
*U275
 70
     1
 10
0.0
 20
0.0
 30
0.0
  3
*U275
  1

  0
TEXT
  5
62EB4
  8
0
  6
CONTINUOUS
 62
     3
 10
137.89828022687971
 20
-142.1191756850518
 30
0.0
 40
3.0
  1
R2
 50
307.69827235648881
  0
ENDBLK
  5
62EB6
  8
0
  0
BLOCK
  8
0
  2
*U276
 70
     1
 10
0.0
 20
0.0
 30
0.0
  3
*U276
  1

  0
TEXT
  5
62ED3
  8
0
  6
CONTINUOUS
 62
     3
 10
160.57755447265001
 20
-326.16427886386339
 30
0.0
 40
3.0
  1
\U+220515.1
 50
90.0
  0
ENDBLK
  5
62ED5
  8
0
  0
BLOCK
  8
0
  2
*U277
 70
     1
 10
0.0
 20
0.0
 30
0.0
  3
*U277
  1

  0
TEXT
  5
62ED7
  8
0
  6
CONTINUOUS
 62
     3
 10
176.42755447264989
 20
-335.94592354890273
 30
0.0
 40
3.0
  1
\U+220515.875
 50
90.0
  0
TEXT
  5
62ED8
  8
0
  6
CONTINUOUS
 62
     3
 10
173.73131431516961
 20
-322.76092354890272
 30
0.0
 40
2.1000000000000001
  1
+0.008
 50
90.0
  0
TEXT
  5
62ED9
  8
0
  6
CONTINUOUS
 62
     3
 10
176.42755447264989
 20
-322.76092354890272
 30
0.0
 40
2.1000000000000001
  1
+0.002
 50
90.0
  0
TEXT
  5
62EDA
  8
0
  6
CONTINUOUS
 62
     3
 10
176.42755447264989
 20
-314.65645307646179
 30
0.0
 40
3.0
  1
(Á¤»è)
 50
90.0
  0
ENDBLK
  5
62EDC
  8
0
  0
BLOCK
  8
0
  2
*U278
 70
     1
 10
0.0
 20
0.0
 30
0.0
  3
*U278
  1

  0
TEXT
  5
62EDE
  8
0
  6
CONTINUOUS
 62
     3
 10
184.57755447265001
 20
-328.49758236747891
 30
0.0
 40
3.0
  1
\U+220529
 50
90.0
  0
TEXT
  5
62EDF
  8
0
  6
CONTINUOUS
 62
     3
 10
181.88131431516959
 20
-321.90209937599599
 30
0.0
 40
2.1000000000000001
  1
-0.01
 50
90.0
  0
TEXT
  5
62EE0
  8
0
  6
CONTINUOUS
 62
     3
 10
184.57755447265001
 20
-321.90209937599599
 30
0.0
 40
2.1000000000000001
  1
-0.02
 50
90.0
  0
ENDBLK
  5
62EE2
  8
0
  0
BLOCK
  8
0
  2
*U279
 70
     1
 10
0.0
 20
0.0
 30
0.0
  3
*U279
  1

  0
TEXT
  5
62EE4
  8
0
  6
CONTINUOUS
 62
     3
 10
138.9082400626977
 20
-374.46736616180817
 30
0.0
 40
3.0
  1
7
  0
ENDBLK
  5
62EE6
  8
0
  0
BLOCK
  8
0
  2
*U280
 70
     1
 10
0.0
 20
0.0
 30
0.0
  3
*U280
  1

  0
TEXT
  5
62EE8
  8
0
  6
CONTINUOUS
 62
     3
 10
152.10705896033531
 20
-365.91736616180822
 30
0.0
 40
3.0
  1
(1.5)
  0
ENDBLK
  5
62EEA
  8
0
  0
BLOCK
  8
0
  2
*U281
 70
     1
 10
0.0
 20
0.0
 30
0.0
  3
*U281
  1

  0
TEXT
  5
62EEC
  8
0
  6
CONTINUOUS
 62
     3
 10
97.708240062697755
 20
-382.46736616180817
 30
0.0
 40
3.0
  1
47
  0
ENDBLK
  5
62EEE
  8
0
  0
BLOCK
  8
0
  2
*U282
 70
     1
 10
0.0
 20
0.0
 30
0.0
  3
*U282
  1

  0
TEXT
  5
62EF0
  8
0
  6
CONTINUOUS
 62
     3
 10
90.472678054823746
 20
-374.46736616180817
 30
0.0
 40
3.0
  1
35.5
  0
TEXT
  5
62EF1
  8
0
  6
CONTINUOUS
 62
     3
 10
97.672678054823763
 20
-374.46736616180817
 30
0.0
 40
2.1000000000000001
  1
¡¾0.02
  0
ENDBLK
  5
62EF3
  8
0
  0
BLOCK
  8
0
  2
*U283
 70
     1
 10
0.0
 20
0.0
 30
0.0
  3
*U283
  1

  0
TEXT
  5
62EF5
  8
0
  6
CONTINUOUS
 62
     3
 10
54.696108028341797
 20
-374.46736616180817
 30
0.0
 40
3.0
  1
4.5
  0
ENDBLK
  5
62EF7
  8
0
  0
BLOCK
  8
0
  2
*U284
 70
     1
 10
0.0
 20
0.0
 30
0.0
  3
*U284
  1

  0
TEXT
  5
62EF9
  8
0
  6
CONTINUOUS
 62
     3
 10
69.242247638648266
 20
-358.0673661618082
 30
0.0
 40
3.0
  1
8.4
  0
TEXT
  5
62EFA
  8
0
  6
CONTINUOUS
 62
     3
 10
74.642247638648271
 20
-358.0673661618082
 30
0.0
 40
2.1000000000000001
  1
¡¾0.05
  0
ENDBLK
  5
62EFC
  8
0
  0
BLOCK
  8
0
  2
*U285
 70
     1
 10
0.0
 20
0.0
 30
0.0
  3
*U285
  1

  0
TEXT
  5
62EFE
  8
0
  6
CONTINUOUS
 62
     3
 10
117.8938966815214
 20
-347.59739518137218
 30
0.0
 40
3.0
  1
9.2
  0
TEXT
  5
62EFF
  8
0
  6
CONTINUOUS
 62
     3
 10
123.00437967300429
 20
-347.59739518137218
 30
0.0
 40
2.1000000000000001
  1
¡¾0.05
  0
ENDBLK
  5
62F01
  8
0
  0
BLOCK
  8
0
  2
*U286
 70
     1
 10
0.0
 20
0.0
 30
0.0
  3
*U286
  1

  0
TEXT
  5
62F03
  8
0
  6
CONTINUOUS
 62
     3
 10
69.758240062697794
 20
-365.91736616180822
 30
0.0
 40
3.0
  1
(10.35)
  0
ENDBLK
  5
62F05
  8
0
  0
BLOCK
  8
0
  2
*U287
 70
     1
 10
0.0
 20
0.0
 30
0.0
  3
*U287
  1

  0
TEXT
  5
62F07
  8
0
  6
CONTINUOUS
 62
     3
 10
116.4832400626976
 20
-365.91736616180822
 30
0.0
 40
3.0
  1
(10.175)
  0
ENDBLK
  5
62F09
  8
0
  0
BLOCK
  8
0
  2
*U288
 70
     1
 10
0.0
 20
0.0
 30
0.0
  3
*U288
  1

  0
TEXT
  5
62F0B
  8
0
  6
CONTINUOUS
 62
     3
 10
51.771698579522969
 20
-366.06736616180808
 30
0.0
 40
3.0
  1
1.5
  0
ENDBLK
  5
62F0D
  8
0
  0
BLOCK
  8
0
  2
*U289
 70
     1
 10
0.0
 20
0.0
 30
0.0
  3
*U289
  1

  0
TEXT
  5
62F0F
  8
0
  6
CONTINUOUS
 62
     3
 10
120.16176998504029
 20
-361.530315454635
 30
0.0
 40
3.0
  1
R0.5
 50
42.237755721124842
  0
TEXT
  5
62F10
  8
0
  6
CONTINUOUS
 62
     3
 10
123.7391376855046
 20
-354.78173535033068
 30
0.0
 40
2.1000000000000001
  1
+0.1
 50
42.237755721124842
  0
TEXT
  5
62F11
  8
0
  6
CONTINUOUS
 62
     3
 10
125.4812694991743
 20
-356.70049662582483
 30
0.0
 40
2.1000000000000001
  1
-0
 50
42.237755721124842
  0
ENDBLK
  5
62F13
  8
0
  0
BLOCK
  8
0
  2
*U290
 70
     1
 10
0.0
 20
0.0
 30
0.0
  3
*U290
  1

  0
TEXT
  5
62F15
  8
0
  6
CONTINUOUS
 62
     3
 10
43.767383766070409
 20
-326.61427886386349
 30
0.0
 40
3.0
  1
\U+220516.4
 50
90.0
  0
ENDBLK
  5
62F17
  8
0
  0
BLOCK
  8
0
  2
*U291
 70
     1
 10
0.0
 20
0.0
 30
0.0
  3
*U291
  1

  0
TEXT
  5
62F19
  8
0
  6
CONTINUOUS
 62
     3
 10
35.767383766070402
 20
-329.69234087173749
 30
0.0
 40
3.0
  1
\U+220518.5
 50
90.0
  0
TEXT
  5
62F1A
  8
0
  6
CONTINUOUS
 62
     3
 10
33.071143608590091
 20
-320.70734087173747
 30
0.0
 40
2.1000000000000001
  1
-0.01
 50
90.0
  0
TEXT
  5
62F1B
  8
0
  6
CONTINUOUS
 62
     3
 10
35.767383766070402
 20
-320.70734087173747
 30
0.0
 40
2.1000000000000001
  1
-0.02
 50
90.0
  0
ENDBLK
  5
62F1D
  8
0
  0
BLOCK
  8
0
  2
*U292
 70
     1
 10
0.0
 20
0.0
 30
0.0
  3
*U292
  1

  0
TEXT
  5
62F1F
  8
0
  6
CONTINUOUS
 62
     3
 10
27.767383766070409
 20
-328.47277128791262
 30
0.0
 40
3.0
  1
\U+220520
 50
90.0
  0
TEXT
  5
62F20
  8
0
  6
CONTINUOUS
 62
     3
 10
25.08957214631851
 20
-321.88777128791259
 30
0.0
 40
2.1000000000000001
  1
+0
 50
90.0
  0
TEXT
  5
62F21
  8
0
  6
CONTINUOUS
 62
     3
 10
27.767383766070409
 20
-321.88777128791259
 30
0.0
 40
2.1000000000000001
  1
-0.05
 50
90.0
  0
ENDBLK
  5
62F23
  8
0
  0
BLOCK
  8
0
  2
*U293
 70
     1
 10
0.0
 20
0.0
 30
0.0
  3
*U293
  1

  0
TEXT
  5
62F25
  8
0
  6
CONTINUOUS
 62
     3
 10
74.708240062697513
 20
-329.73427886386349
 30
0.0
 40
3.0
  1
\U+220518.05
 50
90.0
  0
TEXT
  5
62F26
  8
0
  6
CONTINUOUS
 62
     3
 10
72.116586519390424
 20
-318.64927886386351
 30
0.0
 40
2.1000000000000001
  1
+0.1
 50
90.0
  0
TEXT
  5
62F27
  8
0
  6
CONTINUOUS
 62
     3
 10
74.708240062697513
 20
-318.64927886386351
 30
0.0
 40
2.1000000000000001
  1
-0
 50
90.0
  0
ENDBLK
  5
62F29
  8
0
  0
BLOCK
  8
0
  2
*U294
 70
     1
 10
0.0
 20
0.0
 30
0.0
  3
*U294
  1

  0
TEXT
  5
62F2B
  8
0
  6
CONTINUOUS
 62
     3
 10
92.906604568691307
 20
-328.47277128791262
 30
0.0
 40
3.0
  1
\U+220520
 50
90.0
  0
TEXT
  5
62F2C
  8
0
  6
CONTINUOUS
 62
     3
 10
90.228792948939429
 20
-321.88777128791259
 30
0.0
 40
2.1000000000000001
  1
+0
 50
90.0
  0
TEXT
  5
62F2D
  8
0
  6
CONTINUOUS
 62
     3
 10
92.906604568691307
 20
-321.88777128791259
 30
0.0
 40
2.1000000000000001
  1
-0.05
 50
90.0
  0
ENDBLK
  5
62F2F
  8
0
  0
BLOCK
  8
0
  2
*U295
 70
     1
 10
0.0
 20
0.0
 30
0.0
  3
*U295
  1

  0
TEXT
  5
62F31
  8
0
  6
CONTINUOUS
 62
     3
 10
147.45312896145541
 20
-308.55324635294579
 30
0.0
 40
3.0
  1
R1
 50
315.1835758487087
  0
ENDBLK
  5
62F33
  8
0
  0
BLOCK
  8
0
  2
*U296
 70
     1
 10
0.0
 20
0.0
 30
0.0
  3
*U296
  1

  0
TEXT
  5
62F35
  8
0
  6
CONTINUOUS
 62
     3
 10
104.1940209989822
 20
-290.72697157995839
 30
0.0
 40
3.0
  1
45¡Æ
 50
292.49999999999631
  0
ENDBLK
  5
62F37
  8
0
  0
BLOCK
  8
0
  2
*U297
 70
     1
 10
0.0
 20
0.0
 30
0.0
  3
*U297
  1

  0
TEXT
  5
62F39
  8
0
  6
CONTINUOUS
 62
     3
 10
46.421022021813123
 20
-297.5454471735826
 30
0.0
 40
3.0
  1
45¡Æ
 50
67.499999999998721
  0
ENDBLK
  5
62F3B
  8
0
  0
BLOCK
  8
0
  2
*U298
 70
     1
 10
0.0
 20
0.0
 30
0.0
  3
*U298
  1

  0
TEXT
  5
62F3D
  8
0
  6
CONTINUOUS
 62
     3
 10
53.846108028341803
 20
-280.40055193184742
 30
0.0
 40
3.0
  1
3.5
  0
ENDBLK
  5
62F3F
  8
0
  0
BLOCK
  8
0
  2
*U299
 70
     1
 10
0.0
 20
0.0
 30
0.0
  3
*U299
  1

  0
TEXT
  5
62F53
  8
0
  6
CONTINUOUS
 10
-0.4500003972179459
 20
19.861581534219312
 30
0.0
 40
3.0
  1
Techniks Inc.
  0
TEXT
  5
62F54
  8
0
  6
CONTINUOUS
 10
-0.0000003972179456
 20
14.86158153421931
 30
0.0
 40
3.0
  1
     9930 East 56th Street
  0
TEXT
  5
62F55
  8
0
  6
CONTINUOUS
 10
-0.0000003972179456
 20
9.8534909830382116
 30
0.0
 40
3.0
  1
     Indianapolis, IN 46236
  0
TEXT
  5
62F56
  8
0
  6
CONTINUOUS
 10
-0.0000003972179456
 20
4.850000277738963
 30
0.0
 40
3.0
  1
     800.597.3921
  0
TEXT
  5
62F57
  8
0
  6
CONTINUOUS
 10
-0.0000003972179456
 20
-0.149999722261037
 30
0.0
 40
3.0
  1
     www.techniksusa.com
  0
ENDBLK
  5
62F59
  8
0
  0
BLOCK
  8
0
  2
*U300
 70
     1
 10
0.0
 20
0.0
 30
0.0
  3
*U300
  1

  0
TEXT
  5
62F5B
  8
0
  6
CONTINUOUS
 10
149.76754701538309
 20
46.895109009267429
 30
0.0
 40
3.0
  1
Techniks Inc.
  0
TEXT
  5
62F5C
  8
0
  6
CONTINUOUS
 10
150.2175470153831
 20
41.895109009267429
 30
0.0
 40
3.0
  1
     9930 East 56th Street
  0
TEXT
  5
62F5D
  8
0
  6
CONTINUOUS
 10
150.2175470153831
 20
36.887018458086331
 30
0.0
 40
3.0
  1
     Indianapolis, IN 46236
  0
TEXT
  5
62F5E
  8
0
  6
CONTINUOUS
 10
150.2175470153831
 20
31.883527752787082
 30
0.0
 40
3.0
  1
     800.597.3921
  0
TEXT
  5
62F5F
  8
0
  6
CONTINUOUS
 10
150.2175470153831
 20
26.883527752787082
 30
0.0
 40
3.0
  1
     www.techniksusa.com
  0
ENDBLK
  5
62F61
  8
0
  0
ENDSEC
  0
SECTION
  2
ENTITIES
  0
LINE
  5
61F3C
  8
0
  6
CONTINUOUS
 10
133.0711775390611
 20
133.63333702299539
 30
0.0
 11
133.07117753906149
 21
164.88333702299539
 31
0.0
  0
LINE
  5
61F3E
  8
0
  6
CONTINUOUS
 10
148.94617753906141
 20
164.88333702299539
 30
0.0
 11
148.94617753906141
 21
133.63333702299539
 31
0.0
  0
LINE
  5
61F3F
  8
0
  6
CENTER
 62
     2
 10
59.646177539061462
 20
133.63333702299539
 30
0.0
 11
251.8961775390614
 21
133.63333702299539
 31
0.0
  0
LINE
  5
61F40
  8
0
  6
BYBLOCK
 62
     0
 10
149.94617753906141
 20
108.88333702299541
 30
0.0
 11
175.80769732864141
 21
108.88333702299541
 31
0.0
  0
LINE
  5
61F41
  8
0
  6
CONTINUOUS
 62
     7
 10
129.8961775390614
 20
155.85833702299541
 30
0.0
 11
62.92971721327536
 21
146.09239552899129
 31
0.0
1001
ACAD
1000
ASC_BOUNDS
1002
{
1070
    19
1002
}
  0
LINE
  5
61F42
  8
0
  6
HIDDEN
 62
     3
 10
63.146177539061568
 20
141.7833370229954
 30
0.0
 11
66.446177539061409
 21
141.7833370229956
 31
0.0
  0
LINE
  5
61F43
  8
0
  6
CONTINUOUS
 62
     7
 10
129.8961775390614
 20
111.4083370229954
 30
0.0
 11
62.92971721327546
 21
121.17427851699949
 31
0.0
1001
ACAD
1000
ASC_BOUNDS
1002
{
1070
    19
1002
}
  0
LINE
  5
61F44
  8
0
  6
CONTINUOUS
 10
61.646177539061462
 20
133.63333702299539
 30
0.0
 11
61.646177539061561
 21
122.6585779906101
 31
0.0
  0
ARC
  5
61F45
  8
0
  6
CONTINUOUS
 10
63.146177539061568
 20
122.6585779906101
 30
0.0
 40
1.5
 50
180.0
 51
261.70285556368731
  0
ARC
  5
61F46
  8
0
  6
CONTINUOUS
 10
132.57117753906141
 20
155.93406478263159
 30
0.0
 40
0.5
 50
270.0
 51
0.0
  0
ARC
  5
61F47
  8
0
  6
CONTINUOUS
 10
63.146177539061448
 20
144.60809605538071
 30
0.0
 40
1.5
 50
98.297144436312706
 51
180.0
1001
ACAD
1000
ASC_BOUNDS
1002
{
1070
    19
1002
}
  0
LINE
  5
61F48
  8
0
  6
CONTINUOUS
 10
61.646177539061462
 20
133.63333702299539
 30
0.0
 11
61.646177539061462
 21
144.60793176638541
 31
0.0
  0
LINE
  5
61F49
  8
0
  6
HIDDEN
 62
     3
 10
186.6461775390614
 20
133.63333702299539
 30
0.0
 11
186.6461775390614
 21
140.38333702299559
 31
0.0
  0
POINT
  5
61F4A
  8
DEFPOINTS
  6
BYBLOCK
 62
     0
 10
61.646177539061462
 20
133.63333702299539
 30
0.0
  0
LINE
  5
61F4E
  8
0
  6
CONTINUOUS
 10
137.21549337041799
 20
101.88333702299541
 30
0.0
 11
133.57117753906149
 21
101.88333702299541
 31
0.0
  0
LINE
  5
61F4F
  8
0
  6
CONTINUOUS
 10
131.47958309634009
 20
111.8326092633592
 30
0.0
 11
131.47958309634021
 21
133.63333702299539
 31
0.0
  0
LINE
  5
61F50
  8
0
  6
CONTINUOUS
 10
129.8961775390614
 20
111.4083370229954
 30
0.0
 11
129.8961775390614
 21
133.63333702299539
 31
0.0
  0
LINE
  5
61F51
  8
0
  6
CONTINUOUS
 10
133.07117753906141
 20
133.63333702299539
 30
0.0
 11
133.07117753906149
 21
102.38333702299541
 31
0.0
  0
ARC
  5
61F56
  8
0
  6
CONTINUOUS
 10
132.57117753906141
 20
111.3326092633592
 30
0.0
 40
0.5
 50
0.0
 51
90.0
  0
LINE
  5
61F57
  8
0
  6
CONTINUOUS
 10
129.8961775390614
 20
111.4083370229954
 30
0.0
 11
131.47958309634009
 21
111.8326092633592
 31
0.0
  0
LINE
  5
61F58
  8
0
  6
CONTINUOUS
 10
131.47958309634009
 20
111.8326092633592
 30
0.0
 11
132.57117753906141
 21
111.8326092633592
 31
0.0
  0
ARC
  5
61F59
  8
0
  6
CONTINUOUS
 10
133.57117753906149
 20
102.38333702299541
 30
0.0
 40
0.5
 50
180.0
 51
270.0
  0
LINE
  5
61F5A
  8
0
  6
HIDDEN
 62
     3
 10
106.6461775390615
 20
140.63333702299551
 30
0.0
 11
67.115951868047659
 21
140.63333702299551
 31
0.0
  0
LINE
  5
61F5B
  8
0
  6
HIDDEN
 62
     3
 10
91.646177539061455
 20
141.63333702299539
 30
0.0
 11
66.533539408059823
 21
141.63333702299531
 31
0.0
  0
LINE
  5
61F5C
  8
0
  6
HIDDEN
 62
     3
 10
66.446177539061409
 20
141.7833370229956
 30
0.0
 11
67.115951868047659
 21
140.63333702299551
 31
0.0
  0
POINT
  5
61F5D
  8
DEFPOINTS
  6
HIDDEN
 62
     3
 10
66.296177539061546
 20
141.7833370229954
 30
0.0
  0
LINE
  5
61F5E
  8
0
  6
HIDDEN
 62
     3
 10
66.446177539061409
 20
133.63333702299539
 30
0.0
 11
66.446177539061409
 21
141.78333702299551
 31
0.0
1001
ACAD
1000
ASC_BOUNDS
1002
{
1070
    19
1005
0
1002
}
  0
LINE
  5
61F5F
  8
0
  6
HIDDEN
 62
     3
 10
67.115951868047659
 20
140.63333702299551
 30
0.0
 11
67.115951868047659
 21
133.63333702299551
 31
0.0
  0
LINE
  5
61F60
  8
0
  6
HIDDEN
 62
     3
 10
91.646177539061455
 20
141.63333702299539
 30
0.0
 11
93.465780600291964
 21
140.63333702299551
 31
0.0
  0
LINE
  5
61F61
  8
0
  6
HIDDEN
 62
     3
 10
91.646177539061455
 20
141.63333702299539
 30
0.0
 11
91.646177539061455
 21
133.63333702299539
 31
0.0
  0
LINE
  5
61F62
  8
0
  6
HIDDEN
 62
     3
 10
106.6461775390615
 20
140.63333702299551
 30
0.0
 11
106.6461775390615
 21
133.63333702299539
 31
0.0
  0
LINE
  5
61F63
  8
0
  6
CONTINUOUS
 10
131.47958309634009
 20
155.43406478263159
 30
0.0
 11
132.57117753906141
 21
155.43406478263159
 31
0.0
  0
LINE
  5
61F64
  8
0
  6
CONTINUOUS
 10
142.93027753906119
 20
162.5668335573761
 30
0.0
 11
144.41204900581261
 21
165.13333702299539
 31
0.0
  0
LINE
  5
61F65
  8
0
  6
CONTINUOUS
 10
129.8961775390614
 20
155.85833702299541
 30
0.0
 11
131.47958309634009
 21
155.43406478263159
 31
0.0
  0
POINT
  5
61F66
  8
DEFPOINTS
  6
BYBLOCK
 62
     0
 10
142.93027753906139
 20
162.5752143194899
 30
0.0
  0
LINE
  5
61F67
  8
0
  6
CONTINUOUS
 10
137.5041685050131
 20
101.9750887325318
 30
0.0
 11
137.5041685050129
 21
125.4583370229952
 31
0.0
  0
LINE
  5
61F68
  8
0
  6
CONTINUOUS
 10
139.13027753906181
 20
125.4583370229952
 30
0.0
 11
139.13027753906169
 21
104.6914597265009
 31
0.0
  0
LINE
  5
61F69
  8
0
  6
CONTINUOUS
 10
144.55638657310971
 20
101.9750887325318
 30
0.0
 11
144.55638657310999
 21
125.4583370229952
 31
0.0
  0
LINE
  5
61F6A
  8
0
  6
CONTINUOUS
 10
142.93027753906139
 20
125.4583370229952
 30
0.0
 11
142.93027753906139
 21
104.6914597265009
 31
0.0
  0
LINE
  5
61F6B
  8
0
  6
CONTINUOUS
 10
148.94617753906141
 20
102.38333702299541
 30
0.0
 11
148.94617753906149
 21
133.63333702299539
 31
0.0
  0
ARC
  5
61F6C
  8
0
  6
CONTINUOUS
 10
149.94617753906141
 20
107.88333702299541
 30
0.0
 40
1.0
 50
90.0
 51
180.0
  0
ARC
  5
61F6D
  8
0
  6
CONTINUOUS
 10
148.44617753906141
 20
102.38333702299541
 30
0.0
 40
0.5
 50
270.0
 51
0.0
  0
POINT
  5
61F6E
  8
DEFPOINTS
  6
BYBLOCK
 62
     0
 10
148.44617753906141
 20
101.88333702299541
 30
0.0
  0
LINE
  5
61F6F
  8
0
  6
CONTINUOUS
 10
139.1302775390615
 20
105.4833370229955
 30
0.0
 11
142.93027753906131
 21
105.4833370229955
 31
0.0
  0
LINE
  5
61F70
  8
0
  6
CONTINUOUS
 10
139.13027753906169
 20
104.6998404886147
 30
0.0
 11
137.64850607231031
 21
102.13333702299541
 31
0.0
  0
ARC
  5
61F71
  8
0
  6
CONTINUOUS
 10
137.21549337041799
 20
102.38333702299541
 30
0.0
 40
0.5
 50
270.0
 51
329.99999999999949
  0
POINT
  5
61F72
  8
DEFPOINTS
  6
BYBLOCK
 62
     0
 10
139.13027753906169
 20
104.6914597265009
 30
0.0
  0
LINE
  5
61F73
  8
0
  6
CONTINUOUS
 10
142.93027753906119
 20
104.6998404886147
 30
0.0
 11
144.41204900581261
 21
102.13333702299541
 31
0.0
  0
POINT
  5
61F74
  8
DEFPOINTS
  6
BYBLOCK
 62
     0
 10
142.93027753906131
 20
105.4833370229955
 30
0.0
  0
POINT
  5
61F75
  8
DEFPOINTS
  6
BYBLOCK
 62
     0
 10
142.93027753906139
 20
104.6914597265009
 30
0.0
  0
ARC
  5
61F76
  8
0
  6
CONTINUOUS
 10
144.8450617077049
 20
102.38333702299541
 30
0.0
 40
0.5
 50
210.00000000000051
 51
270.0
  0
LINE
  5
61F77
  8
0
  6
CONTINUOUS
 10
148.44617753906141
 20
101.88333702299541
 30
0.0
 11
144.8402230724426
 21
101.88333702299541
 31
0.0
  0
LINE
  5
61F78
  8
0
  6
CONTINUOUS
 10
137.21549337041799
 20
165.38333702299539
 30
0.0
 11
133.57117753906149
 21
165.38333702299539
 31
0.0
  0
ARC
  5
61F79
  8
0
  6
CONTINUOUS
 10
133.57117753906149
 20
164.88333702299539
 30
0.0
 40
0.5
 50
90.0
 51
180.0
  0
POINT
  5
61F7A
  8
DEFPOINTS
  6
BYBLOCK
 62
     0
 10
148.44617753906141
 20
165.38333702299539
 30
0.0
  0
ARC
  5
61F7B
  8
0
  6
CONTINUOUS
 10
148.44617753906141
 20
164.88333702299539
 30
0.0
 40
0.5
 50
0.0
 51
90.0
  0
LINE
  5
61F7D
  8
0
  6
CONTINUOUS
 10
139.1302775390615
 20
161.7833370229954
 30
0.0
 11
142.93027753906131
 21
161.7833370229954
 31
0.0
  0
ARC
  5
61F7E
  8
0
  6
CONTINUOUS
 10
137.21549337041799
 20
164.88333702299551
 30
0.0
 40
0.5
 50
30.000000000000529
 51
90.0
  0
LINE
  5
61F7F
  8
0
  6
CONTINUOUS
 10
139.1302775390586
 20
141.8083370229956
 30
0.0
 11
139.13027753906169
 21
162.5668335573761
 31
0.0
  0
POINT
  5
61F80
  8
DEFPOINTS
  6
BYBLOCK
 62
     0
 10
139.13027753906169
 20
162.5752143194899
 30
0.0
  0
LINE
  5
61F81
  8
0
  6
CONTINUOUS
 10
139.13027753906169
 20
162.5668335573761
 30
0.0
 11
137.64850607231031
 21
165.13333702299539
 31
0.0
  0
LINE
  5
61F82
  8
0
  6
CONTINUOUS
 10
142.93027753906409
 20
141.8083370229956
 30
0.0
 11
142.93027753906119
 21
162.5668335573761
 31
0.0
  0
POINT
  5
61F83
  8
DEFPOINTS
  6
BYBLOCK
 62
     0
 10
142.93027753906131
 20
161.7833370229954
 30
0.0
  0
ARC
  5
61F84
  8
0
  6
CONTINUOUS
 10
144.8450617077049
 20
164.88333702299551
 30
0.0
 40
0.5
 50
90.0
 51
149.9999999999994
  0
LINE
  5
61F85
  8
0
  6
HIDDEN
 62
     3
 10
135.44748391686761
 20
161.35348375013709
 30
0.0
 11
133.07117753906149
 21
163.01739138897281
 31
0.0
1001
ACAD
1000
ASC_BOUNDS
1002
{
1070
    19
1002
}
  0
LINE
  5
61F86
  8
0
  6
CONTINUOUS
 10
148.44617753906141
 20
165.38333702299539
 30
0.0
 11
144.8450617077049
 21
165.38333702299539
 31
0.0
  0
ARC
  5
61F87
  8
0
  6
HIDDEN
 62
     3
 10
63.146177539061448
 20
143.2833370229954
 30
0.0
 40
1.5
 50
180.0
 51
225.0
  0
ARC
  5
61F88
  8
0
  6
HIDDEN
 62
     3
 10
63.146177539061448
 20
143.2833370229954
 30
0.0
 40
1.5
 50
254.99999999999841
 51
270.00000000000648
  0
LINE
  5
61F89
  8
0
  6
HIDDEN
 62
     3
 10
62.085517367281682
 20
142.22267685121551
 30
0.0
 11
62.757948971407593
 21
141.83444828356181
 31
0.0
  0
LINE
  5
61F8A
  8
0
  6
HIDDEN
 62
     3
 10
62.757948971407593
 20
141.83444828356181
 30
0.0
 11
62.757948971407593
 21
133.63333702299539
 31
0.0
  0
LINE
  5
61F8B
  8
0
  6
HIDDEN
 62
     3
 10
62.085517367281682
 20
142.22267685121551
 30
0.0
 11
62.085517367281682
 21
133.63333702299539
 31
0.0
  0
LINE
  5
61F8C
  8
0
  6
HIDDEN
 62
     3
 10
138.89617753906089
 20
161.5883370229952
 30
0.0
 11
139.3461775390609
 21
161.3278996109909
 31
0.0
1001
ACAD
1000
ASC_BOUNDS
1002
{
1070
    19
1002
}
  0
LINE
  5
61F8D
  8
0
  6
CONTINUOUS
 10
148.94617753906149
 20
125.4583370229952
 30
0.0
 11
133.07117753906141
 21
125.4583370229952
 31
0.0
  0
ARC
  5
61F8E
  8
0
  6
CONTINUOUS
 10
141.0361775390613
 20
133.63333702299539
 30
0.0
 40
4.7625000000000002
 50
180.0
 51
0.0
  0
LINE
  5
61F91
  8
0
  6
CENTER
 62
     2
 10
140.9961775390608
 20
163.8530176208638
 30
0.0
 11
140.9961775390608
 21
140.38333702299539
 31
0.0
1001
ACAD
1000
ASC_BOUNDS
1002
{
1070
    19
1002
}
  0
LINE
  5
61F92
  8
0
  6
HIDDEN
 62
     3
 10
142.64617753906089
 20
151.7960382321977
 30
0.0
 11
142.64617753906069
 21
140.38333702299539
 31
0.0
1001
ACAD
1000
ASC_BOUNDS
1002
{
1070
    19
1002
}
  0
LINE
  5
61F93
  8
0
  6
HIDDEN
 62
     3
 10
139.3461775390607
 20
154.1067231082902
 30
0.0
 11
139.34617753906051
 21
140.38333702299551
 31
0.0
1001
ACAD
1000
ASC_BOUNDS
1002
{
1070
    19
1002
}
  0
LINE
  5
61F94
  8
0
  6
HIDDEN
 62
     3
 10
145.51481153957491
 20
153.93803268246231
 30
0.0
 11
142.64617753906089
 21
155.9466718339869
 31
0.0
1001
ACAD
1000
ASC_BOUNDS
1002
{
1070
    19
1002
}
  0
LINE
  5
61F95
  8
0
  6
HIDDEN
 62
     3
 10
139.3461775390607
 20
154.1067231082902
 30
0.0
 11
133.5709967156557
 21
158.15054825536279
 31
0.0
1001
ACAD
1000
ASC_BOUNDS
1002
{
1070
    19
1002
}
  0
LINE
  5
61F96
  8
0
  6
HIDDEN
 62
     3
 10
137.65851441505311
 20
154.92220517305049
 30
0.0
 11
138.35759051433661
 21
154.79893919517841
 31
0.0
  0
ARC
  5
61F97
  8
0
  6
HIDDEN
 62
     3
 10
141.7557769129252
 20
151.72468656333319
 30
0.0
 40
3.3882543062820369
 50
102.9550200282342
 51
135.32957770095339
  0
ARC
  5
61F98
  8
0
  6
HIDDEN
 62
     3
 10
139.57789306108259
 20
152.26565141582429
 30
0.0
 40
3.1040145263898502
 50
351.29818119443951
 51
62.81149955804959
  0
ARC
  5
61F99
  8
0
  6
HIDDEN
 62
     3
 10
140.64683131181059
 20
157.59290777487161
 30
0.0
 40
2.589879941132633
 50
277.75219938003022
 51
320.53239834917707
  0
LINE
  5
61F9A
  8
0
  6
CENTER
 62
     2
 10
146.01224928664951
 20
151.51440622127589
 30
0.0
 11
133.07117753906161
 21
160.5758422114499
 31
0.0
  0
ARC
  5
61F9B
  8
0
  6
HIDDEN
 62
     3
 10
142.59912751050811
 20
157.8820580429915
 30
0.0
 40
3.2745278447825812
 50
173.4187804253954
 51
240.69090032708581
  0
LINE
  5
61F9C
  8
0
  6
HIDDEN
 62
     3
 10
145.51481153957499
 20
153.93803268246231
 30
0.0
 11
145.34372560835001
 21
151.98251154029299
 31
0.0
1001
ACAD
1000
ASC_BOUNDS
1002
{
1070
    19
1002
}
  0
LINE
  5
61F9D
  8
0
  6
HIDDEN
 62
     3
 10
143.56465165598109
 20
151.1529157318796
 30
0.0
 11
145.34372560835001
 21
151.98251154029299
 31
0.0
1001
ACAD
1000
ASC_BOUNDS
1002
{
1070
    19
1002
}
  0
LINE
  5
61F9E
  8
0
  6
HIDDEN
 62
     3
 10
143.56465165598109
 20
151.15291573187969
 30
0.0
 11
142.64617753906089
 21
151.7960382321977
 31
0.0
1001
ACAD
1000
ASC_BOUNDS
1002
{
1070
    19
1002
}
  0
LINE
  5
61F9F
  8
0
  6
HIDDEN
 62
     3
 10
143.56465165598129
 20
151.1529157318794
 30
0.0
 11
144.5397315977782
 21
152.54547420717091
 31
0.0
  0
LINE
  5
61FA0
  8
0
  6
HIDDEN
 62
     3
 10
145.51481153957499
 20
153.93803268246231
 30
0.0
 11
144.5397315977782
 21
152.54547420717091
 31
0.0
  0
LINE
  5
61FA1
  8
0
  6
HIDDEN
 62
     3
 10
142.99617753906099
 20
156.78833702299511
 30
0.0
 11
139.51265591065911
 21
156.78833702299519
 31
0.0
1001
ACAD
1000
ASC_BOUNDS
1002
{
1070
    19
1002
}
  0
LINE
  5
61FA2
  8
0
  6
HIDDEN
 62
     3
 10
138.89617753906089
 20
161.5883370229952
 30
0.0
 11
140.9961775390608
 21
161.5883370229952
 31
0.0
  0
LINE
  5
61FA3
  8
0
  6
HIDDEN
 62
     3
 10
139.3461775390609
 20
161.3278996109909
 30
0.0
 11
140.9961775390608
 21
161.3278996109909
 31
0.0
  0
LINE
  5
61FA4
  8
0
  6
HIDDEN
 62
     3
 10
137.65851441505231
 20
154.92220517305071
 30
0.0
 11
133.15317817146419
 21
158.07687557298149
 31
0.0
1001
ACAD
1000
ASC_BOUNDS
1002
{
1070
    19
1002
}
  0
LINE
  5
61FA5
  8
0
  6
HIDDEN
 62
     3
 10
133.15317817146359
 20
158.07687557298149
 30
0.0
 11
133.07117753906149
 21
158.13429303392741
 31
0.0
1001
ACAD
1000
ASC_BOUNDS
1002
{
1070
    19
1002
}
  0
LINE
  5
61FA6
  8
0
  6
HIDDEN
 62
     3
 10
138.89617753906089
 20
162.97230665142939
 30
0.0
 11
138.89617753906089
 21
161.5883370229952
 31
0.0
1001
ACAD
1000
ASC_BOUNDS
1002
{
1070
    19
1002
}
  0
LINE
  5
61FA7
  8
0
  6
HIDDEN
 62
     3
 10
139.3461775390609
 20
158.62358908670731
 30
0.0
 11
135.44748391686761
 21
161.35348375013709
 31
0.0
1001
ACAD
1000
ASC_BOUNDS
1002
{
1070
    19
1002
}
  0
LINE
  5
61FA8
  8
0
  6
HIDDEN
 62
     3
 10
139.34617753906079
 20
161.32789961099101
 30
0.0
 11
139.3461775390607
 21
158.25735671007891
 31
0.0
1001
ACAD
1000
ASC_BOUNDS
1002
{
1070
    19
1002
}
  0
LINE
  5
61FA9
  8
0
  6
HIDDEN
 62
     3
 10
138.9961775390608
 20
161.5304620425498
 30
0.0
 11
138.9961775390608
 21
158.50242934845241
 31
0.0
1001
ACAD
1000
ASC_BOUNDS
1002
{
1070
    19
1002
}
  0
LINE
  5
61FAA
  8
0
  6
HIDDEN
 62
     3
 10
139.3461775390607
 20
158.25735671007891
 30
0.0
 11
135.521156599249
 21
160.9356652059451
 31
0.0
1001
ACAD
1000
ASC_BOUNDS
1002
{
1070
    19
1002
}
  0
LINE
  5
61FAB
  8
0
  6
HIDDEN
 62
     3
 10
133.57099671565561
 20
158.15054825536279
 30
0.0
 11
133.15317817146359
 21
158.07687557298141
 31
0.0
1001
ACAD
1000
ASC_BOUNDS
1002
{
1070
    19
1002
}
  0
LINE
  5
61FAC
  8
0
  6
HIDDEN
 62
     3
 10
135.521156599249
 20
160.9356652059451
 30
0.0
 11
135.44748391686761
 21
161.35348375013709
 31
0.0
1001
ACAD
1000
ASC_BOUNDS
1002
{
1070
    19
1002
}
  0
LINE
  5
61FAD
  8
0
  6
HIDDEN
 62
     3
 10
139.34880136698069
 20
157.33618511426829
 30
0.0
 11
137.65851441505311
 21
154.92220517305049
 31
0.0
1001
ACAD
1000
ASC_BOUNDS
1002
{
1070
    19
1002
}
  0
LINE
  5
61FAE
  8
0
  6
HIDDEN
 62
     3
 10
135.44748391686761
 20
161.3534837501372
 30
0.0
 11
134.3003310441654
 21
159.7151796615592
 31
0.0
  0
LINE
  5
61FAF
  8
0
  6
HIDDEN
 62
     3
 10
133.57099671565561
 20
158.15054825536291
 30
0.0
 11
134.5460766574524
 21
159.5431067306541
 31
0.0
  0
LINE
  5
61FB0
  8
0
  6
HIDDEN
 62
     3
 10
134.3003310441654
 20
159.7151796615592
 30
0.0
 11
133.15317817146391
 21
158.07687557298141
 31
0.0
  0
LINE
  5
61FB1
  8
0
  6
HIDDEN
 62
     3
 10
135.521156599249
 20
160.9356652059451
 30
0.0
 11
134.5460766574522
 21
159.5431067306539
 31
0.0
  0
LINE
  5
61FB2
  8
0
  6
HIDDEN
 62
     3
 10
143.0961775390609
 20
162.85418078635141
 30
0.0
 11
143.0961775390607
 21
161.58833702299509
 31
0.0
1001
ACAD
1000
ASC_BOUNDS
1002
{
1070
    19
1002
}
  0
LINE
  5
61FB3
  8
0
  6
HIDDEN
 62
     3
 10
143.0961775390609
 20
161.5883370229952
 30
0.0
 11
142.64617753906089
 21
161.3278996109909
 31
0.0
1001
ACAD
1000
ASC_BOUNDS
1002
{
1070
    19
1002
}
  0
LINE
  5
61FB4
  8
0
  6
HIDDEN
 62
     3
 10
142.9961775390608
 20
161.53046204254969
 30
0.0
 11
142.9961775390608
 21
156.78833702299511
 31
0.0
1001
ACAD
1000
ASC_BOUNDS
1002
{
1070
    19
1002
}
  0
LINE
  5
61FB5
  8
0
  6
HIDDEN
 62
     3
 10
142.99617753906099
 20
156.78833702299511
 30
0.0
 11
142.64617753906089
 21
156.17133827826879
 31
0.0
1001
ACAD
1000
ASC_BOUNDS
1002
{
1070
    19
1002
}
  0
LINE
  5
61FB6
  8
0
  6
HIDDEN
 62
     3
 10
142.64617753906089
 20
161.3278996109909
 30
0.0
 11
142.64617753906089
 21
155.9466718339869
 31
0.0
1001
ACAD
1000
ASC_BOUNDS
1002
{
1070
    19
1002
}
  0
LINE
  5
61FB7
  8
0
  6
HIDDEN
 62
     3
 10
142.64617753906089
 20
161.3278996109909
 30
0.0
 11
140.9961775390608
 21
161.3278996109909
 31
0.0
  0
LINE
  5
61FB8
  8
0
  6
HIDDEN
 62
     3
 10
143.0961775390607
 20
161.5883370229952
 30
0.0
 11
140.9961775390608
 21
161.5883370229952
 31
0.0
  0
DIMENSION
  5
61FB9
  8
0
  6
CONTINUOUS
  2
*D118
 10
249.8961775390612
 20
77.570027544278332
 30
0.0
 11
155.7711775390614
 21
79.670322819868886
 31
0.0
 70
     0
 13
61.646177539061561
 23
122.6585779906101
 33
0.0
 14
249.8961775390612
 24
113.2442272097927
 34
0.0
1001
ACAD
1000
DSTYLE
1002
{
1070
   287
1070
     2
1070
    42
1040
0.6
1070
    43
1040
1.0
1070
    44
1040
1.0
1070
    47
1040
0.1
1070
    48
1040
0.1
1070
    73
1070
     0
1070
   140
1040
3.0
1070
   141
1040
-0.2
1070
   146
1040
0.7
1070
   147
1040
0.6
1070
   178
1070
     3
1070
   271
1070
     2
1070
   272
1070
     2
1070
   275
1070
     1
1070
   283
1070
     0
1070
   284
1070
     8
1070
   289
1070
     2
1002
}
  0
DIMENSION
  5
61FBA
  8
0
  6
CONTINUOUS
  2
*D116
 10
249.8961775390612
 20
85.570027544278304
 30
0.0
 11
189.89617753906131
 21
87.670322819868844
 31
0.0
 70
     0
 13
129.8961775390614
 23
111.4083370229954
 33
0.0
 14
249.8961775390612
 24
113.2442272097927
 34
0.0
1001
ACAD
1000
DSTYLE
1002
{
1070
   287
1070
     2
1070
    42
1040
0.6
1070
    43
1040
1.0
1070
    44
1040
1.0
1070
    47
1040
0.1
1070
    48
1040
0.1
1070
    73
1070
     0
1070
   140
1040
3.0
1070
   141
1040
-0.2
1070
   146
1040
0.7
1070
   147
1040
0.6
1070
   178
1070
     3
1070
   271
1070
     2
1070
   272
1070
     2
1070
   275
1070
     1
1070
   283
1070
     0
1070
   284
1070
     8
1070
   289
1070
     2
1002
}
  0
DIMENSION
  5
61FBB
  8
0
  6
CONTINUOUS
  2
*D117
 10
129.8961775390614
 20
85.570027544278304
 30
0.0
 11
95.771177539061512
 21
87.670322819868844
 31
0.0
 70
     0
 13
61.646177539061561
 23
122.6585779906101
 33
0.0
 14
129.8961775390614
 24
111.4083370229954
 34
0.0
1001
ACAD
1000
DSTYLE
1002
{
1070
   287
1070
     2
1070
    42
1040
0.6
1070
    43
1040
1.0
1070
    44
1040
1.0
1070
    47
1040
0.1
1070
    48
1040
0.1
1070
    73
1070
     0
1070
   140
1040
3.0
1070
   141
1040
-0.2
1070
   146
1040
0.7
1070
   147
1040
0.6
1070
   178
1070
     3
1070
   271
1070
     2
1070
   272
1070
     2
1070
   275
1070
     1
1070
   283
1070
     0
1070
   284
1070
     8
1070
   289
1070
     2
1002
}
  0
LINE
  5
61FC0
  8
0
  6
BYBLOCK
 62
     0
 10
149.94617753906141
 20
158.38333702299539
 30
0.0
 11
175.8076973286415
 21
158.38333702299531
 31
0.0
  0
ARC
  5
61FC1
  8
0
  6
CONTINUOUS
 10
149.94617753906141
 20
159.38333702299539
 30
0.0
 40
1.0
 50
180.0
 51
270.0
  0
LINE
  5
61FC4
  8
0
  6
CONTINUOUS
 10
179.8961775390614
 20
133.6333370229967
 30
0.0
 11
179.8961775390612
 21
113.6324865136817
 31
0.0
  0
LINE
  5
61FC5
  8
0
  6
CONTINUOUS
 10
179.3532218394229
 20
113.02436561514951
 30
0.0
 11
177.53974813621039
 21
109.88333702299541
 31
0.0
  0
ARC
  5
61FC6
  8
0
  6
CONTINUOUS
 10
175.80769732864141
 20
110.88333702299541
 30
0.0
 40
2.0
 50
270.0
 51
329.99999999999949
  0
LINE
  5
61FC7
  8
0
  6
CONTINUOUS
 10
176.96239786702071
 20
109.25034386114
 30
0.0
 11
176.96239786702071
 21
133.63333702299539
 31
0.0
  0
LINE
  5
61FC8
  8
0
  6
CONTINUOUS
 10
179.35322183942299
 20
154.24230843084109
 30
0.0
 11
177.53974813621039
 21
157.38333702299531
 31
0.0
  0
ARC
  5
61FC9
  8
0
  6
CONTINUOUS
 10
175.8076973286415
 20
156.38333702299531
 30
0.0
 40
2.0
 50
30.000000000003361
 51
90.0
  0
DIMENSION
  5
61FCA
  8
0
  6
CONTINUOUS
  2
*D104
 10
249.89617753906171
 20
93.570027544278304
 30
0.0
 11
214.89617753906151
 21
95.670027544278298
 31
0.0
 70
     0
 13
179.8961775390612
 23
113.9647924731824
 33
0.0
 14
249.89617753906171
 24
118.1078249783979
 34
0.0
1001
ACAD
1000
DSTYLE
1002
{
1070
   287
1070
     2
1070
    42
1040
0.6
1070
    43
1040
1.0
1070
    44
1040
1.0
1070
    47
1040
0.1
1070
    48
1040
0.1
1070
    73
1070
     0
1070
   140
1040
3.0
1070
   141
1040
-0.2
1070
   146
1040
0.7
1070
   147
1040
0.6
1070
   178
1070
     3
1070
   271
1070
     5
1070
   272
1070
     5
1070
   275
1070
     1
1070
   283
1070
     0
1070
   284
1070
     8
1070
   289
1070
     2
1002
}
  0
TEXT
  5
61FD6
  8
0
  6
CONTINUOUS
 62
     3
 10
210.49812704780109
 20
102.2596045094037
 30
0.0
 40
3.0
  1
3%%d(Q/2)
  0
INSERT
  5
61FD7
  8
0
  6
CONTINUOUS
  2
*U254
 10
0.0
 20
0.0
 30
0.0
1001
ACAD
1000
DSTYLE
1002
{
1070
   284
1070
     8
1070
   140
1040
3.0
1070
   283
1070
     0
1070
    48
1040
0.8
1070
    73
1070
     0
1070
   146
1040
0.7
1070
   272
1070
     6
1070
   147
1040
0.6
1070
    42
1040
0.6
1070
    44
1040
1.0
1070
    43
1040
1.0
1070
   178
1070
     3
1070
   141
1040
0.0
1070
   275
1070
     1
1002
}
  0
DIMENSION
  5
61FF2
  8
0
  6
CONTINUOUS
  2
*D110
 10
270.505834744038
 20
149.63333702299531
 30
0.0
 11
268.40553946844739
 21
133.63333702299539
 31
0.0
 70
     0
 13
249.89617753906151
 23
117.63333702299541
 33
0.0
 14
249.89617753906131
 24
149.63333702299531
 34
0.0
 50
90.0
1001
ACAD
1000
DSTYLE
1002
{
1070
   287
1070
     2
1070
     3
1000
%%c<>
1070
    42
1040
0.6
1070
    43
1040
1.0
1070
    44
1040
1.0
1070
    47
1040
-0.02
1070
    48
1040
0.03
1070
    73
1070
     0
1070
   140
1040
3.0
1070
   141
1040
-0.2
1070
   146
1040
0.7
1070
   147
1040
0.6
1070
   178
1070
     3
1070
   271
1070
     5
1070
   272
1070
     5
1070
   275
1070
     1
1070
   283
1070
     0
1070
   284
1070
     8
1070
   289
1070
     2
1002
}
  0
LINE
  5
62001
  8
0
  6
HIDDEN
 62
     3
 10
106.6461775390615
 20
140.38333702299539
 30
0.0
 11
186.6461775390614
 21
140.38333702299559
 31
0.0
1001
ACAD
1000
ASC_BOUNDS
1002
{
1070
    19
1002
}
  0
LINE
  5
62002
  8
0
  6
CONTINUOUS
 10
225.2742967924882
 20
150.92371511469531
 30
0.0
 11
180.98060073450591
 21
153.24504936133201
 31
0.0
  0
ARC
  5
62003
  8
0
  6
CONTINUOUS
 10
181.0852726469918
 20
155.24230843084109
 30
0.0
 40
2.0
 50
210.0000000000033
 51
267.00000000000091
  0
LINE
  5
62004
  8
0
  6
CONTINUOUS
 10
225.504920404773
 20
116.3550454026657
 30
0.0
 11
180.9806007345058
 21
114.0216246846587
 31
0.0
  0
ARC
  5
62005
  8
0
  6
CONTINUOUS
 10
181.08527264699171
 20
112.02436561514961
 30
0.0
 40
2.0
 50
92.999999999999076
 51
149.9999999999994
  0
LINE
  5
62006
  8
0
  6
HIDDEN
 62
     3
 10
186.6461775390614
 20
139.63333702299539
 30
0.0
 11
196.6461775390614
 21
139.63333702299539
 31
0.0
  0
LINE
  5
62007
  8
0
  6
HIDDEN
 62
     3
 10
187.07919024095369
 20
139.63333702299539
 30
0.0
 11
198.8461775390613
 21
139.63333702299539
 31
0.0
1001
ACAD
1000
ASC_BOUNDS
1002
{
1070
    19
1005
0
1005
0
1005
0
1005
0
1005
0
1005
0
1002
}
  0
LINE
  5
62008
  8
0
  6
HIDDEN
 62
     3
 10
187.62767299668391
 20
138.68333702299549
 30
0.0
 11
197.8961775390614
 21
138.6833370229954
 31
0.0
1001
ACAD
1000
ASC_BOUNDS
1002
{
1070
    19
1005
0
1005
0
1005
0
1005
0
1005
0
1005
0
1002
}
  0
LINE
  5
62009
  8
0
  6
HIDDEN
 62
     3
 10
198.8961775390614
 20
137.0974386381331
 30
0.0
 11
187.8961775390614
 21
137.0974386381331
 31
0.0
  0
LINE
  5
6200A
  8
0
  6
HIDDEN
 62
     3
 10
186.10467753906161
 20
139.09183702299541
 30
0.0
 11
197.1876775390615
 21
139.09183702299541
 31
0.0
  0
LINE
  5
6200B
  8
0
  6
HIDDEN
 62
     3
 10
198.8961775390614
 20
135.36538783056429
 30
0.0
 11
187.8961775390614
 21
135.36538783056429
 31
0.0
  0
LINE
  5
6200C
  8
0
  6
HIDDEN
 62
     3
 10
186.64617753906131
 20
140.38333702299559
 30
0.0
 11
187.627672996684
 21
138.68333702299549
 31
0.0
  0
LINE
  5
6200D
  8
0
  6
HIDDEN
 62
     3
 10
185.8961775390614
 20
138.88333702299551
 30
0.0
 11
186.6461775390614
 21
139.63333702299539
 31
0.0
  0
LINE
  5
6200E
  8
0
  6
HIDDEN
 62
     3
 10
185.8961775390614
 20
137.13333702299551
 30
0.0
 11
187.8961775390614
 21
137.13333702299551
 31
0.0
  0
LINE
  5
6200F
  8
0
  6
HIDDEN
 62
     3
 10
187.627672996684
 20
138.68333702299549
 30
0.0
 11
187.627672996684
 21
133.63333702299539
 31
0.0
  0
LINE
  5
62010
  8
0
  6
HIDDEN
 62
     3
 10
186.6461775390614
 20
140.38333702299559
 30
0.0
 11
186.6461775390614
 21
133.63333702299539
 31
0.0
  0
LINE
  5
62011
  8
0
  6
HIDDEN
 62
     3
 10
187.8961775390614
 20
137.13333702299551
 30
0.0
 11
187.8961775390614
 21
133.63333702299539
 31
0.0
  0
LINE
  5
62012
  8
0
  6
HIDDEN
 62
     3
 10
186.6461775390614
 20
139.63333702299539
 30
0.0
 11
186.6461775390614
 21
133.63333702299539
 31
0.0
  0
LINE
  5
62013
  8
0
  6
HIDDEN
 62
     3
 10
185.8961775390614
 20
138.88333702299551
 30
0.0
 11
185.8961775390614
 21
133.63333702299539
 31
0.0
  0
LINE
  5
62014
  8
0
  6
CONTINUOUS
 10
249.89617753906151
 20
133.63333702299539
 30
0.0
 11
249.89617753906171
 21
118.1078249783979
 31
0.0
  0
LINE
  5
62016
  8
0
  6
CONTINUOUS
 10
235.29965912576529
 20
116.868540635412
 30
0.0
 11
249.4223395564982
 21
117.60850989866989
 31
0.0
  0
ARC
  5
62017
  8
0
  6
CONTINUOUS
 10
249.39617753906171
 20
118.1078249783979
 30
0.0
 40
0.5
 50
272.99931601866268
 51
0.0
  0
LINE
  5
62018
  8
0
  6
HIDDEN
 62
     3
 10
198.8961775390614
 20
141.83333702299541
 30
0.0
 11
198.8961775390614
 21
133.63333702299539
 31
0.0
  0
LINE
  5
62019
  8
0
  6
HIDDEN
 62
     3
 10
197.8961775390614
 20
138.6833370229954
 30
0.0
 11
198.8961775390614
 21
139.6833370229954
 31
0.0
  0
LINE
  5
6201A
  8
0
  6
HIDDEN
 62
     3
 10
197.3961775390614
 20
138.88333702299539
 30
0.0
 11
198.8961775390614
 21
138.88333702299539
 31
0.0
  0
LINE
  5
6201B
  8
0
  6
HIDDEN
 62
     3
 10
198.8961775390614
 20
139.63333702299539
 30
0.0
 11
200.69617753906169
 21
139.63333702299539
 31
0.0
  0
LINE
  5
6201C
  8
0
  6
HIDDEN
 62
     3
 10
198.8961775390614
 20
137.13333702299539
 30
0.0
 11
200.89617753906151
 21
137.13333702299539
 31
0.0
  0
LINE
  5
6201D
  8
0
  6
HIDDEN
 62
     3
 10
196.6461775390614
 20
139.63333702299539
 30
0.0
 11
197.3961775390614
 21
138.88333702299539
 31
0.0
  0
LINE
  5
6201E
  8
0
  6
HIDDEN
 62
     3
 10
200.69617753906169
 20
139.63333702299539
 30
0.0
 11
200.89617753906151
 21
139.4333370229954
 31
0.0
  0
LINE
  5
6201F
  8
0
  6
HIDDEN
 62
     3
 10
196.6461775390614
 20
139.63333702299539
 30
0.0
 11
196.6461775390614
 21
133.63333702299539
 31
0.0
  0
LINE
  5
62020
  8
0
  6
HIDDEN
 62
     3
 10
197.3961775390614
 20
138.88333702299539
 30
0.0
 11
197.3961775390614
 21
133.63333702299539
 31
0.0
  0
LINE
  5
62021
  8
0
  6
HIDDEN
 62
     3
 10
198.8961775390614
 20
139.63333702299539
 30
0.0
 11
198.8961775390614
 21
133.63333702299539
 31
0.0
  0
LINE
  5
62022
  8
0
  6
HIDDEN
 62
     3
 10
197.8961775390614
 20
138.6833370229954
 30
0.0
 11
197.8961775390614
 21
133.63333702299539
 31
0.0
  0
LINE
  5
62023
  8
0
  6
HIDDEN
 62
     3
 10
200.89617753906151
 20
139.4333370229954
 30
0.0
 11
200.89617753906151
 21
133.63333702299539
 31
0.0
  0
LINE
  5
62024
  8
0
  6
HIDDEN
 62
     3
 10
200.69617753906169
 20
139.63333702299539
 30
0.0
 11
200.69617753906169
 21
133.63333702299539
 31
0.0
  0
LINE
  5
62025
  8
0
  6
CONTINUOUS
 10
249.4223455171832
 20
149.6581695070152
 30
0.0
 11
235.53039247284389
 21
150.38621591597331
 31
0.0
  0
LINE
  5
62026
  8
0
  6
CONTINUOUS
 10
249.89617753906151
 20
133.63333702299539
 30
0.0
 11
249.89617753906171
 21
149.15885473963789
 31
0.0
  0
ARC
  5
62027
  8
0
  6
CONTINUOUS
 10
249.39617753906171
 20
149.15885473963789
 30
0.0
 40
0.5
 50
0.0
 51
87.000000000000909
  0
LINE
  5
62028
  8
0
  6
CONTINUOUS
 62
     7
 10
235.0482108657782
 20
150.0109370448117
 30
0.0
 11
235.1739898631684
 21
150.2046197160771
 31
0.0
  0
ARC
  5
62029
  8
0
  6
CONTINUOUS
 10
235.5094580903467
 20
149.9867641020715
 30
0.0
 40
0.4
 50
87.000000000066137
 51
146.9999999999871
  0
ARC
  5
6202A
  8
0
  6
CONTINUOUS
 62
     7
 10
234.880476752189
 20
150.1198648518149
 30
0.0
 40
0.2
 50
267.00000000000091
 51
326.99999999998988
  0
LINE
  5
6202B
  8
0
  6
CONTINUOUS
 10
232.87275049143139
 20
150.02481085734979
 30
0.0
 11
234.87000956094039
 21
149.92013894486391
 31
0.0
  0
ARC
  5
6202C
  8
0
  6
CONTINUOUS
 62
     7
 10
232.24376915327269
 20
150.15791160709301
 30
0.0
 40
0.4
 50
26.9999999999872
 51
87.000000000000909
  0
LINE
  5
6202D
  8
0
  6
CONTINUOUS
 62
     7
 10
232.7050163778419
 20
150.13373866435271
 30
0.0
 11
232.60017176294829
 21
150.33950780698871
 31
0.0
  0
ARC
  5
6202E
  8
0
  6
CONTINUOUS
 62
     7
 10
232.88321768268
 20
150.22453676430081
 30
0.0
 40
0.2
 50
206.99999999999449
 51
267.00000000000091
  0
LINE
  5
6202F
  8
0
  6
CONTINUOUS
 62
     7
 10
228.5399857295624
 20
150.75256760967409
 30
0.0
 11
232.26470353577
 21
150.55736342099479
 31
0.0
  0
ARC
  5
62030
  8
0
  6
CONTINUOUS
 62
     7
 10
228.51905134706519
 20
150.35311579577231
 30
0.0
 40
0.4
 50
87.000000000000909
 51
146.9999999999871
  0
LINE
  5
62031
  8
0
  6
CONTINUOUS
 62
     7
 10
228.05780412249601
 20
150.37728873851231
 30
0.0
 11
228.18358311988661
 21
150.57097140977831
 31
0.0
  0
ARC
  5
62032
  8
0
  6
CONTINUOUS
 62
     7
 10
227.89007000890709
 20
150.4862165455155
 30
0.0
 40
0.2
 50
267.00000000000091
 51
326.99999999998988
  0
LINE
  5
6203E
  8
0
  6
HIDDEN
 62
     3
 10
211.508613104359
 20
144.13333702299531
 30
0.0
 11
244.39617753906191
 21
144.13333702299531
 31
0.0
1001
ACAD
1000
ASC_BOUNDS
1002
{
1070
    19
1005
0
1005
0
1005
0
1005
0
1005
0
1005
0
1002
}
  0
LINE
  5
6203F
  8
0
  6
HIDDEN
 62
     3
 10
211.508613104359
 20
144.13333702299531
 30
0.0
 11
211.508613104359
 21
143.6583370229954
 31
0.0
  0
LINE
  5
62041
  8
0
  6
HIDDEN
 62
     3
 10
203.96316483716939
 20
133.63333702299539
 30
0.0
 11
203.96316483716939
 21
143.1333370229957
 31
0.0
  0
LINE
  5
62042
  8
0
  6
HIDDEN
 62
     3
 10
201.3961775390614
 20
133.63333702299539
 30
0.0
 11
201.3961775390614
 21
142.63333702299559
 31
0.0
  0
ARC
  5
62044
  8
0
  6
HIDDEN
 62
     3
 10
201.8961775390614
 20
142.63333702299559
 30
0.0
 40
0.5
 50
90.0
 51
180.0
  0
LINE
  5
62045
  8
0
  6
HIDDEN
 62
     3
 10
203.96316483716939
 20
143.1333370229957
 30
0.0
 11
204.39617753906191
 21
143.0173116192112
 31
0.0
  0
LINE
  5
62046
  8
0
  6
HIDDEN
 62
     3
 10
201.8961775390614
 20
143.13333702299559
 30
0.0
 11
203.96316483716959
 21
143.1333370229957
 31
0.0
  0
LINE
  5
62047
  8
0
  6
HIDDEN
 62
     3
 10
198.8961775390614
 20
141.83333702299541
 30
0.0
 11
201.3961775390614
 21
141.83333702299541
 31
0.0
  0
DIMENSION
  5
6207F
  8
0
  6
CONTINUOUS
  2
*D126
 10
177.53974813621039
 20
109.88333702299541
 30
0.0
 11
174.61346234520099
 21
94.249430967780611
 31
0.0
 70
   130
 13
179.8961775390614
 23
133.6333370229967
 33
0.0
 14
179.8961775390612
 24
113.6324865136817
 34
0.0
 15
179.3532218394229
 25
113.02436561514951
 35
0.0
 16
172.91525769586721
 26
94.784872836984235
 36
0.0
1001
ACAD
1000
DSTYLE
1002
{
1070
   287
1070
     2
1070
   271
1070
     0
1070
    42
1040
0.6
1070
    43
1040
1.0
1070
    44
1040
1.0
1070
    47
1040
0.1
1070
    48
1040
0.1
1070
    73
1070
     0
1070
   140
1040
3.0
1070
   141
1040
-0.2
1070
   146
1040
0.7
1070
   147
1040
0.6
1070
   178
1070
     3
1070
   271
1070
     5
1070
   272
1070
     5
1070
   275
1070
     1
1070
   283
1070
     0
1070
   284
1070
     8
1070
   289
1070
     2
1002
}
  0
LINE
  5
62087
  8
0
  6
CONTINUOUS
 10
225.88234374814979
 20
150.3911625510504
 30
0.0
 11
227.87960281765839
 21
150.28649063856449
 31
0.0
  0
ARC
  5
62088
  8
0
  6
CONTINUOUS
 62
     7
 10
225.2533624099911
 20
150.52426330079319
 30
0.0
 40
0.4
 50
26.9999999999872
 51
87.000000000000909
  0
LINE
  5
62089
  8
0
  6
CONTINUOUS
 62
     7
 10
225.71460963456039
 20
150.500090358053
 30
0.0
 11
225.6097650196667
 21
150.705859500689
 31
0.0
  0
ARC
  5
6208A
  8
0
  6
CONTINUOUS
 62
     7
 10
225.8928109393984
 20
150.59088845800099
 30
0.0
 40
0.2
 50
206.99999999999449
 51
267.00000000000091
  0
LINE
  5
6208C
  8
0
  6
CONTINUOUS
 10
225.76703194200701
 20
116.8694682592553
 30
0.0
 11
227.99491462380081
 21
116.98622664311129
 31
0.0
  0
LINE
  5
6208D
  8
0
  6
CONTINUOUS
 62
     7
 10
235.0482108657782
 20
117.2557370011791
 30
0.0
 11
235.1739898631684
 21
117.06205432991371
 31
0.0
  0
ARC
  5
6208E
  8
0
  6
CONTINUOUS
 10
235.5094580903467
 20
117.27990994391929
 30
0.0
 40
0.4
 50
213.00000000001279
 51
274.67829980936023
  0
ARC
  5
6208F
  8
0
  6
CONTINUOUS
 62
     7
 10
234.880476752189
 20
117.1468091941759
 30
0.0
 40
0.2
 50
33.000000000010097
 51
92.999999999999076
  0
LINE
  5
62090
  8
0
  6
CONTINUOUS
 10
232.75743868528869
 20
117.23581995295589
 30
0.0
 11
234.9853213670828
 21
117.352578336812
 31
0.0
  0
ARC
  5
62091
  8
0
  6
CONTINUOUS
 62
     7
 10
232.24376915327269
 20
117.1087624388978
 30
0.0
 40
0.4
 50
272.99999999999909
 51
333.00000000001279
  0
LINE
  5
62092
  8
0
  6
CONTINUOUS
 62
     7
 10
232.7050163778419
 20
117.13293538163811
 30
0.0
 11
232.60017176294829
 21
116.9271662390021
 31
0.0
  0
ARC
  5
62093
  8
0
  6
CONTINUOUS
 62
     7
 10
232.88321768268
 20
117.04213728169
 30
0.0
 40
0.2
 50
92.999999999999076
 51
153.00000000000551
  0
LINE
  5
62094
  8
0
  6
CONTINUOUS
 62
     7
 10
228.30936211727709
 20
116.5020199649466
 30
0.0
 11
232.49532714805471
 21
116.7213970963661
 31
0.0
  0
ARC
  5
62095
  8
0
  6
CONTINUOUS
 62
     7
 10
228.51905134706519
 20
116.9135582502185
 30
0.0
 40
0.4
 50
213.00000000001279
 51
272.99999999999909
  0
LINE
  5
62096
  8
0
  6
CONTINUOUS
 62
     7
 10
228.05780412249601
 20
116.88938530747841
 30
0.0
 11
228.18358311988661
 21
116.6957026362124
 31
0.0
  0
ARC
  5
62097
  8
0
  6
CONTINUOUS
 62
     7
 10
227.89007000890709
 20
116.78045750047529
 30
0.0
 40
0.2
 50
33.000000000010097
 51
92.999999999999076
  0
ARC
  5
62098
  8
0
  6
CONTINUOUS
 62
     7
 10
225.2533624099911
 20
116.7424107451976
 30
0.0
 40
0.4
 50
272.99999999999909
 51
333.00000000001279
  0
LINE
  5
62099
  8
0
  6
CONTINUOUS
 62
     7
 10
225.71460963456039
 20
116.7665836879378
 30
0.0
 11
225.6097650196667
 21
116.5608145453018
 31
0.0
  0
ARC
  5
6209A
  8
0
  6
CONTINUOUS
 62
     7
 10
225.8928109393984
 20
116.67578558798979
 30
0.0
 40
0.2
 50
92.999999999999076
 51
153.00000000000551
  0
POLYLINE
  5
6232E
  8
0
 66
     1
 10
0.0
 20
0.0
 30
0.0
 40
1.0
 41
1.0
  0
VERTEX
  5
62EB7
  8
0
 10
0.0
 20
241.00000000000011
 30
0.0
  0
VERTEX
  5
62EB8
  8
0
 10
349.78500327820348
 20
241.00000000000031
 30
0.0
  0
SEQEND
  5
62EB9
  8
0
  0
POLYLINE
  5
6232F
  8
0
 66
     1
 10
0.0
 20
0.0
 30
0.0
 40
0.5
 41
0.5
  0
VERTEX
  5
62EBA
  8
0
 10
349.2999999999999
 20
24.0
 30
0.0
  0
VERTEX
  5
62EBB
  8
0
 10
0.5
 20
24.0
 30
0.0
  0
SEQEND
  5
62EBC
  8
0
  0
POLYLINE
  5
62330
  8
0
 66
     1
 10
0.0
 20
0.0
 30
0.0
 40
1.0
 41
1.0
  0
VERTEX
  5
62EBD
  8
0
 10
0.0
 20
0.0
 30
0.0
  0
VERTEX
  5
62EBE
  8
0
 10
349.80000000000001
 20
0.0
 30
0.0
  0
SEQEND
  5
62EBF
  8
0
  0
POLYLINE
  5
62331
  8
0
 66
     1
 10
0.0
 20
0.0
 30
0.0
 40
1.0
 41
1.0
1001
ACAD
1000
ASC_BOUNDS
1002
{
1070
    19
1002
}
  0
VERTEX
  5
62EC0
  8
0
 10
9.9498014649834658
 20
241.00000000000031
 30
0.0
  0
VERTEX
  5
62EC1
  8
0
 10
341.5
 20
241.00000000000031
 30
0.0
  0
SEQEND
  5
62EC2
  8
0
  0
TEXT
  5
62332
  8
0
 62
     7
 10
172.71673983393751
 20
6.6728022355715657
 30
0.0
 40
3.0
  1
-
  0
TEXT
  5
62333
  8
0
 62
     3
 10
172.4499973267755
 20
18.268672151280722
 30
0.0
 40
4.0
  1
-
  0
LINE
  5
62334
  8
0
 62
     2
 10
150.9402968419158
 20
16.5
 30
0.0
 11
198.8597031580839
 21
16.5
 31
0.0
  0
POLYLINE
  5
62335
  8
0
 66
     1
 10
0.0
 20
0.0
 30
0.0
 40
1.0
 41
1.0
  0
VERTEX
  5
62EC3
  8
0
 10
0.5
 20
241.5000000000004
 30
0.0
  0
VERTEX
  5
62EC4
  8
0
 10
0.5
 20
-0.5
 30
0.0
  0
SEQEND
  5
62EC5
  8
0
  0
LINE
  5
62336
  8
0
 62
     2
 10
150.9402968419158
 20
12.5
 30
0.0
 11
0.5
 21
12.5
 31
0.0
  0
TEXT
  5
62337
  8
0
 62
     7
 10
1.6906758171485301
 20
20.70213863111508
 30
0.0
 40
2.0
  1
DESCRIPTION
  0
TEXT
  5
62338
  8
0
 62
     7
 10
1.7756180239680359
 20
9.4939908967098745
 30
0.0
 40
2.0
  1
KIND
  0
TEXT
  5
62339
  8
0
  6
CONTINUOUS
 62
     3
 10
19.488127647663081
 20
15.53735654761635
 30
0.0
 40
4.0
  1
HYDRAULIC CHUCK
  0
TEXT
  5
6233A
  8
0
 62
     7
 10
107.6221638096294
 20
20.57165332765112
 30
0.0
 40
2.0
  1
SURFACE TREATMENT
  0
TEXT
  5
6233B
  8
0
 62
     7
 10
107.4355084051569
 20
9.4608489407828529
 30
0.0
 40
2.0
  1
ORDER MAKER
  0
LINE
  5
6233C
  8
0
 62
     2
 10
79.5
 20
24.0
 30
0.0
 11
79.5
 21
0.0
 31
0.0
  0
LINE
  5
6233D
  8
0
 62
     2
 10
106.5
 20
24.0
 30
0.0
 11
106.5
 21
0.0
 31
0.0
  0
TEXT
  5
6233E
  8
0
  6
CONTINUOUS
 62
     3
 10
90.645222700866029
 20
15.03976123407665
 30
0.0
 40
4.0
  1
-
  0
TEXT
  5
6233F
  8
0
 62
     7
 10
80.390774020364447
 20
20.753906392070579
 30
0.0
 40
2.0
  1
MATERIAL
  0
TEXT
  5
62340
  8
0
 62
     7
 10
80.326115960252537
 20
9.6268716546485393
 30
0.0
 40
2.0
  1
HARDNESS
  0
LINE
  5
62341
  8
0
 62
     2
 10
150.9402968419158
 20
24.0
 30
0.0
 11
150.9402968419158
 21
0.0
 31
0.0
  0
TEXT
  5
62342
  8
0
 62
     7
 10
151.84057408933469
 20
19.15847313115523
 30
0.0
 40
2.0
  1
DATE
  0
LINE
  5
62343
  8
0
  6
CONTINUOUS
 62
     2
 10
0.0
 20
215.62385070146451
 30
0.0
 11
74.993438436643828
 21
215.62385070146451
 31
0.0
  0
LINE
  5
62344
  8
0
  6
CONTINUOUS
 62
     2
 10
74.993438436643828
 20
241.00000000000031
 30
0.0
 11
6.6647981867797617
 21
241.00000000000031
 31
0.0
  0
LINE
  5
62345
  8
0
  6
CONTINUOUS
 62
     2
 10
6.6647981867797617
 20
221.8000000000003
 30
0.0
 11
74.993438436643828
 21
221.8000000000003
 31
0.0
  0
LINE
  5
62346
  8
0
  6
CONTINUOUS
 62
     2
 10
6.6647981867797617
 20
228.20000000000019
 30
0.0
 11
74.993438436643828
 21
228.20000000000019
 31
0.0
  0
LINE
  5
62347
  8
0
  6
CONTINUOUS
 62
     2
 10
6.6647981867797617
 20
234.60000000000031
 30
0.0
 11
74.993438436643828
 21
234.60000000000031
 31
0.0
  0
TEXT
  5
62348
  8
0
  6
CONTINUOUS
 62
     3
 10
63.504192757890003
 20
225.2969618979169
 30
0.0
 40
2.0
  1
+0.0
  0
TEXT
  5
62349
  8
0
  6
CONTINUOUS
 62
     3
 10
62.041925324166407
 20
217.257775021637
 30
0.0
 40
3.0
  1
%%P0.35
  0
TEXT
  5
6234A
  8
0
  6
CONTINUOUS
 62
     3
 10
63.504192757890003
 20
222.791241415256
 30
0.0
 40
2.0
  1
-0.35
  0
TEXT
  5
6234B
  8
0
  6
CONTINUOUS
 62
     7
 10
58.864606803455438
 20
236.1565042912884
 30
0.0
 40
3.0
  1
250-500
  0
TEXT
  5
6234C
  8
0
  6
CONTINUOUS
 62
     3
 10
63.438554281229251
 20
231.56126401216429
 30
0.0
 40
2.0
  1
+0.35
  0
TEXT
  5
6234D
  8
0
  6
CONTINUOUS
 62
     3
 10
63.438554281229251
 20
229.0555435295031
 30
0.0
 40
2.0
  1
-0.0
  0
TEXT
  5
6234E
  8
0
  6
CONTINUOUS
 10
9.1748491995331278
 20
236.00445557104089
 30
0.0
 40
3.0
  1
±¸ºÐ 
  0
TEXT
  5
6234F
  8
0
  6
CONTINUOUS
 10
9.1748491995331278
 20
229.76335097000751
 30
0.0
 40
3.0
  1
³»°æ
  0
TEXT
  5
62350
  8
0
  6
CONTINUOUS
 10
9.1748491995331278
 20
217.3543913088053
 30
0.0
 40
3.0
  1
ÀüÀå
  0
TEXT
  5
62351
  8
0
  6
CONTINUOUS
 10
9.1748491995331278
 20
223.52224636897441
 30
0.0
 40
3.0
  1
¿Ü°æ
  0
TEXT
  5
62352
  8
0
  6
CONTINUOUS
 10
2.289011192062389
 20
226.2461905260555
 30
0.0
 40
3.0
  1
°ø
  0
LINE
  5
62353
  8
0
  6
CONTINUOUS
 62
     2
 10
0.0
 20
241.00000000000031
 30
0.0
 11
0.0
 21
215.62385070146451
 31
0.0
  0
LINE
  5
62354
  8
0
  6
CONTINUOUS
 62
     2
 10
6.664798186779989
 20
221.8000000000003
 30
0.0
 11
6.664798186779989
 21
241.00000000000031
 31
0.0
  0
LINE
  5
62355
  8
0
  6
CONTINUOUS
 62
     2
 10
6.664798186779989
 20
215.62385070146451
 30
0.0
 11
6.664798186779989
 21
221.8000000000003
 31
0.0
  0
TEXT
  5
62356
  8
0
  6
CONTINUOUS
 10
2.289011192062389
 20
221.7461905260555
 30
0.0
 40
3.0
  1
Â÷
  0
TEXT
  5
62357
  8
0
  6
CONTINUOUS
 10
1.237846808631047
 20
217.77421795343761
 30
0.0
 40
3.0
  1
mm
  0
TEXT
  5
62358
  8
0
  6
CONTINUOUS
 10
2.289011192062389
 20
235.24619052605561
 30
0.0
 40
3.0
  1
±â
  0
TEXT
  5
62359
  8
0
  6
CONTINUOUS
 10
2.289011192062389
 20
230.74619052605561
 30
0.0
 40
3.0
  1
º»
  0
LINE
  5
6235A
  8
0
  6
CONTINUOUS
 62
     2
 10
6.6647981867797617
 20
241.00000000000031
 30
0.0
 11
0.0
 21
241.00000000000031
 31
0.0
  0
TEXT
  5
6235B
  8
0
  6
CONTINUOUS
 62
     3
 10
30.812067194666952
 20
217.257775021637
 30
0.0
 40
3.0
  1
%%P0.15
  0
TEXT
  5
6235C
  8
0
  6
CONTINUOUS
 62
     7
 10
28.853706141723482
 20
236.1565042912884
 30
0.0
 40
3.0
  1
50-100
  0
TEXT
  5
6235D
  8
0
  6
CONTINUOUS
 62
     3
 10
32.065439160974158
 20
225.1925570542829
 30
0.0
 40
2.0
  1
+0.0
  0
TEXT
  5
6235E
  8
0
  6
CONTINUOUS
 62
     3
 10
20.993984417053071
 20
225.1925570542829
 30
0.0
 40
2.0
  1
+0.0
  0
LINE
  5
6235F
  8
0
  6
CONTINUOUS
 62
     2
 10
18.664798186779759
 20
228.4238507014646
 30
0.0
 11
18.664798186779759
 21
215.62385070146451
 31
0.0
  0
LINE
  5
62360
  8
0
  6
CONTINUOUS
 62
     2
 10
18.664798186779759
 20
241.00000000000031
 30
0.0
 11
18.664798186779759
 21
221.8000000000003
 31
0.0
  0
LINE
  5
62361
  8
0
  6
CONTINUOUS
 62
     2
 10
28.096426956445612
 20
241.00000000000031
 30
0.0
 11
28.096426956445612
 21
215.62385070146451
 31
0.0
  0
TEXT
  5
62362
  8
0
  6
CONTINUOUS
 62
     3
 10
19.949507918161999
 20
217.257775021637
 30
0.0
 40
3.0
  1
%%P0.1
  0
TEXT
  5
62363
  8
0
  6
CONTINUOUS
 62
     3
 10
20.993984417053071
 20
222.68683657162171
 30
0.0
 40
2.0
  1
-0.1
  0
TEXT
  5
62364
  8
0
  6
CONTINUOUS
 62
     3
 10
32.065439160974158
 20
222.68683657162171
 30
0.0
 40
2.0
  1
-0.15
  0
TEXT
  5
62365
  8
0
  6
CONTINUOUS
 62
     7
 10
19.291584210295241
 20
236.1565042912884
 30
0.0
 40
3.0
  1
1-50
  0
TEXT
  5
62366
  8
0
  6
CONTINUOUS
 62
     3
 10
20.993984417053071
 20
229.0555435295031
 30
0.0
 40
2.0
  1
-0.0
  0
TEXT
  5
62367
  8
0
  6
CONTINUOUS
 62
     3
 10
20.88953668334489
 20
231.56126401216429
 30
0.0
 40
2.0
  1
+0.1
  0
TEXT
  5
62368
  8
0
  6
CONTINUOUS
 62
     3
 10
32.065439160974158
 20
231.56126401216429
 30
0.0
 40
2.0
  1
+0.15
  0
TEXT
  5
62369
  8
0
  6
CONTINUOUS
 62
     3
 10
32.065439160974158
 20
229.0555435295031
 30
0.0
 40
2.0
  1
-0.0
  0
TEXT
  5
6236A
  8
0
  6
CONTINUOUS
 62
     3
 10
46.688116012782068
 20
225.2969618979169
 30
0.0
 40
2.0
  1
+0.0
  0
LINE
  5
6236B
  8
0
  6
CONTINUOUS
 62
     2
 10
42.092417406004408
 20
241.00000000000031
 30
0.0
 11
42.092417406004408
 21
215.62385070146451
 31
0.0
  0
LINE
  5
6236C
  8
0
  6
CONTINUOUS
 62
     2
 10
57.968465385929441
 20
241.00000000000031
 30
0.0
 11
57.968465385929441
 21
215.62385070146451
 31
0.0
  0
TEXT
  5
6236D
  8
0
  6
CONTINUOUS
 62
     3
 10
45.33029547457636
 20
217.257775021637
 30
0.0
 40
3.0
  1
%%P0.25
  0
TEXT
  5
6236E
  8
0
  6
CONTINUOUS
 62
     3
 10
46.688116012782068
 20
222.791241415256
 30
0.0
 40
2.0
  1
-0.25
  0
TEXT
  5
6236F
  8
0
  6
CONTINUOUS
 62
     7
 10
40.571351574260689
 20
236.1565042912884
 30
0.0
 40
3.0
  1
 100-250
  0
TEXT
  5
62370
  8
0
  6
CONTINUOUS
 62
     3
 10
46.479220545365934
 20
231.56126401216429
 30
0.0
 40
2.0
  1
+0.25
  0
TEXT
  5
62371
  8
0
  6
CONTINUOUS
 62
     3
 10
46.479220545365934
 20
229.0555435295031
 30
0.0
 40
2.0
  1
-0.0
  0
LINE
  5
62372
  8
0
  6
CONTINUOUS
 62
     2
 10
74.993438436643828
 20
241.00000000000031
 30
0.0
 11
74.993438436643828
 21
215.62385070146451
 31
0.0
  0
POLYLINE
  5
62373
  8
0
 66
     1
 10
0.0
 20
0.0
 30
0.0
 40
1.0
 41
1.0
  0
VERTEX
  5
62EC6
  8
0
 10
349.2999999999999
 20
0.0
 30
0.0
  0
VERTEX
  5
62EC7
  8
0
 10
349.2999999999999
 20
241.5000000000004
 30
0.0
  0
SEQEND
  5
62EC8
  8
0
  0
TEXT
  5
62374
  8
0
 62
     7
 10
313.14274069050822
 20
1.428601735718757
 30
0.0
 40
4.0
  1
-
  0
TEXT
  5
62375
  8
0
 62
     3
 10
265.187548430493
 20
32.510087232807336
 30
0.0
 40
3.0
  1
2.BREAK SHARP CORNERS  0.2*45%%D
  0
TEXT
  5
62376
  8
0
 62
     3
 10
265.187548430493
 20
38.051021325782813
 30
0.0
 40
3.0
  1
1.ROUND  R=0.2
  0
TEXT
  5
62377
  8
0
 62
     3
 10
265.187548430493
 20
27.127590477055271
 30
0.0
 40
3.0
  1
3.ANGLES  %%P0%%D15'
  0
TEXT
  5
62378
  8
0
 62
     3
 10
264.54916131191339
 20
44.000081334326978
 30
0.0
 40
4.0
  1
NOTE
  0
TEXT
  5
62379
  8
0
 62
     7
 10
234.13498021523631
 20
2.269955000430854
 30
0.0
 40
2.0
  1
SCALE
  0
TEXT
  5
6237A
  8
0
  6
CONTINUOUS
 62
     7
 10
206.7548000465849
 20
17.658983523781899
 30
0.0
 40
4.0
  1
SSK CONTROL NUMBER
  0
LINE
  5
6237B
  8
0
 62
     2
 10
349.2999999999999
 20
6.5
 30
0.0
 11
198.8597031580841
 21
6.5
 31
0.0
  0
LINE
  5
6237C
  8
0
 62
     2
 10
198.8597031580841
 20
16.5
 30
0.0
 11
269.30000000000001
 21
16.5
 31
0.0
  0
LINE
  5
6237D
  8
0
 62
     2
 10
198.8597031580839
 20
24.0
 30
0.0
 11
198.8597031580839
 21
0.0
 31
0.0
  0
TEXT
  5
6237E
  8
0
 62
     7
 10
199.72929511267941
 20
2.2574114378330701
 30
0.0
 40
2.0
  1
Q'TY
  0
LINE
  5
6237F
  8
0
 62
     2
 10
233.8597031580839
 20
6.5
 30
0.0
 11
233.8597031580839
 21
0.0
 31
0.0
  0
LINE
  5
62380
  8
0
 62
     2
 10
289.30000000000001
 20
24.25
 30
0.0
 11
289.30000000000001
 21
6.5
 31
0.0
  0
LINE
  5
62381
  8
0
 62
     2
 10
269.30000000000001
 20
24.25
 30
0.0
 11
269.30000000000001
 21
6.5
 31
0.0
  0
TEXT
  5
62382
  8
0
 62
     7
 10
249.69651417353521
 20
0.9519807885211548
 30
0.0
 40
4.0
  1
1 : 1
  0
TEXT
  5
62383
  8
0
 62
     7
 10
270.10520091895279
 20
2.2574114378329559
 30
0.0
 40
2.0
  1
CUTTING SIZE :
  0
LINE
  5
62384
  8
0
 62
     2
 10
268.8597031580839
 20
6.5
 30
0.0
 11
268.8597031580839
 21
0.0
 31
0.0
  0
LINE
  5
62385
  8
0
 62
     2
 10
329.30000000000001
 20
24.25
 30
0.0
 11
329.30000000000001
 21
6.5
 31
0.0
  0
LINE
  5
62386
  8
0
 62
     2
 10
309.2999999999999
 20
24.25
 30
0.0
 11
309.2999999999999
 21
6.5
 31
0.0
  0
TEXT
  5
62387
  8
0
 62
     7
 10
310.26938148685667
 20
20.8838933210493
 30
0.0
 40
2.0
  1
CHECK
  0
TEXT
  5
62388
  8
0
 62
     7
 10
330.49033471004373
 20
20.8838933210493
 30
0.0
 40
2.0
  1
APPROVE
  0
LINE
  5
62389
  8
0
  6
CONTINUOUS
 62
     2
 10
269.30000000000001
 20
215.62385070146451
 30
0.0
 11
349.2999999999999
 21
215.62385070146451
 31
0.0
  0
LINE
  5
6238A
  8
0
  6
CONTINUOUS
 62
     2
 10
269.30000000000001
 20
234.60000000000031
 30
0.0
 11
349.2999999999999
 21
234.60000000000031
 31
0.0
  0
LINE
  5
6238B
  8
0
  6
CONTINUOUS
 62
     2
 10
269.30000000000001
 20
228.19999999999951
 30
0.0
 11
349.2999999999999
 21
228.19999999999919
 31
0.0
  0
LINE
  5
6238C
  8
0
  6
CONTINUOUS
 62
     2
 10
269.30000000000001
 20
221.8000000000003
 30
0.0
 11
349.2999999999999
 21
221.8000000000001
 31
0.0
  0
TEXT
  5
6238D
  8
0
 62
     7
 10
287.87643544357428
 20
236.04016647108219
 30
0.0
 40
2.5
  1
REVISIONS
  0
LINE
  5
6238E
  8
0
 62
     2
 10
269.30000000000001
 20
241.00000000000031
 30
0.0
 11
269.30000000000001
 21
215.62385070146451
 31
0.0
  0
LINE
  5
6238F
  8
0
 62
     2
 10
275.30000000000001
 20
241.00000000000031
 30
0.0
 11
275.29999999999973
 21
215.62385070146451
 31
0.0
  0
TEXT
  5
62390
  8
0
 62
     7
 10
271.36049426856789
 20
217.74007257054279
 30
0.0
 40
2.5
  1
3.
  0
TEXT
  5
62391
  8
0
 62
     7
 10
271.36049426856789
 20
223.58559299907341
 30
0.0
 40
2.5
  1
2.
  0
TEXT
  5
62392
  8
0
 62
     7
 10
270.34697788810348
 20
236.25014875277051
 30
0.0
 40
2.5
  1
NO.
  0
TEXT
  5
62393
  8
0
 62
     7
 10
271.36049426856789
 20
230.29486807554909
 30
0.0
 40
2.5
  1
1.
  0
LINE
  5
62394
  8
0
 62
     2
 10
317.30000000000001
 20
241.00000000000031
 30
0.0
 11
317.30000000000001
 21
215.62385070146451
 31
0.0
  0
LINE
  5
62395
  8
0
 62
     2
 10
331.30000000000001
 20
241.00000000000031
 30
0.0
 11
331.30000000000001
 21
215.62385070146451
 31
0.0
  0
TEXT
  5
62396
  8
0
 62
     7
 10
320.14935744422269
 20
236.04016647108219
 30
0.0
 40
2.5
  1
DATE
  0
TEXT
  5
62397
  8
0
 62
     7
 10
333.83882714560201
 20
236.1451559764231
 30
0.0
 40
2.5
  1
DEVISER
  0
TEXT
  5
62398
  8
0
 62
     7
 10
270.83722662870952
 20
20.7469419072163
 30
0.0
 40
2.0
  1
DESIGN
  0
TEXT
  5
62399
  8
0
 62
     7
 10
290.26938148685662
 20
20.8838933210493
 30
0.0
 40
2.0
  1
CHECK
  0
TEXT
  5
6239D
  8
0
  6
CONTINUOUS
 62
     3
 10
20.603715362161779
 20
4.0422186541542251
 30
0.0
 40
4.0
  1
ASME B5.50-2009
  0
TEXT
  5
6239E
  8
0
  6
CONTINUOUS
 62
     3
 10
90.645222700866029
 20
3.8315743938501319
 30
0.0
 40
4.0
  1
-
  0
TEXT
  5
6239F
  8
0
  6
CONTINUOUS
 62
     3
 10
112.9079934060545
 20
14.881080844647499
 30
0.0
 40
4.0
  1
SHOT BLAST
  0
TEXT
  5
623A0
  8
0
  6
CONTINUOUS
 62
     3
 10
127.2666911887793
 20
3.8315743938501319
 30
0.0
 40
4.0
  1
-
  0
LINE
  5
623A2
  8
0
  6
CONTINUOUS
 10
235.29965912576529
 20
116.868540635412
 30
0.0
 11
235.29965912576529
 21
133.63333702299539
 31
0.0
  0
LINE
  5
623A3
  8
0
  6
CONTINUOUS
 10
234.9853213670828
 20
117.31712539049251
 30
0.0
 11
234.9853213670828
 21
133.63333702299539
 31
0.0
  0
LINE
  5
623A4
  8
0
  6
CONTINUOUS
 10
232.49532714805471
 20
116.7213970963661
 30
0.0
 11
232.49532714805471
 21
133.63333702299539
 31
0.0
  0
LINE
  5
623A5
  8
0
  6
CONTINUOUS
 10
232.75743868528869
 20
117.19763533253069
 30
0.0
 11
232.75743868528841
 21
133.63333702299539
 31
0.0
  0
LINE
  5
623A6
  8
0
  6
CONTINUOUS
 10
228.30936211727709
 20
116.5020199649466
 30
0.0
 11
228.30936211727709
 21
133.63333702299539
 31
0.0
  0
LINE
  5
623A7
  8
0
  6
CONTINUOUS
 10
225.504920404773
 20
116.3550454026657
 30
0.0
 11
225.504920404773
 21
133.63333702299539
 31
0.0
  0
LINE
  5
623A8
  8
0
  6
CONTINUOUS
 10
225.76703194200701
 20
116.8312836388303
 30
0.0
 11
225.76703194200701
 21
133.63333702299539
 31
0.0
  0
LINE
  5
623A9
  8
0
  6
CONTINUOUS
 10
227.99491462380081
 20
116.950773696792
 30
0.0
 11
227.99491462380081
 21
133.63333702299539
 31
0.0
  0
ARC
  5
623AF
  8
0
  6
HIDDEN
 62
     3
 10
248.8961775390618
 20
142.57083702299539
 30
0.0
 40
1.0
 50
270.0
 51
0.0
  0
LINE
  5
623B2
  8
0
  6
HIDDEN
 62
     3
 10
204.39617753906191
 20
143.0173116192112
 30
0.0
 11
204.39617753906191
 21
133.63333702299539
 31
0.0
  0
LINE
  5
623B3
  8
0
  6
HIDDEN
 62
     3
 10
208.04773198472409
 20
141.57083702299539
 30
0.0
 11
248.8961775390618
 21
141.57083702299539
 31
0.0
  0
LINE
  5
623B5
  8
0
  6
HIDDEN
 62
     3
 10
207.89617753906191
 20
141.83333702299541
 30
0.0
 11
207.89617753906191
 21
133.63333702299539
 31
0.0
  0
LINE
  5
623B6
  8
0
  6
HIDDEN
 62
     3
 10
208.04773198472409
 20
141.57083702299539
 30
0.0
 11
208.04773198472409
 21
133.63333702299539
 31
0.0
  0
LINE
  5
623B7
  8
0
  6
HIDDEN
 62
     3
 10
204.64617753906191
 20
141.83333702299541
 30
0.0
 11
204.64617753906191
 21
133.63333702299539
 31
0.0
  0
LINE
  5
623B8
  8
0
  6
HIDDEN
 62
     3
 10
204.64617753906191
 20
141.83333702299541
 30
0.0
 11
207.89617753906191
 21
141.83333702299541
 31
0.0
  0
LINE
  5
623C0
  8
0
  6
HIDDEN
 62
     3
 10
244.39617753906191
 20
144.13333702299531
 30
0.0
 11
244.39617753906191
 21
143.6583370229954
 31
0.0
  0
DIMENSION
  5
623F2
  8
0
  6
CONTINUOUS
  2
*D130
 10
262.50583474403811
 20
141.57083702299539
 30
0.0
 11
262.505834744038
 21
134.42708702299541
 31
0.0
 70
   128
 13
248.8961775390618
 23
125.69583702299541
 33
0.0
 14
248.8961775390618
 24
141.57083702299539
 34
0.0
 50
90.0
1001
ACAD
1000
DSTYLE
1002
{
1070
   287
1070
     2
1070
     3
1000
%%c<>
1070
    72
1070
     0
1070
    71
1070
     0
1070
    42
1040
0.6
1070
    43
1040
1.0
1070
    44
1040
1.0
1070
    47
1040
-0.02
1070
    48
1040
0.03
1070
    73
1070
     0
1070
   140
1040
3.0
1070
   141
1040
-0.2
1070
   144
1040
1.0
1070
   146
1040
0.7
1070
   147
1040
0.6
1070
   178
1070
     3
1070
   271
1070
     5
1070
   272
1070
     5
1070
   275
1070
     1
1070
   283
1070
     0
1070
   284
1070
     8
1070
   289
1070
     2
1002
}
  0
LINE
  5
6240C
  8
0
  6
HIDDEN
 62
     3
 10
204.64617753906191
 20
141.83333702299541
 30
0.0
 11
204.39617753906191
 21
141.97767459029279
 31
0.0
  0
LINE
  5
6240D
  8
0
  6
HIDDEN
 62
     3
 10
207.89617753906191
 20
141.83333702299541
 30
0.0
 11
208.04773198472409
 21
141.57083702299539
 31
0.0
  0
LINE
  5
6242F
  8
0
  6
HIDDEN
 62
     3
 10
212.508613104359
 20
142.6583370229954
 30
0.0
 11
219.77117753906171
 21
142.6583370229954
 31
0.0
  0
LINE
  5
62431
  8
0
  6
HIDDEN
 62
     3
 10
234.2211775390617
 20
143.63333702299539
 30
0.0
 11
235.19617753906161
 21
142.6583370229954
 31
0.0
  0
LINE
  5
62435
  8
0
  6
HIDDEN
 62
     3
 10
220.7461775390619
 20
143.63333702299539
 30
0.0
 11
219.77117753906171
 21
142.6583370229954
 31
0.0
  0
LINE
  5
62436
  8
0
  6
HIDDEN
 62
     3
 10
220.7461775390619
 20
143.63333702299539
 30
0.0
 11
234.2211775390617
 21
143.63333702299539
 31
0.0
  0
LINE
  5
62437
  8
0
  6
HIDDEN
 62
     3
 10
235.19617753906161
 20
142.6583370229954
 30
0.0
 11
243.39617753906191
 21
142.6583370229954
 31
0.0
  0
ARC
  5
62662
  8
0
  6
HIDDEN
 62
     3
 10
243.39617753906191
 20
143.6583370229954
 30
0.0
 40
1.0
 50
270.0
 51
0.0
  0
ARC
  5
62663
  8
0
  6
HIDDEN
 62
     3
 10
212.508613104359
 20
143.6583370229954
 30
0.0
 40
1.0
 50
180.0
 51
270.0
  0
LINE
  5
62669
  8
0
  6
HIDDEN
 62
     3
 10
63.146177539061568
 20
125.4833370229954
 30
0.0
 11
66.446177539061409
 21
125.4833370229952
 31
0.0
  0
LINE
  5
6266A
  8
0
  6
HIDDEN
 62
     3
 10
186.6461775390614
 20
133.63333702299539
 30
0.0
 11
186.6461775390614
 21
126.88333702299521
 31
0.0
  0
LINE
  5
6266B
  8
0
  6
CONTINUOUS
 10
131.47958309634009
 20
155.43406478263151
 30
0.0
 11
131.47958309634021
 21
133.63333702299539
 31
0.0
  0
LINE
  5
6266C
  8
0
  6
CONTINUOUS
 10
129.8961775390614
 20
155.85833702299541
 30
0.0
 11
129.8961775390614
 21
133.63333702299539
 31
0.0
  0
LINE
  5
6266D
  8
0
  6
HIDDEN
 62
     3
 10
106.6461775390615
 20
126.63333702299531
 30
0.0
 11
67.115951868047659
 21
126.63333702299531
 31
0.0
  0
LINE
  5
6266E
  8
0
  6
HIDDEN
 62
     3
 10
91.646177539061455
 20
125.63333702299531
 30
0.0
 11
66.533539408059823
 21
125.63333702299551
 31
0.0
  0
LINE
  5
6266F
  8
0
  6
HIDDEN
 62
     3
 10
66.446177539061409
 20
125.4833370229952
 30
0.0
 11
67.115951868047659
 21
126.63333702299531
 31
0.0
  0
POINT
  5
62670
  8
DEFPOINTS
  6
HIDDEN
 62
     3
 10
66.296177539061546
 20
125.4833370229954
 30
0.0
  0
LINE
  5
62671
  8
0
  6
HIDDEN
 62
     3
 10
66.446177539061409
 20
133.63333702299539
 30
0.0
 11
66.446177539061409
 21
125.4833370229953
 31
0.0
1001
ACAD
1000
ASC_BOUNDS
1002
{
1070
    19
1005
0
1002
}
  0
LINE
  5
62672
  8
0
  6
HIDDEN
 62
     3
 10
67.115951868047659
 20
126.63333702299531
 30
0.0
 11
67.115951868047659
 21
133.63333702299531
 31
0.0
  0
LINE
  5
62673
  8
0
  6
HIDDEN
 62
     3
 10
91.646177539061455
 20
125.63333702299531
 30
0.0
 11
93.465780600291964
 21
126.63333702299531
 31
0.0
  0
LINE
  5
62674
  8
0
  6
HIDDEN
 62
     3
 10
91.646177539061455
 20
125.63333702299531
 30
0.0
 11
91.646177539061455
 21
133.63333702299539
 31
0.0
  0
LINE
  5
62675
  8
0
  6
HIDDEN
 62
     3
 10
106.6461775390615
 20
126.63333702299531
 30
0.0
 11
106.6461775390615
 21
133.63333702299539
 31
0.0
  0
LINE
  5
62676
  8
0
  6
CONTINUOUS
 10
137.5041685050131
 20
165.291585313459
 30
0.0
 11
137.5041685050129
 21
141.8083370229956
 31
0.0
  0
LINE
  5
62677
  8
0
  6
CONTINUOUS
 10
144.55638657310971
 20
165.291585313459
 30
0.0
 11
144.55638657310999
 21
141.8083370229956
 31
0.0
  0
LINE
  5
62678
  8
0
  6
HIDDEN
 62
     3
 10
135.44748391686761
 20
105.9131902958537
 30
0.0
 11
133.07117753906149
 21
104.249282657018
 31
0.0
1001
ACAD
1000
ASC_BOUNDS
1002
{
1070
    19
1002
}
  0
ARC
  5
62679
  8
0
  6
HIDDEN
 62
     3
 10
63.146177539061448
 20
123.9833370229954
 30
0.0
 40
1.5
 50
134.99999999999989
 51
180.0
  0
ARC
  5
6267A
  8
0
  6
HIDDEN
 62
     3
 10
63.146177539061448
 20
123.9833370229954
 30
0.0
 40
1.5
 50
89.999999999993491
 51
105.00000000000161
  0
LINE
  5
6267B
  8
0
  6
HIDDEN
 62
     3
 10
62.085517367281682
 20
125.0439971947753
 30
0.0
 11
62.757948971407593
 21
125.432225762429
 31
0.0
  0
LINE
  5
6267C
  8
0
  6
HIDDEN
 62
     3
 10
62.757948971407593
 20
125.432225762429
 30
0.0
 11
62.757948971407593
 21
133.63333702299539
 31
0.0
  0
LINE
  5
6267D
  8
0
  6
HIDDEN
 62
     3
 10
62.085517367281682
 20
125.0439971947753
 30
0.0
 11
62.085517367281682
 21
133.63333702299539
 31
0.0
  0
LINE
  5
6267E
  8
0
  6
HIDDEN
 62
     3
 10
138.89617753906089
 20
105.67833702299561
 30
0.0
 11
139.3461775390609
 21
105.9387744349999
 31
0.0
1001
ACAD
1000
ASC_BOUNDS
1002
{
1070
    19
1002
}
  0
LINE
  5
6267F
  8
0
  6
CONTINUOUS
 10
148.94617753906149
 20
141.8083370229956
 30
0.0
 11
133.07117753906141
 21
141.8083370229956
 31
0.0
  0
ARC
  5
62680
  8
0
  6
CONTINUOUS
 10
141.0361775390613
 20
133.63333702299539
 30
0.0
 40
4.7625000000000002
 50
0.0
 51
180.0
  0
LINE
  5
62681
  8
0
  6
HIDDEN
 62
     3
 10
142.64617753906089
 20
115.47063581379309
 30
0.0
 11
142.64617753906069
 21
126.88333702299531
 31
0.0
1001
ACAD
1000
ASC_BOUNDS
1002
{
1070
    19
1002
}
  0
LINE
  5
62682
  8
0
  6
HIDDEN
 62
     3
 10
139.3461775390607
 20
113.1599509377005
 30
0.0
 11
139.34617753906051
 21
126.88333702299531
 31
0.0
1001
ACAD
1000
ASC_BOUNDS
1002
{
1070
    19
1002
}
  0
LINE
  5
62683
  8
0
  6
HIDDEN
 62
     3
 10
145.51481153957491
 20
113.3286413635285
 30
0.0
 11
142.64617753906089
 21
111.3200022120039
 31
0.0
1001
ACAD
1000
ASC_BOUNDS
1002
{
1070
    19
1002
}
  0
LINE
  5
62684
  8
0
  6
HIDDEN
 62
     3
 10
139.3461775390607
 20
113.1599509377005
 30
0.0
 11
133.5709967156557
 21
109.116125790628
 31
0.0
1001
ACAD
1000
ASC_BOUNDS
1002
{
1070
    19
1002
}
  0
LINE
  5
62685
  8
0
  6
HIDDEN
 62
     3
 10
137.65851441505311
 20
112.3444688729402
 30
0.0
 11
138.35759051433661
 21
112.46773485081241
 31
0.0
  0
ARC
  5
62686
  8
0
  6
HIDDEN
 62
     3
 10
141.7557769129252
 20
115.5419874826576
 30
0.0
 40
3.3882543062820369
 50
224.67042229904661
 51
257.04497997176583
  0
ARC
  5
62687
  8
0
  6
HIDDEN
 62
     3
 10
139.57789306108259
 20
115.0010226301664
 30
0.0
 40
3.1040145263898502
 50
297.1885004419504
 51
8.7018188055604249
  0
ARC
  5
62688
  8
0
  6
HIDDEN
 62
     3
 10
140.64683131181059
 20
109.67376627111911
 30
0.0
 40
2.589879941132633
 50
39.467601650822971
 51
82.247800619969794
  0
ARC
  5
62689
  8
0
  6
HIDDEN
 62
     3
 10
142.59912751050811
 20
109.38461600299929
 30
0.0
 40
3.2745278447825812
 50
119.3090996729142
 51
186.5812195746046
  0
LINE
  5
6268A
  8
0
  6
HIDDEN
 62
     3
 10
145.51481153957499
 20
113.3286413635284
 30
0.0
 11
145.34372560835001
 21
115.28416250569779
 31
0.0
1001
ACAD
1000
ASC_BOUNDS
1002
{
1070
    19
1002
}
  0
LINE
  5
6268B
  8
0
  6
HIDDEN
 62
     3
 10
143.56465165598109
 20
116.11375831411119
 30
0.0
 11
145.34372560835001
 21
115.28416250569779
 31
0.0
1001
ACAD
1000
ASC_BOUNDS
1002
{
1070
    19
1002
}
  0
LINE
  5
6268C
  8
0
  6
HIDDEN
 62
     3
 10
143.56465165598109
 20
116.1137583141111
 30
0.0
 11
142.64617753906089
 21
115.47063581379309
 31
0.0
1001
ACAD
1000
ASC_BOUNDS
1002
{
1070
    19
1002
}
  0
LINE
  5
6268D
  8
0
  6
HIDDEN
 62
     3
 10
143.56465165598129
 20
116.11375831411139
 30
0.0
 11
144.5397315977782
 21
114.7211998388199
 31
0.0
  0
LINE
  5
6268E
  8
0
  6
HIDDEN
 62
     3
 10
145.51481153957499
 20
113.3286413635284
 30
0.0
 11
144.5397315977782
 21
114.7211998388199
 31
0.0
  0
LINE
  5
6268F
  8
0
  6
HIDDEN
 62
     3
 10
142.99617753906099
 20
110.4783370229957
 30
0.0
 11
139.51265591065911
 21
110.4783370229956
 31
0.0
1001
ACAD
1000
ASC_BOUNDS
1002
{
1070
    19
1002
}
  0
LINE
  5
62690
  8
0
  6
HIDDEN
 62
     3
 10
138.89617753906089
 20
105.67833702299561
 30
0.0
 11
140.9961775390608
 21
105.67833702299561
 31
0.0
  0
LINE
  5
62691
  8
0
  6
HIDDEN
 62
     3
 10
139.3461775390609
 20
105.9387744349999
 30
0.0
 11
140.9961775390608
 21
105.9387744349999
 31
0.0
  0
LINE
  5
62692
  8
0
  6
HIDDEN
 62
     3
 10
137.65851441505231
 20
112.3444688729401
 30
0.0
 11
133.15317817146419
 21
109.1897984730093
 31
0.0
1001
ACAD
1000
ASC_BOUNDS
1002
{
1070
    19
1002
}
  0
LINE
  5
62693
  8
0
  6
HIDDEN
 62
     3
 10
133.15317817146359
 20
109.1897984730093
 30
0.0
 11
133.07117753906149
 21
109.13238101206341
 31
0.0
1001
ACAD
1000
ASC_BOUNDS
1002
{
1070
    19
1002
}
  0
LINE
  5
62694
  8
0
  6
HIDDEN
 62
     3
 10
138.89617753906089
 20
104.29436739456141
 30
0.0
 11
138.89617753906089
 21
105.67833702299561
 31
0.0
1001
ACAD
1000
ASC_BOUNDS
1002
{
1070
    19
1002
}
  0
LINE
  5
62695
  8
0
  6
HIDDEN
 62
     3
 10
139.3461775390609
 20
108.6430849592835
 30
0.0
 11
135.44748391686761
 21
105.9131902958537
 31
0.0
1001
ACAD
1000
ASC_BOUNDS
1002
{
1070
    19
1002
}
  0
LINE
  5
62696
  8
0
  6
HIDDEN
 62
     3
 10
139.34617753906079
 20
105.9387744349998
 30
0.0
 11
139.3461775390607
 21
109.0093173359119
 31
0.0
1001
ACAD
1000
ASC_BOUNDS
1002
{
1070
    19
1002
}
  0
LINE
  5
62697
  8
0
  6
HIDDEN
 62
     3
 10
138.9961775390608
 20
105.736212003441
 30
0.0
 11
138.9961775390608
 21
108.7642446975384
 31
0.0
1001
ACAD
1000
ASC_BOUNDS
1002
{
1070
    19
1002
}
  0
LINE
  5
62698
  8
0
  6
HIDDEN
 62
     3
 10
139.3461775390607
 20
109.0093173359119
 30
0.0
 11
135.521156599249
 21
106.3310088400456
 31
0.0
1001
ACAD
1000
ASC_BOUNDS
1002
{
1070
    19
1002
}
  0
LINE
  5
62699
  8
0
  6
HIDDEN
 62
     3
 10
133.57099671565561
 20
109.116125790628
 30
0.0
 11
133.15317817146359
 21
109.1897984730094
 31
0.0
1001
ACAD
1000
ASC_BOUNDS
1002
{
1070
    19
1002
}
  0
LINE
  5
6269A
  8
0
  6
HIDDEN
 62
     3
 10
135.521156599249
 20
106.3310088400456
 30
0.0
 11
135.44748391686761
 21
105.9131902958537
 31
0.0
1001
ACAD
1000
ASC_BOUNDS
1002
{
1070
    19
1002
}
  0
LINE
  5
6269B
  8
0
  6
HIDDEN
 62
     3
 10
139.34880136698069
 20
109.93048893172239
 30
0.0
 11
137.65851441505311
 21
112.3444688729402
 31
0.0
1001
ACAD
1000
ASC_BOUNDS
1002
{
1070
    19
1002
}
  0
LINE
  5
6269C
  8
0
  6
HIDDEN
 62
     3
 10
135.44748391686761
 20
105.9131902958535
 30
0.0
 11
134.3003310441654
 21
107.55149438443161
 31
0.0
  0
LINE
  5
6269D
  8
0
  6
HIDDEN
 62
     3
 10
133.57099671565561
 20
109.1161257906279
 30
0.0
 11
134.5460766574524
 21
107.7235673153366
 31
0.0
  0
LINE
  5
6269E
  8
0
  6
HIDDEN
 62
     3
 10
134.3003310441654
 20
107.55149438443161
 30
0.0
 11
133.15317817146391
 21
109.1897984730094
 31
0.0
  0
LINE
  5
6269F
  8
0
  6
HIDDEN
 62
     3
 10
135.521156599249
 20
106.3310088400456
 30
0.0
 11
134.5460766574522
 21
107.72356731533689
 31
0.0
  0
LINE
  5
626A0
  8
0
  6
HIDDEN
 62
     3
 10
143.0961775390609
 20
104.41249325963931
 30
0.0
 11
143.0961775390607
 21
105.67833702299571
 31
0.0
1001
ACAD
1000
ASC_BOUNDS
1002
{
1070
    19
1002
}
  0
LINE
  5
626A1
  8
0
  6
HIDDEN
 62
     3
 10
143.0961775390609
 20
105.67833702299561
 30
0.0
 11
142.64617753906089
 21
105.9387744349999
 31
0.0
1001
ACAD
1000
ASC_BOUNDS
1002
{
1070
    19
1002
}
  0
LINE
  5
626A2
  8
0
  6
HIDDEN
 62
     3
 10
142.9961775390608
 20
105.7362120034411
 30
0.0
 11
142.9961775390608
 21
110.4783370229957
 31
0.0
1001
ACAD
1000
ASC_BOUNDS
1002
{
1070
    19
1002
}
  0
LINE
  5
626A3
  8
0
  6
HIDDEN
 62
     3
 10
142.99617753906099
 20
110.4783370229957
 30
0.0
 11
142.64617753906089
 21
111.09533576772201
 31
0.0
1001
ACAD
1000
ASC_BOUNDS
1002
{
1070
    19
1002
}
  0
LINE
  5
626A4
  8
0
  6
HIDDEN
 62
     3
 10
142.64617753906089
 20
105.9387744349999
 30
0.0
 11
142.64617753906089
 21
111.3200022120039
 31
0.0
1001
ACAD
1000
ASC_BOUNDS
1002
{
1070
    19
1002
}
  0
LINE
  5
626A5
  8
0
  6
HIDDEN
 62
     3
 10
142.64617753906089
 20
105.9387744349999
 30
0.0
 11
140.9961775390608
 21
105.9387744349999
 31
0.0
  0
LINE
  5
626A6
  8
0
  6
HIDDEN
 62
     3
 10
143.0961775390607
 20
105.67833702299561
 30
0.0
 11
140.9961775390608
 21
105.67833702299561
 31
0.0
  0
LINE
  5
626A7
  8
0
  6
HIDDEN
 62
     3
 10
106.6461775390615
 20
126.88333702299541
 30
0.0
 11
186.6461775390614
 21
126.88333702299521
 31
0.0
1001
ACAD
1000
ASC_BOUNDS
1002
{
1070
    19
1002
}
  0
LINE
  5
626A8
  8
0
  6
HIDDEN
 62
     3
 10
186.6461775390614
 20
127.63333702299531
 30
0.0
 11
196.6461775390614
 21
127.63333702299541
 31
0.0
  0
LINE
  5
626A9
  8
0
  6
HIDDEN
 62
     3
 10
187.07919024095369
 20
127.63333702299541
 30
0.0
 11
198.8461775390613
 21
127.63333702299541
 31
0.0
1001
ACAD
1000
ASC_BOUNDS
1002
{
1070
    19
1005
0
1005
0
1005
0
1005
0
1005
0
1005
0
1002
}
  0
LINE
  5
626AA
  8
0
  6
HIDDEN
 62
     3
 10
187.62767299668391
 20
128.58333702299529
 30
0.0
 11
197.8961775390614
 21
128.58333702299541
 31
0.0
1001
ACAD
1000
ASC_BOUNDS
1002
{
1070
    19
1005
0
1005
0
1005
0
1005
0
1005
0
1005
0
1002
}
  0
LINE
  5
626AB
  8
0
  6
HIDDEN
 62
     3
 10
198.8961775390614
 20
130.16923540785771
 30
0.0
 11
187.8961775390614
 21
130.16923540785771
 31
0.0
  0
LINE
  5
626AC
  8
0
  6
HIDDEN
 62
     3
 10
186.10467753906161
 20
128.1748370229954
 30
0.0
 11
197.1876775390615
 21
128.1748370229954
 31
0.0
  0
LINE
  5
626AD
  8
0
  6
HIDDEN
 62
     3
 10
198.8961775390614
 20
131.9012862154265
 30
0.0
 11
187.8961775390614
 21
131.9012862154265
 31
0.0
  0
LINE
  5
626AE
  8
0
  6
HIDDEN
 62
     3
 10
186.64617753906131
 20
126.88333702299521
 30
0.0
 11
187.627672996684
 21
128.58333702299529
 31
0.0
  0
LINE
  5
626AF
  8
0
  6
HIDDEN
 62
     3
 10
185.8961775390614
 20
128.38333702299531
 30
0.0
 11
186.6461775390614
 21
127.63333702299531
 31
0.0
  0
LINE
  5
626B0
  8
0
  6
HIDDEN
 62
     3
 10
185.8961775390614
 20
130.13333702299531
 30
0.0
 11
187.8961775390614
 21
130.13333702299531
 31
0.0
  0
LINE
  5
626B1
  8
0
  6
HIDDEN
 62
     3
 10
187.627672996684
 20
128.58333702299529
 30
0.0
 11
187.627672996684
 21
133.63333702299539
 31
0.0
  0
LINE
  5
626B2
  8
0
  6
HIDDEN
 62
     3
 10
186.6461775390614
 20
126.88333702299521
 30
0.0
 11
186.6461775390614
 21
133.63333702299539
 31
0.0
  0
LINE
  5
626B3
  8
0
  6
HIDDEN
 62
     3
 10
187.8961775390614
 20
130.13333702299531
 30
0.0
 11
187.8961775390614
 21
133.63333702299539
 31
0.0
  0
LINE
  5
626B4
  8
0
  6
HIDDEN
 62
     3
 10
186.6461775390614
 20
127.63333702299531
 30
0.0
 11
186.6461775390614
 21
133.63333702299539
 31
0.0
  0
LINE
  5
626B5
  8
0
  6
HIDDEN
 62
     3
 10
185.8961775390614
 20
128.38333702299531
 30
0.0
 11
185.8961775390614
 21
133.63333702299539
 31
0.0
  0
LINE
  5
626B6
  8
0
  6
HIDDEN
 62
     3
 10
198.8961775390614
 20
125.4333370229954
 30
0.0
 11
198.8961775390614
 21
133.63333702299539
 31
0.0
  0
LINE
  5
626B7
  8
0
  6
HIDDEN
 62
     3
 10
197.8961775390614
 20
128.58333702299541
 30
0.0
 11
198.8961775390614
 21
127.58333702299539
 31
0.0
  0
LINE
  5
626B8
  8
0
  6
HIDDEN
 62
     3
 10
197.3961775390614
 20
128.38333702299539
 30
0.0
 11
198.8961775390614
 21
128.38333702299539
 31
0.0
  0
LINE
  5
626B9
  8
0
  6
HIDDEN
 62
     3
 10
198.8961775390614
 20
127.63333702299541
 30
0.0
 11
200.69617753906169
 21
127.63333702299541
 31
0.0
  0
LINE
  5
626BA
  8
0
  6
HIDDEN
 62
     3
 10
198.8961775390614
 20
130.13333702299539
 30
0.0
 11
200.89617753906151
 21
130.13333702299539
 31
0.0
  0
LINE
  5
626BB
  8
0
  6
HIDDEN
 62
     3
 10
196.6461775390614
 20
127.63333702299541
 30
0.0
 11
197.3961775390614
 21
128.38333702299539
 31
0.0
  0
LINE
  5
626BC
  8
0
  6
HIDDEN
 62
     3
 10
200.69617753906169
 20
127.63333702299541
 30
0.0
 11
200.89617753906151
 21
127.83333702299539
 31
0.0
  0
LINE
  5
626BD
  8
0
  6
HIDDEN
 62
     3
 10
196.6461775390614
 20
127.63333702299541
 30
0.0
 11
196.6461775390614
 21
133.63333702299539
 31
0.0
  0
LINE
  5
626BE
  8
0
  6
HIDDEN
 62
     3
 10
197.3961775390614
 20
128.38333702299539
 30
0.0
 11
197.3961775390614
 21
133.63333702299539
 31
0.0
  0
LINE
  5
626BF
  8
0
  6
HIDDEN
 62
     3
 10
198.8961775390614
 20
127.63333702299541
 30
0.0
 11
198.8961775390614
 21
133.63333702299539
 31
0.0
  0
LINE
  5
626C0
  8
0
  6
HIDDEN
 62
     3
 10
197.8961775390614
 20
128.58333702299541
 30
0.0
 11
197.8961775390614
 21
133.63333702299539
 31
0.0
  0
LINE
  5
626C1
  8
0
  6
HIDDEN
 62
     3
 10
200.89617753906151
 20
127.83333702299539
 30
0.0
 11
200.89617753906151
 21
133.63333702299539
 31
0.0
  0
LINE
  5
626C2
  8
0
  6
HIDDEN
 62
     3
 10
200.69617753906169
 20
127.63333702299541
 30
0.0
 11
200.69617753906169
 21
133.63333702299539
 31
0.0
  0
LINE
  5
626C3
  8
0
  6
HIDDEN
 62
     3
 10
211.508613104359
 20
123.13333702299541
 30
0.0
 11
244.39617753906191
 21
123.13333702299541
 31
0.0
1001
ACAD
1000
ASC_BOUNDS
1002
{
1070
    19
1005
0
1005
0
1005
0
1005
0
1005
0
1005
0
1002
}
  0
LINE
  5
626C4
  8
0
  6
HIDDEN
 62
     3
 10
211.508613104359
 20
123.13333702299541
 30
0.0
 11
211.508613104359
 21
123.6083370229954
 31
0.0
  0
ARC
  5
626C5
  8
0
  6
HIDDEN
 62
     3
 10
212.508613104359
 20
123.6083370229954
 30
0.0
 40
1.0
 50
90.0
 51
180.0
  0
LINE
  5
626C6
  8
0
  6
HIDDEN
 62
     3
 10
203.96316483716939
 20
133.63333702299539
 30
0.0
 11
203.96316483716939
 21
124.13333702299499
 31
0.0
  0
LINE
  5
626C7
  8
0
  6
HIDDEN
 62
     3
 10
201.3961775390614
 20
133.63333702299539
 30
0.0
 11
201.3961775390614
 21
124.63333702299521
 31
0.0
  0
ARC
  5
626C8
  8
0
  6
HIDDEN
 62
     3
 10
201.8961775390614
 20
124.63333702299521
 30
0.0
 40
0.5
 50
180.0
 51
270.0
  0
LINE
  5
626C9
  8
0
  6
HIDDEN
 62
     3
 10
203.96316483716939
 20
124.13333702299499
 30
0.0
 11
204.39617753906191
 21
124.2493624267796
 31
0.0
  0
LINE
  5
626CA
  8
0
  6
HIDDEN
 62
     3
 10
201.8961775390614
 20
124.13333702299521
 30
0.0
 11
203.96316483716959
 21
124.13333702299509
 31
0.0
  0
LINE
  5
626CB
  8
0
  6
HIDDEN
 62
     3
 10
198.8961775390614
 20
125.4333370229954
 30
0.0
 11
201.3961775390614
 21
125.4333370229954
 31
0.0
  0
ARC
  5
626CC
  8
0
  6
HIDDEN
 62
     3
 10
248.8961775390618
 20
124.69583702299541
 30
0.0
 40
1.0
 50
0.0
 51
90.0
  0
LINE
  5
626CD
  8
0
  6
HIDDEN
 62
     3
 10
204.39617753906191
 20
124.2493624267796
 30
0.0
 11
204.39617753906191
 21
133.63333702299539
 31
0.0
  0
LINE
  5
626CE
  8
0
  6
HIDDEN
 62
     3
 10
208.04773198472409
 20
125.69583702299541
 30
0.0
 11
248.8961775390618
 21
125.69583702299541
 31
0.0
  0
LINE
  5
626CF
  8
0
  6
HIDDEN
 62
     3
 10
207.89617753906191
 20
125.4333370229954
 30
0.0
 11
207.89617753906191
 21
133.63333702299539
 31
0.0
  0
LINE
  5
626D0
  8
0
  6
HIDDEN
 62
     3
 10
208.04773198472409
 20
125.69583702299541
 30
0.0
 11
208.04773198472409
 21
133.63333702299539
 31
0.0
  0
LINE
  5
626D1
  8
0
  6
HIDDEN
 62
     3
 10
204.64617753906191
 20
125.4333370229954
 30
0.0
 11
204.64617753906191
 21
133.63333702299539
 31
0.0
  0
LINE
  5
626D2
  8
0
  6
HIDDEN
 62
     3
 10
204.64617753906191
 20
125.4333370229954
 30
0.0
 11
207.89617753906191
 21
125.4333370229954
 31
0.0
  0
LINE
  5
626D3
  8
0
  6
HIDDEN
 62
     3
 10
244.39617753906191
 20
123.13333702299541
 30
0.0
 11
244.39617753906191
 21
123.6083370229954
 31
0.0
  0
ARC
  5
626D4
  8
0
  6
HIDDEN
 62
     3
 10
243.39617753906191
 20
123.6083370229954
 30
0.0
 40
1.0
 50
0.0
 51
90.0
  0
LINE
  5
626D5
  8
0
  6
HIDDEN
 62
     3
 10
204.64617753906191
 20
125.4333370229954
 30
0.0
 11
204.39617753906191
 21
125.288999455698
 31
0.0
  0
LINE
  5
626D6
  8
0
  6
HIDDEN
 62
     3
 10
207.89617753906191
 20
125.4333370229954
 30
0.0
 11
208.04773198472409
 21
125.69583702299541
 31
0.0
  0
LINE
  5
626D7
  8
0
  6
HIDDEN
 62
     3
 10
212.508613104359
 20
124.6083370229954
 30
0.0
 11
219.77117753906171
 21
124.6083370229954
 31
0.0
  0
LINE
  5
626D8
  8
0
  6
HIDDEN
 62
     3
 10
234.2211775390617
 20
123.63333702299541
 30
0.0
 11
235.19617753906161
 21
124.6083370229954
 31
0.0
  0
LINE
  5
626D9
  8
0
  6
HIDDEN
 62
     3
 10
220.7461775390619
 20
123.63333702299541
 30
0.0
 11
219.77117753906171
 21
124.6083370229954
 31
0.0
  0
LINE
  5
626DA
  8
0
  6
HIDDEN
 62
     3
 10
220.7461775390619
 20
123.63333702299541
 30
0.0
 11
234.2211775390617
 21
123.63333702299541
 31
0.0
  0
LINE
  5
626DB
  8
0
  6
HIDDEN
 62
     3
 10
235.19617753906161
 20
124.6083370229954
 30
0.0
 11
243.39617753906191
 21
124.6083370229954
 31
0.0
  0
LINE
  5
626DC
  8
0
  6
CONTINUOUS
 10
179.8961775390614
 20
133.63333702299411
 30
0.0
 11
179.8961775390612
 21
153.63418753230911
 31
0.0
  0
LINE
  5
626DD
  8
0
  6
CONTINUOUS
 10
176.96239786702071
 20
158.0163301848508
 30
0.0
 11
176.96239786702071
 21
133.63333702299539
 31
0.0
  0
LINE
  5
626DE
  8
0
  6
CONTINUOUS
 10
235.29965912576529
 20
150.39813341057879
 30
0.0
 11
235.29965912576529
 21
133.63333702299539
 31
0.0
  0
LINE
  5
626DF
  8
0
  6
CONTINUOUS
 10
234.9853213670828
 20
149.94954865549829
 30
0.0
 11
234.9853213670828
 21
133.63333702299539
 31
0.0
  0
LINE
  5
626E0
  8
0
  6
CONTINUOUS
 10
232.49532714805471
 20
150.54527694962471
 30
0.0
 11
232.49532714805471
 21
133.63333702299539
 31
0.0
  0
LINE
  5
626E1
  8
0
  6
CONTINUOUS
 10
232.75743868528869
 20
150.06903871346009
 30
0.0
 11
232.75743868528841
 21
133.63333702299539
 31
0.0
  0
LINE
  5
626E2
  8
0
  6
CONTINUOUS
 10
228.30936211727709
 20
150.7646540810442
 30
0.0
 11
228.30936211727709
 21
133.63333702299539
 31
0.0
  0
LINE
  5
626E3
  8
0
  6
CONTINUOUS
 10
225.504920404773
 20
150.91162864332509
 30
0.0
 11
225.504920404773
 21
133.63333702299539
 31
0.0
  0
LINE
  5
626E4
  8
0
  6
CONTINUOUS
 10
225.76703194200701
 20
150.4353904071605
 30
0.0
 11
225.76703194200701
 21
133.63333702299539
 31
0.0
  0
LINE
  5
626E5
  8
0
  6
CONTINUOUS
 10
227.99491462380081
 20
150.31590034919881
 30
0.0
 11
227.99491462380081
 21
133.63333702299539
 31
0.0
  0
DIMENSION
  5
626FB
  8
0
  6
CONTINUOUS
  2
*D153
 10
278.505834744038
 20
108.88333702299541
 30
0.0
 11
276.40583474403797
 21
133.63333702299539
 31
0.0
 70
     0
 13
175.8076973286415
 23
158.38333702299531
 33
0.0
 14
175.80769732864141
 24
108.88333702299541
 34
0.0
 50
90.0
1001
ACAD
1000
DSTYLE
1002
{
1070
   287
1070
     2
1070
     3
1000
%%c<>
1070
    42
1040
0.6
1070
    43
1040
1.0
1070
    44
1040
1.0
1070
    47
1040
-0.02
1070
    48
1040
0.03
1070
    73
1070
     0
1070
   140
1040
3.0
1070
   141
1040
-0.2
1070
   146
1040
0.7
1070
   147
1040
0.6
1070
   178
1070
     3
1070
   271
1070
     5
1070
   272
1070
     5
1070
   275
1070
     1
1070
   283
1070
     0
1070
   284
1070
     8
1070
   289
1070
     2
1002
}
  0
DIMENSION
  5
62711
  8
0
  6
CONTINUOUS
  2
*D154
 10
249.89617753906171
 20
177.06159586758
 30
0.0
 11
228.8961775390618
 21
179.16189114317049
 31
0.0
 70
     0
 13
207.89617753906191
 23
141.83333702299541
 33
0.0
 14
249.89617753906171
 24
149.15885473963789
 34
0.0
1001
ACAD
1000
DSTYLE
1002
{
1070
   287
1070
     2
1070
    42
1040
0.6
1070
    43
1040
1.0
1070
    44
1040
1.0
1070
    47
1040
0.1
1070
    48
1040
0.1
1070
    73
1070
     0
1070
   140
1040
3.0
1070
   141
1040
-0.2
1070
   146
1040
0.7
1070
   147
1040
0.6
1070
   178
1070
     3
1070
   271
1070
     5
1070
   272
1070
     5
1070
   275
1070
     1
1070
   283
1070
     0
1070
   284
1070
     8
1070
   289
1070
     2
1002
}
  0
LINE
  5
62723
  8
0
  6
CENTER
 62
     2
 10
140.9961775390608
 20
103.413656425127
 30
0.0
 11
140.9961775390608
 21
126.88333702299531
 31
0.0
1001
ACAD
1000
ASC_BOUNDS
1002
{
1070
    19
1002
}
  0
LINE
  5
62724
  8
0
  6
CENTER
 62
     2
 10
146.01224928664951
 20
115.75226782471491
 30
0.0
 11
133.07117753906161
 21
106.6908318345409
 31
0.0
  0
TEXT
  5
6277B
  8
0
  6
CONTINUOUS
 62
     3
 10
200.08468696125439
 20
9.4183393349796916
 30
0.0
 40
3.419999999999999
  1
CAT40AD/B-HMC15.875-120-PB25
  0
TEXT
  5
62B8C
  8
0
 62
     7
 10
149.9073008625096
 20
51.969689215758649
 30
0.0
 40
4.0
  1
CODE : 854036
  0
INSERT
  5
62B8D
  8
0
  6
CONTINUOUS
  2
*U300
 10
0.0
 20
0.0
 30
0.0
  0
ENDSEC
  0
EOF
