  0
SECTION
  2
HEADER
  9
$ACADVER
  1
AC1009
  9
$INSBASE
 10
0.0
 20
0.0
 30
0.0
  9
$EXTMIN
 10
-0.0052106610485225
 20
-0.5136369077955579
 30
-0.000000000000013
  9
$EXTMAX
 10
349.82821086725511
 20
241.50030597204011
 30
0.0000000000000023
  9
$LIMMIN
 10
0.0
 20
0.0
  9
$LIMMAX
 10
420.0
 20
300.0
  9
$ORTHOMODE
 70
     1
  9
$REGENMODE
 70
     1
  9
$FILLMODE
 70
     1
  9
$QTEXTMODE
 70
     0
  9
$MIRRTEXT
 70
     1
  9
$DRAGMODE
 70
     2
  9
$LTSCALE
 40
7.0
  9
$OSMODE
 70
   951
  9
$ATTMODE
 70
     1
  9
$TEXTSIZE
 40
3.0
  9
$TRACEWID
 40
1.0
  9
$TEXTSTYLE
  7
STANDARD
  9
$CLAYER
  8
0
  9
$CELTYPE
  6
CONTINUOUS
  9
$CECOLOR
 62
   256
  9
$DIMSCALE
 40
1.0
  9
$DIMASZ
 40
2.5
  9
$DIMEXO
 40
0.6
  9
$DIMDLI
 40
1.0
  9
$DIMRND
 40
0.0
  9
$DIMDLE
 40
0.0
  9
$DIMEXE
 40
1.0
  9
$DIMTP
 40
0.1
  9
$DIMTM
 40
0.1
  9
$DIMTXT
 40
3.0
  9
$DIMCEN
 40
-0.2
  9
$DIMTSZ
 40
0.0
  9
$DIMTOL
 70
     0
  9
$DIMLIM
 70
     0
  9
$DIMTIH
 70
     0
  9
$DIMTOH
 70
     0
  9
$DIMSE1
 70
     0
  9
$DIMSE2
 70
     0
  9
$DIMTAD
 70
     1
  9
$DIMZIN
 70
     8
  9
$DIMBLK
  1

  9
$DIMASO
 70
     1
  9
$DIMSHO
 70
     1
  9
$DIMPOST
  1

  9
$DIMAPOST
  1

  9
$DIMALT
 70
     0
  9
$DIMALTD
 70
     2
  9
$DIMALTF
 40
0.0394
  9
$DIMLFAC
 40
1.0
  9
$DIMTOFL
 70
     1
  9
$DIMTVP
 40
1.0
  9
$DIMTIX
 70
     0
  9
$DIMSOXD
 70
     0
  9
$DIMSAH
 70
     0
  9
$DIMBLK1
  1

  9
$DIMBLK2
  1

  9
$DIMSTYLE
  2
ISO-25
  9
$DIMCLRD
 70
     2
  9
$DIMCLRE
 70
     2
  9
$DIMCLRT
 70
     3
  9
$DIMTFAC
 40
0.7
  9
$DIMGAP
 40
0.6
  9
$LUNITS
 70
     2
  9
$LUPREC
 70
     4
  9
$SKETCHINC
 40
1.0
  9
$FILLETRAD
 40
0.0
  9
$AUNITS
 70
     0
  9
$AUPREC
 70
     0
  9
$MENU
  1
acad
  9
$ELEVATION
 40
0.0
  9
$PELEVATION
 40
0.0
  9
$THICKNESS
 40
0.0
  9
$LIMCHECK
 70
     0
  9
$BLIPMODE
 70
     0
  9
$CHAMFERA
 40
0.5
  9
$CHAMFERB
 40
0.5
  9
$SKPOLY
 70
     0
  9
$TDCREATE
 40
2450166.8692156249
  9
$TDUPDATE
 40
2457465.7331139012
  9
$TDINDWG
 40
7.2678702198999998
  9
$TDUSRTIMER
 40
7.2678702198999998
  9
$USRTIMER
 70
     1
  9
$ANGBASE
 50
0.0
  9
$ANGDIR
 70
     0
  9
$PDMODE
 70
     0
  9
$PDSIZE
 40
0.0
  9
$PLINEWID
 40
1.0
  9
$COORDS
 70
     0
  9
$SPLFRAME
 70
     0
  9
$SPLINETYPE
 70
     6
  9
$SPLINESEGS
 70
     8
  9
$ATTDIA
 70
     0
  9
$ATTREQ
 70
     1
  9
$HANDLING
 70
     1
  9
$HANDSEED
  5
5F0F6
  9
$SURFTAB1
 70
     6
  9
$SURFTAB2
 70
     6
  9
$SURFTYPE
 70
     6
  9
$SURFU
 70
     6
  9
$SURFV
 70
     6
  9
$UCSNAME
  2

  9
$UCSORG
 10
0.0
 20
0.0
 30
0.0
  9
$UCSXDIR
 10
1.0
 20
0.0
 30
0.0
  9
$UCSYDIR
 10
0.0
 20
1.0
 30
0.0
  9
$PUCSNAME
  2

  9
$PUCSORG
 10
0.0
 20
0.0
 30
0.0
  9
$PUCSXDIR
 10
1.0
 20
0.0
 30
0.0
  9
$PUCSYDIR
 10
0.0
 20
1.0
 30
0.0
  9
$USERI1
 70
     0
  9
$USERI2
 70
     0
  9
$USERI3
 70
     0
  9
$USERI4
 70
     0
  9
$USERI5
 70
     0
  9
$USERR1
 40
0.0
  9
$USERR2
 40
0.0
  9
$USERR3
 40
0.0
  9
$USERR4
 40
0.0
  9
$USERR5
 40
0.0
  9
$WORLDVIEW
 70
     1
  9
$SHADEDGE
 70
     3
  9
$SHADEDIF
 70
    70
  9
$TILEMODE
 70
     1
  9
$MAXACTVP
 70
    16
  9
$PLIMCHECK
 70
     0
  9
$PEXTMIN
 10
1.0000000000000000E+020
 20
1.0000000000000000E+020
 30
1.0000000000000000E+020
  9
$PEXTMAX
 10
-1.0000000000000000E+020
 20
-1.0000000000000000E+020
 30
-1.0000000000000000E+020
  9
$PLIMMIN
 10
0.0
 20
0.0
  9
$PLIMMAX
 10
420.0
 20
297.0
  9
$UNITMODE
 70
     0
  9
$VISRETAIN
 70
     0
  9
$PLINEGEN
 70
     0
  9
$PSLTSCALE
 70
     1
  0
ENDSEC
  0
SECTION
  2
TABLES
  0
TABLE
  2
VPORT
 70
     1
  0
VPORT
  2
*ACTIVE
 70
     0
 10
0.0
 20
0.0
 11
1.0
 21
1.0
 12
174.91150010310329
 22
120.4933345321222
 13
0.0
 23
0.0
 14
1.0
 24
1.0
 15
2.0
 25
2.0
 16
0.0
 26
0.0
 36
1.0
 17
0.0
 27
0.0
 37
0.0
 40
243.692652310216
 41
2.1307870370370372
 42
50.0
 43
0.0
 44
0.0
 50
0.0
 51
0.0
 71
     0
 72
   100
 73
     1
 74
     1
 75
     0
 76
     0
 77
     0
 78
     2
  0
ENDTAB
  0
TABLE
  2
LTYPE
 70
     8
  0
LTYPE
  2
CONTINUOUS
 70
     0
  3
Solid line
 72
    65
 73
     0
 40
0.0
  0
LTYPE
  2
CENTER
 70
     0
  3
____ _ ____ _ ____ _ ____ _ ____ _ ____ _ ____ 
 72
    65
 73
     4
 40
2.0
 49
1.25
 49
-0.25
 49
0.25
 49
-0.25
  0
LTYPE
  2
PHANTOM
 70
     0
  3
Phantom ______  __  __  ______  __  __  ______
 72
    65
 73
     6
 40
2.5
 49
1.25
 49
-0.25
 49
0.25
 49
-0.25
 49
0.25
 49
-0.25
  0
LTYPE
  2
PHANTOM2
 70
     0
  3
___ _ _ ___ _ _ ___ _ _ ___ _ _ ___ _ _ ___ _ _
 72
    65
 73
     6
 40
1.25
 49
0.625
 49
-0.125
 49
0.125
 49
-0.125
 49
0.125
 49
-0.125
  0
LTYPE
  2
HIDDEN
 70
     0
  3
Hidden __ __ __ __ __ __ __ __ __ __ __ __ __ _
 72
    65
 73
     2
 40
0.375
 49
0.25
 49
-0.125
  0
LTYPE
  2
HIDDEN2
 70
     0
  3
_ _ _ _ _ _ _ _ _ _ _ _ _ _ _ _ _ _ _ _ _ _ _ _
 72
    65
 73
     2
 40
0.1875
 49
0.125
 49
-0.0625
  0
LTYPE
  2
CENTER2
 70
     0
  3
___ _ ___ _ ___ _ ___ _ ___ _ ___ _ ___ _ ___ _
 72
    65
 73
     4
 40
1.125
 49
0.75
 49
-0.125
 49
0.125
 49
-0.125
  0
ENDTAB
  0
TABLE
  2
LAYER
 70
     2
  0
LAYER
  2
0
 70
     0
 62
     7
  6
CONTINUOUS
  0
LAYER
  2
DEFPOINTS
 70
     0
 62
     7
  6
CONTINUOUS
  0
ENDTAB
  0
TABLE
  2
STYLE
 70
     1
  0
STYLE
  2
STANDARD
 70
     0
 40
3.0
 41
1.0
 50
0.0
 71
     0
 42
3.0
  3
ISOCP
  4
WHGTXT.SHX
  0
ENDTAB
  0
TABLE
  2
VIEW
 70
     1
  0
VIEW
  2
OLE1
 70
     0
 40
101.7280711854438
 10
299.70553839476997
 20
442.82168696969308
 41
226.4587412967376
 11
0.0
 21
0.0
 31
1.0
 12
0.0
 22
0.0
 32
0.0
 42
50.0
 43
0.0
 44
0.0
 50
0.0
 71
     0
  0
ENDTAB
  0
TABLE
  2
UCS
 70
     0
  0
ENDTAB
  0
TABLE
  2
APPID
 70
     7
  0
APPID
  2
ACAD
 70
     0
  0
APPID
  2
ACAD_MLEADERVER
 70
     0
  0
APPID
  2
ACAD_DSTYLE_DIMJAG
 70
     0
  0
APPID
  2
ACAD_DSTYLE_DIMTALN
 70
     0
  0
APPID
  2
ACAD_EXEMPT_FROM_CAD_STANDARDS
 70
     0
  0
APPID
  2
ACAD_DSTYLE_DIMRADIAL_EXTENSION
 70
     0
  0
APPID
  2
CONTENTBLOCKICON
 70
     0
  0
ENDTAB
  0
TABLE
  2
DIMSTYLE
 70
     2
  0
DIMSTYLE
  2
ISO-25
 70
     0
  3

  4

  5

  6

  7

 40
1.0
 41
2.5
 42
0.625
 43
3.75
 44
1.25
 45
0.0
 46
0.0
 47
0.0
 48
0.0
140
2.5
141
2.5
142
0.0
143
0.0394
144
1.0
145
1.0
146
1.0
147
0.625
 71
     0
 72
     0
 73
     1
 74
     0
 75
     0
 76
     0
 77
     1
 78
     8
170
     0
171
     2
172
     1
173
     0
174
     0
175
     0
176
     2
177
     2
178
     0
  0
DIMSTYLE
  2
KSM
 70
     0
  3

  4

  5

  6

  7

 40
1.0
 41
2.0
 42
0.0
 43
0.1
 44
1.1999999999999991
 45
0.0
 46
0.0
 47
0.25
 48
0.25
140
3.0
141
0.0
142
0.0
143
0.0394
144
1.0
145
1.0
146
1.0
147
1.0
 71
     1
 72
     0
 73
     0
 74
     0
 75
     0
 76
     0
 77
     1
 78
     8
170
     0
171
     2
172
     1
173
     0
174
     0
175
     0
176
     2
177
     2
178
     3
  0
ENDTAB
  0
ENDSEC
  0
SECTION
  2
BLOCKS
  0
BLOCK
  8
0
  2
$MODEL_SPACE
 70
     0
 10
0.0
 20
0.0
 30
0.0
  3
$MODEL_SPACE
  1

  0
ENDBLK
  5
9
  8
0
  0
BLOCK
 67
     1
  8
0
  2
$PAPER_SPACE
 70
     0
 10
0.0
 20
0.0
 30
0.0
  3
$PAPER_SPACE
  1

  0
ENDBLK
  5
E
 67
     1
  8
0
  0
BLOCK
  8
0
  2
_CLOSEDBLANK
 70
     0
 10
0.0
 20
0.0
 30
0.0
  3
_CLOSEDBLANK
  1

  0
LINE
  5
1E017
  8
0
  6
BYBLOCK
 62
     0
 10
-1.0
 20
0.1666666666666666
 30
0.0
 11
0.0
 21
0.0
 31
0.0
  0
LINE
  5
1E018
  8
0
  6
BYBLOCK
 62
     0
 10
0.0
 20
0.0
 30
0.0
 11
-1.0
 21
-0.1666666666666666
 31
0.0
  0
LINE
  5
1E019
  8
0
  6
BYBLOCK
 62
     0
 10
-1.0
 20
0.1666666666666666
 30
0.0
 11
-1.0
 21
-0.1666666666666666
 31
0.0
  0
ENDBLK
  5
1E01A
  8
0
  0
BLOCK
  8
0
  2
DFG
 70
     0
 10
0.0
 20
0.0
 30
0.0
  3
DFG
  1

  0
LINE
  5
1F55F
  8
0
  6
CONTINUOUS
 62
     4
 10
86.283570637268895
 20
194.3173600391579
 30
0.0
 11
87.100067218196514
 21
195.13385662008551
 31
0.0
  0
LINE
  5
1F560
  8
0
  6
CONTINUOUS
 62
     4
 10
85.827275012060909
 20
196.40664882622119
 30
0.0
 11
85.010778431133076
 21
195.5901522452935
 31
0.0
  0
LINE
  5
1F561
  8
0
  6
CONTINUOUS
 62
     4
 10
85.364331821726182
 20
196.65081241707321
 30
0.0
 11
84.657225040539743
 21
195.94370563588669
 31
0.0
  0
LINE
  5
1F562
  8
0
  6
CONTINUOUS
 62
     4
 10
85.364331821726182
 20
196.65081241707321
 30
0.0
 11
84.248976750075826
 21
196.35195392635069
 31
0.0
  0
LINE
  5
1F563
  8
0
  6
CONTINUOUS
 10
87.953595175868358
 20
196.1995166121132
 30
0.0
 11
84.418061269935833
 21
192.6639827061806
 31
0.0
  0
LINE
  5
1F564
  8
0
  6
CONTINUOUS
 10
84.913036016766455
 20
199.24007577121549
 30
0.0
 11
81.377502110833461
 21
195.70454186528281
 31
0.0
  0
LINE
  5
1F565
  8
0
  6
CONTINUOUS
 10
84.418061269935606
 20
199.24007577121529
 30
0.0
 11
81.377502110833802
 21
196.1995166121134
 31
0.0
  0
LINE
  5
1F566
  8
0
  6
CONTINUOUS
 10
87.953595175868585
 20
195.70454186528261
 30
0.0
 11
84.913036016766227
 21
192.66398270618041
 31
0.0
  0
LINE
  5
1F567
  8
0
  6
CONTINUOUS
 10
84.418061269935606
 20
199.24007577121529
 30
0.0
 11
84.913036016766455
 21
199.24007577121549
 31
0.0
  0
LINE
  5
1F568
  8
0
  6
CONTINUOUS
 62
     4
 10
85.717885212319516
 20
196.29725902647991
 30
0.0
 11
85.364331821726182
 21
196.65081241707321
 31
0.0
  0
LINE
  5
1F569
  8
0
  6
CONTINUOUS
 62
     4
 10
87.100067218196514
 20
195.13385662008551
 30
0.0
 11
85.827275012060909
 21
196.40664882622119
 31
0.0
  0
LINE
  5
1F56A
  8
0
  6
CONTINUOUS
 62
     4
 10
86.691818927732811
 20
194.72560832962171
 30
0.0
 11
85.419026721596978
 21
195.9984005357575
 31
0.0
  0
LINE
  5
1F56B
  8
0
  6
CONTINUOUS
 10
87.953595175868585
 20
195.70454186528261
 30
0.0
 11
87.953595175868358
 21
196.1995166121132
 31
0.0
  0
LINE
  5
1F56C
  8
0
  6
CONTINUOUS
 62
     4
 10
87.100067218196514
 20
195.13385662008551
 30
0.0
 11
87.382909930671289
 21
195.1338566200854
 31
0.0
  0
LINE
  5
1F56D
  8
0
  6
CONTINUOUS
 10
81.377502110833802
 20
196.1995166121134
 30
0.0
 11
81.377502110833802
 21
195.70454186528269
 31
0.0
  0
LINE
  5
1F56E
  8
0
  6
CONTINUOUS
 62
     4
 10
85.467074056341076
 20
193.5008634582301
 30
0.0
 11
85.467074056341175
 21
193.21802074575541
 31
0.0
  0
LINE
  5
1F56F
  8
0
  6
CONTINUOUS
 62
     4
 10
86.283570637268653
 20
194.31736003915771
 30
0.0
 11
85.467074056341076
 21
193.5008634582301
 31
0.0
  0
LINE
  5
1F570
  8
0
  6
CONTINUOUS
 62
     4
 10
84.194281850205485
 20
194.7736556643658
 30
0.0
 11
85.010778431133076
 21
195.5901522452935
 31
0.0
  0
LINE
  5
1F571
  8
0
  6
CONTINUOUS
 62
     4
 10
83.950118259353076
 20
195.23659885470019
 30
0.0
 11
84.657225040539743
 21
195.94370563588669
 31
0.0
  0
LINE
  5
1F572
  8
0
  6
CONTINUOUS
 62
     4
 10
83.950118259353076
 20
195.23659885470019
 30
0.0
 11
84.248976750075826
 21
196.35195392635069
 31
0.0
  0
LINE
  5
1F573
  8
0
  6
CONTINUOUS
 62
     4
 10
84.303671649946395
 20
194.88304546410691
 30
0.0
 11
83.950118259353076
 21
195.23659885470019
 31
0.0
  0
LINE
  5
1F574
  8
0
  6
CONTINUOUS
 62
     4
 10
85.467074056341076
 20
193.5008634582301
 30
0.0
 11
84.194281850205485
 21
194.7736556643658
 31
0.0
  0
LINE
  5
1F575
  8
0
  6
CONTINUOUS
 62
     4
 10
85.875322346804978
 20
193.9091117486939
 30
0.0
 11
84.60253014066916
 21
195.18190395482961
 31
0.0
  0
LINE
  5
1F576
  8
0
  6
CONTINUOUS
 10
84.913036016766569
 20
192.66398270618069
 30
0.0
 11
84.418061269935606
 21
192.66398270618069
 31
0.0
  0
LINE
  5
1F577
  8
0
  6
CONTINUOUS
 10
81.377502110833461
 20
195.70454186528229
 30
0.0
 11
84.418061269935833
 21
192.66398270618041
 31
0.0
  0
LINE
  5
1F578
  8
0
  6
CONTINUOUS
 10
84.913036016766455
 20
199.24007577121549
 30
0.0
 11
87.953595175868713
 21
196.19951661211331
 31
0.0
  0
ENDBLK
  5
1F579
  8
0
  0
BLOCK
  8
0
  2
SZGFG
 70
     0
 10
0.0
 20
0.0
 30
0.0
  3
SZGFG
  1

  0
LINE
  5
1F57D
  8
0
  6
CONTINUOUS
 62
     3
 10
288.6152800117635
 20
143.94755516990219
 30
0.0
 11
297.2722104434265
 21
147.0986609094744
 31
0.0
  0
LINE
  5
1F57E
  8
0
  6
CENTER
 62
     6
 10
295.73281909903773
 20
151.43665890697039
 30
0.0
 11
298.91643289771213
 21
142.6897518828473
 31
0.0
  0
LINE
  5
1F57F
  8
0
  6
CONTINUOUS
 62
     3
 10
297.2722104434265
 20
147.0986609094744
 30
0.0
 11
292.09540705571192
 21
142.75459046597831
 31
0.0
  0
LINE
  5
1F580
  8
0
  6
CONTINUOUS
 62
     3
 10
290.51423431846371
 20
147.09849496112241
 30
0.0
 11
292.09540705571192
 21
142.75459046597831
 31
0.0
  0
LINE
  5
1F581
  8
0
  6
CONTINUOUS
 62
     3
 10
297.2722104434265
 20
147.0986609094744
 30
0.0
 11
290.51423431846371
 21
147.09849496112241
 31
0.0
  0
INSERT
  5
1F582
  8
0
  6
CONTINUOUS
 62
     7
  2
*X158
 10
0.0
 20
0.0
 30
0.0
1001
ACAD
1000
HATCH
1002
{
1070
    19
1000
ANSI31
1040
0.5
1040
24.756814761131292
1000
R14_HATCH_DATA
1000
1F582
1011
1.0
1021
0.0
1031
0.0
1021
0.0
1031
0.0
1011
0.0
1021
0.0
1031
0.0
1021
1.0
1031
0.0
1011
0.0
1021
0.0
1031
0.0
1021
0.0
1031
1.0
1040
0.0
1010
0.0
1020
0.0
1030
1.0
1000
ANSI31
1070
     0
1070
     0
1071
        1
1071
        7
1070
     0
1070
     1
1071
        3
1040
291.30482068708812
1040
144.9265427135503
1040
297.27221044342679
1040
147.09866090947449
1040
290.51423431846388
1040
147.09849496112241
1071
        0
1070
     0
1070
     1
1040
24.756814761131292
1040
0.5
1070
     0
1070
     1
1040
0.409471695810392
1040
-352.79435710434569
1040
-667.39905656787869
1040
-0.0248827971004312
1040
0.0573332051123847
1070
     0
1040
0.0067328972234235
1071
        1
1040
162.70487846657139
1040
40.765216351816299
1040
0.0
1002
}
  0
ENDBLK
  5
1F583
  8
0
  0
BLOCK
  8
0
  2
_OBLIQUE
 70
     0
 10
0.0
 20
0.0
 30
0.0
  3
_OBLIQUE
  1

  0
LINE
  5
4D491
  8
0
  6
BYBLOCK
 62
     0
 10
-0.5
 20
-0.5
 30
0.0
 11
0.5
 21
0.5
 31
0.0
  0
ENDBLK
  5
4D492
  8
0
  0
BLOCK
  8
0
  2
SEFSRF
 70
     0
 10
0.0
 20
0.0
 30
0.0
  3
SEFSRF
  1

  0
LINE
  5
524A8
  8
0
 62
     4
 10
565.79354578904156
 20
199.40588144428301
 30
0.0
 11
565.79354578904156
 21
194.90588144428301
 31
0.0
  0
LINE
  5
524A9
  8
0
 62
     4
 10
580.79354578904156
 20
199.65588144428301
 30
0.0
 11
580.79354578904156
 21
194.90588144428301
 31
0.0
  0
LINE
  5
524AA
  8
0
 62
     4
 10
566.29354578904167
 20
199.90588144428301
 30
0.0
 11
576.79354578904145
 21
199.90588144428301
 31
0.0
  0
LINE
  5
524AB
  8
0
 62
     4
 10
577.29354578904145
 20
199.40588144428301
 30
0.0
 11
577.29354578904156
 21
194.90588144428301
 31
0.0
  0
LINE
  5
524AC
  8
0
 62
     4
 10
565.79354578904156
 20
199.40588144428301
 30
0.0
 11
577.29354578904145
 21
199.40588144428301
 31
0.0
  0
LINE
  5
524AD
  8
0
 62
     4
 10
565.79354578904156
 20
199.40588144428301
 30
0.0
 11
566.29354578904167
 21
199.90588144428301
 31
0.0
  0
LINE
  5
524AE
  8
0
 62
     4
 10
576.79354578904145
 20
199.90588144428301
 30
0.0
 11
577.29354578904145
 21
199.40588144428301
 31
0.0
  0
LINE
  5
524AF
  8
0
 62
     4
 10
578.79354578904167
 20
199.90588144428301
 30
0.0
 11
580.54354578904167
 21
199.90588144428301
 31
0.0
  0
LINE
  5
524B0
  8
0
 62
     4
 10
577.29354578904145
 20
199.15588144428301
 30
0.0
 11
578.79354578904167
 21
199.15588144428301
 31
0.0
  0
LINE
  5
524B1
  8
0
 62
     4
 10
566.29354578904167
 20
199.90588144428301
 30
0.0
 11
566.29354578904167
 21
194.90588144428301
 31
0.0
  0
LINE
  5
524B2
  8
0
  6
CONTINUOUS
 62
     4
 10
576.79354578904145
 20
199.90588144428301
 30
0.0
 11
576.79354578904145
 21
194.90588144428301
 31
0.0
  0
LINE
  5
524B3
  8
0
 62
     4
 10
580.54354578904167
 20
199.90588144428301
 30
0.0
 11
580.79354578904156
 21
199.65588144428301
 31
0.0
  0
LINE
  5
524B4
  8
0
 62
     4
 10
580.54354578904167
 20
194.90588144428301
 30
0.0
 11
580.54354578904167
 21
199.90588144428301
 31
0.0
  0
LINE
  5
524B5
  8
0
  6
CONTINUOUS
 62
     4
 10
578.79354578904167
 20
199.90588144428301
 30
0.0
 11
578.79354578904145
 21
194.90588144428301
 31
0.0
  0
ENDBLK
  5
524B6
  8
0
  0
BLOCK
  8
0
  2
SGDG
 70
     0
 10
0.0
 20
0.0
 30
0.0
  3
SGDG
  1

  0
LINE
  5
5BF8F
  8
0
  6
CONTINUOUS
 62
     4
 10
133.76639623704719
 20
383.45902981058208
 30
0.0
 11
133.7663962370471
 21
384.95902981058202
 31
0.0
  0
LINE
  5
5BF90
  8
0
  6
CONTINUOUS
 62
     4
 10
125.7663962370473
 20
385.45902981058202
 30
0.0
 11
133.26639623704719
 21
385.45902981058202
 31
0.0
  0
LINE
  5
5BF91
  8
0
  6
CONTINUOUS
 62
     4
 10
125.2663962370473
 20
384.95902981058191
 30
0.0
 11
133.7663962370471
 21
384.95902981058202
 31
0.0
  0
LINE
  5
5BF92
  8
0
  6
CONTINUOUS
 62
     4
 10
133.51639623704719
 20
373.70902981058219
 30
0.0
 11
133.51639623704739
 21
380.609029810582
 31
0.0
  0
LINE
  5
5BF93
  8
0
  6
CONTINUOUS
 62
     4
 10
132.8398962370471
 20
373.0325298105821
 30
0.0
 11
132.8398962370473
 21
381.28552981058181
 31
0.0
  0
LINE
  5
5BF94
  8
0
  6
CONTINUOUS
 62
     4
 10
126.3663962370473
 20
381.45902981058202
 30
0.0
 11
132.66639623704731
 21
381.45902981058191
 31
0.0
  0
LINE
  5
5BF95
  8
0
  6
CONTINUOUS
 62
     4
 10
133.51639623704739
 20
380.609029810582
 30
0.0
 11
125.5163962370472
 21
380.609029810582
 31
0.0
  0
LINE
  5
5BF96
  8
0
  6
CONTINUOUS
 62
     4
 10
125.2663962370472
 20
383.45902981058208
 30
0.0
 11
133.76639623704719
 21
383.45902981058208
 31
0.0
  0
LINE
  5
5BF97
  8
0
  6
CONTINUOUS
 62
     4
 10
132.66639623704719
 20
381.45902981058191
 30
0.0
 11
132.66639623704731
 21
383.45902981058208
 31
0.0
  0
LINE
  5
5BF98
  8
0
  6
CONTINUOUS
 62
     4
 10
132.66639623704719
 20
381.45902981058191
 30
0.0
 11
133.51639623704739
 21
380.609029810582
 31
0.0
  0
POINT
  5
5BF99
  8
DEFPOINTS
  6
BYBLOCK
 62
     4
 10
133.76639623704719
 20
383.45902981058208
 30
0.0
 50
40.0
  0
POINT
  5
5BF9A
  8
DEFPOINTS
  6
BYBLOCK
 62
     4
 10
133.76639623704719
 20
383.45902981058208
 30
0.0
 50
40.0
  0
LINE
  5
5BF9B
  8
0
  6
HIDDEN2
 62
     4
 10
131.82579731380571
 20
385.45902981058202
 30
0.0
 11
131.82579731380579
 21
380.45902981058208
 31
0.0
  0
LINE
  5
5BF9C
  8
0
  6
HIDDEN2
 62
     4
 10
130.67109677542641
 20
385.45902981058202
 30
0.0
 11
130.67109677542641
 21
380.45902981058191
 31
0.0
  0
LINE
  5
5BF9D
  8
0
  6
CONTINUOUS
 62
     4
 10
133.26639623704719
 20
385.45902981058202
 30
0.0
 11
133.7663962370471
 21
384.95902981058202
 31
0.0
  0
POINT
  5
5BF9E
  8
DEFPOINTS
  6
BYBLOCK
 62
     4
 10
133.26639623704719
 20
385.45902981058202
 30
0.0
 50
40.0
  0
LINE
  5
5BF9F
  8
0
  6
CONTINUOUS
 62
     4
 10
125.5163962370473
 20
373.70902981058202
 30
0.0
 11
125.5163962370472
 21
380.609029810582
 31
0.0
  0
LINE
  5
5BFA0
  8
0
  6
CONTINUOUS
 62
     4
 10
126.1908633154313
 20
373.03456273219791
 30
0.0
 11
126.1908633154315
 21
381.28349688896623
 31
0.0
  0
LINE
  5
5BFA1
  8
0
  6
CENTER
 62
     4
 10
126.19289623704719
 20
373.28252981058188
 30
0.0
 11
126.19289623704719
 21
381.28552981058198
 31
0.0
  0
LINE
  5
5BFA2
  8
0
  6
CONTINUOUS
 62
     4
 10
125.2663962370473
 20
384.95902981058191
 30
0.0
 11
125.7663962370473
 21
385.45902981058202
 31
0.0
  0
LINE
  5
5BFA3
  8
0
  6
HIDDEN2
 62
     4
 10
128.36169569866789
 20
385.45902981058208
 30
0.0
 11
128.361695698668
 21
380.45902981058202
 31
0.0
  0
LINE
  5
5BFA4
  8
0
  6
HIDDEN2
 62
     4
 10
127.2069951602887
 20
385.45902981058202
 30
0.0
 11
127.2069951602886
 21
380.45902981058202
 31
0.0
  0
LINE
  5
5BFA5
  8
0
  6
CONTINUOUS
 62
     4
 10
125.2663962370472
 20
383.45902981058208
 30
0.0
 11
125.2663962370473
 21
384.95902981058191
 31
0.0
  0
LINE
  5
5BFA6
  8
0
  6
CONTINUOUS
 62
     4
 10
126.3663962370472
 20
381.45902981058191
 30
0.0
 11
126.3663962370472
 21
383.45902981058191
 31
0.0
  0
LINE
  5
5BFA7
  8
0
  6
CONTINUOUS
 62
     4
 10
125.5163962370472
 20
380.609029810582
 30
0.0
 11
126.3663962370472
 21
381.45902981058191
 31
0.0
  0
LINE
  5
5BFA8
  8
0
  6
CONTINUOUS
 62
     4
 10
126.666396237047
 20
371.45902981058219
 30
0.0
 11
126.66639623704719
 21
372.95902981058202
 31
0.0
  0
LINE
  5
5BFA9
  8
0
  6
CONTINUOUS
 62
     4
 10
126.666396237047
 20
371.45902981058219
 30
0.0
 11
127.16639623704719
 21
370.95902981058208
 31
0.0
  0
LINE
  5
5BFAA
  8
0
  6
CONTINUOUS
 62
     4
 10
126.2663962370473
 20
372.95902981058202
 30
0.0
 11
125.5163962370473
 21
373.70902981058202
 31
0.0
  0
LINE
  5
5BFAB
  8
0
  6
HIDDEN2
 62
     4
 10
127.2069951602886
 20
380.45902981058202
 30
0.0
 11
131.82579731380579
 21
380.45902981058208
 31
0.0
  0
LINE
  5
5BFAC
  8
0
  6
HIDDEN2
 62
     4
 10
131.5163962370471
 20
380.45902981058202
 30
0.0
 11
131.5163962370471
 21
378.45902981058202
 31
0.0
  0
LINE
  5
5BFAD
  8
0
  6
HIDDEN2
 62
     4
 10
131.5163962370471
 20
378.45902981058202
 30
0.0
 11
129.51639623704719
 21
377.30432927220278
 31
0.0
  0
LINE
  5
5BFAE
  8
0
  6
HIDDEN2
 62
     4
 10
127.5163962370471
 20
378.45902981058202
 30
0.0
 11
131.5163962370471
 21
378.45902981058202
 31
0.0
  0
LINE
  5
5BFAF
  8
0
  6
HIDDEN2
 62
     4
 10
127.5163962370473
 20
380.45902981058191
 30
0.0
 11
127.5163962370471
 21
378.45902981058202
 31
0.0
  0
LINE
  5
5BFB0
  8
0
  6
HIDDEN2
 62
     4
 10
127.5163962370471
 20
378.45902981058202
 30
0.0
 11
129.51639623704719
 21
377.30432927220278
 31
0.0
  0
POLYLINE
  5
5BFB1
  8
0
  6
CONTINUOUS
 62
     4
 66
     1
 10
0.0
 20
0.0
 30
0.0
 70
     1
  0
VERTEX
  5
5EF55
  8
0
  6
CONTINUOUS
 62
     4
 10
126.666396237047
 20
357.65902981058269
 30
0.0
  0
VERTEX
  5
5EF56
  8
0
  6
CONTINUOUS
 62
     4
 10
126.46639623704689
 20
357.12569647724899
 30
0.0
  0
VERTEX
  5
5EF57
  8
0
  6
CONTINUOUS
 62
     4
 10
126.46639623704711
 20
356.35592091925793
 30
0.0
  0
VERTEX
  5
5EF58
  8
0
  6
CONTINUOUS
 62
     4
 10
126.75327645239869
 20
355.85902981058263
 30
0.0
  0
VERTEX
  5
5EF59
  8
0
  6
CONTINUOUS
 62
     4
 10
127.47044088564761
 20
355.85902981058229
 30
0.0
  0
VERTEX
  5
5EF5A
  8
0
  6
CONTINUOUS
 62
     4
 10
128.01639623704719
 20
354.35902981058268
 30
0.0
  0
VERTEX
  5
5EF5B
  8
0
  6
CONTINUOUS
 62
     4
 10
129.51639623704719
 20
354.35902981058268
 30
0.0
  0
VERTEX
  5
5EF5C
  8
0
  6
CONTINUOUS
 62
     4
 10
131.0163962370473
 20
354.3590298105824
 30
0.0
  0
VERTEX
  5
5EF5D
  8
0
  6
CONTINUOUS
 62
     4
 10
131.5623515884466
 20
355.85902981058268
 30
0.0
  0
VERTEX
  5
5EF5E
  8
0
  6
CONTINUOUS
 62
     4
 10
132.2795160216954
 20
355.85902981058263
 30
0.0
  0
VERTEX
  5
5EF5F
  8
0
  6
CONTINUOUS
 62
     4
 10
132.56639623704689
 20
356.35592091925798
 30
0.0
  0
VERTEX
  5
5EF60
  8
0
  6
CONTINUOUS
 62
     4
 10
132.566396237047
 20
357.12569647724922
 30
0.0
  0
VERTEX
  5
5EF61
  8
0
  6
CONTINUOUS
 62
     4
 10
132.36639623704701
 20
357.65902981058241
 30
0.0
  0
VERTEX
  5
5EF62
  8
0
  6
CONTINUOUS
 62
     4
 10
132.3663962370469
 20
360.95902981058242
 30
0.0
  0
VERTEX
  5
5EF63
  8
0
  6
CONTINUOUS
 62
     4
 10
129.51639623704679
 20
360.95902981058242
 30
0.0
  0
VERTEX
  5
5EF64
  8
0
  6
CONTINUOUS
 62
     4
 10
126.66639623704719
 20
360.95902981058271
 30
0.0
  0
SEQEND
  5
5EF65
  8
0
  6
CONTINUOUS
 62
     4
  0
LINE
  5
5BFB2
  8
0
  6
CONTINUOUS
 62
     4
 10
126.46639623704711
 20
356.35592091925793
 30
0.0
 11
132.56639623704689
 21
356.35592091925798
 31
0.0
  0
LINE
  5
5BFB3
  8
0
  6
CONTINUOUS
 62
     4
 10
127.47044088564761
 20
355.85902981058229
 30
0.0
 11
131.5623515884466
 21
355.85902981058268
 31
0.0
  0
LINE
  5
5BFB4
  8
0
  6
CONTINUOUS
 62
     4
 10
126.46639623704689
 20
357.12569647724899
 30
0.0
 11
132.566396237047
 21
357.12569647724922
 31
0.0
  0
LINE
  5
5BFB5
  8
0
  6
CONTINUOUS
 62
     4
 10
126.666396237047
 20
357.65902981058269
 30
0.0
 11
132.36639623704701
 21
357.65902981058241
 31
0.0
  0
LINE
  5
5BFB6
  8
0
  6
CONTINUOUS
 62
     4
 10
126.2663962370473
 20
372.95902981058202
 30
0.0
 11
132.76639623704719
 21
372.95902981058208
 31
0.0
  0
LINE
  5
5BFB7
  8
0
  6
CONTINUOUS
 62
     4
 10
131.8663962370473
 20
370.95902981058191
 30
0.0
 11
132.36639623704721
 21
371.45902981058202
 31
0.0
  0
LINE
  5
5BFB8
  8
0
  6
CONTINUOUS
 62
     4
 10
126.666396237047
 20
371.45902981058219
 30
0.0
 11
132.36639623704721
 21
371.45902981058202
 31
0.0
  0
LINE
  5
5BFB9
  8
0
  6
CONTINUOUS
 62
     4
 10
125.5163962370473
 20
373.70902981058202
 30
0.0
 11
133.51639623704719
 21
373.70902981058219
 31
0.0
  0
POLYLINE
  5
5BFBA
  8
0
  6
CONTINUOUS
 62
     4
 66
     1
 10
0.0
 20
0.0
 30
0.0
 70
     1
  0
VERTEX
  5
5EF66
  8
0
  6
CONTINUOUS
 62
     4
 10
126.51639623704681
 20
361.1590298105823
 30
0.0
  0
VERTEX
  5
5EF67
  8
0
  6
CONTINUOUS
 62
     4
 10
126.71639623704721
 20
360.95902981058259
 30
0.0
  0
VERTEX
  5
5EF68
  8
0
  6
CONTINUOUS
 62
     4
 10
132.3163962370468
 20
360.95902981058219
 30
0.0
  0
VERTEX
  5
5EF69
  8
0
  6
CONTINUOUS
 62
     4
 10
132.51639623704699
 20
361.15902981058258
 30
0.0
  0
VERTEX
  5
5EF6A
  8
0
  6
CONTINUOUS
 62
     4
 10
132.51639623704699
 20
370.75902981058209
 30
0.0
  0
VERTEX
  5
5EF6B
  8
0
  6
CONTINUOUS
 62
     4
 10
132.3163962370468
 20
370.95902981058202
 30
0.0
  0
VERTEX
  5
5EF6C
  8
0
  6
CONTINUOUS
 62
     4
 10
126.71639623704689
 20
370.95902981058191
 30
0.0
  0
VERTEX
  5
5EF6D
  8
0
  6
CONTINUOUS
 62
     4
 10
126.5163962370472
 20
370.75902981058209
 30
0.0
  0
SEQEND
  5
5EF6E
  8
0
  6
CONTINUOUS
 62
     4
  0
LINE
  5
5BFBB
  8
0
  6
CONTINUOUS
 62
     4
 10
126.51639623704681
 20
361.1590298105823
 30
0.0
 11
132.51639623704699
 21
361.15902981058258
 31
0.0
  0
LINE
  5
5BFBC
  8
0
  6
CONTINUOUS
 62
     4
 10
126.5163962370472
 20
370.75902981058209
 30
0.0
 11
132.51639623704699
 21
370.75902981058232
 31
0.0
  0
LINE
  5
5BFBD
  8
0
  6
CONTINUOUS
 62
     4
 10
127.16639623704719
 20
370.95902981058208
 30
0.0
 11
131.8663962370473
 21
370.95902981058191
 31
0.0
  0
LINE
  5
5BFBE
  8
0
  6
CONTINUOUS
 62
     4
 10
132.36639623704721
 20
371.45902981058202
 30
0.0
 11
132.36639623704721
 21
372.95902981058202
 31
0.0
  0
LINE
  5
5BFBF
  8
0
  6
CONTINUOUS
 62
     4
 10
132.76639623704719
 20
372.95902981058208
 30
0.0
 11
133.51639623704719
 21
373.70902981058219
 31
0.0
  0
ENDBLK
  5
5BFC0
  8
0
  0
BLOCK
  8
0
  2
*D102
 70
     1
 10
0.0
 20
0.0
 30
0.0
  3
*D102
  1

  0
LINE
  5
5C7B5
  8
0
  6
CONTINUOUS
 62
     2
 10
73.737833321102585
 20
182.92677917636371
 30
0.0
 11
74.070878388981697
 21
189.2816576397411
 31
0.0
  0
LINE
  5
5C7B6
  8
0
  6
CONTINUOUS
 62
     2
 10
79.729610529629994
 20
182.61276343890609
 30
0.0
 11
80.062655597509135
 21
188.96764190228359
 31
0.0
  0
LINE
  5
5C7B7
  8
0
  6
CONTINUOUS
 62
     2
 10
71.511501404603749
 20
188.214142088643
 30
0.0
 11
69.014927567717322
 21
188.34498197925029
 31
0.0
  0
LINE
  5
5C7B8
  8
0
  6
CONTINUOUS
 62
     2
 10
82.496426286904054
 20
187.6384465699708
 30
0.0
 11
84.993000123790495
 21
187.50760667936351
 31
0.0
  0
LINE
  5
5C7B9
  8
0
  6
CONTINUOUS
 62
     2
 10
74.008075241490189
 20
188.08330219803571
 30
0.0
 11
79.999852450017613
 21
187.76928646057809
 31
0.0
  0
SOLID
  5
5C7BA
  8
0
  6
CONTINUOUS
 62
     2
 10
71.533308053038297
 20
188.630237728124
 30
0.0
 11
71.4896947561692
 21
187.79804644916189
 31
0.0
 12
74.008075241490189
 22
188.08330219803571
 32
0.0
 13
74.008075241490189
 23
188.08330219803571
 33
0.0
  0
SOLID
  5
5C7BB
  8
0
  6
CONTINUOUS
 62
     2
 10
82.518232935338602
 20
188.05454220945191
 30
0.0
 11
82.474619638469505
 21
187.22235093048971
 31
0.0
 12
79.999852450017613
 22
187.76928646057809
 32
0.0
 13
79.999852450017613
 23
187.76928646057809
 33
0.0
  0
INSERT
  5
5C7BC
  8
0
  6
CONTINUOUS
  2
*U255
 10
0.0
 20
0.0
 30
0.0
  0
POINT
  5
5C7BD
  8
DEFPOINTS
  6
CONTINUOUS
 62
     0
 10
73.737833321102585
 20
182.92677917636371
 30
0.0
  0
POINT
  5
5C7BE
  8
DEFPOINTS
  6
CONTINUOUS
 62
     0
 10
79.729610529629994
 20
182.61276343890609
 30
0.0
  0
POINT
  5
5C7BF
  8
DEFPOINTS
  6
CONTINUOUS
 62
     0
 10
79.999852450017613
 20
187.76928646057809
 30
0.0
  0
ENDBLK
  5
5C7C0
  8
0
  0
BLOCK
  8
0
  2
*D103
 70
     1
 10
0.0
 20
0.0
 30
0.0
  3
*D103
  1

  0
LINE
  5
5C7C3
  8
0
  6
CONTINUOUS
 62
     2
 10
58.758390299783962
 20
183.71181852000791
 30
0.0
 11
59.091435367663053
 21
190.0666969833849
 31
0.0
  0
LINE
  5
5C7C4
  8
0
  6
CONTINUOUS
 62
     2
 10
73.737833321102585
 20
182.92677917636371
 30
0.0
 11
74.070878388981697
 21
189.28165763974101
 31
0.0
  0
LINE
  5
5C7C5
  8
0
  6
CONTINUOUS
 62
     2
 10
61.525206057057972
 20
188.73750165107211
 30
0.0
 11
71.511501404603749
 21
188.21414208864289
 31
0.0
  0
SOLID
  5
5C7C6
  8
0
  6
CONTINUOUS
 62
     2
 10
61.547012705492527
 20
189.15359729055319
 30
0.0
 11
61.503399408623423
 21
188.32140601159099
 31
0.0
 12
59.028632220171538
 22
188.8683415416794
 32
0.0
 13
59.028632220171538
 23
188.8683415416794
 33
0.0
  0
SOLID
  5
5C7C7
  8
0
  6
CONTINUOUS
 62
     2
 10
71.533308053038297
 20
188.63023772812389
 30
0.0
 11
71.4896947561692
 21
187.7980464491618
 31
0.0
 12
74.008075241490189
 22
188.0833021980356
 32
0.0
 13
74.008075241490189
 23
188.0833021980356
 33
0.0
  0
INSERT
  5
5C7C8
  8
0
  6
CONTINUOUS
  2
*U256
 10
0.0
 20
0.0
 30
0.0
  0
POINT
  5
5C7C9
  8
DEFPOINTS
  6
CONTINUOUS
 62
     0
 10
58.758390299783962
 20
183.71181852000791
 30
0.0
  0
POINT
  5
5C7CA
  8
DEFPOINTS
  6
CONTINUOUS
 62
     0
 10
73.737833321102585
 20
182.92677917636371
 30
0.0
  0
POINT
  5
5C7CB
  8
DEFPOINTS
  6
CONTINUOUS
 62
     0
 10
74.008075241490189
 20
188.0833021980356
 30
0.0
  0
ENDBLK
  5
5C7CC
  8
0
  0
BLOCK
  8
0
  2
*D104
 70
     1
 10
0.0
 20
0.0
 30
0.0
  3
*D104
  1

  0
LINE
  5
5C7CF
  8
0
  6
CONTINUOUS
 62
     2
 10
52.766613091256531
 20
184.02583425746531
 30
0.0
 11
53.099658159135643
 21
190.38071272084281
 31
0.0
  0
LINE
  5
5C7D0
  8
0
  6
CONTINUOUS
 62
     2
 10
58.758390299783947
 20
183.7118185200078
 30
0.0
 11
59.091435367663067
 21
190.0666969833853
 31
0.0
  0
LINE
  5
5C7D1
  8
0
  6
CONTINUOUS
 62
     2
 10
50.540281174757702
 20
189.3131971697446
 30
0.0
 11
48.043707337871261
 21
189.44403706035189
 31
0.0
  0
LINE
  5
5C7D2
  8
0
  6
CONTINUOUS
 62
     2
 10
61.525206057057993
 20
188.73750165107239
 30
0.0
 11
64.021779893944426
 21
188.6066617604651
 31
0.0
  0
LINE
  5
5C7D3
  8
0
  6
CONTINUOUS
 62
     2
 10
53.036855011644128
 20
189.18235727913731
 30
0.0
 11
59.028632220171559
 21
188.8683415416798
 31
0.0
  0
SOLID
  5
5C7D4
  8
0
  6
CONTINUOUS
 62
     2
 10
50.562087823192257
 20
189.72929280922571
 30
0.0
 11
50.518474526323153
 21
188.8971015302636
 31
0.0
 12
53.036855011644128
 22
189.18235727913731
 32
0.0
 13
53.036855011644128
 23
189.18235727913731
 33
0.0
  0
SOLID
  5
5C7D5
  8
0
  6
CONTINUOUS
 62
     2
 10
61.547012705492548
 20
189.15359729055351
 30
0.0
 11
61.503399408623437
 21
188.32140601159139
 31
0.0
 12
59.028632220171559
 22
188.8683415416798
 32
0.0
 13
59.028632220171559
 23
188.8683415416798
 33
0.0
  0
INSERT
  5
5C7D6
  8
0
  6
CONTINUOUS
  2
*U257
 10
0.0
 20
0.0
 30
0.0
  0
POINT
  5
5C7D7
  8
DEFPOINTS
  6
CONTINUOUS
 62
     0
 10
52.766613091256531
 20
184.02583425746531
 30
0.0
  0
POINT
  5
5C7D8
  8
DEFPOINTS
  6
CONTINUOUS
 62
     0
 10
58.758390299783947
 20
183.7118185200078
 30
0.0
  0
POINT
  5
5C7D9
  8
DEFPOINTS
  6
CONTINUOUS
 62
     0
 10
59.028632220171559
 20
188.8683415416798
 30
0.0
  0
ENDBLK
  5
5C7DA
  8
0
  0
BLOCK
  8
0
  2
GFDGSD
 70
     0
 10
0.0
 20
0.0
 30
0.0
  3
GFDGSD
  1

  0
LINE
  5
5C7DE
  8
0
  6
CONTINUOUS
 62
     3
 10
82.192617874430482
 20
175.4310635089281
 30
0.0
 11
84.960329531165655
 21
178.31054456362361
 31
0.0
  0
POLYLINE
  5
5C7DF
  8
0
  6
CONTINUOUS
 62
     7
 66
     1
 10
0.0
 20
0.0
 30
0.0
 70
     1
 40
0.5
 41
0.5
  0
VERTEX
  5
5EF8E
  8
0
  6
CONTINUOUS
 62
     7
 10
79.207892992188803
 20
175.58596633221259
 30
0.0
 42
-1.0
  0
VERTEX
  5
5EF8F
  8
0
  6
CONTINUOUS
 62
     7
 10
79.707207759566074
 20
175.55979835409121
 30
0.0
 42
-1.0
  0
SEQEND
  5
5EF90
  8
0
  6
CONTINUOUS
 62
     7
  0
CIRCLE
  5
5C7E0
  8
0
  6
PHANTOM2
 62
     4
 10
76.631672286546745
 20
180.82254820038699
 30
0.0
 40
5.961927422267074
  0
LINE
  5
5C7E1
  8
0
  6
CONTINUOUS
 62
     3
 10
42.17272514435399
 20
180.96057509519619
 30
0.0
 11
45.176829130457911
 21
177.24960184239009
 31
0.0
  0
INSERT
  5
5C7E2
  8
0
  6
CONTINUOUS
 62
     2
  2
*X258
 10
0.0
 20
0.0
 30
0.0
1001
ACAD
1000
HATCH
1002
{
1070
    19
1000
ANSI31
1040
20.0
1040
6.2308254296197561
1000
R14_HATCH_DATA
1000
5C7E2
1011
1.0
1021
0.0
1031
0.0
1021
0.0
1031
0.0
1011
0.0
1021
0.0
1031
0.0
1021
1.0
1031
0.0
1011
0.0
1021
0.0
1031
0.0
1021
0.0
1031
1.0
1040
0.0
1010
0.0
1020
0.0
1030
1.0
1000
ANSI31
1070
     0
1070
     0
1071
        4
1071
       23
1070
     1
1070
     1
1071
        8
1040
51.792279289525467
1040
181.98186458513041
1040
0.2679491924311664
1040
50.785874607991062
1040
182.63543142714889
1040
0.0
1040
44.794097399463418
1040
182.94944716460631
1040
-0.2679491924311162
1040
45.800502080997937
1040
182.29588032258829
1040
0.0
1040
46.115035925679251
1040
181.67857289468
1040
0.2679491924312273
1040
46.618238266446937
1040
181.35178947367129
1040
0.0
1040
52.61001547497397
1040
181.03777373621361
1040
-0.2679491924310426
1040
52.106813134206668
1040
181.36455715722229
1040
0.0
1071
        0
1071
        7
1070
     1
1070
     1
1071
       19
1040
60.582941419213569
1040
182.12198891208459
1040
0.2679491924310495
1040
59.513733590187769
1040
181.57720031239751
1040
0.0
1040
59.136396598014642
1040
180.9961522985993
1040
-0.267949192430959
1040
58.601792683501863
1040
180.7237579987559
1040
0.0
1040
46.61823826644649
1040
181.35178947367129
1040
-0.2679491924311177
1040
46.115035925679251
1040
181.6785728946802
1040
0.0
1040
45.800502080997937
1040
182.2958803225884
1040
0.2679491924310966
1040
44.794097399463404
1040
182.94944716460631
1040
0.0
1040
41.945062330986502
1040
183.0987587656445
1040
0.0
1040
42.17272514435399
1040
180.96057509519639
1040
0.0
1040
45.176829130457911
1040
177.24960184239009
1040
0.0
1040
53.178323122749582
1040
174.5963806039918
1040
0.0
1040
66.687455405675337
1040
173.44639555775399
1040
0.0
1040
74.370360565169051
1040
173.48575298315129
1040
0.0
1040
79.915323009238989
1040
174.8647249833073
1040
0.0
1040
79.59326980213325
1040
175.36292940238471
1040
-0.4441191269304323
1040
79.234981400944363
1040
175.45902694627861
1040
-0.5709145023684346
1040
70.677915478607645
1040
181.13457137308251
1040
-0.0192153241715212
1040
70.719444838186519
1040
181.59075727820141
1040
0.0
1071
        0
1071
        7
1070
     1
1070
     1
1071
       14
1040
73.581235704820017
1040
179.9387186551117
1040
-0.267949192431125
1040
73.078033364052715
1040
180.26550207612061
1040
0.0
1040
72.763499519371521
1040
180.88280950402881
1040
0.2679491924311041
1040
71.757094837837144
1040
181.53637634604661
1040
0.0
1040
70.719444838186519
1040
181.59075727820141
1040
0.0192153241715212
1040
70.677915478607645
1040
181.13457137308251
1040
0.5709145023684346
1040
79.234981400944363
1040
175.45902694627861
1040
-0.979248883116705
1040
79.675150452947719
1040
175.69596851808231
1040
0.2507365363306366
1040
82.585429094485846
1040
180.51052502769181
1040
0.0192153241715104
1040
82.591811648710404
1040
180.96855289882791
1040
0.0
1040
81.554161649059381
1040
181.02293383098259
1040
0.2679491924310668
1040
80.484953820033525
1040
180.47814523129551
1040
0.0
1040
80.107616827860681
1040
179.8970972174975
1040
-0.267949192430999
1040
79.573012913347782
1040
179.6247029176541
1040
0.0
1071
        0
1071
        7
1070
     1
1070
     1
1071
        9
1040
84.960329531165655
1040
178.31054456362361
1040
0.0
1040
85.667283733651516
1040
180.80737423660921
1040
0.0
1040
82.591811648710404
1040
180.9685528988278
1040
-0.0192153241715092
1040
82.585429094485846
1040
180.51052502769181
1040
-0.2507365363306379
1040
79.675150452947719
1040
175.69596851808231
1040
-0.1427431609333959
1040
79.707207759566074
1040
175.55979835409121
1040
-0.2406337495410551
1040
79.593269802133364
1040
175.36292940238471
1040
0.0
1040
79.915323009239103
1040
174.8647249833073
1040
0.0
1040
82.192617874430482
1040
175.4310635089281
1040
0.0
1071
        0
1070
     0
1070
     1
1040
6.2308254296197561
1040
20.0
1070
     0
1070
     1
1040
0.7330382858376187
1040
0.0
1040
0.0
1040
-1.672826515897144
1040
1.8578620636934859
1070
     0
1040
0.0152357963139015
1071
        4
1040
48.326243435448987
1040
181.95214309844789
1040
0.0
1040
64.240795955933834
1040
179.46095732254389
1040
0.0
1040
75.01244689979967
1040
177.95018648903761
1040
0.0
1040
83.478778121422181
1040
178.30715962531221
1040
0.0
1002
}
  0
LINE
  5
5C7E3
  8
0
  6
CONTINUOUS
 62
     3
 10
45.176829130457911
 20
177.24960184239009
 30
0.0
 11
53.178323122749582
 21
174.5963806039918
 31
0.0
  0
LINE
  5
5C7E4
  8
0
  6
CONTINUOUS
 62
     2
 10
85.649262419686053
 20
167.913923686712
 30
0.0
 11
90.470261299307424
 21
167.913923686712
 31
0.0
  0
TEXT
  5
5C7E5
  8
0
  6
CONTINUOUS
 62
     3
 10
86.482335424811538
 20
168.47174772170101
 30
0.0
 40
3.0
  1
Y
  0
TEXT
  5
5C7E6
  8
0
  6
CONTINUOUS
 62
     7
 10
54.898355885921937
 20
164.83469792811309
 30
0.0
 40
3.0
  1
DETAIL X
  0
LINE
  5
5C7E7
  8
0
  6
CONTINUOUS
 62
     7
 10
54.876404020448433
 20
163.17182602553351
 30
0.0
 11
71.669684797154957
 21
163.17182602553351
 31
0.0
  0
LINE
  5
5C7E8
  8
0
  6
CONTINUOUS
 62
     3
 10
54.876404020448433
 20
164.17182602553351
 30
0.0
 11
71.669684797154957
 21
164.17182602553351
 31
0.0
  0
LINE
  5
5C7E9
  8
0
  6
CONTINUOUS
 62
     3
 10
66.687455405675792
 20
173.44639555775399
 30
0.0
 11
74.370360565169165
 21
173.48575298315151
 31
0.0
  0
LINE
  5
5C7EA
  8
0
  6
CONTINUOUS
 62
     3
 10
53.178323122749582
 20
174.5963806039918
 30
0.0
 11
66.687455405675792
 21
173.44639555775399
 31
0.0
  0
LINE
  5
5C7EB
  8
0
  6
CONTINUOUS
 62
     2
 10
79.457550375877474
 20
175.572882343152
 30
0.0
 11
85.649262419686053
 21
167.913923686712
 31
0.0
  0
LINE
  5
5C7EC
  8
0
  6
CONTINUOUS
 62
     3
 10
74.370360565169165
 20
173.48575298315151
 30
0.0
 11
82.192617874430482
 21
175.4310635089281
 31
0.0
  0
LINE
  5
5C7ED
  8
0
  6
CONTINUOUS
 10
52.61001547497397
 20
181.03777373621361
 30
0.0
 11
58.601792683501287
 21
180.7237579987559
 31
0.0
  0
LINE
  5
5C7EE
  8
0
  6
CONTINUOUS
 62
     7
 10
41.945062330986502
 20
183.0987587656445
 30
0.0
 11
50.785874607991062
 21
182.63543142714889
 31
0.0
  0
LINE
  5
5C7EF
  8
0
  6
CONTINUOUS
 62
     3
 10
42.17272514435399
 20
180.96057509519619
 30
0.0
 11
41.945062330986502
 21
183.0987587656445
 31
0.0
  0
DIMENSION
  5
5C7F0
  8
0
  6
CONTINUOUS
 62
     7
  2
*D102
 10
79.999852450017613
 20
187.76928646057809
 30
0.0
 11
77.134819189891601
 21
190.42316303711891
 31
0.0
  1
2
  3
KSM
 13
73.737833321102585
 23
182.92677917636371
 33
0.0
 14
79.729610529629994
 24
182.61276343890609
 34
0.0
 50
357.00000000000108
1001
ACAD
1000
DSTYLE
1002
{
1070
    47
1040
0.1
1070
    71
1070
     0
1070
    48
1040
-0.02
1070
   146
1040
0.7
1070
   272
1070
     3
1070
   271
1070
     3
1070
    41
1040
2.5
1002
}
  0
DIMENSION
  5
5C7F1
  8
0
  6
CONTINUOUS
 62
     7
  2
*D103
 10
74.008075241490189
 20
188.0833021980356
 30
0.0
 11
66.649193621438172
 21
190.9723957067439
 31
0.0
  1
5
  3
KSM
 13
58.758390299783969
 23
183.71181852000791
 33
0.0
 14
73.737833321102585
 24
182.92677917636371
 34
0.0
 50
357.00000000000108
1001
ACAD
1000
DSTYLE
1002
{
1070
    47
1040
0.1
1070
    71
1070
     0
1070
    48
1040
-0.02
1070
   146
1040
0.7
1070
   272
1070
     3
1070
   271
1070
     3
1070
    41
1040
2.5
1002
}
  0
LINE
  5
5C7F2
  8
0
  6
CONTINUOUS
 62
     7
 10
60.582941419213569
 20
182.12198891208459
 30
0.0
 11
71.757094837837144
 21
181.53637634604661
 31
0.0
  0
LINE
  5
5C7F3
  8
0
  6
CENTER
 62
     2
 10
58.722683999229268
 20
183.03050171851061
 30
0.0
 11
58.448541708314217
 21
177.79955519367289
 31
0.0
  0
ARC
  5
5C7F4
  8
0
  6
CONTINUOUS
 62
     7
 10
60.520138271722033
 20
180.9236334703792
 30
0.0
 40
1.1999999999999991
 50
87.000000000000909
 51
146.99999999998781
  0
LINE
  5
5C7F5
  8
0
  6
CONTINUOUS
 62
     7
 10
59.136396598014642
 20
180.9961522985993
 30
0.0
 11
59.513733590187712
 21
181.57720031239739
 31
0.0
  0
ARC
  5
5C7F6
  8
0
  6
CONTINUOUS
 62
     7
 10
58.633194257247169
 20
181.32293571960861
 30
0.0
 40
0.6
 50
267.00000000000091
 51
326.9999999999996
  0
LINE
  5
5C7F7
  8
0
  6
CENTER
 62
     2
 10
73.702127020547891
 20
182.24546237486629
 30
0.0
 11
73.42798472963284
 21
177.0145158500286
 31
0.0
  0
LINE
  5
5C7F8
  8
0
  6
CENTER
 62
     2
 10
79.693904229075315
 20
181.93144663740881
 30
0.0
 11
79.419761938160264
 21
176.70050011257109
 31
0.0
  0
LINE
  5
5C7F9
  8
0
  6
CONTINUOUS
 10
73.581235704819903
 20
179.9387186551117
 30
0.0
 11
79.573012913347327
 21
179.6247029176541
 31
0.0
  0
ARC
  5
5C7FA
  8
0
  6
CONTINUOUS
 62
     7
 10
71.694291690345608
 20
180.33802090434119
 30
0.0
 40
1.1999999999999991
 50
27.000000000001759
 51
87.000000000000909
  0
LINE
  5
5C7FB
  8
0
  6
CONTINUOUS
 62
     7
 10
73.078033364052715
 20
180.26550207612061
 30
0.0
 11
72.763499519371521
 21
180.88280950402881
 31
0.0
  0
ARC
  5
5C7FC
  8
0
  6
CONTINUOUS
 62
     7
 10
73.612637278565785
 20
180.53789637596449
 30
0.0
 40
0.6
 50
206.99999999999011
 51
267.00000000000091
  0
ARC
  5
5C7FD
  8
0
  6
CONTINUOUS
 62
     7
 10
81.491358501567845
 20
179.82457838927721
 30
0.0
 40
1.1999999999999991
 50
87.000000000000909
 51
146.99999999998781
  0
LINE
  5
5C7FE
  8
0
  6
CONTINUOUS
 62
     7
 10
80.107616827860681
 20
179.8970972174975
 30
0.0
 11
80.484953820033525
 21
180.47814523129551
 31
0.0
  0
LINE
  5
5C7FF
  8
0
  6
CONTINUOUS
 62
     7
 10
81.554161649059381
 20
181.02293383098259
 30
0.0
 11
85.667283733651644
 21
180.80737423660921
 31
0.0
  0
LINE
  5
5C800
  8
0
  6
CONTINUOUS
 62
     3
 10
84.960329531165655
 20
178.31054456362361
 30
0.0
 11
85.667283733651644
 21
180.80737423660941
 31
0.0
  0
ARC
  5
5C801
  8
0
  6
CONTINUOUS
 62
     7
 10
79.604414487093209
 20
180.22388063850681
 30
0.0
 40
0.6
 50
267.00000000000091
 51
326.9999999999996
  0
LINE
  5
5C802
  8
0
  6
CENTER
 62
     2
 10
52.730906790701837
 20
183.344517455968
 30
0.0
 11
52.456764499786793
 21
178.11357093113031
 31
0.0
  0
ARC
  5
5C803
  8
0
  6
CONTINUOUS
 62
     7
 10
50.723071460499561
 20
181.4370759854429
 30
0.0
 40
1.1999999999999991
 50
27.000000000001801
 51
87.000000000000924
  0
LINE
  5
5C804
  8
0
  6
CONTINUOUS
 62
     7
 10
52.106813134206668
 20
181.36455715722229
 30
0.0
 11
51.792279289525467
 21
181.98186458513041
 31
0.0
  0
ARC
  5
5C805
  8
0
  6
CONTINUOUS
 62
     7
 10
52.641417048719738
 20
181.63695145706609
 30
0.0
 40
0.6
 50
206.99999999999
 51
267.00000000000091
  0
DIMENSION
  5
5C806
  8
0
  6
CONTINUOUS
 62
     7
  2
*D104
 10
59.028632220171559
 20
188.8683415416798
 30
0.0
 11
56.163598960045547
 21
191.52221811822059
 31
0.0
  1
2
  3
KSM
 13
52.766613091256531
 23
184.02583425746531
 33
0.0
 14
58.758390299783962
 24
183.7118185200078
 34
0.0
 50
357.00000000000108
1001
ACAD
1000
DSTYLE
1002
{
1070
    47
1040
0.1
1070
    71
1070
     0
1070
    48
1040
-0.02
1070
   146
1040
0.7
1070
   272
1070
     3
1070
   271
1070
     3
1070
    41
1040
2.5
1002
}
  0
ENDBLK
  5
5C807
  8
0
  0
BLOCK
  8
0
  2
*D108
 70
     1
 10
0.0
 20
0.0
 30
0.0
  3
*D108
  1

  0
LINE
  5
5EFE3
  8
0
  6
CONTINUOUS
 62
     2
 10
180.63959040481299
 20
116.003899725648
 30
0.0
 11
172.74238654386619
 21
102.32554140075869
 31
0.0
  0
LINE
  5
5EFE4
  8
0
  6
CONTINUOUS
 62
     2
 10
184.12034125093211
 20
121.10043108011379
 30
0.0
 11
184.12034125093189
 21
99.276827625482554
 31
0.0
  0
ARC
  5
5EFE5
  8
0
  6
CONTINUOUS
 62
     2
 10
184.12034125093211
 20
122.0327370396146
 30
0.0
 40
21.755909414132109
 50
246.58756076614529
 51
263.41243923385429
  0
SOLID
  5
5EFE6
  8
0
  6
CONTINUOUS
 62
     2
 10
175.2884364086423
 20
101.69580911629249
 30
0.0
 11
175.6629497202492
 21
102.4402446231523
 31
0.0
 12
173.24238654386619
 22
103.1915668045431
 32
0.0
 13
173.24238654386619
 23
103.1915668045431
 33
0.0
  0
SOLID
  5
5EFE7
  8
0
  6
CONTINUOUS
 62
     2
 10
181.64841095802359
 20
100.8364451181628
 30
0.0
 11
181.60053124650079
 21
100.0044884019396
 31
0.0
 12
184.12034125093189
 22
100.2768276254826
 32
0.0
 13
184.12034125093189
 23
100.2768276254826
 33
0.0
  0
TEXT
  8
0
  40
3
  5
5F0ED
  62
3
  72
0
  71
0
 10
179.033
 20
99.1466
 30
0.000000
  1
30?
  0
POINT
  5
5EFE9
  8
DEFPOINTS
  6
CONTINUOUS
 62
     0
 10
176.6793819949304
 20
101.588869504668
 30
0.0
  0
POINT
  5
5EFEA
  8
DEFPOINTS
  6
CONTINUOUS
 62
     0
 10
183.57738555129359
 20
121.0923101815816
 30
0.0
  0
POINT
  5
5EFEB
  8
DEFPOINTS
  6
CONTINUOUS
 62
     0
 10
184.1203412509324
 20
140.27351496791991
 30
0.0
  0
POINT
  5
5EFEC
  8
DEFPOINTS
  6
CONTINUOUS
 62
     0
 10
184.12034125093211
 20
121.7004310801138
 30
0.0
  0
POINT
  5
5EFED
  8
DEFPOINTS
  6
CONTINUOUS
 62
     0
 10
180.93959040481309
 20
116.5235149679186
 30
0.0
  0
ENDBLK
  5
5E5DB
  8
0
  0
BLOCK
  8
0
  2
*D111
 70
     1
 10
0.0
 20
0.0
 30
0.0
  3
*D111
  1

  0
LINE
  5
5EFB5
  8
0
  6
CONTINUOUS
 62
     2
 10
134.12034125093231
 20
117.4485149679187
 30
0.0
 11
134.12034125093231
 21
91.210205489201513
 31
0.0
  0
LINE
  5
5EFB6
  8
0
  6
CONTINUOUS
 62
     2
 10
284.12034125093209
 20
127.1479972512759
 30
0.0
 11
284.12034125093209
 21
91.210205489201513
 31
0.0
  0
LINE
  5
5EFB7
  8
0
  6
CONTINUOUS
 62
     2
 10
136.62034125093231
 20
92.210205489201513
 30
0.0
 11
281.6203412509322
 21
92.210205489201513
 31
0.0
  0
SOLID
  5
5EFB8
  8
0
  6
CONTINUOUS
 62
     2
 10
136.62034125093231
 20
92.626872155868185
 30
0.0
 11
136.62034125093231
 21
91.793538822534856
 31
0.0
 12
134.12034125093231
 22
92.210205489201513
 32
0.0
 13
134.12034125093231
 23
92.210205489201513
 33
0.0
  0
SOLID
  5
5EFB9
  8
0
  6
CONTINUOUS
 62
     2
 10
281.6203412509322
 20
92.626872155868185
 30
0.0
 11
281.6203412509322
 21
91.793538822534856
 31
0.0
 12
284.12034125093209
 22
92.210205489201513
 32
0.0
 13
284.12034125093209
 23
92.210205489201513
 33
0.0
  0
TEXT
  8
0
  40
3
  5
5F0EE
  62
3
  72
0
  71
0
 10
209.120
 20
90.4102
 30
0.000000
  1
150
  0
POINT
  5
5EFBB
  8
DEFPOINTS
  6
CONTINUOUS
 62
     0
 10
134.12034125093231
 20
118.04851496791861
 30
0.0
  0
POINT
  5
5EFBC
  8
DEFPOINTS
  6
CONTINUOUS
 62
     0
 10
284.12034125093209
 20
127.7479972512759
 30
0.0
  0
POINT
  5
5EFBD
  8
DEFPOINTS
  6
CONTINUOUS
 62
     0
 10
284.12034125093209
 20
92.210205489201513
 30
0.0
  0
ENDBLK
  5
5E5FB
  8
0
  0
BLOCK
  8
0
  2
*D112
 70
     1
 10
0.0
 20
0.0
 30
0.0
  3
*D112
  1

  0
LINE
  5
5EFBE
  8
0
  6
CONTINUOUS
 62
     2
 10
65.870341250932483
 20
128.69875593553331
 30
0.0
 11
65.870341250932483
 21
91.210205489201513
 31
0.0
  0
LINE
  5
5EFBF
  8
0
  6
CONTINUOUS
 62
     2
 10
134.12034125093231
 20
117.4485149679187
 30
0.0
 11
134.12034125093231
 21
91.210205489201513
 31
0.0
  0
LINE
  5
5EFC0
  8
0
  6
CONTINUOUS
 62
     2
 10
68.370341250932483
 20
92.210205489201513
 30
0.0
 11
131.6203412509324
 21
92.210205489201513
 31
0.0
  0
SOLID
  5
5EFC1
  8
0
  6
CONTINUOUS
 62
     2
 10
68.370341250932483
 20
92.626872155868185
 30
0.0
 11
68.370341250932483
 21
91.793538822534856
 31
0.0
 12
65.870341250932483
 22
92.210205489201513
 32
0.0
 13
65.870341250932483
 23
92.210205489201513
 33
0.0
  0
SOLID
  5
5EFC2
  8
0
  6
CONTINUOUS
 62
     2
 10
131.6203412509324
 20
92.626872155868185
 30
0.0
 11
131.6203412509324
 21
91.793538822534856
 31
0.0
 12
134.12034125093231
 22
92.210205489201513
 32
0.0
 13
134.12034125093231
 23
92.210205489201513
 33
0.0
  0
TEXT
  8
0
  40
3
  5
5F0EF
  62
3
  72
0
  71
0
 10
99.9953
 20
90.4105
 30
0.000000
  1
68.25
  0
POINT
  5
5EFC4
  8
DEFPOINTS
  6
CONTINUOUS
 62
     0
 10
65.870341250932483
 20
129.29875593553331
 30
0.0
  0
POINT
  5
5EFC5
  8
DEFPOINTS
  6
CONTINUOUS
 62
     0
 10
134.12034125093231
 20
118.04851496791861
 30
0.0
  0
POINT
  5
5EFC6
  8
DEFPOINTS
  6
CONTINUOUS
 62
     0
 10
134.12034125093231
 20
92.210205489201513
 30
0.0
  0
ENDBLK
  5
5E607
  8
0
  0
BLOCK
  8
0
  2
*D113
 70
     1
 10
0.0
 20
0.0
 30
0.0
  3
*D113
  1

  0
LINE
  5
5EFAC
  8
0
  6
CONTINUOUS
 62
     2
 10
65.870341250932483
 20
128.69875593553331
 30
0.0
 11
65.870341250932483
 21
83.210205489201542
 31
0.0
  0
LINE
  5
5EFAD
  8
0
  6
CONTINUOUS
 62
     2
 10
284.12034125093209
 20
127.1479972512759
 30
0.0
 11
284.12034125093209
 21
83.210205489201542
 31
0.0
  0
LINE
  5
5EFAE
  8
0
  6
CONTINUOUS
 62
     2
 10
68.370341250932483
 20
84.210205489201542
 30
0.0
 11
281.6203412509322
 21
84.210205489201542
 31
0.0
  0
SOLID
  5
5EFAF
  8
0
  6
CONTINUOUS
 62
     2
 10
68.370341250932483
 20
84.626872155868213
 30
0.0
 11
68.370341250932483
 21
83.793538822534885
 31
0.0
 12
65.870341250932483
 22
84.210205489201542
 32
0.0
 13
65.870341250932483
 23
84.210205489201542
 33
0.0
  0
SOLID
  5
5EFB0
  8
0
  6
CONTINUOUS
 62
     2
 10
281.6203412509322
 20
84.626872155868213
 30
0.0
 11
281.6203412509322
 21
83.793538822534885
 31
0.0
 12
284.12034125093209
 22
84.210205489201542
 32
0.0
 13
284.12034125093209
 23
84.210205489201542
 33
0.0
  0
TEXT
  8
0
  40
3
  5
5F0F0
  62
3
  72
0
  71
0
 10
174.995
 20
82.4105
 30
0.000000
  1
218.25
  0
POINT
  5
5EFB2
  8
DEFPOINTS
  6
CONTINUOUS
 62
     0
 10
65.870341250932483
 20
129.29875593553331
 30
0.0
  0
POINT
  5
5EFB3
  8
DEFPOINTS
  6
CONTINUOUS
 62
     0
 10
284.12034125093209
 20
127.7479972512759
 30
0.0
  0
POINT
  5
5EFB4
  8
DEFPOINTS
  6
CONTINUOUS
 62
     0
 10
284.12034125093209
 20
84.210205489201542
 30
0.0
  0
ENDBLK
  5
5E613
  8
0
  0
BLOCK
  8
0
  2
*D126
 70
     1
 10
0.0
 20
0.0
 30
0.0
  3
*D126
  1

  0
LINE
  5
5EFC7
  8
0
  6
CONTINUOUS
 62
     2
 10
284.7203412509333
 20
127.2735149679184
 30
0.0
 11
305.37014833094997
 21
127.2735149679184
 31
0.0
  0
LINE
  5
5EFC8
  8
0
  6
CONTINUOUS
 62
     2
 10
284.7203412509333
 20
153.2735149679184
 30
0.0
 11
305.37014833095009
 21
153.2735149679184
 31
0.0
  0
LINE
  5
5EFC9
  8
0
  6
CONTINUOUS
 62
     2
 10
304.37014833095009
 20
129.7735149679184
 30
0.0
 11
304.37014833095009
 21
150.7735149679184
 31
0.0
  0
SOLID
  5
5EFCA
  8
0
  6
CONTINUOUS
 62
     2
 10
303.9534816642834
 20
129.7735149679184
 30
0.0
 11
304.78681499761677
 21
129.7735149679184
 31
0.0
 12
304.37014833094997
 22
127.2735149679184
 32
0.0
 13
304.37014833094997
 23
127.2735149679184
 33
0.0
  0
SOLID
  5
5EFCB
  8
0
  6
CONTINUOUS
 62
     2
 10
303.9534816642834
 20
150.7735149679184
 30
0.0
 11
304.78681499761677
 21
150.7735149679184
 31
0.0
 12
304.37014833095009
 22
153.2735149679184
 32
0.0
 13
304.37014833095009
 23
153.2735149679184
 33
0.0
  0
TEXT
  8
0
  40
3
  5
5F0F1
  62
3
  72
0
  71
0
 10
302.270
 20
136.374
 30
0.000000
  1
%%C26
  0
POINT
  5
5EFCD
  8
DEFPOINTS
  6
CONTINUOUS
 62
     0
 10
284.12034125093328
 20
127.2735149679184
 30
0.0
  0
POINT
  5
5EFCE
  8
DEFPOINTS
  6
CONTINUOUS
 62
     0
 10
284.12034125093328
 20
153.2735149679184
 30
0.0
  0
POINT
  5
5EFCF
  8
DEFPOINTS
  6
CONTINUOUS
 62
     0
 10
304.37014833095009
 20
153.2735149679184
 30
0.0
  0
ENDBLK
  5
5E6AA
  8
0
  0
BLOCK
  8
0
  2
*D129
 70
     1
 10
0.0
 20
0.0
 30
0.0
  3
*D129
  1

  0
LINE
  5
5EFDA
  8
0
  6
CONTINUOUS
 62
     2
 10
184.12034125093211
 20
121.10043108011379
 30
0.0
 11
184.12034125093211
 21
99.210205489201513
 31
0.0
  0
LINE
  5
5EFDB
  8
0
  6
CONTINUOUS
 62
     2
 10
284.12034125093209
 20
127.1479972512759
 30
0.0
 11
284.12034125093209
 21
99.210205489201513
 31
0.0
  0
LINE
  5
5EFDC
  8
0
  6
CONTINUOUS
 62
     2
 10
186.62034125093211
 20
100.2102054892015
 30
0.0
 11
281.6203412509322
 21
100.2102054892015
 31
0.0
  0
SOLID
  5
5EFDD
  8
0
  6
CONTINUOUS
 62
     2
 10
186.62034125093211
 20
100.6268721558682
 30
0.0
 11
186.62034125093211
 21
99.793538822534842
 31
0.0
 12
184.12034125093211
 22
100.2102054892015
 32
0.0
 13
184.12034125093211
 23
100.2102054892015
 33
0.0
  0
SOLID
  5
5EFDE
  8
0
  6
CONTINUOUS
 62
     2
 10
281.6203412509322
 20
100.6268721558682
 30
0.0
 11
281.6203412509322
 21
99.793538822534842
 31
0.0
 12
284.12034125093209
 22
100.2102054892015
 32
0.0
 13
284.12034125093209
 23
100.2102054892015
 33
0.0
  0
TEXT
  8
0
  40
3
  5
5F0F2
  62
3
  72
0
  71
0
 10
234.120
 20
98.4102
 30
0.000000
  1
100
  0
POINT
  5
5EFE0
  8
DEFPOINTS
  6
CONTINUOUS
 62
     0
 10
184.12034125093211
 20
121.7004310801138
 30
0.0
  0
POINT
  5
5EFE1
  8
DEFPOINTS
  6
CONTINUOUS
 62
     0
 10
284.12034125093209
 20
127.7479972512759
 30
0.0
  0
POINT
  5
5EFE2
  8
DEFPOINTS
  6
CONTINUOUS
 62
     0
 10
284.12034125093209
 20
100.2102054892015
 30
0.0
  0
ENDBLK
  5
5E6CC
  8
0
  0
BLOCK
  8
0
  2
*D132
 70
     1
 10
0.0
 20
0.0
 30
0.0
  3
*D132
  1

  0
LINE
  5
5F054
  8
0
  6
CONTINUOUS
 62
     2
 10
283.22034125093228
 20
133.92351496791841
 30
0.0
 11
297.37014833095009
 21
133.92351496791841
 31
0.0
  0
LINE
  5
5F055
  8
0
  6
CONTINUOUS
 62
     2
 10
283.22034125093228
 20
146.6235149679184
 30
0.0
 11
297.37014833095009
 21
146.6235149679184
 31
0.0
  0
LINE
  5
5F056
  8
0
  6
CONTINUOUS
 62
     2
 10
296.3701483309502
 20
136.42351496791841
 30
0.0
 11
296.3701483309502
 21
144.1235149679184
 31
0.0
  0
SOLID
  5
5F057
  8
0
  6
CONTINUOUS
 62
     2
 10
295.95348166428352
 20
136.42351496791841
 30
0.0
 11
296.78681499761689
 21
136.42351496791841
 31
0.0
 12
296.3701483309502
 22
133.92351496791841
 32
0.0
 13
296.3701483309502
 23
133.92351496791841
 33
0.0
  0
SOLID
  5
5F058
  8
0
  6
CONTINUOUS
 62
     2
 10
295.95348166428352
 20
144.1235149679184
 30
0.0
 11
296.78681499761689
 21
144.1235149679184
 31
0.0
 12
296.3701483309502
 22
146.6235149679184
 32
0.0
 13
296.3701483309502
 23
146.6235149679184
 33
0.0
  0
TEXT
  8
0
  40
3
  5
5F0F3
  62
3
  72
0
  71
0
 10
294.270
 20
136.374
 30
0.000000
  1
%%c12.7
  0
POINT
  5
5F05A
  8
DEFPOINTS
  6
CONTINUOUS
 62
     0
 10
282.62034125093231
 20
133.92351496791841
 30
0.0
  0
POINT
  5
5F05B
  8
DEFPOINTS
  6
CONTINUOUS
 62
     0
 10
282.62034125093231
 20
146.6235149679184
 30
0.0
  0
POINT
  5
5F05C
  8
DEFPOINTS
  6
CONTINUOUS
 62
     0
 10
296.3701483309502
 20
146.6235149679184
 30
0.0
  0
ENDBLK
  5
5E931
  8
0
  0
BLOCK
  8
0
  2
*D155
 70
     1
 10
0.0
 20
0.0
 30
0.0
  3
*D155
  1

  0
LINE
  5
5F0CB
  8
0
  6
CONTINUOUS
 62
     2
 10
179.80753959724581
 20
165.02351496791849
 30
0.0
 11
313.3701483309502
 21
165.02351496791849
 31
0.0
  0
LINE
  5
5F0CC
  8
0
  6
CONTINUOUS
 62
     2
 10
179.8075395972441
 20
115.5235149679186
 30
0.0
 11
313.37014833095009
 21
115.5235149679186
 31
0.0
  0
LINE
  5
5F0CD
  8
0
  6
CONTINUOUS
 62
     2
 10
312.37014833095009
 20
162.52351496791849
 30
0.0
 11
312.37014833095009
 21
118.0235149679186
 31
0.0
  0
SOLID
  5
5F0CE
  8
0
  6
CONTINUOUS
 62
     2
 10
311.9534816642834
 20
162.52351496791849
 30
0.0
 11
312.78681499761677
 21
162.52351496791849
 31
0.0
 12
312.37014833095009
 22
165.02351496791849
 32
0.0
 13
312.37014833095009
 23
165.02351496791849
 33
0.0
  0
SOLID
  5
5F0CF
  8
0
  6
CONTINUOUS
 62
     2
 10
311.9534816642834
 20
118.0235149679186
 30
0.0
 11
312.78681499761677
 21
118.0235149679186
 31
0.0
 12
312.37014833095009
 22
115.5235149679186
 32
0.0
 13
312.37014833095009
 23
115.5235149679186
 33
0.0
  0
TEXT
  8
0
  40
3
  5
5F0F4
  62
3
  72
0
  71
0
 10
310.270
 20
136.374
 30
0.000000
  1
%%C49.5
  0
POINT
  5
5F0D1
  8
DEFPOINTS
  6
CONTINUOUS
 62
     0
 10
179.20753959724581
 20
165.02351496791849
 30
0.0
  0
POINT
  5
5F0D2
  8
DEFPOINTS
  6
CONTINUOUS
 62
     0
 10
179.20753959724411
 20
115.5235149679186
 30
0.0
  0
POINT
  5
5F0D3
  8
DEFPOINTS
  6
CONTINUOUS
 62
     0
 10
312.37014833095009
 20
115.5235149679186
 30
0.0
  0
ENDBLK
  5
5EBFD
  8
0
  0
BLOCK
  8
0
  2
*D156
 70
     1
 10
0.0
 20
0.0
 30
0.0
  3
*D156
  1

  0
LINE
  5
5F0D4
  8
0
  6
CONTINUOUS
 62
     2
 10
247.1203412509324
 20
147.42351496791829
 30
0.0
 11
247.1203412509324
 21
178.02377169838491
 31
0.0
  0
LINE
  5
5F0D5
  8
0
  6
CONTINUOUS
 62
     2
 10
284.12034125093243
 20
153.39903268456109
 30
0.0
 11
284.12034125093243
 21
178.02377169838491
 31
0.0
  0
LINE
  5
5F0D6
  8
0
  6
CONTINUOUS
 62
     2
 10
249.62034125093231
 20
177.02377169838491
 30
0.0
 11
281.62034125093243
 21
177.02377169838491
 31
0.0
  0
SOLID
  5
5F0D7
  8
0
  6
CONTINUOUS
 62
     2
 10
249.62034125093231
 20
177.44043836505159
 30
0.0
 11
249.62034125093231
 21
176.60710503171831
 31
0.0
 12
247.1203412509324
 22
177.02377169838491
 32
0.0
 13
247.1203412509324
 23
177.02377169838491
 33
0.0
  0
SOLID
  5
5F0D8
  8
0
  6
CONTINUOUS
 62
     2
 10
281.62034125093243
 20
177.44043836505159
 30
0.0
 11
281.62034125093243
 21
176.60710503171831
 31
0.0
 12
284.12034125093243
 22
177.02377169838491
 32
0.0
 13
284.12034125093243
 23
177.02377169838491
 33
0.0
  0
TEXT
  8
0
  40
3
  5
5F0F5
  62
3
  72
0
  71
0
 10
265.620
 20
175.224
 30
0.000000
  1
37
  0
POINT
  5
5F0DA
  8
DEFPOINTS
  6
CONTINUOUS
 62
     0
 10
247.1203412509324
 20
146.8235149679183
 30
0.0
  0
POINT
  5
5F0DB
  8
DEFPOINTS
  6
CONTINUOUS
 62
     0
 10
284.12034125093243
 20
152.7990326845611
 30
0.0
  0
POINT
  5
5F0DC
  8
DEFPOINTS
  6
CONTINUOUS
 62
     0
 10
284.12034125093243
 20
177.02377169838491
 30
0.0
  0
ENDBLK
  5
5EC5E
  8
0
  0
BLOCK
  8
0
  2
*X158
 70
     1
 10
0.0
 20
0.0
 30
0.0
  3
*X158
  1

  0
LINE
  5
5ED7F
  8
0
  6
CONTINUOUS
 62
     0
 10
296.9863583648297
 20
146.99461131214369
 30
0.0
 11
297.22609957894878
 21
147.09865977717971
 31
0.0
  0
LINE
  5
5ED80
  8
0
  6
CONTINUOUS
 62
     0
 10
296.0131104100642
 20
146.64035096079891
 30
0.0
 11
297.06910472774467
 21
147.0986559220259
 31
0.0
  0
LINE
  5
5ED81
  8
0
  6
CONTINUOUS
 62
     0
 10
295.0398624552987
 20
146.28609060945399
 30
0.0
 11
296.91210987654091
 21
147.09865206687221
 31
0.0
  0
LINE
  5
5ED82
  8
0
  6
CONTINUOUS
 62
     0
 10
294.06661450053321
 20
145.9318302581091
 30
0.0
 11
296.75511502533709
 21
147.09864821171851
 31
0.0
  0
LINE
  5
5ED83
  8
0
  6
CONTINUOUS
 62
     0
 10
293.09336654576771
 20
145.5775699067643
 30
0.0
 11
296.5981201741331
 21
147.09864435656471
 31
0.0
  0
LINE
  5
5ED84
  8
0
  6
CONTINUOUS
 62
     0
 10
292.12011859100232
 20
145.22330955541941
 30
0.0
 11
296.44112532292922
 21
147.09864050141101
 31
0.0
  0
LINE
  5
5ED85
  8
0
  6
CONTINUOUS
 62
     0
 10
291.30134492973377
 20
144.93609154881671
 30
0.0
 11
296.2841304717254
 21
147.09863664625729
 31
0.0
  0
LINE
  5
5ED86
  8
0
  6
CONTINUOUS
 62
     0
 10
291.27992819882309
 20
144.994929037905
 30
0.0
 11
296.12713562052141
 21
147.0986327911036
 31
0.0
  0
LINE
  5
5ED87
  8
0
  6
CONTINUOUS
 62
     0
 10
291.25851146791229
 20
145.05376652699329
 30
0.0
 11
295.97014076931748
 21
147.09862893594979
 31
0.0
  0
LINE
  5
5ED88
  8
0
  6
CONTINUOUS
 62
     0
 10
291.2370947370016
 20
145.11260401608149
 30
0.0
 11
295.81314591811361
 21
147.0986250807961
 31
0.0
  0
LINE
  5
5ED89
  8
0
  6
CONTINUOUS
 62
     0
 10
291.2156780060908
 20
145.1714415051697
 30
0.0
 11
295.65615106690962
 21
147.09862122564229
 31
0.0
  0
LINE
  5
5ED8A
  8
0
  6
CONTINUOUS
 62
     0
 10
291.19426127518011
 20
145.23027899425799
 30
0.0
 11
295.4991562157058
 21
147.09861737048871
 31
0.0
  0
LINE
  5
5ED8B
  8
0
  6
CONTINUOUS
 62
     0
 10
291.17284454426931
 20
145.28911648334619
 30
0.0
 11
295.34216136450198
 21
147.09861351533499
 31
0.0
  0
LINE
  5
5ED8C
  8
0
  6
CONTINUOUS
 62
     0
 10
291.15142781335862
 20
145.3479539724344
 30
0.0
 11
295.18516651329787
 21
147.0986096601811
 31
0.0
  0
LINE
  5
5ED8D
  8
0
  6
CONTINUOUS
 62
     0
 10
291.13001108244799
 20
145.40679146152269
 30
0.0
 11
295.028171662094
 21
147.09860580502749
 31
0.0
  0
LINE
  5
5ED8E
  8
0
  6
CONTINUOUS
 62
     0
 10
291.10859435153719
 20
145.46562895061089
 30
0.0
 11
294.87117681089012
 21
147.0986019498738
 31
0.0
  0
LINE
  5
5ED8F
  8
0
  6
CONTINUOUS
 62
     0
 10
291.08717762062628
 20
145.52446643969921
 30
0.0
 11
294.71418195968607
 21
147.09859809471999
 31
0.0
  0
LINE
  5
5ED90
  8
0
  6
CONTINUOUS
 62
     0
 10
291.0657608897157
 20
145.58330392878739
 30
0.0
 11
294.55718710848231
 21
147.0985942395663
 31
0.0
  0
LINE
  5
5ED91
  8
0
  6
CONTINUOUS
 62
     0
 10
291.04434415880502
 20
145.64214141787559
 30
0.0
 11
294.40019225727832
 21
147.0985903844126
 31
0.0
  0
LINE
  5
5ED92
  8
0
  6
CONTINUOUS
 62
     0
 10
291.0229274278941
 20
145.70097890696391
 30
0.0
 11
294.24319740607439
 21
147.0985865292588
 31
0.0
  0
LINE
  5
5ED93
  8
0
  6
CONTINUOUS
 62
     0
 10
291.00151069698347
 20
145.75981639605209
 30
0.0
 11
294.08620255487062
 21
147.0985826741051
 31
0.0
  0
LINE
  5
5ED94
  8
0
  6
CONTINUOUS
 62
     0
 10
290.98009396607279
 20
145.81865388514029
 30
0.0
 11
293.92920770366658
 21
147.09857881895141
 31
0.0
  0
LINE
  5
5ED95
  8
0
  6
CONTINUOUS
 62
     0
 10
290.9586772351621
 20
145.87749137422861
 30
0.0
 11
293.77221285246259
 21
147.0985749637976
 31
0.0
  0
LINE
  5
5ED96
  8
0
  6
CONTINUOUS
 62
     0
 10
290.9372605042513
 20
145.93632886331679
 30
0.0
 11
293.61521800125888
 21
147.09857110864399
 31
0.0
  0
LINE
  5
5ED97
  8
0
  6
CONTINUOUS
 62
     0
 10
290.9158437733405
 20
145.99516635240499
 30
0.0
 11
293.45822315005501
 21
147.09856725349019
 31
0.0
  0
LINE
  5
5ED98
  8
0
  6
CONTINUOUS
 62
     0
 10
290.8944270424297
 20
146.05400384149331
 30
0.0
 11
293.30122829885079
 21
147.09856339833641
 31
0.0
  0
LINE
  5
5ED99
  8
0
  6
CONTINUOUS
 62
     0
 10
290.8730103115189
 20
146.11284133058149
 30
0.0
 11
293.14423344764708
 21
147.0985595431828
 31
0.0
  0
LINE
  5
5ED9A
  8
0
  6
CONTINUOUS
 62
     0
 10
290.85159358060832
 20
146.17167881966981
 30
0.0
 11
292.98723859644309
 21
147.09855568802899
 31
0.0
  0
LINE
  5
5ED9B
  8
0
  6
CONTINUOUS
 62
     0
 10
290.83017684969752
 20
146.2305163087579
 30
0.0
 11
292.83024374523922
 21
147.0985518328753
 31
0.0
  0
LINE
  5
5ED9C
  8
0
  6
CONTINUOUS
 62
     0
 10
290.80876011878672
 20
146.28935379784619
 30
0.0
 11
292.67324889403551
 21
147.09854797772161
 31
0.0
  0
LINE
  5
5ED9D
  8
0
  6
CONTINUOUS
 62
     0
 10
290.78734338787598
 20
146.34819128693451
 30
0.0
 11
292.51625404283141
 21
147.09854412256789
 31
0.0
  0
LINE
  5
5ED9E
  8
0
  6
CONTINUOUS
 62
     0
 10
290.76592665696512
 20
146.40702877602271
 30
0.0
 11
292.35925919162742
 21
147.09854026741411
 31
0.0
  0
LINE
  5
5ED9F
  8
0
  6
CONTINUOUS
 62
     0
 10
290.74450992605438
 20
146.46586626511089
 30
0.0
 11
292.20226434042382
 21
147.0985364122605
 31
0.0
  0
LINE
  5
5EDA0
  8
0
  6
CONTINUOUS
 62
     0
 10
290.72309319514358
 20
146.52470375419909
 30
0.0
 11
292.04526948921972
 21
147.09853255710669
 31
0.0
  0
LINE
  5
5EDA1
  8
0
  6
CONTINUOUS
 62
     0
 10
290.701676464233
 20
146.58354124328741
 30
0.0
 11
291.88827463801579
 21
147.098528701953
 31
0.0
  0
LINE
  5
5EDA2
  8
0
  6
CONTINUOUS
 62
     0
 10
290.68025973332232
 20
146.64237873237559
 30
0.0
 11
291.73127978681191
 21
147.09852484679919
 31
0.0
  0
LINE
  5
5EDA3
  8
0
  6
CONTINUOUS
 62
     0
 10
290.65884300241152
 20
146.7012162214638
 30
0.0
 11
291.57428493560798
 21
147.0985209916455
 31
0.0
  0
LINE
  5
5EDA4
  8
0
  6
CONTINUOUS
 62
     0
 10
290.63742627150071
 20
146.76005371055211
 30
0.0
 11
291.41729008440421
 21
147.09851713649181
 31
0.0
  0
LINE
  5
5EDA5
  8
0
  6
CONTINUOUS
 62
     0
 10
290.61600954059008
 20
146.8188911996404
 30
0.0
 11
291.26029523320022
 21
147.09851328133809
 31
0.0
  0
LINE
  5
5EDA6
  8
0
  6
CONTINUOUS
 62
     0
 10
290.59459280967928
 20
146.8777286887285
 30
0.0
 11
291.10330038199629
 21
147.09850942618431
 31
0.0
  0
LINE
  5
5EDA7
  8
0
  6
CONTINUOUS
 62
     0
 10
290.5731760787686
 20
146.93656617781679
 30
0.0
 11
290.9463055307923
 21
147.0985055710305
 31
0.0
  0
LINE
  5
5EDA8
  8
0
  6
CONTINUOUS
 62
     0
 10
290.5517593478578
 20
146.9954036669051
 30
0.0
 11
290.78931067958843
 21
147.09850171587689
 31
0.0
  0
LINE
  5
5EDA9
  8
0
  6
CONTINUOUS
 62
     0
 10
290.53034261694711
 20
147.05424115599331
 30
0.0
 11
290.63231582838432
 21
147.0984978607232
 31
0.0
  0
ENDBLK
  5
5EDAB
  8
0
  0
BLOCK
  8
0
  2
*U159
 70
     1
 10
0.0
 20
0.0
 30
0.0
  3
*U159
  1

  0
TEXT
  5
5EDAD
  8
0
  6
CONTINUOUS
 62
     3
 10
74.753496449476543
 20
215.2117006105758
 30
0.0
 40
3.0
  1
0.5
 50
87.000000000000909
  0
ENDBLK
  5
5EDAF
  8
0
  0
BLOCK
  8
0
  2
*U160
 70
     1
 10
0.0
 20
0.0
 30
0.0
  3
*U160
  1

  0
TEXT
  5
5EDB1
  8
0
  6
CONTINUOUS
 62
     3
 10
54.74430063989
 20
246.17713546045491
 30
0.0
 40
3.0
  1
60¡Æ
 50
356.99999999999329
  0
ENDBLK
  5
5EDB3
  8
0
  0
BLOCK
  8
0
  2
*U161
 70
     1
 10
0.0
 20
0.0
 30
0.0
  3
*U161
  1

  0
TEXT
  5
5EDB5
  8
0
  6
CONTINUOUS
 62
     3
 10
56.042115340883761
 20
236.390324734258
 30
0.0
 40
3.0
  1
2
 50
357.00000000000091
  0
ENDBLK
  5
5EDB7
  8
0
  0
BLOCK
  8
0
  2
*U162
 70
     1
 10
0.0
 20
0.0
 30
0.0
  3
*U162
  1

  0
TEXT
  5
5EDBC
  8
0
  6
CONTINUOUS
 62
     3
 10
112.99757387966859
 20
42.898082538781097
 30
0.0
 40
3.0
  1
218.25
  0
ENDBLK
  5
5EDBE
  8
0
  0
BLOCK
  8
0
  2
*U163
 70
     1
 10
0.0
 20
0.0
 30
0.0
  3
*U163
  1

  0
TEXT
  5
5EDC0
  8
0
  6
CONTINUOUS
 62
     3
 10
149.69543426048119
 20
50.898082538781068
 30
0.0
 40
3.0
  1
150
  0
ENDBLK
  5
5EDC2
  8
0
  0
BLOCK
  8
0
  2
*U164
 70
     1
 10
0.0
 20
0.0
 30
0.0
  3
*U164
  1

  0
TEXT
  5
5EDC4
  8
0
  6
CONTINUOUS
 62
     3
 10
38.799247108015201
 20
50.898082538781068
 30
0.0
 40
3.0
  1
68.25
  0
ENDBLK
  5
5EDC6
  8
0
  0
BLOCK
  8
0
  2
*U165
 70
     1
 10
0.0
 20
0.0
 30
0.0
  3
*U165
  1

  0
TEXT
  5
5EDC8
  8
0
  6
CONTINUOUS
 62
     3
 10
42.195434260481328
 20
141.47046411636859
 30
0.0
 40
3.0
  1
70
  0
ENDBLK
  5
5EDCA
  8
0
  0
BLOCK
  8
0
  2
*U166
 70
     1
 10
0.0
 20
0.0
 30
0.0
  3
*U166
  1

  0
TEXT
  5
5EDCC
  8
0
  6
CONTINUOUS
 62
     3
 10
109.4170122865518
 20
82.335929762865703
 30
0.0
 40
3.0
  1
\U+220549.5
 50
90.0
  0
TEXT
  5
5EDCD
  8
0
  6
CONTINUOUS
 62
     3
 10
109.4170122865518
 20
92.546412754348523
 30
0.0
 40
2.1000000000000001
  1
¡¾0.05
 50
90.0
  0
ENDBLK
  5
5EDCF
  8
0
  0
BLOCK
  8
0
  2
*U167
 70
     1
 10
0.0
 20
0.0
 30
0.0
  3
*U167
  1

  0
TEXT
  5
5EDD1
  8
0
  6
CONTINUOUS
 62
     3
 10
218.184483328488
 20
125.13767640650831
 30
0.0
 40
3.0
  1
15
  0
ENDBLK
  5
5EDD3
  8
0
  0
BLOCK
  8
0
  2
*U168
 70
     1
 10
0.0
 20
0.0
 30
0.0
  3
*U168
  1

  0
TEXT
  5
5EDD5
  8
0
  6
CONTINUOUS
 62
     3
 10
200.3306229387953
 20
133.13767640650829
 30
0.0
 40
3.0
  1
30.5
  0
TEXT
  5
5EDD6
  8
0
  6
CONTINUOUS
 62
     3
 10
207.53062293879529
 20
133.13767640650829
 30
0.0
 40
2.1000000000000001
  1
¡¾0.03
  0
ENDBLK
  5
5EDD8
  8
0
  0
BLOCK
  8
0
  2
*U169
 70
     1
 10
0.0
 20
0.0
 30
0.0
  3
*U169
  1

  0
TEXT
  5
5EDDA
  8
0
  6
CONTINUOUS
 62
     3
 10
170.18448332848851
 20
141.13767640650829
 30
0.0
 40
3.0
  1
15
  0
ENDBLK
  5
5EDDC
  8
0
  0
BLOCK
  8
0
  2
*U170
 70
     1
 10
0.0
 20
0.0
 30
0.0
  3
*U170
  1

  0
TEXT
  5
5EDDE
  8
0
  6
CONTINUOUS
 62
     3
 10
199.07661536284391
 20
141.13767640650829
 30
0.0
 40
3.0
  1
48
  0
TEXT
  5
5EDDF
  8
0
  6
CONTINUOUS
 62
     3
 10
203.26161536284391
 20
143.72932994981531
 30
0.0
 40
2.1000000000000001
  1
+0
  0
TEXT
  5
5EDE0
  8
0
  6
CONTINUOUS
 62
     3
 10
203.26161536284391
 20
141.13767640650829
 30
0.0
 40
2.1000000000000001
  1
-0.1
  0
ENDBLK
  5
5EDE2
  8
0
  0
BLOCK
  8
0
  2
*U171
 70
     1
 10
0.0
 20
0.0
 30
0.0
  3
*U171
  1

  0
TEXT
  5
5EDE4
  8
0
  6
CONTINUOUS
 62
     3
 10
262.05538340961942
 20
90.183330009623987
 30
0.0
 40
3.0
  1
\U+220523.5
 50
90.0
  0
TEXT
  5
5EDE5
  8
0
  6
CONTINUOUS
 62
     3
 10
259.35914325213912
 20
99.768330009623995
 30
0.0
 40
2.1000000000000001
  1
+0.05
 50
90.0
  0
TEXT
  5
5EDE6
  8
0
  6
CONTINUOUS
 62
     3
 10
262.05538340961942
 20
99.768330009623995
 30
0.0
 40
2.1000000000000001
  1
+0.02
 50
90.0
  0
ENDBLK
  5
5EDE8
  8
0
  0
BLOCK
  8
0
  2
*U172
 70
     1
 10
0.0
 20
0.0
 30
0.0
  3
*U172
  1

  0
TEXT
  5
5EDEA
  8
0
  6
CONTINUOUS
 62
     3
 10
254.05538340961931
 20
90.502899593448817
 30
0.0
 40
3.0
  1
\U+220517.5
 50
90.0
  0
TEXT
  5
5EDEB
  8
0
  6
CONTINUOUS
 62
     3
 10
251.46372986631229
 20
99.487899593448816
 30
0.0
 40
2.1000000000000001
  1
+0.05
 50
90.0
  0
TEXT
  5
5EDEC
  8
0
  6
CONTINUOUS
 62
     3
 10
254.05538340961931
 20
99.487899593448816
 30
0.0
 40
2.1000000000000001
  1
-0
 50
90.0
  0
ENDBLK
  5
5EDEE
  8
0
  0
BLOCK
  8
0
  2
*U173
 70
     1
 10
0.0
 20
0.0
 30
0.0
  3
*U173
  1

  0
TEXT
  5
5EDF0
  8
0
  6
CONTINUOUS
 62
     3
 10
232.6966153628434
 20
133.13767640650829
 30
0.0
 40
3.0
  1
5
  0
ENDBLK
  5
5EDF2
  8
0
  0
BLOCK
  8
0
  2
*U174
 70
     1
 10
0.0
 20
0.0
 30
0.0
  3
*U174
  1

  0
TEXT
  5
5EDF4
  8
0
  6
CONTINUOUS
 62
     3
 10
270.05538340961942
 20
94.836982568679105
 30
0.0
 40
3.0
  1
\U+220526
 50
90.0
  0
ENDBLK
  5
5EDF6
  8
0
  0
BLOCK
  8
0
  2
*U175
 70
     1
 10
0.0
 20
0.0
 30
0.0
  3
*U175
  1

  0
TEXT
  5
5EDF8
  8
0
  6
CONTINUOUS
 62
     3
 10
200.00147144997399
 20
92.371735540830002
 30
0.0
 40
3.0
  1
35¡Æ
 50
287.5
  0
ENDBLK
  5
5EDFA
  8
0
  0
BLOCK
  8
0
  2
*U176
 70
     1
 10
0.0
 20
0.0
 30
0.0
  3
*U176
  1

  0
TEXT
  5
5EDFC
  8
0
  6
CONTINUOUS
 62
     3
 10
231.1914125493725
 20
81.949596353700557
 30
0.0
 40
3.0
  1
R0.5
 50
310.7819180931553
  0
ENDBLK
  5
5EDFE
  8
0
  0
BLOCK
  8
0
  2
*U177
 70
     1
 10
0.0
 20
0.0
 30
0.0
  3
*U177
  1

  0
TEXT
  5
5EE00
  8
0
  6
CONTINUOUS
 62
     3
 10
246.0553834096194
 20
88.774259983142414
 30
0.0
 40
3.0
  1
10.35
 50
90.0
  0
ENDBLK
  5
5EE02
  8
0
  0
BLOCK
  8
0
  2
*U178
 70
     1
 10
0.0
 20
0.0
 30
0.0
  3
*U178
  1

  0
TEXT
  5
5EE04
  8
0
  6
CONTINUOUS
 62
     3
 10
238.0553834096194
 20
90.711392017498454
 30
0.0
 40
3.0
  1
1
 50
90.0
  0
ENDBLK
  5
5EE06
  8
0
  0
BLOCK
  8
0
  2
*U179
 70
     1
 10
0.0
 20
0.0
 30
0.0
  3
*U179
  1

  0
TEXT
  5
5EE08
  8
0
  6
CONTINUOUS
 62
     3
 10
136.71954021573941
 20
83.818074861342197
 30
0.0
 40
3.0
  1
(\U+220536.48)
 50
90.0
  0
ENDBLK
  5
5EE0A
  8
0
  0
BLOCK
  8
0
  2
*U180
 70
     1
 10
0.0
 20
0.0
 30
0.0
  3
*U180
  1

  0
TEXT
  5
5EE0C
  8
0
  6
CONTINUOUS
 62
     3
 10
66.302166570142873
 20
85.229592350176674
 30
0.0
 40
3.0
  1
\U+22059
 50
90.0
  0
ENDBLK
  5
5EE0E
  8
0
  0
BLOCK
  8
0
  2
*U181
 70
     1
 10
0.0
 20
0.0
 30
0.0
  3
*U181
  1

  0
TEXT
  5
5EE10
  8
0
  6
CONTINUOUS
 62
     3
 10
174.69543426048111
 20
58.898082538781082
 30
0.0
 40
3.0
  1
100
  0
ENDBLK
  5
5EE12
  8
0
  0
BLOCK
  8
0
  2
*U182
 70
     1
 10
0.0
 20
0.0
 30
0.0
  3
*U182
  1

  0
TEXT
  5
5EE14
  8
0
  6
CONTINUOUS
 62
     3
 10
297.2818032356958
 20
136.41302497159
 30
0.0
 40
3.0
  1
\U+220523.5
 50
90.0
  0
TEXT
  5
5EE15
  8
0
  6
CONTINUOUS
 62
     3
 10
294.5855630782155
 20
145.99802497159001
 30
0.0
 40
2.1000000000000001
  1
+0.05
 50
90.0
  0
TEXT
  5
5EE16
  8
0
  6
CONTINUOUS
 62
     3
 10
297.2818032356958
 20
145.99802497159001
 30
0.0
 40
2.1000000000000001
  1
+0.02
 50
90.0
  0
ENDBLK
  5
5EE18
  8
0
  0
BLOCK
  8
0
  2
*U183
 70
     1
 10
0.0
 20
0.0
 30
0.0
  3
*U183
  1

  0
TEXT
  5
5EE1A
  8
0
  6
CONTINUOUS
 62
     3
 10
247.25386358777189
 20
175.45761039863211
 30
0.0
 40
3.0
  1
0.5
  0
ENDBLK
  5
5EE1C
  8
0
  0
BLOCK
  8
0
  2
*U184
 70
     1
 10
0.0
 20
0.0
 30
0.0
  3
*U184
  1

  0
TEXT
  5
5EE1E
  8
0
  6
CONTINUOUS
 62
     3
 10
263.21085443074361
 20
131.54605916967381
 30
0.0
 40
3.0
  1
45¡Æ
 50
22.500000000000028
  0
ENDBLK
  5
5EE20
  8
0
  0
BLOCK
  8
0
  2
*U185
 70
     1
 10
0.0
 20
0.0
 30
0.0
  3
*U185
  1

  0
TEXT
  5
5EE22
  8
0
  6
CONTINUOUS
 62
     3
 10
281.32712623438368
 20
133.73259455541441
 30
0.0
 40
3.0
  1
\U+220517.5
 50
90.0
  0
TEXT
  5
5EE23
  8
0
  6
CONTINUOUS
 62
     3
 10
278.73547269107661
 20
142.71759455541439
 30
0.0
 40
2.1000000000000001
  1
+0.05
 50
90.0
  0
TEXT
  5
5EE24
  8
0
  6
CONTINUOUS
 62
     3
 10
281.32712623438368
 20
142.71759455541439
 30
0.0
 40
2.1000000000000001
  1
-0
 50
90.0
  0
ENDBLK
  5
5EE26
  8
0
  0
BLOCK
  8
0
  2
*U186
 70
     1
 10
0.0
 20
0.0
 30
0.0
  3
*U186
  1

  0
TEXT
  5
5EE28
  8
0
  6
CONTINUOUS
 62
     3
 10
289.32712623438368
 20
136.65084548372221
 30
0.0
 40
3.0
  1
\U+220519
 50
90.0
  0
TEXT
  5
5EE29
  8
0
  6
CONTINUOUS
 62
     3
 10
286.73547269107661
 20
142.64632847520511
 30
0.0
 40
2.1000000000000001
  1
+0.4
 50
90.0
  0
TEXT
  5
5EE2A
  8
0
  6
CONTINUOUS
 62
     3
 10
289.32712623438368
 20
142.64632847520511
 30
0.0
 40
2.1000000000000001
  1
-0
 50
90.0
  0
ENDBLK
  5
5EE2C
  8
0
  0
BLOCK
  8
0
  2
*U187
 70
     1
 10
0.0
 20
0.0
 30
0.0
  3
*U187
  1

  0
TEXT
  5
5EE2E
  8
0
  6
CONTINUOUS
 62
     3
 10
243.0579366065644
 20
169.3429442435517
 30
0.0
 40
3.0
  1
R0.4max
 50
319.8841757853553
  0
ENDBLK
  5
5EE30
  8
0
  0
BLOCK
  8
0
  2
*U188
 70
     1
 10
0.0
 20
0.0
 30
0.0
  3
*U188
  1

  0
TEXT
  5
5EE32
  8
0
  6
CONTINUOUS
 62
     3
 10
190.44543426048119
 20
149.13767640650829
 30
0.0
 40
3.0
  1
70
  0
ENDBLK
  5
5EE34
  8
0
  0
BLOCK
  8
0
  2
*U189
 70
     1
 10
0.0
 20
0.0
 30
0.0
  3
*U189
  1

  0
TEXT
  5
5EE36
  8
0
  6
CONTINUOUS
 62
     3
 10
177.878645629837
 20
93.970937021150107
 30
0.0
 40
3.0
  1
3¡Æ
 50
271.49999999999989
  0
ENDBLK
  5
5EE38
  8
0
  0
BLOCK
  8
0
  2
*U190
 70
     1
 10
0.0
 20
0.0
 30
0.0
  3
*U190
  1

  0
TEXT
  5
5EE3A
  8
0
  6
CONTINUOUS
 62
     3
 10
119.1732856111349
 20
60.462031942759602
 30
0.0
 40
3.0
  1
30¡Æ
 50
344.9999999999996
  0
ENDBLK
  5
5EE3C
  8
0
  0
BLOCK
  8
0
  2
*U191
 70
     1
 10
0.0
 20
0.0
 30
0.0
  3
*U191
  1

  0
TEXT
  5
5EE3E
  8
0
  6
CONTINUOUS
 62
     3
 10
126.7471932649259
 20
69.732394770503703
 30
0.0
 40
3.0
  1
R2
 50
300.18267060630751
  0
ENDBLK
  5
5EE40
  8
0
  0
BLOCK
  8
0
  2
*U192
 70
     1
 10
0.0
 20
0.0
 30
0.0
  3
*U192
  1

  0
TEXT
  5
5EE42
  8
0
  6
CONTINUOUS
 62
     3
 10
122.22535854967479
 20
88.076065647305668
 30
0.0
 40
3.0
  1
R2
 50
306.24375126273623
  0
ENDBLK
  5
5EE44
  8
0
  0
BLOCK
  8
0
  2
*U193
 70
     1
 10
0.0
 20
0.0
 30
0.0
  3
*U193
  1

  0
TEXT
  5
5EE46
  8
0
  6
CONTINUOUS
 62
     3
 10
330.50884445190462
 20
136.289816777814
 30
0.0
 40
3.0
  1
20¡Æ
 50
9.9999999999999627
  0
TEXT
  5
5EE47
  8
0
  6
CONTINUOUS
 62
     3
 10
336.41769096997791
 20
137.3317058438156
 30
0.0
 40
2.1000000000000001
  1
¡¾1¡Æ
 50
9.9999999999999627
  0
ENDBLK
  5
5EE49
  8
0
  0
BLOCK
  8
0
  2
*U194
 70
     1
 10
0.0
 20
0.0
 30
0.0
  3
*U194
  1

  0
TEXT
  5
5EE4B
  8
0
  6
CONTINUOUS
 62
     3
 10
322.1450196225619
 20
132.97324520246929
 30
0.0
 40
3.0
  1
11
 50
20.000000000011429
  0
ENDBLK
  5
5EE4D
  8
0
  0
BLOCK
  8
0
  2
*U195
 70
     1
 10
0.0
 20
0.0
 30
0.0
  3
*U195
  1

  0
TEXT
  5
5EE4F
  8
0
  6
CONTINUOUS
 62
     3
 10
295.69101170090607
 20
101.404141528094
 30
0.0
 40
3.0
  1
22.17
 50
290.00000000000051
  0
TEXT
  5
5EE50
  8
0
  6
CONTINUOUS
 62
     3
 10
298.66658694783951
 20
93.228815727256645
 30
0.0
 40
2.1000000000000001
  1
¡¾0.05
 50
290.00000000000051
  0
ENDBLK
  5
5EE52
  8
0
  0
BLOCK
  8
0
  2
*U196
 70
     1
 10
0.0
 20
0.0
 30
0.0
  3
*U196
  1

  0
TEXT
  5
5EE54
  8
0
  6
CONTINUOUS
 62
     3
 10
332.37468909523659
 20
59.999174411897748
 30
0.0
 40
3.0
  1
21¡Æ
 50
349.49999999999972
  0
ENDBLK
  5
5EE56
  8
0
  0
BLOCK
  8
0
  2
*U197
 70
     1
 10
0.0
 20
0.0
 30
0.0
  3
*U197
  1

  0
TEXT
  5
5EE58
  8
0
  6
CONTINUOUS
 62
     3
 10
219.22879254629871
 20
250.99121323125479
 30
0.0
 40
3.0
  1
25.5
  0
ENDBLK
  5
5EE5A
  8
0
  0
BLOCK
  8
0
  2
*U198
 70
     1
 10
0.0
 20
0.0
 30
0.0
  3
*U198
  1

  0
TEXT
  5
5EE5C
  8
0
  6
CONTINUOUS
 62
     3
 10
194.47112527392309
 20
237.33488976857871
 30
0.0
 40
3.0
  1
48
 50
50.000000000000213
  0
ENDBLK
  5
5EE5E
  8
0
  0
BLOCK
  8
0
  2
*U199
 70
     1
 10
0.0
 20
0.0
 30
0.0
  3
*U199
  1

  0
TEXT
  5
5EE60
  8
0
  6
CONTINUOUS
 62
     3
 10
245.70299643867509
 20
231.61205668345801
 30
0.0
 40
3.0
  1
50¡Æ
 50
294.99999999999989
  0
ENDBLK
  5
5EE62
  8
0
  0
BLOCK
  8
0
  2
*U200
 70
     1
 10
0.0
 20
0.0
 30
0.0
  3
*U200
  1

  0
TEXT
  5
5EE64
  8
0
  6
CONTINUOUS
 62
     3
 10
333.44612639829973
 20
169.7485459226435
 30
0.0
 40
3.0
  1
15
 50
90.0
  0
TEXT
  5
5EE65
  8
0
  6
CONTINUOUS
 62
     3
 10
330.74988624081942
 20
173.0335459226435
 30
0.0
 40
2.1000000000000001
  1
+0.05
 50
90.0
  0
TEXT
  5
5EE66
  8
0
  6
CONTINUOUS
 62
     3
 10
333.44612639829973
 20
173.0335459226435
 30
0.0
 40
2.1000000000000001
  1
+0.02
 50
90.0
  0
ENDBLK
  5
5EE68
  8
0
  0
BLOCK
  8
0
  2
*U201
 70
     1
 10
0.0
 20
0.0
 30
0.0
  3
*U201
  1

  0
TEXT
  5
5EE6A
  8
0
  6
CONTINUOUS
 62
     3
 10
350.0135496724298
 20
186.75052667562471
 30
0.0
 40
3.0
  1
R0.4
 50
314.39062711000679
  0
TEXT
  5
5EE6B
  8
0
  6
CONTINUOUS
 62
     3
 10
357.10161712500587
 20
183.2148240755368
 30
0.0
 40
2.1000000000000001
  1
+0.1
 50
314.39062711000679
  0
TEXT
  5
5EE6C
  8
0
  6
CONTINUOUS
 62
     3
 10
355.24965486673358
 20
181.4018420341279
 30
0.0
 40
2.1000000000000001
  1
-0
 50
314.39062711000679
  0
ENDBLK
  5
5EE6E
  8
0
  0
BLOCK
  8
0
  2
*U202
 70
     1
 10
0.0
 20
0.0
 30
0.0
  3
*U202
  1

  0
TEXT
  5
5EE70
  8
0
  6
CONTINUOUS
 62
     3
 10
325.10431570870742
 20
215.09850208601799
 30
0.0
 40
3.0
  1
5
  0
ENDBLK
  5
5EE72
  8
0
  0
BLOCK
  8
0
  2
*U203
 70
     1
 10
0.0
 20
0.0
 30
0.0
  3
*U203
  1

  0
TEXT
  5
5EE74
  8
0
  6
CONTINUOUS
 62
     3
 10
336.1043157087073
 20
215.09850208601799
 30
0.0
 40
3.0
  1
7.5
  0
ENDBLK
  5
5EE76
  8
0
  0
BLOCK
  8
0
  2
*U204
 70
     1
 10
0.0
 20
0.0
 30
0.0
  3
*U204
  1

  0
TEXT
  5
5EE78
  8
0
  6
CONTINUOUS
 62
     3
 10
342.36644774306342
 20
207.09850208601799
 30
0.0
 40
3.0
  1
3*\U+220515.5
  0
ENDBLK
  5
5EE7A
  8
0
  0
BLOCK
  8
0
  2
*U205
 70
     1
 10
0.0
 20
0.0
 30
0.0
  3
*U205
  1

  0
TEXT
  5
5EE7C
  8
0
  6
CONTINUOUS
 62
     3
 10
377.36124841367513
 20
175.6681155064683
 30
0.0
 40
3.0
  1
\U+220517.5
 50
90.0
  0
TEXT
  5
5EE7D
  8
0
  6
CONTINUOUS
 62
     3
 10
374.76959487036811
 20
184.65311550646831
 30
0.0
 40
2.1000000000000001
  1
+0.05
 50
90.0
  0
TEXT
  5
5EE7E
  8
0
  6
CONTINUOUS
 62
     3
 10
377.36124841367513
 20
184.65311550646831
 30
0.0
 40
2.1000000000000001
  1
-0
 50
90.0
  0
ENDBLK
  5
5EE80
  8
0
  0
BLOCK
  8
0
  2
*U206
 70
     1
 10
0.0
 20
0.0
 30
0.0
  3
*U206
  1

  0
TEXT
  5
5EE82
  8
0
  6
CONTINUOUS
 62
     3
 10
339.06221146889732
 20
203.29088144095371
 30
0.0
 40
3.0
  1
R0.5
 50
308.75274051925749
  0
ENDBLK
  5
5EE84
  8
0
  0
BLOCK
  8
0
  2
*U207
 70
     1
 10
0.0
 20
0.0
 30
0.0
  3
*U207
  1

  0
TEXT
  5
5EE86
  8
0
  6
CONTINUOUS
 62
     3
 10
323.03530820077867
 20
200.16237612446901
 30
0.0
 40
3.0
  1
R0.5
 50
314.2464941760918
  0
ENDBLK
  5
5EE88
  8
0
  0
BLOCK
  8
0
  2
*U208
 70
     1
 10
0.0
 20
0.0
 30
0.0
  3
*U208
  1

  0
TEXT
  5
5EE8A
  8
0
  6
CONTINUOUS
 62
     3
 10
362.64411686149452
 20
178.82909489560751
 30
0.0
 40
3.0
  1
15¡Æ
 50
58.284326027974522
  0
ENDBLK
  5
5EE8C
  8
0
  0
BLOCK
  8
0
  2
*U209
 70
     1
 10
0.0
 20
0.0
 30
0.0
  3
*U209
  1

  0
TEXT
  5
5EE8E
  8
0
  6
CONTINUOUS
 62
     3
 10
385.36124841367513
 20
179.46921771201451
 30
0.0
 40
3.0
  1
\U+220518.9
 50
90.0
  0
ENDBLK
  5
5EE90
  8
0
  0
BLOCK
  8
0
  2
*U210
 70
     1
 10
0.0
 20
0.0
 30
0.0
  3
*U210
  1

  0
TEXT
  5
5EE92
  8
0
  6
CONTINUOUS
 62
     3
 10
311.9972892142369
 20
170.23651934783999
 30
0.0
 40
3.0
  1
\U+220513.2
 50
90.0
  0
ENDBLK
  5
5EE94
  8
0
  0
BLOCK
  8
0
  2
*U211
 70
     1
 10
0.0
 20
0.0
 30
0.0
  3
*U211
  1

  0
TEXT
  5
5EE96
  8
0
  6
CONTINUOUS
 62
     3
 10
313.71334055142199
 20
198.87662174158251
 30
0.0
 40
3.0
  1
15¡Æ
 50
69.175425670470702
  0
ENDBLK
  5
5EE98
  8
0
  0
BLOCK
  8
0
  2
*U212
 70
     1
 10
0.0
 20
0.0
 30
0.0
  3
*U212
  1

  0
TEXT
  5
5EE9A
  8
0
  6
CONTINUOUS
 62
     3
 10
724.39237018634947
 20
129.63757136272659
 30
0.0
 40
3.0
  1
1
  0
TEXT
  5
5EE9B
  8
0
  6
CONTINUOUS
 62
     3
 10
725.89237018634947
 20
129.63757136272659
 30
0.0
 40
2.1000000000000001
  1
¡¾0.05
  0
ENDBLK
  5
5EE9D
  8
0
  0
BLOCK
  8
0
  2
*U213
 70
     1
 10
0.0
 20
0.0
 30
0.0
  3
*U213
  1

  0
TEXT
  5
5EE9F
  8
0
  6
CONTINUOUS
 62
     3
 10
707.81508978416196
 20
127.88397764241959
 30
0.0
 40
3.0
  1
30¡Æ
 50
14.999999999998259
  0
ENDBLK
  5
5EEA1
  8
0
  0
BLOCK
  8
0
  2
*U214
 70
     1
 10
0.0
 20
0.0
 30
0.0
  3
*U214
  1

  0
TEXT
  5
5EEA3
  8
0
  6
CONTINUOUS
 62
     3
 10
687.84809156453355
 20
86.915734079863626
 30
0.0
 40
3.0
  1
\U+220521
 50
90.0
  0
TEXT
  5
5EEA4
  8
0
  6
CONTINUOUS
 62
     3
 10
685.25643802122636
 20
92.900734079863639
 30
0.0
 40
2.1000000000000001
  1
+0.5
 50
90.0
  0
TEXT
  5
5EEA5
  8
0
  6
CONTINUOUS
 62
     3
 10
687.84809156453366
 20
92.900734079863639
 30
0.0
 40
2.1000000000000001
  1
-0
 50
90.0
  0
ENDBLK
  5
5EEA7
  8
0
  0
BLOCK
  8
0
  2
*U215
 70
     1
 10
0.0
 20
0.0
 30
0.0
  3
*U215
  1

  0
TEXT
  5
5EEA9
  8
0
  6
CONTINUOUS
 62
     3
 10
712.60234616790603
 20
98.082946053946415
 30
0.0
 40
3.0
  1
R1
 50
321.83463380838992
  0
ENDBLK
  5
5EEAB
  8
0
  0
BLOCK
  8
0
  2
*U216
 70
     1
 10
0.0
 20
0.0
 30
0.0
  3
*U216
  1

  0
TEXT
  5
5EEAD
  8
0
  6
CONTINUOUS
 62
     3
 10
695.84809156453355
 20
72.919581657156741
 30
0.0
 40
3.0
  1
\U+220517.54
 50
90.0
  0
TEXT
  5
5EEAE
  8
0
  6
CONTINUOUS
 62
     3
 10
693.25643802122636
 20
84.304581657156746
 30
0.0
 40
2.1000000000000001
  1
+0.5
 50
90.0
  0
TEXT
  5
5EEAF
  8
0
  6
CONTINUOUS
 62
     3
 10
695.84809156453366
 20
84.304581657156746
 30
0.0
 40
2.1000000000000001
  1
-0
 50
90.0
  0
ENDBLK
  5
5EEB1
  8
0
  0
BLOCK
  8
0
  2
*U217
 70
     1
 10
0.0
 20
0.0
 30
0.0
  3
*U217
  1

  0
TEXT
  5
5EEB3
  8
0
  6
CONTINUOUS
 62
     3
 10
612.10197547815335
 20
180.66435424123219
 30
0.0
 40
3.0
  1
\U+220512.5
 50
90.0
  0
TEXT
  5
5EEB4
  8
0
  6
CONTINUOUS
 62
     3
 10
609.51032193484627
 20
189.64935424123209
 30
0.0
 40
2.1000000000000001
  1
+0
 50
90.0
  0
TEXT
  5
5EEB5
  8
0
  6
CONTINUOUS
 62
     3
 10
612.10197547815346
 20
189.64935424123209
 30
0.0
 40
2.1000000000000001
  1
-0.1
 50
90.0
  0
ENDBLK
  5
5EEB7
  8
0
  0
BLOCK
  8
0
  2
*U218
 70
     1
 10
0.0
 20
0.0
 30
0.0
  3
*U218
  1

  0
TEXT
  5
5EEB9
  8
0
  6
CONTINUOUS
 62
     3
 10
616.65736117719382
 20
101.8506013444829
 30
0.0
 40
3.0
  1
\U+220511.7
 50
90.0
  0
ENDBLK
  5
5EEBB
  8
0
  0
BLOCK
  8
0
  2
*U219
 70
     1
 10
0.0
 20
0.0
 30
0.0
  3
*U219
  1

  0
TEXT
  5
5EEBD
  8
0
  6
CONTINUOUS
 62
     3
 10
624.50736117719384
 20
93.316456659443602
 30
0.0
 40
3.0
  1
\U+220512.7
 50
90.0
  0
TEXT
  5
5EEBE
  8
0
  6
CONTINUOUS
 62
     3
 10
621.82954955744196
 20
102.3014566594436
 30
0.0
 40
2.1000000000000001
  1
-0.02
 50
90.0
  0
TEXT
  5
5EEBF
  8
0
  6
CONTINUOUS
 62
     3
 10
624.50736117719396
 20
102.3014566594436
 30
0.0
 40
2.1000000000000001
  1
-0.03
 50
90.0
  0
TEXT
  5
5EEC0
  8
0
  6
CONTINUOUS
 62
     3
 10
624.50736117719384
 20
108.9359271318845
 30
0.0
 40
3.0
  1
(È²»è)
 50
90.0
  0
ENDBLK
  5
5EEC2
  8
0
  0
BLOCK
  8
0
  2
*U220
 70
     1
 10
0.0
 20
0.0
 30
0.0
  3
*U220
  1

  0
TEXT
  5
5EEC4
  8
0
  6
CONTINUOUS
 62
     3
 10
632.50736117719384
 20
92.581456659443589
 30
0.0
 40
3.0
  1
\U+220512.7
 50
90.0
  0
TEXT
  5
5EEC5
  8
0
  6
CONTINUOUS
 62
     3
 10
629.81112101971337
 20
101.5664566594436
 30
0.0
 40
2.1000000000000001
  1
+0.008
 50
90.0
  0
TEXT
  5
5EEC6
  8
0
  6
CONTINUOUS
 62
     3
 10
632.50736117719384
 20
101.5664566594436
 30
0.0
 40
2.1000000000000001
  1
+0.002
 50
90.0
  0
TEXT
  5
5EEC7
  8
0
  6
CONTINUOUS
 62
     3
 10
632.50736117719384
 20
109.6709271318845
 30
0.0
 40
3.0
  1
(Á¤»è)
 50
90.0
  0
ENDBLK
  5
5EEC9
  8
0
  0
BLOCK
  8
0
  2
*U221
 70
     1
 10
0.0
 20
0.0
 30
0.0
  3
*U221
  1

  0
TEXT
  5
5EECB
  8
0
  6
CONTINUOUS
 62
     3
 10
640.65736117719382
 20
98.022539336608958
 30
0.0
 40
3.0
  1
\U+220523.5
 50
90.0
  0
TEXT
  5
5EECC
  8
0
  6
CONTINUOUS
 62
     3
 10
637.96112101971335
 20
107.60753933660889
 30
0.0
 40
2.1000000000000001
  1
-0.01
 50
90.0
  0
TEXT
  5
5EECD
  8
0
  6
CONTINUOUS
 62
     3
 10
640.65736117719382
 20
107.60753933660889
 30
0.0
 40
2.1000000000000001
  1
-0.02
 50
90.0
  0
ENDBLK
  5
5EECF
  8
0
  0
BLOCK
  8
0
  2
*U222
 70
     1
 10
0.0
 20
0.0
 30
0.0
  3
*U222
  1

  0
TEXT
  5
5EED1
  8
0
  6
CONTINUOUS
 62
     3
 10
594.73537876233001
 20
58.547514046538183
 30
0.0
 40
3.0
  1
6.5
  0
ENDBLK
  5
5EED3
  8
0
  0
BLOCK
  8
0
  2
*U223
 70
     1
 10
0.0
 20
0.0
 30
0.0
  3
*U223
  1

  0
TEXT
  5
5EED5
  8
0
  6
CONTINUOUS
 62
     3
 10
608.90656591479615
 20
67.097514046538208
 30
0.0
 40
3.0
  1
(1.5)
  0
ENDBLK
  5
5EED7
  8
0
  0
BLOCK
  8
0
  2
*U224
 70
     1
 10
0.0
 20
0.0
 30
0.0
  3
*U224
  1

  0
TEXT
  5
5EED9
  8
0
  6
CONTINUOUS
 62
     3
 10
559.41765843448115
 20
50.547514046538168
 30
0.0
 40
3.0
  1
42
  0
ENDBLK
  5
5EEDB
  8
0
  0
BLOCK
  8
0
  2
*U225
 70
     1
 10
0.0
 20
0.0
 30
0.0
  3
*U225
  1

  0
TEXT
  5
5EEDD
  8
0
  6
CONTINUOUS
 62
     3
 10
553.27218500928427
 20
58.547514046538183
 30
0.0
 40
3.0
  1
30.5
  0
TEXT
  5
5EEDE
  8
0
  6
CONTINUOUS
 62
     3
 10
560.47218500928443
 20
58.547514046538183
 30
0.0
 40
2.1000000000000001
  1
¡¾0.02
  0
ENDBLK
  5
5EEE0
  8
0
  0
BLOCK
  8
0
  2
*U226
 70
     1
 10
0.0
 20
0.0
 30
0.0
  3
*U226
  1

  0
TEXT
  5
5EEE2
  8
0
  6
CONTINUOUS
 62
     3
 10
523.64561498280216
 20
58.547514046538183
 30
0.0
 40
3.0
  1
5
  0
ENDBLK
  5
5EEE4
  8
0
  0
BLOCK
  8
0
  2
*U227
 70
     1
 10
0.0
 20
0.0
 30
0.0
  3
*U227
  1

  0
TEXT
  5
5EEE6
  8
0
  6
CONTINUOUS
 62
     3
 10
535.94175459310884
 20
74.547514046538168
 30
0.0
 40
3.0
  1
7.3
  0
TEXT
  5
5EEE7
  8
0
  6
CONTINUOUS
 62
     3
 10
541.04175459310875
 20
74.547514046538168
 30
0.0
 40
2.1000000000000001
  1
¡¾0.05
  0
ENDBLK
  5
5EEE9
  8
0
  0
BLOCK
  8
0
  2
*U228
 70
     1
 10
0.0
 20
0.0
 30
0.0
  3
*U228
  1

  0
TEXT
  5
5EEEB
  8
0
  6
CONTINUOUS
 62
     3
 10
577.0828440868703
 20
85.073852687102857
 30
0.0
 40
3.0
  1
7.6
  0
TEXT
  5
5EEEC
  8
0
  6
CONTINUOUS
 62
     3
 10
582.18284408687032
 20
85.073852687102857
 30
0.0
 40
2.1000000000000001
  1
¡¾0.05
  0
ENDBLK
  5
5EEEE
  8
0
  0
BLOCK
  8
0
  2
*U229
 70
     1
 10
0.0
 20
0.0
 30
0.0
  3
*U229
  1

  0
TEXT
  5
5EEF0
  8
0
  6
CONTINUOUS
 62
     3
 10
538.40250552141674
 20
66.697514046538174
 30
0.0
 40
3.0
  1
(9.1)
  0
ENDBLK
  5
5EEF2
  8
0
  0
BLOCK
  8
0
  2
*U230
 70
     1
 10
0.0
 20
0.0
 30
0.0
  3
*U230
  1

  0
TEXT
  5
5EEF4
  8
0
  6
CONTINUOUS
 62
     3
 10
578.50774701715818
 20
66.697514046538174
 30
0.0
 40
3.0
  1
(8.5)
  0
ENDBLK
  5
5EEF6
  8
0
  0
BLOCK
  8
0
  2
*U231
 70
     1
 10
0.0
 20
0.0
 30
0.0
  3
*U231
  1

  0
TEXT
  5
5EEF8
  8
0
  6
CONTINUOUS
 62
     3
 10
519.57120553398363
 20
66.547514046538168
 30
0.0
 40
3.0
  1
1.5
  0
ENDBLK
  5
5EEFA
  8
0
  0
BLOCK
  8
0
  2
*U232
 70
     1
 10
0.0
 20
0.0
 30
0.0
  3
*U232
  1

  0
TEXT
  5
5EEFC
  8
0
  6
CONTINUOUS
 62
     3
 10
577.9612769394995
 20
71.984564753713002
 30
0.0
 40
3.0
  1
R0.5
 50
42.237755721118447
  0
TEXT
  5
5EEFD
  8
0
  6
CONTINUOUS
 62
     3
 10
581.53864463996445
 20
78.733144858016857
 30
0.0
 40
2.1000000000000001
  1
+0.1
 50
42.237755721118447
  0
TEXT
  5
5EEFE
  8
0
  6
CONTINUOUS
 62
     3
 10
583.28077645363396
 20
76.814383582522481
 30
0.0
 40
2.1000000000000001
  1
-0
 50
42.237755721118447
  0
ENDBLK
  5
5EF00
  8
0
  0
BLOCK
  8
0
  2
*U233
 70
     1
 10
0.0
 20
0.0
 30
0.0
  3
*U233
  1

  0
TEXT
  5
5EF02
  8
0
  6
CONTINUOUS
 62
     3
 10
510.56689072053092
 20
101.8506013444829
 30
0.0
 40
3.0
  1
\U+220513.1
 50
90.0
  0
ENDBLK
  5
5EF04
  8
0
  0
BLOCK
  8
0
  2
*U234
 70
     1
 10
0.0
 20
0.0
 30
0.0
  3
*U234
  1

  0
TEXT
  5
5EF06
  8
0
  6
CONTINUOUS
 62
     3
 10
502.56689072053092
 20
99.822539336608955
 30
0.0
 40
3.0
  1
\U+220515
 50
90.0
  0
TEXT
  5
5EF07
  8
0
  6
CONTINUOUS
 62
     3
 10
499.87065056305062
 20
105.807539336609
 30
0.0
 40
2.1000000000000001
  1
-0.01
 50
90.0
  0
TEXT
  5
5EF08
  8
0
  6
CONTINUOUS
 62
     3
 10
502.56689072053092
 20
105.807539336609
 30
0.0
 40
2.1000000000000001
  1
-0.02
 50
90.0
  0
ENDBLK
  5
5EF0A
  8
0
  0
BLOCK
  8
0
  2
*U235
 70
     1
 10
0.0
 20
0.0
 30
0.0
  3
*U235
  1

  0
TEXT
  5
5EF0C
  8
0
  6
CONTINUOUS
 62
     3
 10
494.56689072053092
 20
98.342108920433802
 30
0.0
 40
3.0
  1
\U+220516.5
 50
90.0
  0
TEXT
  5
5EF0D
  8
0
  6
CONTINUOUS
 62
     3
 10
491.8890791007791
 20
107.3271089204338
 30
0.0
 40
2.1000000000000001
  1
+0
 50
90.0
  0
TEXT
  5
5EF0E
  8
0
  6
CONTINUOUS
 62
     3
 10
494.56689072053092
 20
107.3271089204338
 30
0.0
 40
2.1000000000000001
  1
-0.05
 50
90.0
  0
ENDBLK
  5
5EF10
  8
0
  0
BLOCK
  8
0
  2
*U236
 70
     1
 10
0.0
 20
0.0
 30
0.0
  3
*U236
  1

  0
TEXT
  5
5EF12
  8
0
  6
CONTINUOUS
 62
     3
 10
540.83333401136952
 20
99.18060134448298
 30
0.0
 40
3.0
  1
\U+220514.7
 50
90.0
  0
TEXT
  5
5EF13
  8
0
  6
CONTINUOUS
 62
     3
 10
538.24168046806244
 20
108.46560134448301
 30
0.0
 40
2.1000000000000001
  1
+0.1
 50
90.0
  0
TEXT
  5
5EF14
  8
0
  6
CONTINUOUS
 62
     3
 10
540.83333401136963
 20
108.46560134448301
 30
0.0
 40
2.1000000000000001
  1
-0
 50
90.0
  0
ENDBLK
  5
5EF16
  8
0
  0
BLOCK
  8
0
  2
*U237
 70
     1
 10
0.0
 20
0.0
 30
0.0
  3
*U237
  1

  0
TEXT
  5
5EF18
  8
0
  6
CONTINUOUS
 62
     3
 10
565.40043639273176
 20
168.6803638847791
 30
0.0
 40
3.0
  1
35.5
  0
ENDBLK
  5
5EF1A
  8
0
  0
BLOCK
  8
0
  2
*U238
 70
     1
 10
0.0
 20
0.0
 30
0.0
  3
*U238
  1

  0
TEXT
  5
5EF1C
  8
0
  6
CONTINUOUS
 62
     3
 10
597.30043639273185
 20
176.6803638847791
 30
0.0
 40
3.0
  1
4.5
  0
ENDBLK
  5
5EF1E
  8
0
  0
BLOCK
  8
0
  2
*U239
 70
     1
 10
0.0
 20
0.0
 30
0.0
  3
*U239
  1

  0
TEXT
  5
5EF20
  8
0
  6
CONTINUOUS
 62
     3
 10
676.55748547790199
 20
167.36994076882101
 30
0.0
 40
3.0
  1
60¡Æ
  0
ENDBLK
  5
5EF22
  8
0
  0
BLOCK
  8
0
  2
*U240
 70
     1
 10
0.0
 20
0.0
 30
0.0
  3
*U240
  1

  0
TEXT
  5
5EF24
  8
0
  6
CONTINUOUS
 62
     3
 10
669.85634102207734
 20
202.8332651955198
 30
0.0
 40
3.0
  1
R0.2
 50
308.95337049897472
  0
ENDBLK
  5
5EF26
  8
0
  0
BLOCK
  8
0
  2
*U241
 70
     1
 10
0.0
 20
0.0
 30
0.0
  3
*U241
  1

  0
TEXT
  5
5EF28
  8
0
  6
CONTINUOUS
 62
     3
 10
705.4569061949104
 20
167.58582902128879
 30
0.0
 40
3.0
  1
\U+220512.9
 50
90.0
  0
TEXT
  5
5EF29
  8
0
  6
CONTINUOUS
 62
     3
 10
705.4569061949104
 20
176.8963120127716
 30
0.0
 40
2.1000000000000001
  1
¡¾0.05
 50
90.0
  0
ENDBLK
  5
5EF2B
  8
0
  0
BLOCK
  8
0
  2
*U242
 70
     1
 10
0.0
 20
0.0
 30
0.0
  3
*U242
  1

  0
TEXT
  5
5EF2D
  8
0
  6
CONTINUOUS
 62
     3
 10
520.64561498280227
 20
143.27632076145471
 30
0.0
 40
3.0
  1
3.5
  0
ENDBLK
  5
5EF2F
  8
0
  0
BLOCK
  8
0
  2
*U243
 70
     1
 10
0.0
 20
0.0
 30
0.0
  3
*U243
  1

  0
TEXT
  5
5EF31
  8
0
  6
CONTINUOUS
 62
     3
 10
514.65533992902374
 20
126.78932844106529
 30
0.0
 40
3.0
  1
45¡Æ
 50
67.500000000001833
  0
ENDBLK
  5
5EF33
  8
0
  0
BLOCK
  8
0
  2
*U244
 70
     1
 10
0.0
 20
0.0
 30
0.0
  3
*U244
  1

  0
TEXT
  5
5EF35
  8
0
  6
CONTINUOUS
 62
     3
 10
567.73228472705966
 20
133.0583777973842
 30
0.0
 40
3.0
  1
45¡Æ
 50
292.49999999999977
  0
ENDBLK
  5
5EF37
  8
0
  0
BLOCK
  8
0
  2
*U245
 70
     1
 10
0.0
 20
0.0
 30
0.0
  3
*U245
  1

  0
TEXT
  5
5EF39
  8
0
  6
CONTINUOUS
 62
     3
 10
581.70043639273172
 20
176.6803638847791
 30
0.0
 40
3.0
  1
10.5
  0
ENDBLK
  5
5EF3B
  8
0
  0
BLOCK
  8
0
  2
*U246
 70
     1
 10
0.0
 20
0.0
 30
0.0
  3
*U246
  1

  0
TEXT
  5
5EF3D
  8
0
  6
CONTINUOUS
 62
     3
 10
566.31256842708751
 20
176.68036388477901
 30
0.0
 40
3.0
  1
5.7
  0
ENDBLK
  5
5EF3F
  8
0
  0
BLOCK
  8
0
  2
*U247
 70
     1
 10
0.0
 20
0.0
 30
0.0
  3
*U247
  1

  0
TEXT
  5
5EF41
  8
0
  6
CONTINUOUS
 62
     3
 10
554.91256842708742
 20
176.68036388477901
 30
0.0
 40
3.0
  1
5.7
  0
ENDBLK
  5
5EF43
  8
0
  0
BLOCK
  8
0
  2
*U248
 70
     1
 10
0.0
 20
0.0
 30
0.0
  3
*U248
  1

  0
TEXT
  5
5EF45
  8
0
  6
CONTINUOUS
 62
     3
 10
540.46421746996066
 20
176.68036388477901
 30
0.0
 40
3.0
  1
9.1
  0
ENDBLK
  5
5EF47
  8
0
  0
BLOCK
  8
0
  2
*U249
 70
     1
 10
0.0
 20
0.0
 30
0.0
  3
*U249
  1

  0
TEXT
  5
5EF49
  8
0
  6
CONTINUOUS
 62
     3
 10
603.94087726506973
 20
116.5572503044182
 30
0.0
 40
3.0
  1
R1.5
 50
314.95650965487408
  0
ENDBLK
  5
5EF4B
  8
0
  0
BLOCK
  8
0
  2
*U250
 70
     1
 10
0.0
 20
0.0
 30
0.0
  3
*U250
  1

  0
TEXT
  5
5EF4D
  8
0
  6
CONTINUOUS
 62
     3
 10
559.00669851736313
 20
98.342108920433816
 30
0.0
 40
3.0
  1
\U+220516.5
 50
90.0
  0
TEXT
  5
5EF4E
  8
0
  6
CONTINUOUS
 62
     3
 10
556.32888689761126
 20
107.3271089204338
 30
0.0
 40
2.1000000000000001
  1
+0
 50
90.0
  0
TEXT
  5
5EF4F
  8
0
  6
CONTINUOUS
 62
     3
 10
559.00669851736325
 20
107.3271089204338
 30
0.0
 40
2.1000000000000001
  1
-0.05
 50
90.0
  0
ENDBLK
  5
5EF51
  8
0
  0
BLOCK
  8
0
  2
*U251
 70
     1
 10
0.0
 20
0.0
 30
0.0
  3
*U251
  1

  0
TEXT
  5
5EF70
  8
0
  6
CONTINUOUS
 62
     3
 10
380.59759279173869
 20
107.3948159887418
 30
0.0
 40
3.0
  1
13
 50
290.00000000000011
  0
ENDBLK
  5
5EF72
  8
0
  0
BLOCK
  8
0
  2
*U252
 70
     1
 10
0.0
 20
0.0
 30
0.0
  3
*U252
  1

  0
TEXT
  5
5EF74
  8
0
  6
CONTINUOUS
 62
     3
 10
150.50455786882981
 20
251.55874981502049
 30
0.0
 40
3.0
  1
16
  0
ENDBLK
  5
5EF76
  8
0
  0
BLOCK
  8
0
  2
*U253
 70
     1
 10
0.0
 20
0.0
 30
0.0
  3
*U253
  1

  0
TEXT
  5
5EF78
  8
0
  6
CONTINUOUS
 62
     3
 10
121.88255895064761
 20
235.30312930256039
 30
0.0
 40
3.0
  1
60¡Æ
 50
60.000000000000028
  0
ENDBLK
  5
5EF7A
  8
0
  0
BLOCK
  8
0
  2
*U254
 70
     1
 10
0.0
 20
0.0
 30
0.0
  3
*U254
  1

  0
TEXT
  5
5EF7C
  8
0
  6
CONTINUOUS
 62
     3
 10
133.4852335376863
 20
224.77606730674529
 30
0.0
 40
3.0
  1
21.02
 50
90.0
  0
ENDBLK
  5
5EF7E
  8
0
  0
BLOCK
  8
0
  2
*U255
 70
     1
 10
0.0
 20
0.0
 30
0.0
  3
*U255
  1

  0
TEXT
  5
5EF80
  8
0
  6
CONTINUOUS
 62
     3
 10
75.955812020503458
 20
188.9825979848176
 30
0.0
 40
3.0
  1
2
 50
357.00000000000108
  0
ENDBLK
  5
5EF82
  8
0
  0
BLOCK
  8
0
  2
*U256
 70
     1
 10
0.0
 20
0.0
 30
0.0
  3
*U256
  1

  0
TEXT
  5
5EF84
  8
0
  6
CONTINUOUS
 62
     3
 10
65.460081791019235
 20
189.53265589809851
 30
0.0
 40
3.0
  1
5
 50
357.00000000000108
  0
ENDBLK
  5
5EF86
  8
0
  0
BLOCK
  8
0
  2
*U257
 70
     1
 10
0.0
 20
0.0
 30
0.0
  3
*U257
  1

  0
TEXT
  5
5EF88
  8
0
  6
CONTINUOUS
 62
     3
 10
54.984591790657397
 20
190.08165306591931
 30
0.0
 40
3.0
  1
2
 50
357.00000000000108
  0
ENDBLK
  5
5EF8A
  8
0
  0
BLOCK
  8
0
  2
*X258
 70
     1
 10
0.0
 20
0.0
 30
0.0
  3
*X258
  1

  0
LINE
  5
5EF92
  8
0
  6
CONTINUOUS
 62
     0
 10
79.448998409797639
 20
175.8227360280886
 30
0.0
 11
81.897982584308693
 21
178.02781128323971
 31
0.0
  0
LINE
  5
5EF93
  8
0
  6
CONTINUOUS
 62
     0
 10
78.86062001992812
 20
175.29295774627261
 30
0.0
 11
79.209959339442008
 21
175.60750428239521
 31
0.0
  0
LINE
  5
5EF94
  8
0
  6
CONTINUOUS
 62
     0
 10
81.897982584308693
 20
178.02781128323971
 30
0.0
 11
85.022527832778422
 21
180.84116446155349
 31
0.0
  0
LINE
  5
5EF95
  8
0
  6
CONTINUOUS
 62
     0
 10
77.801067813701906
 20
174.33893265464189
 30
0.0
 11
78.86062001992812
 21
175.29295774627261
 31
0.0
  0
LINE
  5
5EF96
  8
0
  6
CONTINUOUS
 62
     0
 10
74.922271644475813
 20
175.11093476517749
 30
0.0
 11
81.490037454055539
 21
181.02457766212419
 31
0.0
  0
LINE
  5
5EF97
  8
0
  6
CONTINUOUS
 62
     0
 10
73.110154647456653
 20
173.47929729232061
 30
0.0
 11
74.922271644475813
 21
175.11093476517749
 31
0.0
  0
LINE
  5
5EF98
  8
0
  6
CONTINUOUS
 62
     0
 10
72.625622509998493
 20
176.40710442017689
 30
0.0
 11
76.384702437101154
 21
179.791795189379
 31
0.0
  0
LINE
  5
5EF99
  8
0
  6
CONTINUOUS
 62
     0
 10
69.352585089295872
 20
173.46004828943811
 30
0.0
 11
72.625622509998465
 21
176.40710442017689
 31
0.0
  0
LINE
  5
5EF9A
  8
0
  6
CONTINUOUS
 62
     0
 10
71.161073441257457
 20
178.4525003396258
 30
0.0
 11
73.111203614469815
 21
180.2084054344935
 31
0.0
  0
LINE
  5
5EF9B
  8
0
  6
CONTINUOUS
 62
     0
 10
65.695054892856533
 20
173.53087513243861
 30
0.0
 11
71.161073441257457
 21
178.4525003396258
 31
0.0
  0
LINE
  5
5EF9C
  8
0
  6
CONTINUOUS
 62
     0
 10
70.697714684999241
 20
181.399372065546
 30
0.0
 11
70.899773514416225
 21
181.58130665273919
 31
0.0
  0
LINE
  5
5EF9D
  8
0
  6
CONTINUOUS
 62
     0
 10
62.281581947226087
 20
173.82145211110759
 30
0.0
 11
70.697714684999241
 21
181.399372065546
 31
0.0
  0
LINE
  5
5EF9E
  8
0
  6
CONTINUOUS
 62
     0
 10
58.868109001595592
 20
174.1120290897766
 30
0.0
 11
67.369084934825565
 21
181.76634220053549
 31
0.0
  0
LINE
  5
5EF9F
  8
0
  6
CONTINUOUS
 62
     0
 10
55.454636055965132
 20
174.40260606844561
 30
0.0
 11
63.838396355234877
 21
181.95137774833179
 31
0.0
  0
LINE
  5
5EFA0
  8
0
  6
CONTINUOUS
 62
     0
 10
59.270271356341802
 20
181.20230134848629
 30
0.0
 11
60.262414585621841
 21
182.09563112465281
 31
0.0
  0
LINE
  5
5EFA1
  8
0
  6
CONTINUOUS
 62
     0
 10
52.268655370747076
 20
174.89801799843639
 30
0.0
 11
58.750810409307647
 21
180.73457661092201
 31
0.0
  0
LINE
  5
5EFA2
  8
0
  6
CONTINUOUS
 62
     0
 10
49.538057893634843
 20
175.80345881071099
 30
0.0
 11
55.200570959557439
 21
180.90200847615711
 31
0.0
  0
LINE
  5
5EFA3
  8
0
  6
CONTINUOUS
 62
     0
 10
51.669882379966822
 20
181.0870440239535
 30
0.0
 11
52.066330949114437
 21
181.4440079189701
 31
0.0
  0
LINE
  5
5EFA4
  8
0
  6
CONTINUOUS
 62
     0
 10
46.807460416522652
 20
176.70889962298571
 30
0.0
 11
51.669882379966822
 21
181.0870440239535
 31
0.0
  0
LINE
  5
5EFA5
  8
0
  6
CONTINUOUS
 62
     0
 10
48.139193800376191
 20
181.2720795717498
 30
0.0
 11
49.715642036872822
 21
182.69151993951749
 31
0.0
  0
LINE
  5
5EFA6
  8
0
  6
CONTINUOUS
 62
     0
 10
44.542306831653839
 20
178.03342799823
 30
0.0
 11
48.139193800376169
 21
181.2720795717498
 31
0.0
  0
LINE
  5
5EFA7
  8
0
  6
CONTINUOUS
 62
     0
 10
45.708502497744867
 20
182.44755711643691
 30
0.0
 11
46.184953457281978
 21
182.87655548731371
 31
0.0
  0
LINE
  5
5EFA8
  8
0
  6
CONTINUOUS
 62
     0
 10
42.967144792686248
 20
179.97922755193511
 30
0.0
 11
45.708502497744838
 21
182.44755711643691
 31
0.0
  0
LINE
  5
5EFA9
  8
0
  6
CONTINUOUS
 62
     0
 10
42.010716955004298
 20
182.48213788282311
 30
0.0
 11
42.654264877691112
 21
183.0615910351099
 31
0.0
  0
ENDBLK
  5
5EFAB
  8
0
  0
BLOCK
  8
0
  2
*U259
 70
     1
 10
0.0
 20
0.0
 30
0.0
  3
*U259
  1

  0
SOLID
  5
5EFD1
  8
0
  6
CONTINUOUS
 62
     2
 10
-244.02426837187861
 20
122.9351046408909
 30
0.0
 11
-242.7119681067189
 21
125.1033940877067
 31
0.0
 12
-243.25010421263249
 22
122.6266985790453
 32
0.0
 13
-243.25010421263249
 23
122.6266985790453
 33
0.0
210
0.0
220
0.0
230
-1.0
  0
POLYLINE
  5
5EFD2
  8
0
  6
CONTINUOUS
 62
     2
 66
     1
 10
0.0
 20
0.0
 30
0.0
210
0.0
220
0.0
230
-1.0
  0
VERTEX
  5
5EFD3
  8
0
  6
CONTINUOUS
 62
     2
 10
-243.63718629225551
 20
122.7809016099681
 30
0.0
  0
VERTEX
  5
5EFD4
  8
0
  6
CONTINUOUS
 62
     2
 10
-249.41728036871351
 20
108.2716483083712
 30
0.0
  0
VERTEX
  5
5EFD5
  8
0
  6
CONTINUOUS
 62
     2
 10
-261.2524846450043
 20
108.2716483083712
 30
0.0
  0
VERTEX
  5
5EFD6
  8
0
  6
CONTINUOUS
 62
     2
 10
-263.05248464500431
 20
108.2716483083712
 30
0.0
  0
SEQEND
  5
5EFD7
  8
0
  6
CONTINUOUS
 62
     2
  0
ENDBLK
  5
5EFD9
  8
0
  0
BLOCK
  8
0
  2
*U260
 70
     1
 10
0.0
 20
0.0
 30
0.0
  3
*U260
  1

  0
TEXT
  5
5EFEF
  8
0
  6
CONTINUOUS
 62
     3
 10
190.44543426048119
 20
-105.8190979081666
 30
0.0
 40
3.0
  1
70
  0
ENDBLK
  5
5EFF1
  8
0
  0
BLOCK
  8
0
  2
*U261
 70
     1
 10
0.0
 20
0.0
 30
0.0
  3
*U261
  1

  0
TEXT
  5
5EFF3
  8
0
  6
CONTINUOUS
 62
     3
 10
177.87864562983711
 20
-160.98583729352481
 30
0.0
 40
3.0
  1
3¡Æ
 50
271.49999999999989
  0
ENDBLK
  5
5EFF5
  8
0
  0
BLOCK
  8
0
  2
*U262
 70
     1
 10
0.0
 20
0.0
 30
0.0
  3
*U262
  1

  0
TEXT
  5
5EFF7
  8
0
  6
CONTINUOUS
 62
     3
 10
126.7471932649259
 20
-185.2243795441712
 30
0.0
 40
3.0
  1
R2
 50
300.18267060630808
  0
ENDBLK
  5
5EFF9
  8
0
  0
BLOCK
  8
0
  2
*U263
 70
     1
 10
0.0
 20
0.0
 30
0.0
  3
*U263
  1

  0
TEXT
  5
5EFFB
  8
0
  6
CONTINUOUS
 62
     3
 10
122.2253585496747
 20
-166.8807086673693
 30
0.0
 40
3.0
  1
R2
 50
306.24375126273691
  0
ENDBLK
  5
5EFFD
  8
0
  0
BLOCK
  8
0
  2
*U264
 70
     1
 10
0.0
 20
0.0
 30
0.0
  3
*U264
  1

  0
TEXT
  5
5EFFF
  8
0
  6
CONTINUOUS
 62
     3
 10
42.195434260481328
 20
-113.4863101983063
 30
0.0
 40
3.0
  1
70
  0
ENDBLK
  5
5F001
  8
0
  0
BLOCK
  8
0
  2
*U265
 70
     1
 10
0.0
 20
0.0
 30
0.0
  3
*U265
  1

  0
TEXT
  5
5F003
  8
0
  6
CONTINUOUS
 62
     3
 10
109.4170122865518
 20
-172.6208445518092
 30
0.0
 40
3.0
  1
\U+220549.5
 50
90.0
  0
TEXT
  5
5F004
  8
0
  6
CONTINUOUS
 62
     3
 10
109.4170122865518
 20
-162.41036156032641
 30
0.0
 40
2.1000000000000001
  1
¡¾0.05
 50
90.0
  0
ENDBLK
  5
5F006
  8
0
  0
BLOCK
  8
0
  2
*U266
 70
     1
 10
0.0
 20
0.0
 30
0.0
  3
*U266
  1

  0
TEXT
  5
5F008
  8
0
  6
CONTINUOUS
 62
     3
 10
200.00147144997399
 20
-162.5850387738449
 30
0.0
 40
3.0
  1
35¡Æ
 50
287.5
  0
ENDBLK
  5
5F00A
  8
0
  0
BLOCK
  8
0
  2
*U267
 70
     1
 10
0.0
 20
0.0
 30
0.0
  3
*U267
  1

  0
TEXT
  5
5F00C
  8
0
  6
CONTINUOUS
 62
     3
 10
231.1914125493723
 20
-173.00717796097459
 30
0.0
 40
3.0
  1
R0.5
 50
310.78191809315138
  0
ENDBLK
  5
5F00E
  8
0
  0
BLOCK
  8
0
  2
*U268
 70
     1
 10
0.0
 20
0.0
 30
0.0
  3
*U268
  1

  0
TEXT
  5
5F010
  8
0
  6
CONTINUOUS
 62
     3
 10
246.0553834096194
 20
-166.1825143315325
 30
0.0
 40
3.0
  1
10.35
 50
90.0
  0
ENDBLK
  5
5F012
  8
0
  0
BLOCK
  8
0
  2
*U269
 70
     1
 10
0.0
 20
0.0
 30
0.0
  3
*U269
  1

  0
TEXT
  5
5F014
  8
0
  6
CONTINUOUS
 62
     3
 10
238.0553834096194
 20
-164.24538229717649
 30
0.0
 40
3.0
  1
1
 50
90.0
  0
ENDBLK
  5
5F016
  8
0
  0
BLOCK
  8
0
  2
*U270
 70
     1
 10
0.0
 20
0.0
 30
0.0
  3
*U270
  1

  0
TEXT
  5
5F018
  8
0
  6
CONTINUOUS
 62
     3
 10
218.184483328488
 20
-129.81909790816661
 30
0.0
 40
3.0
  1
15
  0
ENDBLK
  5
5F01A
  8
0
  0
BLOCK
  8
0
  2
*U271
 70
     1
 10
0.0
 20
0.0
 30
0.0
  3
*U271
  1

  0
TEXT
  5
5F01C
  8
0
  6
CONTINUOUS
 62
     3
 10
200.3306229387953
 20
-121.8190979081666
 30
0.0
 40
3.0
  1
30.5
  0
TEXT
  5
5F01D
  8
0
  6
CONTINUOUS
 62
     3
 10
207.53062293879529
 20
-121.8190979081666
 30
0.0
 40
2.1000000000000001
  1
¡¾0.03
  0
ENDBLK
  5
5F01F
  8
0
  0
BLOCK
  8
0
  2
*U272
 70
     1
 10
0.0
 20
0.0
 30
0.0
  3
*U272
  1

  0
TEXT
  5
5F021
  8
0
  6
CONTINUOUS
 62
     3
 10
170.18448332848851
 20
-113.8190979081666
 30
0.0
 40
3.0
  1
15
  0
ENDBLK
  5
5F023
  8
0
  0
BLOCK
  8
0
  2
*U273
 70
     1
 10
0.0
 20
0.0
 30
0.0
  3
*U273
  1

  0
TEXT
  5
5F025
  8
0
  6
CONTINUOUS
 62
     3
 10
199.07661536284391
 20
-113.8190979081666
 30
0.0
 40
3.0
  1
48
  0
TEXT
  5
5F026
  8
0
  6
CONTINUOUS
 62
     3
 10
203.26161536284391
 20
-111.22744436485949
 30
0.0
 40
2.1000000000000001
  1
+0
  0
TEXT
  5
5F027
  8
0
  6
CONTINUOUS
 62
     3
 10
203.26161536284391
 20
-113.8190979081666
 30
0.0
 40
2.1000000000000001
  1
-0.1
  0
ENDBLK
  5
5F029
  8
0
  0
BLOCK
  8
0
  2
*U274
 70
     1
 10
0.0
 20
0.0
 30
0.0
  3
*U274
  1

  0
TEXT
  5
5F02B
  8
0
  6
CONTINUOUS
 62
     3
 10
262.05538340961942
 20
-164.7734443050509
 30
0.0
 40
3.0
  1
\U+220523.5
 50
90.0
  0
TEXT
  5
5F02C
  8
0
  6
CONTINUOUS
 62
     3
 10
259.35914325213912
 20
-155.18844430505089
 30
0.0
 40
2.1000000000000001
  1
+0.05
 50
90.0
  0
TEXT
  5
5F02D
  8
0
  6
CONTINUOUS
 62
     3
 10
262.05538340961942
 20
-155.18844430505089
 30
0.0
 40
2.1000000000000001
  1
+0.02
 50
90.0
  0
ENDBLK
  5
5F02F
  8
0
  0
BLOCK
  8
0
  2
*U275
 70
     1
 10
0.0
 20
0.0
 30
0.0
  3
*U275
  1

  0
TEXT
  5
5F031
  8
0
  6
CONTINUOUS
 62
     3
 10
254.0553834096194
 20
-164.4538747212261
 30
0.0
 40
3.0
  1
\U+220517.5
 50
90.0
  0
TEXT
  5
5F032
  8
0
  6
CONTINUOUS
 62
     3
 10
251.46372986631241
 20
-155.46887472122609
 30
0.0
 40
2.1000000000000001
  1
+0.05
 50
90.0
  0
TEXT
  5
5F033
  8
0
  6
CONTINUOUS
 62
     3
 10
254.0553834096194
 20
-155.46887472122609
 30
0.0
 40
2.1000000000000001
  1
-0
 50
90.0
  0
ENDBLK
  5
5F035
  8
0
  0
BLOCK
  8
0
  2
*U276
 70
     1
 10
0.0
 20
0.0
 30
0.0
  3
*U276
  1

  0
TEXT
  5
5F037
  8
0
  6
CONTINUOUS
 62
     3
 10
232.6966153628434
 20
-121.8190979081666
 30
0.0
 40
3.0
  1
5
  0
ENDBLK
  5
5F039
  8
0
  0
BLOCK
  8
0
  2
*U277
 70
     1
 10
0.0
 20
0.0
 30
0.0
  3
*U277
  1

  0
TEXT
  5
5F03B
  8
0
  6
CONTINUOUS
 62
     3
 10
136.71954021573941
 20
-171.13869945333269
 30
0.0
 40
3.0
  1
(\U+220536.48)
 50
90.0
  0
ENDBLK
  5
5F03D
  8
0
  0
BLOCK
  8
0
  2
*U278
 70
     1
 10
0.0
 20
0.0
 30
0.0
  3
*U278
  1

  0
TEXT
  5
5F03F
  8
0
  6
CONTINUOUS
 62
     3
 10
66.302166570142873
 20
-169.72718196449819
 30
0.0
 40
3.0
  1
\U+22059
 50
90.0
  0
ENDBLK
  5
5F041
  8
0
  0
BLOCK
  8
0
  2
*U279
 70
     1
 10
0.0
 20
0.0
 30
0.0
  3
*U279
  1

  0
TEXT
  5
5F05E
  8
0
  6
CONTINUOUS
 62
     3
 10
326.79008528499588
 20
-269.70858343096501
 30
0.0
 40
3.0
  1
\U+220511.7
 50
90.0
  0
ENDBLK
  5
5F060
  8
0
  0
BLOCK
  8
0
  2
*U280
 70
     1
 10
0.0
 20
0.0
 30
0.0
  3
*U280
  1

  0
TEXT
  5
5F062
  8
0
  6
CONTINUOUS
 62
     3
 10
342.64008528499591
 20
-278.97772811600441
 30
0.0
 40
3.0
  1
\U+220512.7
 50
90.0
  0
TEXT
  5
5F063
  8
0
  6
CONTINUOUS
 62
     3
 10
339.94384512751549
 20
-269.9927281160044
 30
0.0
 40
2.1000000000000001
  1
+0.008
 50
90.0
  0
TEXT
  5
5F064
  8
0
  6
CONTINUOUS
 62
     3
 10
342.64008528499591
 20
-269.9927281160044
 30
0.0
 40
2.1000000000000001
  1
+0.002
 50
90.0
  0
TEXT
  5
5F065
  8
0
  6
CONTINUOUS
 62
     3
 10
342.64008528499591
 20
-261.88825764356341
 30
0.0
 40
3.0
  1
(Á¤»è)
 50
90.0
  0
ENDBLK
  5
5F067
  8
0
  0
BLOCK
  8
0
  2
*U281
 70
     1
 10
0.0
 20
0.0
 30
0.0
  3
*U281
  1

  0
TEXT
  5
5F069
  8
0
  6
CONTINUOUS
 62
     3
 10
350.79008528499588
 20
-273.536645438839
 30
0.0
 40
3.0
  1
\U+220523.5
 50
90.0
  0
TEXT
  5
5F06A
  8
0
  6
CONTINUOUS
 62
     3
 10
348.09384512751558
 20
-263.95164543883908
 30
0.0
 40
2.1000000000000001
  1
-0.01
 50
90.0
  0
TEXT
  5
5F06B
  8
0
  6
CONTINUOUS
 62
     3
 10
350.79008528499588
 20
-263.95164543883908
 30
0.0
 40
2.1000000000000001
  1
-0.02
 50
90.0
  0
ENDBLK
  5
5F06D
  8
0
  0
BLOCK
  8
0
  2
*U282
 70
     1
 10
0.0
 20
0.0
 30
0.0
  3
*U282
  1

  0
TEXT
  5
5F06F
  8
0
  6
CONTINUOUS
 62
     3
 10
304.86810287013202
 20
-313.01167072890979
 30
0.0
 40
3.0
  1
6.5
  0
ENDBLK
  5
5F071
  8
0
  0
BLOCK
  8
0
  2
*U283
 70
     1
 10
0.0
 20
0.0
 30
0.0
  3
*U283
  1

  0
TEXT
  5
5F073
  8
0
  6
CONTINUOUS
 62
     3
 10
319.0392900225981
 20
-304.46167072890978
 30
0.0
 40
3.0
  1
(1.5)
  0
ENDBLK
  5
5F075
  8
0
  0
BLOCK
  8
0
  2
*U284
 70
     1
 10
0.0
 20
0.0
 30
0.0
  3
*U284
  1

  0
TEXT
  5
5F077
  8
0
  6
CONTINUOUS
 62
     3
 10
269.55038254228327
 20
-321.01167072890991
 30
0.0
 40
3.0
  1
42
  0
ENDBLK
  5
5F079
  8
0
  0
BLOCK
  8
0
  2
*U285
 70
     1
 10
0.0
 20
0.0
 30
0.0
  3
*U285
  1

  0
TEXT
  5
5F07B
  8
0
  6
CONTINUOUS
 62
     3
 10
263.40490911708639
 20
-313.01167072890979
 30
0.0
 40
3.0
  1
30.5
  0
TEXT
  5
5F07C
  8
0
  6
CONTINUOUS
 62
     3
 10
270.60490911708638
 20
-313.01167072890979
 30
0.0
 40
2.1000000000000001
  1
¡¾0.02
  0
ENDBLK
  5
5F07E
  8
0
  0
BLOCK
  8
0
  2
*U286
 70
     1
 10
0.0
 20
0.0
 30
0.0
  3
*U286
  1

  0
TEXT
  5
5F080
  8
0
  6
CONTINUOUS
 62
     3
 10
233.77833909060431
 20
-313.01167072890979
 30
0.0
 40
3.0
  1
5
  0
ENDBLK
  5
5F082
  8
0
  0
BLOCK
  8
0
  2
*U287
 70
     1
 10
0.0
 20
0.0
 30
0.0
  3
*U287
  1

  0
TEXT
  5
5F084
  8
0
  6
CONTINUOUS
 62
     3
 10
246.07447870091099
 20
-297.01167072890979
 30
0.0
 40
3.0
  1
7.3
  0
TEXT
  5
5F085
  8
0
  6
CONTINUOUS
 62
     3
 10
251.17447870091101
 20
-297.01167072890979
 30
0.0
 40
2.1000000000000001
  1
¡¾0.05
  0
ENDBLK
  5
5F087
  8
0
  0
BLOCK
  8
0
  2
*U288
 70
     1
 10
0.0
 20
0.0
 30
0.0
  3
*U288
  1

  0
TEXT
  5
5F089
  8
0
  6
CONTINUOUS
 62
     3
 10
287.21556819467241
 20
-286.4853320883451
 30
0.0
 40
3.0
  1
7.6
  0
TEXT
  5
5F08A
  8
0
  6
CONTINUOUS
 62
     3
 10
292.31556819467238
 20
-286.4853320883451
 30
0.0
 40
2.1000000000000001
  1
¡¾0.05
  0
ENDBLK
  5
5F08C
  8
0
  0
BLOCK
  8
0
  2
*U289
 70
     1
 10
0.0
 20
0.0
 30
0.0
  3
*U289
  1

  0
TEXT
  5
5F08E
  8
0
  6
CONTINUOUS
 62
     3
 10
248.53522962921869
 20
-304.86167072890981
 30
0.0
 40
3.0
  1
(9.1)
  0
ENDBLK
  5
5F090
  8
0
  0
BLOCK
  8
0
  2
*U290
 70
     1
 10
0.0
 20
0.0
 30
0.0
  3
*U290
  1

  0
TEXT
  5
5F092
  8
0
  6
CONTINUOUS
 62
     3
 10
288.6404711249603
 20
-304.86167072890981
 30
0.0
 40
3.0
  1
(8.5)
  0
ENDBLK
  5
5F094
  8
0
  0
BLOCK
  8
0
  2
*U291
 70
     1
 10
0.0
 20
0.0
 30
0.0
  3
*U291
  1

  0
TEXT
  5
5F096
  8
0
  6
CONTINUOUS
 62
     3
 10
229.70392964178561
 20
-305.01167072890979
 30
0.0
 40
3.0
  1
1.5
  0
ENDBLK
  5
5F098
  8
0
  0
BLOCK
  8
0
  2
*U292
 70
     1
 10
0.0
 20
0.0
 30
0.0
  3
*U292
  1

  0
TEXT
  5
5F09A
  8
0
  6
CONTINUOUS
 62
     3
 10
288.09400104730202
 20
-299.5746200217356
 30
0.0
 40
3.0
  1
R0.5
 50
42.237755721120841
  0
TEXT
  5
5F09B
  8
0
  6
CONTINUOUS
 62
     3
 10
291.67136874776668
 20
-292.82603991743161
 30
0.0
 40
2.1000000000000001
  1
+0.1
 50
42.237755721120841
  0
TEXT
  5
5F09C
  8
0
  6
CONTINUOUS
 62
     3
 10
293.41350056143631
 20
-294.74480119292588
 30
0.0
 40
2.1000000000000001
  1
-0
 50
42.237755721120841
  0
ENDBLK
  5
5F09E
  8
0
  0
BLOCK
  8
0
  2
*U293
 70
     1
 10
0.0
 20
0.0
 30
0.0
  3
*U293
  1

  0
TEXT
  5
5F0A0
  8
0
  6
CONTINUOUS
 62
     3
 10
220.69961482833301
 20
-269.70858343096501
 30
0.0
 40
3.0
  1
\U+220513.1
 50
90.0
  0
ENDBLK
  5
5F0A2
  8
0
  0
BLOCK
  8
0
  2
*U294
 70
     1
 10
0.0
 20
0.0
 30
0.0
  3
*U294
  1

  0
TEXT
  5
5F0A4
  8
0
  6
CONTINUOUS
 62
     3
 10
212.6996148283331
 20
-271.7366454388391
 30
0.0
 40
3.0
  1
\U+220515
 50
90.0
  0
TEXT
  5
5F0A5
  8
0
  6
CONTINUOUS
 62
     3
 10
210.00337467085271
 20
-265.75164543883898
 30
0.0
 40
2.1000000000000001
  1
-0.01
 50
90.0
  0
TEXT
  5
5F0A6
  8
0
  6
CONTINUOUS
 62
     3
 10
212.6996148283331
 20
-265.75164543883898
 30
0.0
 40
2.1000000000000001
  1
-0.02
 50
90.0
  0
ENDBLK
  5
5F0A8
  8
0
  0
BLOCK
  8
0
  2
*U295
 70
     1
 10
0.0
 20
0.0
 30
0.0
  3
*U295
  1

  0
TEXT
  5
5F0AA
  8
0
  6
CONTINUOUS
 62
     3
 10
204.69961482833301
 20
-273.21707585501417
 30
0.0
 40
3.0
  1
\U+220516.5
 50
90.0
  0
TEXT
  5
5F0AB
  8
0
  6
CONTINUOUS
 62
     3
 10
202.02180320858119
 20
-264.23207585501422
 30
0.0
 40
2.1000000000000001
  1
+0
 50
90.0
  0
TEXT
  5
5F0AC
  8
0
  6
CONTINUOUS
 62
     3
 10
204.69961482833301
 20
-264.23207585501422
 30
0.0
 40
2.1000000000000001
  1
-0.05
 50
90.0
  0
ENDBLK
  5
5F0AE
  8
0
  0
BLOCK
  8
0
  2
*U296
 70
     1
 10
0.0
 20
0.0
 30
0.0
  3
*U296
  1

  0
TEXT
  5
5F0B0
  8
0
  6
CONTINUOUS
 62
     3
 10
250.96605811917141
 20
-272.37858343096502
 30
0.0
 40
3.0
  1
\U+220514.7
 50
90.0
  0
TEXT
  5
5F0B1
  8
0
  6
CONTINUOUS
 62
     3
 10
248.37440457586439
 20
-263.09358343096511
 30
0.0
 40
2.1000000000000001
  1
+0.1
 50
90.0
  0
TEXT
  5
5F0B2
  8
0
  6
CONTINUOUS
 62
     3
 10
250.96605811917141
 20
-263.09358343096511
 30
0.0
 40
2.1000000000000001
  1
-0
 50
90.0
  0
ENDBLK
  5
5F0B4
  8
0
  0
BLOCK
  8
0
  2
*U297
 70
     1
 10
0.0
 20
0.0
 30
0.0
  3
*U297
  1

  0
TEXT
  5
5F0B6
  8
0
  6
CONTINUOUS
 62
     3
 10
230.7783390906045
 20
-228.28286401399319
 30
0.0
 40
3.0
  1
3.5
  0
ENDBLK
  5
5F0B8
  8
0
  0
BLOCK
  8
0
  2
*U298
 70
     1
 10
0.0
 20
0.0
 30
0.0
  3
*U298
  1

  0
TEXT
  5
5F0BA
  8
0
  6
CONTINUOUS
 62
     3
 10
224.78806403682569
 20
-244.76985633438269
 30
0.0
 40
3.0
  1
45¡Æ
 50
67.500000000001833
  0
ENDBLK
  5
5F0BC
  8
0
  0
BLOCK
  8
0
  2
*U299
 70
     1
 10
0.0
 20
0.0
 30
0.0
  3
*U299
  1

  0
TEXT
  5
5F0BE
  8
0
  6
CONTINUOUS
 62
     3
 10
277.86500883486178
 20
-238.50080697806391
 30
0.0
 40
3.0
  1
45¡Æ
 50
292.49999999999977
  0
ENDBLK
  5
5F0C0
  8
0
  0
BLOCK
  8
0
  2
*U300
 70
     1
 10
0.0
 20
0.0
 30
0.0
  3
*U300
  1

  0
TEXT
  5
5F0C2
  8
0
  6
CONTINUOUS
 62
     3
 10
314.07360137287168
 20
-255.00193447102981
 30
0.0
 40
3.0
  1
R1.5
 50
314.95650965487408
  0
ENDBLK
  5
5F0C4
  8
0
  0
BLOCK
  8
0
  2
*U301
 70
     1
 10
0.0
 20
0.0
 30
0.0
  3
*U301
  1

  0
TEXT
  5
5F0C6
  8
0
  6
CONTINUOUS
 62
     3
 10
269.1394226251652
 20
-273.21707585501417
 30
0.0
 40
3.0
  1
\U+220516.5
 50
90.0
  0
TEXT
  5
5F0C7
  8
0
  6
CONTINUOUS
 62
     3
 10
266.46161100541332
 20
-264.23207585501422
 30
0.0
 40
2.1000000000000001
  1
+0
 50
90.0
  0
TEXT
  5
5F0C8
  8
0
  6
CONTINUOUS
 62
     3
 10
269.1394226251652
 20
-264.23207585501422
 30
0.0
 40
2.1000000000000001
  1
-0.05
 50
90.0
  0
ENDBLK
  5
5F0CA
  8
0
  0
BLOCK
  8
0
  2
*U302
 70
     1
 10
0.0
 20
0.0
 30
0.0
  3
*U302
  1

  0
TEXT
  5
5F0DE
  8
0
  6
CONTINUOUS
 10
-0.4500003972179459
 20
19.861581534219312
 30
0.0
 40
3.0
  1
Techniks Inc.
  0
TEXT
  5
5F0DF
  8
0
  6
CONTINUOUS
 10
-0.0000003972179456
 20
14.86158153421931
 30
0.0
 40
3.0
  1
     9930 East 56th Street
  0
TEXT
  5
5F0E0
  8
0
  6
CONTINUOUS
 10
-0.0000003972179456
 20
9.8534909830382116
 30
0.0
 40
3.0
  1
     Indianapolis, IN 46236
  0
TEXT
  5
5F0E1
  8
0
  6
CONTINUOUS
 10
-0.0000003972179456
 20
4.850000277738963
 30
0.0
 40
3.0
  1
     800.597.3921
  0
TEXT
  5
5F0E2
  8
0
  6
CONTINUOUS
 10
-0.0000003972179456
 20
-0.149999722261037
 30
0.0
 40
3.0
  1
     www.techniksusa.com
  0
ENDBLK
  5
5F0E4
  8
0
  0
BLOCK
  8
0
  2
*U303
 70
     1
 10
0.0
 20
0.0
 30
0.0
  3
*U303
  1

  0
TEXT
  5
5F0E6
  8
0
  6
CONTINUOUS
 10
157.64940436744789
 20
46.949447687810981
 30
0.0
 40
3.0
  1
Techniks Inc.
  0
TEXT
  5
5F0E7
  8
0
  6
CONTINUOUS
 10
158.0994043674479
 20
41.949447687810981
 30
0.0
 40
3.0
  1
     9930 East 56th Street
  0
TEXT
  5
5F0E8
  8
0
  6
CONTINUOUS
 10
158.0994043674479
 20
36.94135713662989
 30
0.0
 40
3.0
  1
     Indianapolis, IN 46236
  0
TEXT
  5
5F0E9
  8
0
  6
CONTINUOUS
 10
158.0994043674479
 20
31.93786643133064
 30
0.0
 40
3.0
  1
     800.597.3921
  0
TEXT
  5
5F0EA
  8
0
  6
CONTINUOUS
 10
158.0994043674479
 20
26.93786643133064
 30
0.0
 40
3.0
  1
     www.techniksusa.com
  0
ENDBLK
  5
5F0EC
  8
0
  0
ENDSEC
  0
SECTION
  2
ENTITIES
  0
LINE
  5
5E472
  8
0
  6
CONTINUOUS
 10
137.29534125093201
 20
140.2735149679186
 30
0.0
 11
137.29534125093241
 21
171.5235149679186
 31
0.0
  0
LINE
  5
5E474
  8
0
  6
CONTINUOUS
 10
153.1703412509323
 20
171.5235149679186
 30
0.0
 11
153.1703412509323
 21
140.2735149679186
 31
0.0
  0
LINE
  5
5E475
  8
0
  6
CENTER
 62
     2
 10
63.870341250932363
 20
140.2735149679186
 30
0.0
 11
286.12034125093243
 21
140.2735149679186
 31
0.0
  0
LINE
  5
5E476
  8
0
  6
HIDDEN2
 62
     3
 10
214.1203412509324
 20
144.82351496791861
 30
0.0
 11
235.6203412509324
 21
144.82351496791861
 31
0.0
  0
LINE
  5
5E477
  8
0
  6
HIDDEN2
 62
     3
 10
137.16937935660891
 20
144.7735149679186
 30
0.0
 11
214.0914737374728
 21
144.7735149679186
 31
0.0
  0
LINE
  5
5E478
  8
0
  6
BYBLOCK
 62
     0
 10
154.1703412509323
 20
115.5235149679186
 30
0.0
 11
179.20753959724419
 21
115.5235149679186
 31
0.0
  0
LINE
  5
5E479
  8
0
  6
CONTINUOUS
 62
     7
 10
134.12034125093231
 20
162.4985149679186
 30
0.0
 11
67.153880925146254
 21
152.7325734739145
 31
0.0
1001
ACAD
1000
ASC_BOUNDS
1002
{
1070
    19
1002
}
  0
LINE
  5
5E47A
  8
0
  6
HIDDEN2
 62
     3
 10
67.370341250932483
 20
148.42351496791861
 30
0.0
 11
70.670341250932324
 21
148.42351496791881
 31
0.0
  0
LINE
  5
5E47B
  8
0
  6
CONTINUOUS
 62
     7
 10
134.12034125093231
 20
118.04851496791861
 30
0.0
 11
67.153880925146382
 21
127.8144564619227
 31
0.0
1001
ACAD
1000
ASC_BOUNDS
1002
{
1070
    19
1002
}
  0
LINE
  5
5E47C
  8
0
  6
CONTINUOUS
 10
65.87034125093237
 20
140.2735149679186
 30
0.0
 11
65.870341250932483
 21
129.29875593553331
 31
0.0
  0
ARC
  5
5E47D
  8
0
  6
CONTINUOUS
 10
67.370341250932483
 20
129.29875593553331
 30
0.0
 40
1.5
 50
180.0
 51
261.70285556368731
  0
ARC
  5
5E47E
  8
0
  6
CONTINUOUS
 10
67.37034125093237
 20
151.24827400030389
 30
0.0
 40
1.5
 50
98.297144436312706
 51
180.0
1001
ACAD
1000
ASC_BOUNDS
1002
{
1070
    19
1002
}
  0
LINE
  5
5E47F
  8
0
  6
CONTINUOUS
 10
65.87034125093237
 20
140.2735149679186
 30
0.0
 11
65.87034125093237
 21
151.24810971130859
 31
0.0
  0
POINT
  5
5E480
  8
DEFPOINTS
  6
BYBLOCK
 62
     0
 10
65.87034125093237
 20
140.2735149679186
 30
0.0
  0
LINE
  5
5E483
  8
0
  6
CONTINUOUS
 10
141.4396570822889
 20
108.5235149679186
 30
0.0
 11
137.79534125093241
 21
108.5235149679186
 31
0.0
  0
LINE
  5
5E484
  8
0
  6
CONTINUOUS
 10
135.70374680821101
 20
118.4727872082825
 30
0.0
 11
135.70374680821109
 21
140.2735149679186
 31
0.0
  0
LINE
  5
5E485
  8
0
  6
CONTINUOUS
 10
134.12034125093231
 20
118.04851496791861
 30
0.0
 11
134.12034125093231
 21
140.2735149679186
 31
0.0
  0
LINE
  5
5E486
  8
0
  6
CONTINUOUS
 10
137.2953412509323
 20
140.2735149679186
 30
0.0
 11
137.29534125093241
 21
109.0235149679186
 31
0.0
  0
ARC
  5
5E48B
  8
0
  6
CONTINUOUS
 10
136.7953412509323
 20
117.9727872082824
 30
0.0
 40
0.5
 50
0.0
 51
90.0
  0
LINE
  5
5E48C
  8
0
  6
CONTINUOUS
 10
134.12034125093231
 20
118.04851496791861
 30
0.0
 11
135.70374680821101
 21
118.4727872082825
 31
0.0
  0
LINE
  5
5E48D
  8
0
  6
CONTINUOUS
 10
135.70374680821101
 20
118.4727872082825
 30
0.0
 11
136.7953412509323
 21
118.4727872082824
 31
0.0
  0
ARC
  5
5E48E
  8
0
  6
CONTINUOUS
 10
137.79534125093241
 20
109.0235149679186
 30
0.0
 40
0.5
 50
180.0
 51
270.0
  0
LINE
  5
5E48F
  8
0
  6
HIDDEN2
 62
     3
 10
110.8703412509325
 20
147.27351496791869
 30
0.0
 11
71.340115579918574
 21
147.27351496791869
 31
0.0
  0
LINE
  5
5E490
  8
0
  6
HIDDEN2
 62
     3
 10
95.870341250932384
 20
148.27351496791869
 30
0.0
 11
70.757703119930738
 21
148.2735149679186
 31
0.0
  0
LINE
  5
5E491
  8
0
  6
HIDDEN2
 62
     3
 10
70.670341250932324
 20
148.42351496791881
 30
0.0
 11
71.340115579918574
 21
147.27351496791869
 31
0.0
  0
POINT
  5
5E492
  8
DEFPOINTS
  6
HIDDEN2
 62
     3
 10
70.520341250932461
 20
148.42351496791861
 30
0.0
  0
LINE
  5
5E493
  8
0
  6
HIDDEN2
 62
     3
 10
70.670341250932324
 20
140.2735149679186
 30
0.0
 11
70.670341250932324
 21
148.42351496791869
 31
0.0
1001
ACAD
1000
ASC_BOUNDS
1002
{
1070
    19
1005
0
1002
}
  0
LINE
  5
5E494
  8
0
  6
HIDDEN2
 62
     3
 10
71.340115579918574
 20
147.27351496791869
 30
0.0
 11
71.340115579918574
 21
140.27351496791869
 31
0.0
  0
LINE
  5
5E495
  8
0
  6
HIDDEN2
 62
     3
 10
95.870341250932384
 20
148.27351496791869
 30
0.0
 11
97.689944312162879
 21
147.27351496791869
 31
0.0
  0
LINE
  5
5E496
  8
0
  6
HIDDEN2
 62
     3
 10
95.870341250932384
 20
148.27351496791869
 30
0.0
 11
95.870341250932384
 21
140.2735149679186
 31
0.0
  0
LINE
  5
5E497
  8
0
  6
HIDDEN2
 62
     3
 10
110.8703412509325
 20
147.27351496791869
 30
0.0
 11
110.8703412509325
 21
140.2735149679186
 31
0.0
  0
ARC
  5
5E498
  8
0
  6
CONTINUOUS
 10
136.7953412509323
 20
162.5742427275548
 30
0.0
 40
0.5
 50
270.0
 51
0.0
  0
POINT
  5
5E499
  8
DEFPOINTS
  6
BYBLOCK
 62
     0
 10
147.15444125093231
 20
169.21539226441311
 30
0.0
  0
LINE
  5
5E49A
  8
0
  6
CONTINUOUS
 10
135.70374680821101
 20
162.0742427275548
 30
0.0
 11
136.7953412509323
 21
162.0742427275548
 31
0.0
  0
LINE
  5
5E49B
  8
0
  6
CONTINUOUS
 10
147.15444125093211
 20
169.20701150229939
 30
0.0
 11
148.63621271768349
 21
171.7735149679186
 31
0.0
  0
LINE
  5
5E49C
  8
0
  6
CONTINUOUS
 10
134.12034125093231
 20
162.4985149679186
 30
0.0
 11
135.70374680821101
 21
162.0742427275548
 31
0.0
  0
LINE
  5
5E49D
  8
0
  6
CONTINUOUS
 10
141.72833221688401
 20
108.615266677455
 30
0.0
 11
141.72833221688381
 21
132.09851496791839
 31
0.0
  0
LINE
  5
5E49E
  8
0
  6
CONTINUOUS
 10
143.35444125093269
 20
132.09851496791839
 30
0.0
 11
143.35444125093261
 21
111.3316376714241
 31
0.0
  0
LINE
  5
5E49F
  8
0
  6
CONTINUOUS
 10
148.78055028498059
 20
108.615266677455
 30
0.0
 11
148.7805502849809
 21
132.09851496791839
 31
0.0
  0
LINE
  5
5E4A0
  8
0
  6
CONTINUOUS
 10
147.15444125093231
 20
132.09851496791839
 30
0.0
 11
147.15444125093231
 21
111.3316376714241
 31
0.0
  0
LINE
  5
5E4A1
  8
0
  6
CONTINUOUS
 10
153.1703412509323
 20
109.0235149679186
 30
0.0
 11
153.17034125093241
 21
140.2735149679186
 31
0.0
  0
ARC
  5
5E4A2
  8
0
  6
CONTINUOUS
 10
154.1703412509323
 20
114.5235149679186
 30
0.0
 40
1.0
 50
90.0
 51
180.0
  0
ARC
  5
5E4A3
  8
0
  6
CONTINUOUS
 10
152.6703412509323
 20
109.0235149679186
 30
0.0
 40
0.5
 50
270.0
 51
0.0
  0
POINT
  5
5E4A4
  8
DEFPOINTS
  6
BYBLOCK
 62
     0
 10
152.6703412509323
 20
108.5235149679186
 30
0.0
  0
LINE
  5
5E4A5
  8
0
  6
CONTINUOUS
 10
143.3544412509325
 20
112.12351496791869
 30
0.0
 11
147.15444125093219
 21
112.12351496791869
 31
0.0
  0
LINE
  5
5E4A6
  8
0
  6
CONTINUOUS
 10
143.35444125093261
 20
111.34001843353791
 30
0.0
 11
141.8726697841812
 21
108.7735149679186
 31
0.0
  0
ARC
  5
5E4A7
  8
0
  6
CONTINUOUS
 10
141.4396570822889
 20
109.0235149679186
 30
0.0
 40
0.5
 50
270.0
 51
329.99999999999949
  0
POINT
  5
5E4A8
  8
DEFPOINTS
  6
BYBLOCK
 62
     0
 10
143.35444125093261
 20
111.3316376714241
 30
0.0
  0
LINE
  5
5E4A9
  8
0
  6
CONTINUOUS
 10
147.15444125093211
 20
111.34001843353791
 30
0.0
 11
148.63621271768349
 21
108.7735149679186
 31
0.0
  0
POINT
  5
5E4AA
  8
DEFPOINTS
  6
BYBLOCK
 62
     0
 10
147.15444125093219
 20
112.12351496791869
 30
0.0
  0
POINT
  5
5E4AB
  8
DEFPOINTS
  6
BYBLOCK
 62
     0
 10
147.15444125093231
 20
111.3316376714241
 30
0.0
  0
ARC
  5
5E4AC
  8
0
  6
CONTINUOUS
 10
149.06922541957579
 20
109.0235149679186
 30
0.0
 40
0.5
 50
210.00000000000051
 51
270.0
  0
LINE
  5
5E4AD
  8
0
  6
CONTINUOUS
 10
152.6703412509323
 20
108.5235149679186
 30
0.0
 11
149.06438678431351
 21
108.5235149679186
 31
0.0
  0
LINE
  5
5E4AE
  8
0
  6
CONTINUOUS
 10
141.4396570822889
 20
172.0235149679186
 30
0.0
 11
137.79534125093241
 21
172.0235149679186
 31
0.0
  0
ARC
  5
5E4AF
  8
0
  6
CONTINUOUS
 10
137.79534125093241
 20
171.5235149679186
 30
0.0
 40
0.5
 50
90.0
 51
180.0
  0
POINT
  5
5E4B0
  8
DEFPOINTS
  6
BYBLOCK
 62
     0
 10
152.6703412509323
 20
172.0235149679186
 30
0.0
  0
ARC
  5
5E4B1
  8
0
  6
CONTINUOUS
 10
152.6703412509323
 20
171.5235149679186
 30
0.0
 40
0.5
 50
0.0
 51
90.0
  0
LINE
  5
5E4B3
  8
0
  6
CONTINUOUS
 10
143.3544412509325
 20
168.42351496791861
 30
0.0
 11
147.15444125093219
 21
168.42351496791861
 31
0.0
  0
ARC
  5
5E4B4
  8
0
  6
CONTINUOUS
 10
141.4396570822889
 20
171.52351496791869
 30
0.0
 40
0.5
 50
30.000000000000579
 51
90.0
  0
LINE
  5
5E4B5
  8
0
  6
CONTINUOUS
 10
143.35444125092951
 20
148.44851496791881
 30
0.0
 11
143.35444125093261
 21
169.20701150229939
 31
0.0
  0
POINT
  5
5E4B6
  8
DEFPOINTS
  6
BYBLOCK
 62
     0
 10
143.35444125093261
 20
169.21539226441311
 30
0.0
  0
LINE
  5
5E4B7
  8
0
  6
CONTINUOUS
 10
143.35444125093261
 20
169.20701150229939
 30
0.0
 11
141.8726697841812
 21
171.7735149679186
 31
0.0
  0
LINE
  5
5E4B8
  8
0
  6
CONTINUOUS
 10
147.15444125093501
 20
148.4485149679187
 30
0.0
 11
147.15444125093211
 21
169.20701150229939
 31
0.0
  0
POINT
  5
5E4B9
  8
DEFPOINTS
  6
BYBLOCK
 62
     0
 10
147.15444125093219
 20
168.42351496791861
 30
0.0
  0
ARC
  5
5E4BA
  8
0
  6
CONTINUOUS
 10
149.06922541957579
 20
171.52351496791869
 30
0.0
 40
0.5
 50
90.0
 51
149.9999999999994
  0
LINE
  5
5E4BB
  8
0
  6
HIDDEN2
 62
     3
 10
139.67164762873861
 20
167.9936616950603
 30
0.0
 11
137.29534125093241
 21
169.65756933389611
 31
0.0
1001
ACAD
1000
ASC_BOUNDS
1002
{
1070
    19
1002
}
  0
LINE
  5
5E4BC
  8
0
  6
CONTINUOUS
 10
152.6703412509323
 20
172.0235149679186
 30
0.0
 11
149.06922541957579
 21
172.0235149679186
 31
0.0
  0
ARC
  5
5E4BD
  8
0
  6
HIDDEN2
 62
     3
 10
67.37034125093237
 20
149.92351496791861
 30
0.0
 40
1.5
 50
180.0
 51
225.0
  0
ARC
  5
5E4BE
  8
0
  6
HIDDEN2
 62
     3
 10
67.37034125093237
 20
149.92351496791861
 30
0.0
 40
1.5
 50
254.99999999999841
 51
270.00000000000648
  0
LINE
  5
5E4BF
  8
0
  6
HIDDEN2
 62
     3
 10
66.309681079152597
 20
148.86285479613869
 30
0.0
 11
66.982112683278501
 21
148.47462622848499
 31
0.0
  0
LINE
  5
5E4C0
  8
0
  6
HIDDEN2
 62
     3
 10
66.982112683278501
 20
148.47462622848499
 30
0.0
 11
66.982112683278501
 21
140.2735149679186
 31
0.0
  0
LINE
  5
5E4C1
  8
0
  6
HIDDEN2
 62
     3
 10
66.309681079152597
 20
148.86285479613869
 30
0.0
 11
66.309681079152597
 21
140.2735149679186
 31
0.0
  0
LINE
  5
5E4C2
  8
0
  6
HIDDEN2
 62
     3
 10
143.1203412509318
 20
168.22851496791839
 30
0.0
 11
143.57034125093179
 21
167.96807755591411
 31
0.0
1001
ACAD
1000
ASC_BOUNDS
1002
{
1070
    19
1002
}
  0
LINE
  5
5E4C3
  8
0
  6
CONTINUOUS
 10
153.17034125093241
 20
132.09851496791839
 30
0.0
 11
137.2953412509323
 21
132.09851496791839
 31
0.0
  0
ARC
  5
5E4C4
  8
0
  6
CONTINUOUS
 10
145.26034125093221
 20
140.2735149679186
 30
0.0
 40
4.7625000000000002
 50
180.0
 51
0.0
  0
LINE
  5
5E4C7
  8
0
  6
CENTER
 62
     2
 10
145.22034125093171
 20
170.493195565787
 30
0.0
 11
145.2203412509318
 21
144.7735149679186
 31
0.0
1001
ACAD
1000
ASC_BOUNDS
1002
{
1070
    19
1002
}
  0
LINE
  5
5E4C8
  8
0
  6
HIDDEN2
 62
     3
 10
146.8703412509318
 20
158.436216177121
 30
0.0
 11
146.87034125093169
 21
144.7735149679186
 31
0.0
1001
ACAD
1000
ASC_BOUNDS
1002
{
1070
    19
1002
}
  0
LINE
  5
5E4C9
  8
0
  6
HIDDEN2
 62
     3
 10
143.57034125093159
 20
160.74690105321349
 30
0.0
 11
143.57034125093139
 21
144.7735149679186
 31
0.0
1001
ACAD
1000
ASC_BOUNDS
1002
{
1070
    19
1002
}
  0
LINE
  5
5E4CA
  8
0
  6
HIDDEN2
 62
     3
 10
149.73897525144579
 20
160.57821062738549
 30
0.0
 11
146.8703412509318
 21
162.58684977891011
 31
0.0
1001
ACAD
1000
ASC_BOUNDS
1002
{
1070
    19
1002
}
  0
LINE
  5
5E4CB
  8
0
  6
HIDDEN2
 62
     3
 10
143.57034125093159
 20
160.74690105321349
 30
0.0
 11
137.79516042752661
 21
164.790726200286
 31
0.0
1001
ACAD
1000
ASC_BOUNDS
1002
{
1070
    19
1002
}
  0
LINE
  5
5E4CC
  8
0
  6
HIDDEN2
 62
     3
 10
141.88267812692399
 20
161.5623831179737
 30
0.0
 11
142.58175422620749
 21
161.43911714010159
 31
0.0
  0
ARC
  5
5E4CD
  8
0
  6
HIDDEN2
 62
     3
 10
145.97994062479609
 20
158.3648645082564
 30
0.0
 40
3.3882543062820369
 50
102.9550200282342
 51
135.32957770095339
  0
ARC
  5
5E4CE
  8
0
  6
HIDDEN2
 62
     3
 10
143.80205677295351
 20
158.90582936074759
 30
0.0
 40
3.1040145263898502
 50
351.29818119443951
 51
62.811499558049569
  0
ARC
  5
5E4CF
  8
0
  6
HIDDEN2
 62
     3
 10
144.8709950236815
 20
164.23308571979479
 30
0.0
 40
2.589879941132633
 50
277.75219938003022
 51
320.53239834917707
  0
LINE
  5
5E4D0
  8
0
  6
CENTER
 62
     2
 10
150.23641299852039
 20
158.1545841661991
 30
0.0
 11
137.29534125093249
 21
167.21602015637311
 31
0.0
  0
ARC
  5
5E4D1
  8
0
  6
HIDDEN2
 62
     3
 10
146.823291222379
 20
164.5222359879148
 30
0.0
 40
3.2745278447825812
 50
173.4187804253954
 51
240.69090032708581
  0
LINE
  5
5E4D2
  8
0
  6
HIDDEN2
 62
     3
 10
149.73897525144591
 20
160.57821062738549
 30
0.0
 11
149.5678893202209
 21
158.6226894852162
 31
0.0
1001
ACAD
1000
ASC_BOUNDS
1002
{
1070
    19
1002
}
  0
LINE
  5
5E4D3
  8
0
  6
HIDDEN2
 62
     3
 10
147.78881536785201
 20
157.79309367680281
 30
0.0
 11
149.5678893202209
 21
158.6226894852162
 31
0.0
1001
ACAD
1000
ASC_BOUNDS
1002
{
1070
    19
1002
}
  0
LINE
  5
5E4D4
  8
0
  6
HIDDEN2
 62
     3
 10
147.78881536785201
 20
157.7930936768029
 30
0.0
 11
146.8703412509318
 21
158.436216177121
 31
0.0
1001
ACAD
1000
ASC_BOUNDS
1002
{
1070
    19
1002
}
  0
LINE
  5
5E4D5
  8
0
  6
HIDDEN2
 62
     3
 10
147.78881536785229
 20
157.79309367680261
 30
0.0
 11
148.76389530964909
 21
159.18565215209409
 31
0.0
  0
LINE
  5
5E4D6
  8
0
  6
HIDDEN2
 62
     3
 10
149.73897525144591
 20
160.57821062738549
 30
0.0
 11
148.76389530964909
 21
159.18565215209409
 31
0.0
  0
LINE
  5
5E4D7
  8
0
  6
HIDDEN2
 62
     3
 10
147.22034125093191
 20
163.42851496791829
 30
0.0
 11
143.73681962252999
 21
163.4285149679184
 31
0.0
1001
ACAD
1000
ASC_BOUNDS
1002
{
1070
    19
1002
}
  0
LINE
  5
5E4D8
  8
0
  6
HIDDEN2
 62
     3
 10
143.1203412509318
 20
168.22851496791839
 30
0.0
 11
145.22034125093171
 21
168.22851496791839
 31
0.0
  0
LINE
  5
5E4D9
  8
0
  6
HIDDEN2
 62
     3
 10
143.57034125093179
 20
167.96807755591411
 30
0.0
 11
145.22034125093171
 21
167.96807755591411
 31
0.0
  0
LINE
  5
5E4DA
  8
0
  6
HIDDEN2
 62
     3
 10
141.8826781269232
 20
161.56238311797389
 30
0.0
 11
137.37734188333511
 21
164.7170535179047
 31
0.0
1001
ACAD
1000
ASC_BOUNDS
1002
{
1070
    19
1002
}
  0
LINE
  5
5E4DB
  8
0
  6
HIDDEN2
 62
     3
 10
137.37734188333451
 20
164.7170535179047
 30
0.0
 11
137.29534125093241
 21
164.77447097885059
 31
0.0
1001
ACAD
1000
ASC_BOUNDS
1002
{
1070
    19
1002
}
  0
LINE
  5
5E4DC
  8
0
  6
HIDDEN2
 62
     3
 10
143.1203412509318
 20
169.6124845963526
 30
0.0
 11
143.1203412509318
 21
168.22851496791839
 31
0.0
1001
ACAD
1000
ASC_BOUNDS
1002
{
1070
    19
1002
}
  0
LINE
  5
5E4DD
  8
0
  6
HIDDEN2
 62
     3
 10
143.57034125093179
 20
165.26376703163049
 30
0.0
 11
139.67164762873861
 21
167.9936616950603
 31
0.0
1001
ACAD
1000
ASC_BOUNDS
1002
{
1070
    19
1002
}
  0
LINE
  5
5E4DE
  8
0
  6
HIDDEN2
 62
     3
 10
143.5703412509317
 20
167.96807755591419
 30
0.0
 11
143.57034125093159
 21
164.89753465500209
 31
0.0
1001
ACAD
1000
ASC_BOUNDS
1002
{
1070
    19
1002
}
  0
LINE
  5
5E4DF
  8
0
  6
HIDDEN2
 62
     3
 10
143.22034125093171
 20
168.17063998747301
 30
0.0
 11
143.22034125093171
 21
165.14260729337559
 31
0.0
1001
ACAD
1000
ASC_BOUNDS
1002
{
1070
    19
1002
}
  0
LINE
  5
5E4E0
  8
0
  6
HIDDEN2
 62
     3
 10
143.57034125093159
 20
164.89753465500209
 30
0.0
 11
139.74532031111991
 21
167.57584315086839
 31
0.0
1001
ACAD
1000
ASC_BOUNDS
1002
{
1070
    19
1002
}
  0
LINE
  5
5E4E1
  8
0
  6
HIDDEN2
 62
     3
 10
137.7951604275265
 20
164.790726200286
 30
0.0
 11
137.37734188333451
 21
164.71705351790459
 31
0.0
1001
ACAD
1000
ASC_BOUNDS
1002
{
1070
    19
1002
}
  0
LINE
  5
5E4E2
  8
0
  6
HIDDEN2
 62
     3
 10
139.74532031111991
 20
167.57584315086839
 30
0.0
 11
139.67164762873861
 21
167.9936616950603
 31
0.0
1001
ACAD
1000
ASC_BOUNDS
1002
{
1070
    19
1002
}
  0
LINE
  5
5E4E3
  8
0
  6
HIDDEN2
 62
     3
 10
143.57296507885161
 20
163.97636305919161
 30
0.0
 11
141.88267812692399
 21
161.5623831179737
 31
0.0
1001
ACAD
1000
ASC_BOUNDS
1002
{
1070
    19
1002
}
  0
LINE
  5
5E4E4
  8
0
  6
HIDDEN2
 62
     3
 10
139.67164762873861
 20
167.99366169506041
 30
0.0
 11
138.52449475603629
 21
166.35535760648239
 31
0.0
  0
LINE
  5
5E4E5
  8
0
  6
HIDDEN2
 62
     3
 10
137.7951604275265
 20
164.79072620028609
 30
0.0
 11
138.77024036932329
 21
166.18328467557731
 31
0.0
  0
LINE
  5
5E4E6
  8
0
  6
HIDDEN2
 62
     3
 10
138.52449475603629
 20
166.35535760648239
 30
0.0
 11
137.37734188333479
 21
164.71705351790459
 31
0.0
  0
LINE
  5
5E4E7
  8
0
  6
HIDDEN2
 62
     3
 10
139.74532031111991
 20
167.57584315086839
 30
0.0
 11
138.77024036932309
 21
166.18328467557711
 31
0.0
  0
LINE
  5
5E4E8
  8
0
  6
HIDDEN2
 62
     3
 10
147.32034125093179
 20
169.4943587312747
 30
0.0
 11
147.32034125093159
 21
168.2285149679183
 31
0.0
1001
ACAD
1000
ASC_BOUNDS
1002
{
1070
    19
1002
}
  0
LINE
  5
5E4E9
  8
0
  6
HIDDEN2
 62
     3
 10
147.32034125093179
 20
168.22851496791839
 30
0.0
 11
146.8703412509318
 21
167.96807755591411
 31
0.0
1001
ACAD
1000
ASC_BOUNDS
1002
{
1070
    19
1002
}
  0
LINE
  5
5E4EA
  8
0
  6
HIDDEN2
 62
     3
 10
147.22034125093171
 20
168.1706399874729
 30
0.0
 11
147.22034125093171
 21
163.42851496791829
 31
0.0
1001
ACAD
1000
ASC_BOUNDS
1002
{
1070
    19
1002
}
  0
LINE
  5
5E4EB
  8
0
  6
HIDDEN2
 62
     3
 10
147.22034125093191
 20
163.42851496791829
 30
0.0
 11
146.8703412509318
 21
162.811516223192
 31
0.0
1001
ACAD
1000
ASC_BOUNDS
1002
{
1070
    19
1002
}
  0
LINE
  5
5E4EC
  8
0
  6
HIDDEN2
 62
     3
 10
146.8703412509318
 20
167.96807755591411
 30
0.0
 11
146.8703412509318
 21
162.58684977891011
 31
0.0
1001
ACAD
1000
ASC_BOUNDS
1002
{
1070
    19
1002
}
  0
LINE
  5
5E4ED
  8
0
  6
HIDDEN2
 62
     3
 10
146.8703412509318
 20
167.96807755591411
 30
0.0
 11
145.22034125093171
 21
167.96807755591411
 31
0.0
  0
LINE
  5
5E4EE
  8
0
  6
HIDDEN2
 62
     3
 10
147.32034125093159
 20
168.22851496791839
 30
0.0
 11
145.22034125093171
 21
168.22851496791839
 31
0.0
  0
DIMENSION
  5
5E4EF
  8
0
  6
CONTINUOUS
  2
*D113
 10
284.12034125093209
 20
84.210205489201542
 30
0.0
 11
174.99534125093231
 21
86.310500764792096
 31
0.0
 70
     0
 13
65.870341250932483
 23
129.29875593553331
 33
0.0
 14
284.12034125093209
 24
127.7479972512759
 34
0.0
1001
ACAD
1000
DSTYLE
1002
{
1070
   287
1070
     2
1070
    42
1040
0.6
1070
    43
1040
1.0
1070
    44
1040
1.0
1070
    47
1040
0.1
1070
    48
1040
0.1
1070
    73
1070
     0
1070
   140
1040
3.0
1070
   141
1040
-0.2
1070
   146
1040
0.7
1070
   147
1040
0.6
1070
   178
1070
     3
1070
   271
1070
     2
1070
   272
1070
     2
1070
   275
1070
     1
1070
   283
1070
     0
1070
   284
1070
     8
1070
   289
1070
     2
1002
}
  0
DIMENSION
  5
5E4F0
  8
0
  6
CONTINUOUS
  2
*D111
 10
284.12034125093209
 20
92.210205489201513
 30
0.0
 11
209.1203412509322
 21
94.310205489201493
 31
0.0
 70
     0
 13
134.12034125093231
 23
118.04851496791861
 33
0.0
 14
284.12034125093209
 24
127.7479972512759
 34
0.0
1001
ACAD
1000
DSTYLE
1002
{
1070
   287
1070
     2
1070
    42
1040
0.6
1070
    43
1040
1.0
1070
    44
1040
1.0
1070
    47
1040
0.1
1070
    48
1040
0.1
1070
    73
1070
     0
1070
   140
1040
3.0
1070
   141
1040
-0.2
1070
   146
1040
0.7
1070
   147
1040
0.6
1070
   178
1070
     3
1070
   271
1070
     2
1070
   272
1070
     2
1070
   275
1070
     1
1070
   283
1070
     0
1070
   284
1070
     8
1070
   289
1070
     2
1002
}
  0
DIMENSION
  5
5E4F1
  8
0
  6
CONTINUOUS
  2
*D112
 10
134.12034125093231
 20
92.210205489201513
 30
0.0
 11
99.995341250932427
 21
94.310500764792067
 31
0.0
 70
     0
 13
65.870341250932483
 23
129.29875593553331
 33
0.0
 14
134.12034125093231
 24
118.04851496791861
 34
0.0
1001
ACAD
1000
DSTYLE
1002
{
1070
   287
1070
     2
1070
    42
1040
0.6
1070
    43
1040
1.0
1070
    44
1040
1.0
1070
    47
1040
0.1
1070
    48
1040
0.1
1070
    73
1070
     0
1070
   140
1040
3.0
1070
   141
1040
-0.2
1070
   146
1040
0.7
1070
   147
1040
0.6
1070
   178
1070
     3
1070
   271
1070
     2
1070
   272
1070
     2
1070
   275
1070
     1
1070
   283
1070
     0
1070
   284
1070
     8
1070
   289
1070
     2
1002
}
  0
LINE
  5
5E4F2
  8
0
  6
HIDDEN2
 62
     3
 10
110.8703412509325
 20
147.0235149679186
 30
0.0
 11
135.8703412509324
 21
147.0235149679186
 31
0.0
  0
LINE
  5
5E4F3
  8
0
  6
HIDDEN2
 62
     3
 10
135.8703412509324
 20
140.2735149679186
 30
0.0
 11
135.8703412509324
 21
147.0235149679186
 31
0.0
  0
LINE
  5
5E4F4
  8
0
  6
HIDDEN2
 62
     3
 10
135.8703412509324
 20
147.0235149679186
 30
0.0
 11
137.16937935660891
 21
144.7735149679186
 31
0.0
  0
LINE
  5
5E4F5
  8
0
  6
HIDDEN2
 62
     3
 10
137.16937935660891
 20
144.7735149679186
 30
0.0
 11
137.16937935660891
 21
140.2735149679186
 31
0.0
  0
LINE
  5
5E4F9
  8
0
  6
BYBLOCK
 62
     0
 10
154.1703412509323
 20
165.0235149679186
 30
0.0
 11
179.20753959724581
 21
165.02351496791849
 31
0.0
  0
ARC
  5
5E4FA
  8
0
  6
CONTINUOUS
 10
154.1703412509323
 20
166.0235149679186
 30
0.0
 40
1.0
 50
180.0
 51
270.0
  0
DIMENSION
  5
5E50C
  8
0
  6
CONTINUOUS
  2
*D126
 10
304.37014833095009
 20
153.2735149679184
 30
0.0
 11
302.26985305535948
 21
140.2735149679184
 31
0.0
 70
     0
 13
284.12034125093328
 23
127.2735149679184
 33
0.0
 14
284.12034125093328
 24
153.2735149679184
 34
0.0
 50
90.0
1001
ACAD
1000
DSTYLE
1002
{
1070
   287
1070
     2
1070
     3
1000
%%C<>
1070
    42
1040
0.6
1070
    43
1040
1.0
1070
    44
1040
1.0
1070
    47
1040
0.1
1070
    48
1040
0.1
1070
    73
1070
     0
1070
   140
1040
3.0
1070
   141
1040
-0.2
1070
   146
1040
0.7
1070
   147
1040
0.6
1070
   178
1070
     3
1070
   271
1070
     2
1070
   272
1070
     2
1070
   275
1070
     1
1070
   283
1070
     0
1070
   284
1070
     8
1070
   289
1070
     2
1002
}
  0
TEXT
  5
5E515
  8
0
  6
CONTINUOUS
 62
     3
 10
249.78307158652629
 20
109.2669747060598
 30
0.0
 40
3.0
  1
3%%d(Q/2)
  0
INSERT
  5
5E516
  8
0
  6
CONTINUOUS
  2
*U259
 10
0.0
 20
0.0
 30
0.0
1001
ACAD
1000
DSTYLE
1002
{
1070
   284
1070
     8
1070
   140
1040
3.0
1070
   283
1070
     0
1070
    48
1040
0.8
1070
    73
1070
     0
1070
   146
1040
0.7
1070
   272
1070
     6
1070
   147
1040
0.6
1070
    42
1040
0.6
1070
    44
1040
1.0
1070
    43
1040
1.0
1070
   178
1070
     3
1070
   141
1040
0.0
1070
   275
1070
     1
1002
}
  0
LINE
  5
5E531
  8
0
  6
CONTINUOUS
 10
259.72908411664389
 20
125.99522334758871
 30
0.0
 11
185.2047644463766
 21
122.08956925109079
 31
0.0
  0
ARC
  5
5E532
  8
0
  6
CONTINUOUS
 10
185.3094363588626
 20
120.0923101815816
 30
0.0
 40
2.0
 50
92.999999999999105
 51
149.9999999999994
  0
LINE
  5
5E533
  8
0
  6
CONTINUOUS
 10
259.49846050435877
 20
154.56389305961829
 30
0.0
 11
185.2047644463785
 21
158.45746068474611
 31
0.0
  0
ARC
  5
5E534
  8
0
  6
CONTINUOUS
 10
185.3094363588643
 20
160.45471975425519
 30
0.0
 40
2.0
 50
210.00000000000051
 51
267.00000000000091
  0
LINE
  5
5E536
  8
0
  6
HIDDEN2
 62
     3
 10
221.1203412509324
 20
145.2735149679184
 30
0.0
 11
236.07034125093219
 21
145.2735149679184
 31
0.0
1001
ACAD
1000
ASC_BOUNDS
1002
{
1070
    19
1005
0
1005
0
1005
0
1002
}
  0
LINE
  5
5E537
  8
0
  6
HIDDEN2
 62
     3
 10
221.1203412509324
 20
145.2735149679184
 30
0.0
 11
220.42752092790511
 21
144.87351496791831
 31
0.0
  0
LINE
  5
5E538
  8
0
  6
HIDDEN2
 62
     3
 10
221.1203412509324
 20
140.2735149679184
 30
0.0
 11
221.1203412509324
 21
145.2735149679184
 31
0.0
  0
LINE
  5
5E539
  8
0
  6
HIDDEN2
 62
     3
 10
235.6203412509324
 20
144.82351496791861
 30
0.0
 11
236.1203412509324
 21
145.32351496791861
 31
0.0
  0
LINE
  5
5E53A
  8
0
  6
HIDDEN2
 62
     3
 10
236.1203412509324
 20
140.2735149679184
 30
0.0
 11
236.1203412509324
 21
146.5735149679181
 31
0.0
  0
LINE
  5
5E53B
  8
0
  6
HIDDEN2
 62
     3
 10
235.6203412509324
 20
140.2735149679184
 30
0.0
 11
235.6203412509324
 21
144.82351496791861
 31
0.0
  0
LINE
  5
5E53C
  8
0
  6
CONTINUOUS
 10
283.64650922905361
 20
127.24868248389841
 30
0.0
 11
269.52393257242989
 21
126.5085496035705
 31
0.0
  0
ARC
  5
5E53D
  8
0
  6
CONTINUOUS
 10
283.6203412509322
 20
127.7479972512759
 30
0.0
 40
0.5
 50
272.99999999999909
 51
0.0
  0
LINE
  5
5E53E
  8
0
  6
CONTINUOUS
 10
283.64650922905361
 20
153.2983474519383
 30
0.0
 11
269.75455618471437
 21
154.02639386089649
 31
0.0
  0
LINE
  5
5E53F
  8
0
  6
CONTINUOUS
 10
284.12034125093243
 20
140.2735149679186
 30
0.0
 11
284.12034125093209
 21
127.7479972512759
 31
0.0
  0
LINE
  5
5E540
  8
0
  6
CONTINUOUS
 10
184.12034125093231
 20
140.27351496792039
 30
0.0
 11
184.12034125093211
 21
127.7479972512777
 31
0.0
  0
LINE
  5
5E541
  8
0
  6
CONTINUOUS
 10
184.12034125093231
 20
140.27351496791991
 30
0.0
 11
184.12034125093211
 21
121.7004310801138
 31
0.0
  0
ARC
  5
5E542
  8
0
  6
CONTINUOUS
 10
283.6203412509322
 20
152.7990326845611
 30
0.0
 40
0.5
 50
0.0
 51
87.000000000000909
  0
LINE
  5
5E543
  8
0
  6
CONTINUOUS
 10
284.12034125093243
 20
140.2735149679184
 30
0.0
 11
284.12034125093209
 21
152.7990326845611
 31
0.0
  0
LINE
  5
5E544
  8
0
  6
HIDDEN2
 62
     3
 10
221.1203412509324
 20
145.2735149679184
 30
0.0
 11
236.07034125093219
 21
145.2735149679184
 31
0.0
1001
ACAD
1000
ASC_BOUNDS
1002
{
1070
    19
1005
0
1005
0
1005
0
1002
}
  0
LINE
  5
5E545
  8
0
  6
HIDDEN2
 62
     3
 10
221.1203412509324
 20
145.2735149679184
 30
0.0
 11
220.34091838752721
 21
144.82351496791861
 31
0.0
  0
LINE
  5
5E546
  8
0
  6
HIDDEN2
 62
     3
 10
221.1203412509324
 20
140.2735149679184
 30
0.0
 11
221.1203412509324
 21
145.2735149679184
 31
0.0
  0
LINE
  5
5E547
  8
0
  6
HIDDEN2
 62
     3
 10
214.1203412509324
 20
140.2735149679184
 30
0.0
 11
214.1203412509324
 21
144.82351496791861
 31
0.0
  0
LINE
  5
5E548
  8
0
  6
HIDDEN2
 62
     3
 10
235.6203412509324
 20
144.82351496791861
 30
0.0
 11
236.1203412509324
 21
145.32351496791861
 31
0.0
  0
LINE
  5
5E549
  8
0
  6
HIDDEN2
 62
     3
 10
236.1203412509324
 20
140.2735149679184
 30
0.0
 11
236.1203412509324
 21
146.8735149679182
 31
0.0
  0
LINE
  5
5E54A
  8
0
  6
HIDDEN2
 62
     3
 10
235.6203412509324
 20
140.2735149679184
 30
0.0
 11
235.6203412509324
 21
144.82351496791861
 31
0.0
  0
LINE
  5
5E54B
  8
0
  6
CONTINUOUS
 10
260.10650746002028
 20
154.03134049597361
 30
0.0
 11
262.10376652952891
 21
153.9266685834877
 31
0.0
  0
LINE
  5
5E54C
  8
0
  6
CONTINUOUS
 62
     7
 10
269.27237457764858
 20
153.65111498973491
 30
0.0
 11
269.39815357503892
 21
153.84479766100031
 31
0.0
  0
ARC
  5
5E54D
  8
0
  6
CONTINUOUS
 10
269.73362180221721
 20
153.62694204699471
 30
0.0
 40
0.4
 50
87.000000000066137
 51
146.9999999999871
  0
ARC
  5
5E54E
  8
0
  6
CONTINUOUS
 62
     7
 10
269.1046404640594
 20
153.76004279673811
 30
0.0
 40
0.2
 50
267.00000000000091
 51
326.99999999998988
  0
LINE
  5
5E54F
  8
0
  6
CONTINUOUS
 10
267.09691420330182
 20
153.664988802273
 30
0.0
 11
269.09417327281079
 21
153.56031688978709
 31
0.0
  0
ARC
  5
5E550
  8
0
  6
CONTINUOUS
 62
     7
 10
266.46793286514321
 20
153.79808955201611
 30
0.0
 40
0.4
 50
26.9999999999872
 51
87.000000000000909
  0
LINE
  5
5E551
  8
0
  6
CONTINUOUS
 62
     7
 10
266.92918008971242
 20
153.77391660927589
 30
0.0
 11
266.82433547481878
 21
153.97968575191189
 31
0.0
  0
ARC
  5
5E552
  8
0
  6
CONTINUOUS
 62
     7
 10
267.10738139455037
 20
153.8647147092239
 30
0.0
 40
0.2
 50
206.99999999999449
 51
267.00000000000091
  0
LINE
  5
5E553
  8
0
  6
CONTINUOUS
 62
     7
 10
262.76414944143289
 20
154.3927455545973
 30
0.0
 11
266.48886724764043
 21
154.19754136591791
 31
0.0
  0
ARC
  5
5E554
  8
0
  6
CONTINUOUS
 62
     7
 10
262.74321505893568
 20
153.99329374069549
 30
0.0
 40
0.4
 50
87.000000000000909
 51
146.9999999999871
  0
LINE
  5
5E555
  8
0
  6
CONTINUOUS
 62
     7
 10
262.28196783436653
 20
154.01746668343549
 30
0.0
 11
262.40774683175709
 21
154.21114935470149
 31
0.0
  0
ARC
  5
5E556
  8
0
  6
CONTINUOUS
 62
     7
 10
262.11423372077752
 20
154.12639449043871
 30
0.0
 40
0.2
 50
267.00000000000091
 51
326.99999999998988
  0
LINE
  5
5E557
  8
0
  6
CONTINUOUS
 10
183.57738555129359
 20
121.0923101815816
 30
0.0
 11
180.93959040481309
 21
116.5235149679186
 31
0.0
  0
ARC
  5
5E558
  8
0
  6
CONTINUOUS
 10
179.20753959724419
 20
117.5235149679186
 30
0.0
 40
2.0
 50
270.0
 51
329.99999999999949
  0
LINE
  5
5E559
  8
0
  6
CONTINUOUS
 10
180.36224013562349
 20
115.89052180606321
 30
0.0
 11
180.36224013562349
 21
140.2735149679186
 31
0.0
  0
LINE
  5
5E55D
  8
0
  6
HIDDEN2
 62
     3
 10
251.23277681623111
 20
149.02351496791829
 30
0.0
 11
279.12034125093243
 21
149.0235149679182
 31
0.0
1001
ACAD
1000
ASC_BOUNDS
1002
{
1070
    19
1005
0
1005
0
1005
0
1005
0
1005
0
1005
0
1005
0
1002
}
  0
LINE
  5
5E55E
  8
0
  6
HIDDEN2
 62
     3
 10
243.1873285490413
 20
148.0235149679184
 30
0.0
 11
243.1873285490413
 21
140.2735149679184
 31
0.0
  0
LINE
  5
5E55F
  8
0
  6
HIDDEN2
 62
     3
 10
241.12034125093331
 20
140.2735149679184
 30
0.0
 11
241.12034125093331
 21
147.5235149679184
 31
0.0
  0
LINE
  5
5E561
  8
0
  6
HIDDEN2
 62
     3
 10
251.23277681623111
 20
149.02351496791829
 30
0.0
 11
251.23277681623111
 21
148.62351496791831
 31
0.0
  0
LINE
  5
5E565
  8
0
  6
HIDDEN2
 62
     3
 10
243.1873285490413
 20
148.0235149679184
 30
0.0
 11
243.6203412509324
 21
147.90748956413421
 31
0.0
  0
ARC
  5
5E566
  8
0
  6
HIDDEN2
 62
     3
 10
241.62034125093331
 20
147.5235149679184
 30
0.0
 40
0.5
 50
90.0
 51
180.0
  0
LINE
  5
5E567
  8
0
  6
HIDDEN2
 62
     3
 10
241.62034125093331
 20
148.0235149679184
 30
0.0
 11
243.1873285490413
 21
148.0235149679184
 31
0.0
  0
LINE
  5
5E56A
  8
0
  6
HIDDEN2
 62
     3
 10
236.12034125093331
 20
146.8735149679182
 30
0.0
 11
241.12034125093331
 21
146.8735149679182
 31
0.0
  0
LINE
  5
5E574
  8
0
  6
HIDDEN2
 62
     3
 10
241.12034125093331
 20
140.2735149679184
 30
0.0
 11
241.12034125093331
 21
147.2735149679184
 31
0.0
  0
LINE
  5
5E588
  8
0
  6
CONTINUOUS
 62
     7
 10
269.27237457764858
 20
126.89591494610229
 30
0.0
 11
269.39815357503892
 21
126.7022322748369
 31
0.0
  0
LINE
  5
5E589
  8
0
  6
CONTINUOUS
 10
266.98160239715918
 20
126.8759978978792
 30
0.0
 11
269.20948507895338
 21
126.9927562817352
 31
0.0
  0
LINE
  5
5E59E
  8
0
  6
CONTINUOUS
 10
259.99119565387792
 20
126.50964620417849
 30
0.0
 11
262.21907833567133
 21
126.6264045880346
 31
0.0
  0
ARC
  5
5E59F
  8
0
  6
CONTINUOUS
 10
269.73362180221721
 20
126.9200878888425
 30
0.0
 40
0.4
 50
213.00000000001279
 51
272.99999999993378
  0
ARC
  5
5E5A0
  8
0
  6
CONTINUOUS
 62
     7
 10
269.1046404640594
 20
126.7869871390991
 30
0.0
 40
0.2
 50
33.000000000012868
 51
92.999999999999105
  0
ARC
  5
5E5A1
  8
0
  6
CONTINUOUS
 62
     7
 10
266.46793286514321
 20
126.74894038382109
 30
0.0
 40
0.4
 50
272.99999999999909
 51
333.00000000001279
  0
LINE
  5
5E5A2
  8
0
  6
CONTINUOUS
 62
     7
 10
266.92918008971242
 20
126.7731133265614
 30
0.0
 11
266.82433547481878
 21
126.5673441839253
 31
0.0
  0
ARC
  5
5E5A3
  8
0
  6
CONTINUOUS
 62
     7
 10
267.10738139455037
 20
126.6823152266133
 30
0.0
 40
0.2
 50
92.999999999999105
 51
153.00000000000551
  0
LINE
  5
5E5A4
  8
0
  6
CONTINUOUS
 62
     7
 10
262.53352582914772
 20
126.14219790986979
 30
0.0
 11
266.7194908599252
 21
126.3615750412893
 31
0.0
  0
ARC
  5
5E5A5
  8
0
  6
CONTINUOUS
 62
     7
 10
262.74321505893568
 20
126.5537361951417
 30
0.0
 40
0.4
 50
213.00000000001279
 51
272.99999999999909
  0
LINE
  5
5E5A6
  8
0
  6
CONTINUOUS
 62
     7
 10
262.28196783436653
 20
126.5295632524017
 30
0.0
 11
262.40774683175709
 21
126.3358805811357
 31
0.0
  0
ARC
  5
5E5A7
  8
0
  6
CONTINUOUS
 62
     7
 10
262.11423372077752
 20
126.4206354453985
 30
0.0
 40
0.2
 50
33.000000000012868
 51
92.999999999999105
  0
DIMENSION
  5
5E5A8
  8
0
  6
CONTINUOUS
  2
*D129
 10
284.12034125093209
 20
100.2102054892015
 30
0.0
 11
234.12034125093211
 21
102.31020548920149
 31
0.0
 70
     0
 13
184.12034125093211
 23
121.7004310801138
 33
0.0
 14
284.12034125093209
 24
127.7479972512759
 34
0.0
1001
ACAD
1000
DSTYLE
1002
{
1070
   287
1070
     2
1070
    42
1040
0.6
1070
    43
1040
1.0
1070
    44
1040
1.0
1070
    47
1040
0.1
1070
    48
1040
0.1
1070
    73
1070
     0
1070
   140
1040
3.0
1070
   141
1040
-0.2
1070
   146
1040
0.7
1070
   147
1040
0.6
1070
   178
1070
     3
1070
   271
1070
     5
1070
   272
1070
     5
1070
   275
1070
     1
1070
   283
1070
     0
1070
   284
1070
     8
1070
   289
1070
     2
1002
}
  0
LINE
  5
5E5AC
  8
0
  6
HIDDEN2
 62
     3
 10
214.1203412509324
 20
144.82351496791861
 30
0.0
 11
214.0914737374728
 21
144.7735149679186
 31
0.0
  0
LINE
  5
5E5AD
  8
0
  6
HIDDEN2
 62
     3
 10
214.0914737374728
 20
144.7735149679186
 30
0.0
 11
214.0914737374728
 21
140.2735149679186
 31
0.0
  0
LINE
  5
5E5B2
  8
0
  6
CONTINUOUS
 10
183.57738555129549
 20
159.45471975425519
 30
0.0
 11
180.93959040481471
 21
164.02351496791849
 31
0.0
  0
ARC
  5
5E5B3
  8
0
  6
CONTINUOUS
 10
179.20753959724581
 20
163.02351496791849
 30
0.0
 40
2.0
 50
30.000000000000579
 51
90.0
  0
DIMENSION
  5
5E5B4
  8
0
  6
CONTINUOUS
  2
*D108
 10
180.93959040481309
 20
116.5235149679186
 30
0.0
 11
179.03301754574471
 21
103.046586497306
 31
0.0
 70
     2
 13
184.12034125093231
 23
140.27351496791991
 33
0.0
 14
184.12034125093211
 24
121.7004310801138
 34
0.0
 15
183.57738555129359
 25
121.0923101815816
 35
0.0
 16
176.6793819949304
 26
101.588869504668
 36
0.0
1001
ACAD
1000
DSTYLE
1002
{
1070
   287
1070
     2
1070
   271
1070
     0
1070
    42
1040
0.6
1070
    43
1040
1.0
1070
    44
1040
1.0
1070
    47
1040
0.1
1070
    48
1040
0.1
1070
    73
1070
     0
1070
   140
1040
3.0
1070
   141
1040
-0.2
1070
   146
1040
0.7
1070
   147
1040
0.6
1070
   178
1070
     3
1070
   271
1070
     5
1070
   272
1070
     5
1070
   275
1070
     1
1070
   283
1070
     0
1070
   284
1070
     8
1070
   289
1070
     2
1002
}
  0
ARC
  5
5E5B7
  8
0
  6
CONTINUOUS
 62
     7
 10
259.47752612186167
 20
154.16444124571669
 30
0.0
 40
0.4
 50
26.9999999999872
 51
87.000000000000909
  0
LINE
  5
5E5B8
  8
0
  6
CONTINUOUS
 62
     7
 10
259.93877334643088
 20
154.14026830297641
 30
0.0
 11
259.8339287315373
 21
154.34603744561241
 31
0.0
  0
ARC
  5
5E5B9
  8
0
  6
CONTINUOUS
 62
     7
 10
260.11697465126889
 20
154.23106640292451
 30
0.0
 40
0.2
 50
206.99999999999449
 51
267.00000000000091
  0
ARC
  5
5E5BB
  8
0
  6
CONTINUOUS
 62
     7
 10
259.47752612186167
 20
126.38258869012
 30
0.0
 40
0.4
 50
272.99999999999909
 51
333.00000000001279
  0
LINE
  5
5E5BC
  8
0
  6
CONTINUOUS
 62
     7
 10
259.93877334643088
 20
126.4067616328603
 30
0.0
 11
259.8339287315373
 21
126.20099249022419
 31
0.0
  0
ARC
  5
5E5BD
  8
0
  6
CONTINUOUS
 62
     7
 10
260.11697465126889
 20
126.31596353291221
 30
0.0
 40
0.2
 50
92.999999999999105
 51
153.00000000000551
  0
POLYLINE
  5
5E82B
  8
0
 66
     1
 10
0.0
 20
0.0
 30
0.0
 40
1.0
 41
1.0
  0
VERTEX
  5
5F042
  8
0
 10
0.0
 20
241.00000000000011
 30
0.0
  0
VERTEX
  5
5F043
  8
0
 10
349.78500327820348
 20
241.00000000000031
 30
0.0
  0
SEQEND
  5
5F044
  8
0
  0
POLYLINE
  5
5E82C
  8
0
 66
     1
 10
0.0
 20
0.0
 30
0.0
 40
0.5
 41
0.5
  0
VERTEX
  5
5F045
  8
0
 10
349.2999999999999
 20
24.0
 30
0.0
  0
VERTEX
  5
5F046
  8
0
 10
0.5
 20
24.0
 30
0.0
  0
SEQEND
  5
5F047
  8
0
  0
POLYLINE
  5
5E82D
  8
0
 66
     1
 10
0.0
 20
0.0
 30
0.0
 40
1.0
 41
1.0
  0
VERTEX
  5
5F048
  8
0
 10
0.0
 20
0.0
 30
0.0
  0
VERTEX
  5
5F049
  8
0
 10
349.80000000000001
 20
0.0
 30
0.0
  0
SEQEND
  5
5F04A
  8
0
  0
POLYLINE
  5
5E82E
  8
0
 66
     1
 10
0.0
 20
0.0
 30
0.0
 40
1.0
 41
1.0
1001
ACAD
1000
ASC_BOUNDS
1002
{
1070
    19
1002
}
  0
VERTEX
  5
5F04B
  8
0
 10
9.9498014649834658
 20
241.00000000000031
 30
0.0
  0
VERTEX
  5
5F04C
  8
0
 10
341.5
 20
241.00000000000031
 30
0.0
  0
SEQEND
  5
5F04D
  8
0
  0
TEXT
  5
5E82F
  8
0
 62
     7
 10
172.71673983393751
 20
6.6728022355715657
 30
0.0
 40
3.0
  1
-
  0
TEXT
  5
5E830
  8
0
 62
     3
 10
172.4499973267755
 20
18.268672151280722
 30
0.0
 40
4.0
  1
-
  0
LINE
  5
5E831
  8
0
 62
     2
 10
150.9402968419158
 20
16.5
 30
0.0
 11
198.8597031580839
 21
16.5
 31
0.0
  0
POLYLINE
  5
5E832
  8
0
 66
     1
 10
0.0
 20
0.0
 30
0.0
 40
1.0
 41
1.0
  0
VERTEX
  5
5F04E
  8
0
 10
0.5
 20
241.5000000000004
 30
0.0
  0
VERTEX
  5
5F04F
  8
0
 10
0.5
 20
-0.5
 30
0.0
  0
SEQEND
  5
5F050
  8
0
  0
LINE
  5
5E833
  8
0
 62
     2
 10
150.9402968419158
 20
12.5
 30
0.0
 11
0.5
 21
12.5
 31
0.0
  0
TEXT
  5
5E834
  8
0
 62
     7
 10
1.6906758171485301
 20
20.70213863111508
 30
0.0
 40
2.0
  1
DESCRIPTION
  0
TEXT
  5
5E835
  8
0
 62
     7
 10
1.7756180239680359
 20
9.4939908967098745
 30
0.0
 40
2.0
  1
KIND
  0
TEXT
  5
5E836
  8
0
  6
CONTINUOUS
 62
     3
 10
19.488127647663081
 20
15.53735654761635
 30
0.0
 40
4.0
  1
HYDRAULIC CHUCK
  0
TEXT
  5
5E837
  8
0
 62
     7
 10
107.6221638096294
 20
20.57165332765112
 30
0.0
 40
2.0
  1
SURFACE TREATMENT
  0
TEXT
  5
5E838
  8
0
 62
     7
 10
107.4355084051569
 20
9.4608489407828529
 30
0.0
 40
2.0
  1
ORDER MAKER
  0
LINE
  5
5E839
  8
0
 62
     2
 10
79.5
 20
24.0
 30
0.0
 11
79.5
 21
0.0
 31
0.0
  0
LINE
  5
5E83A
  8
0
 62
     2
 10
106.5
 20
24.0
 30
0.0
 11
106.5
 21
0.0
 31
0.0
  0
TEXT
  5
5E83B
  8
0
  6
CONTINUOUS
 62
     3
 10
90.645222700866029
 20
15.03976123407665
 30
0.0
 40
4.0
  1
-
  0
TEXT
  5
5E83C
  8
0
 62
     7
 10
80.390774020364447
 20
20.753906392070579
 30
0.0
 40
2.0
  1
MATERIAL
  0
TEXT
  5
5E83D
  8
0
 62
     7
 10
80.326115960252537
 20
9.6268716546485393
 30
0.0
 40
2.0
  1
HARDNESS
  0
LINE
  5
5E83E
  8
0
 62
     2
 10
150.9402968419158
 20
24.0
 30
0.0
 11
150.9402968419158
 21
0.0
 31
0.0
  0
TEXT
  5
5E83F
  8
0
 62
     7
 10
151.84057408933469
 20
19.15847313115523
 30
0.0
 40
2.0
  1
DATE
  0
LINE
  5
5E840
  8
0
  6
CONTINUOUS
 62
     2
 10
0.0
 20
215.62385070146451
 30
0.0
 11
74.993438436643828
 21
215.62385070146451
 31
0.0
  0
LINE
  5
5E841
  8
0
  6
CONTINUOUS
 62
     2
 10
74.993438436643828
 20
241.00000000000031
 30
0.0
 11
6.6647981867797617
 21
241.00000000000031
 31
0.0
  0
LINE
  5
5E842
  8
0
  6
CONTINUOUS
 62
     2
 10
6.6647981867797617
 20
221.8000000000003
 30
0.0
 11
74.993438436643828
 21
221.8000000000003
 31
0.0
  0
LINE
  5
5E843
  8
0
  6
CONTINUOUS
 62
     2
 10
6.6647981867797617
 20
228.20000000000019
 30
0.0
 11
74.993438436643828
 21
228.20000000000019
 31
0.0
  0
LINE
  5
5E844
  8
0
  6
CONTINUOUS
 62
     2
 10
6.6647981867797617
 20
234.60000000000031
 30
0.0
 11
74.993438436643828
 21
234.60000000000031
 31
0.0
  0
TEXT
  5
5E845
  8
0
  6
CONTINUOUS
 62
     3
 10
63.504192757890003
 20
225.2969618979169
 30
0.0
 40
2.0
  1
+0.0
  0
TEXT
  5
5E846
  8
0
  6
CONTINUOUS
 62
     3
 10
62.041925324166407
 20
217.257775021637
 30
0.0
 40
3.0
  1
%%P0.35
  0
TEXT
  5
5E847
  8
0
  6
CONTINUOUS
 62
     3
 10
63.504192757890003
 20
222.791241415256
 30
0.0
 40
2.0
  1
-0.35
  0
TEXT
  5
5E848
  8
0
  6
CONTINUOUS
 62
     7
 10
58.864606803455438
 20
236.1565042912884
 30
0.0
 40
3.0
  1
250-500
  0
TEXT
  5
5E849
  8
0
  6
CONTINUOUS
 62
     3
 10
63.438554281229251
 20
231.56126401216429
 30
0.0
 40
2.0
  1
+0.35
  0
TEXT
  5
5E84A
  8
0
  6
CONTINUOUS
 62
     3
 10
63.438554281229251
 20
229.0555435295031
 30
0.0
 40
2.0
  1
-0.0
  0
TEXT
  5
5E84B
  8
0
  6
CONTINUOUS
 10
9.1748491995331278
 20
236.00445557104089
 30
0.0
 40
3.0
  1
±¸ºÐ 
  0
TEXT
  5
5E84C
  8
0
  6
CONTINUOUS
 10
9.1748491995331278
 20
229.76335097000751
 30
0.0
 40
3.0
  1
³»°æ
  0
TEXT
  5
5E84D
  8
0
  6
CONTINUOUS
 10
9.1748491995331278
 20
217.3543913088053
 30
0.0
 40
3.0
  1
ÀüÀå
  0
TEXT
  5
5E84E
  8
0
  6
CONTINUOUS
 10
9.1748491995331278
 20
223.52224636897441
 30
0.0
 40
3.0
  1
¿Ü°æ
  0
TEXT
  5
5E84F
  8
0
  6
CONTINUOUS
 10
2.289011192062389
 20
226.2461905260555
 30
0.0
 40
3.0
  1
°ø
  0
LINE
  5
5E850
  8
0
  6
CONTINUOUS
 62
     2
 10
0.0
 20
241.00000000000031
 30
0.0
 11
0.0
 21
215.62385070146451
 31
0.0
  0
LINE
  5
5E851
  8
0
  6
CONTINUOUS
 62
     2
 10
6.664798186779989
 20
221.8000000000003
 30
0.0
 11
6.664798186779989
 21
241.00000000000031
 31
0.0
  0
LINE
  5
5E852
  8
0
  6
CONTINUOUS
 62
     2
 10
6.664798186779989
 20
215.62385070146451
 30
0.0
 11
6.664798186779989
 21
221.8000000000003
 31
0.0
  0
TEXT
  5
5E853
  8
0
  6
CONTINUOUS
 10
2.289011192062389
 20
221.7461905260555
 30
0.0
 40
3.0
  1
Â÷
  0
TEXT
  5
5E854
  8
0
  6
CONTINUOUS
 10
1.237846808631047
 20
217.77421795343761
 30
0.0
 40
3.0
  1
mm
  0
TEXT
  5
5E855
  8
0
  6
CONTINUOUS
 10
2.289011192062389
 20
235.24619052605561
 30
0.0
 40
3.0
  1
±â
  0
TEXT
  5
5E856
  8
0
  6
CONTINUOUS
 10
2.289011192062389
 20
230.74619052605561
 30
0.0
 40
3.0
  1
º»
  0
LINE
  5
5E857
  8
0
  6
CONTINUOUS
 62
     2
 10
6.6647981867797617
 20
241.00000000000031
 30
0.0
 11
0.0
 21
241.00000000000031
 31
0.0
  0
TEXT
  5
5E858
  8
0
  6
CONTINUOUS
 62
     3
 10
30.812067194666952
 20
217.257775021637
 30
0.0
 40
3.0
  1
%%P0.15
  0
TEXT
  5
5E859
  8
0
  6
CONTINUOUS
 62
     7
 10
28.853706141723482
 20
236.1565042912884
 30
0.0
 40
3.0
  1
50-100
  0
TEXT
  5
5E85A
  8
0
  6
CONTINUOUS
 62
     3
 10
32.065439160974158
 20
225.1925570542829
 30
0.0
 40
2.0
  1
+0.0
  0
TEXT
  5
5E85B
  8
0
  6
CONTINUOUS
 62
     3
 10
20.993984417053071
 20
225.1925570542829
 30
0.0
 40
2.0
  1
+0.0
  0
LINE
  5
5E85C
  8
0
  6
CONTINUOUS
 62
     2
 10
18.664798186779759
 20
228.4238507014646
 30
0.0
 11
18.664798186779759
 21
215.62385070146451
 31
0.0
  0
LINE
  5
5E85D
  8
0
  6
CONTINUOUS
 62
     2
 10
18.664798186779759
 20
241.00000000000031
 30
0.0
 11
18.664798186779759
 21
221.8000000000003
 31
0.0
  0
LINE
  5
5E85E
  8
0
  6
CONTINUOUS
 62
     2
 10
28.096426956445612
 20
241.00000000000031
 30
0.0
 11
28.096426956445612
 21
215.62385070146451
 31
0.0
  0
TEXT
  5
5E85F
  8
0
  6
CONTINUOUS
 62
     3
 10
19.949507918161999
 20
217.257775021637
 30
0.0
 40
3.0
  1
%%P0.1
  0
TEXT
  5
5E860
  8
0
  6
CONTINUOUS
 62
     3
 10
20.993984417053071
 20
222.68683657162171
 30
0.0
 40
2.0
  1
-0.1
  0
TEXT
  5
5E861
  8
0
  6
CONTINUOUS
 62
     3
 10
32.065439160974158
 20
222.68683657162171
 30
0.0
 40
2.0
  1
-0.15
  0
TEXT
  5
5E862
  8
0
  6
CONTINUOUS
 62
     7
 10
19.291584210295241
 20
236.1565042912884
 30
0.0
 40
3.0
  1
1-50
  0
TEXT
  5
5E863
  8
0
  6
CONTINUOUS
 62
     3
 10
20.993984417053071
 20
229.0555435295031
 30
0.0
 40
2.0
  1
-0.0
  0
TEXT
  5
5E864
  8
0
  6
CONTINUOUS
 62
     3
 10
20.88953668334489
 20
231.56126401216429
 30
0.0
 40
2.0
  1
+0.1
  0
TEXT
  5
5E865
  8
0
  6
CONTINUOUS
 62
     3
 10
32.065439160974158
 20
231.56126401216429
 30
0.0
 40
2.0
  1
+0.15
  0
TEXT
  5
5E866
  8
0
  6
CONTINUOUS
 62
     3
 10
32.065439160974158
 20
229.0555435295031
 30
0.0
 40
2.0
  1
-0.0
  0
TEXT
  5
5E867
  8
0
  6
CONTINUOUS
 62
     3
 10
46.688116012782068
 20
225.2969618979169
 30
0.0
 40
2.0
  1
+0.0
  0
LINE
  5
5E868
  8
0
  6
CONTINUOUS
 62
     2
 10
42.092417406004408
 20
241.00000000000031
 30
0.0
 11
42.092417406004408
 21
215.62385070146451
 31
0.0
  0
LINE
  5
5E869
  8
0
  6
CONTINUOUS
 62
     2
 10
57.968465385929441
 20
241.00000000000031
 30
0.0
 11
57.968465385929441
 21
215.62385070146451
 31
0.0
  0
TEXT
  5
5E86A
  8
0
  6
CONTINUOUS
 62
     3
 10
45.33029547457636
 20
217.257775021637
 30
0.0
 40
3.0
  1
%%P0.25
  0
TEXT
  5
5E86B
  8
0
  6
CONTINUOUS
 62
     3
 10
46.688116012782068
 20
222.791241415256
 30
0.0
 40
2.0
  1
-0.25
  0
TEXT
  5
5E86C
  8
0
  6
CONTINUOUS
 62
     7
 10
40.571351574260689
 20
236.1565042912884
 30
0.0
 40
3.0
  1
 100-250
  0
TEXT
  5
5E86D
  8
0
  6
CONTINUOUS
 62
     3
 10
46.479220545365934
 20
231.56126401216429
 30
0.0
 40
2.0
  1
+0.25
  0
TEXT
  5
5E86E
  8
0
  6
CONTINUOUS
 62
     3
 10
46.479220545365934
 20
229.0555435295031
 30
0.0
 40
2.0
  1
-0.0
  0
LINE
  5
5E86F
  8
0
  6
CONTINUOUS
 62
     2
 10
74.993438436643828
 20
241.00000000000031
 30
0.0
 11
74.993438436643828
 21
215.62385070146451
 31
0.0
  0
POLYLINE
  5
5E870
  8
0
 66
     1
 10
0.0
 20
0.0
 30
0.0
 40
1.0
 41
1.0
  0
VERTEX
  5
5F051
  8
0
 10
349.2999999999999
 20
0.0
 30
0.0
  0
VERTEX
  5
5F052
  8
0
 10
349.2999999999999
 20
241.5000000000004
 30
0.0
  0
SEQEND
  5
5F053
  8
0
  0
TEXT
  5
5E871
  8
0
 62
     7
 10
313.14274069050822
 20
1.428601735718757
 30
0.0
 40
4.0
  1
-
  0
TEXT
  5
5E872
  8
0
 62
     3
 10
265.187548430493
 20
32.510087232807336
 30
0.0
 40
3.0
  1
2.BREAK SHARP CORNERS  0.2*45%%D
  0
TEXT
  5
5E873
  8
0
 62
     3
 10
265.187548430493
 20
38.051021325782813
 30
0.0
 40
3.0
  1
1.ROUND  R=0.2
  0
TEXT
  5
5E874
  8
0
 62
     3
 10
265.187548430493
 20
27.127590477055271
 30
0.0
 40
3.0
  1
3.ANGLES  %%P0%%D15'
  0
TEXT
  5
5E875
  8
0
 62
     3
 10
264.54916131191339
 20
44.000081334326978
 30
0.0
 40
4.0
  1
NOTE
  0
TEXT
  5
5E876
  8
0
 62
     7
 10
234.13498021523631
 20
2.269955000430854
 30
0.0
 40
2.0
  1
SCALE
  0
TEXT
  5
5E877
  8
0
  6
CONTINUOUS
 62
     7
 10
206.7548000465849
 20
17.658983523781899
 30
0.0
 40
4.0
  1
SSK CONTROL NUMBER
  0
LINE
  5
5E878
  8
0
 62
     2
 10
349.2999999999999
 20
6.5
 30
0.0
 11
198.8597031580841
 21
6.5
 31
0.0
  0
LINE
  5
5E879
  8
0
 62
     2
 10
198.8597031580841
 20
16.5
 30
0.0
 11
269.30000000000001
 21
16.5
 31
0.0
  0
LINE
  5
5E87A
  8
0
 62
     2
 10
198.8597031580839
 20
24.0
 30
0.0
 11
198.8597031580839
 21
0.0
 31
0.0
  0
TEXT
  5
5E87B
  8
0
 62
     7
 10
199.72929511267941
 20
2.2574114378330701
 30
0.0
 40
2.0
  1
Q'TY
  0
LINE
  5
5E87C
  8
0
 62
     2
 10
233.8597031580839
 20
6.5
 30
0.0
 11
233.8597031580839
 21
0.0
 31
0.0
  0
LINE
  5
5E87D
  8
0
 62
     2
 10
289.30000000000001
 20
24.25
 30
0.0
 11
289.30000000000001
 21
6.5
 31
0.0
  0
LINE
  5
5E87E
  8
0
 62
     2
 10
269.30000000000001
 20
24.25
 30
0.0
 11
269.30000000000001
 21
6.5
 31
0.0
  0
TEXT
  5
5E87F
  8
0
 62
     7
 10
249.69651417353521
 20
0.9519807885211548
 30
0.0
 40
4.0
  1
1 : 1
  0
TEXT
  5
5E880
  8
0
 62
     7
 10
270.10520091895279
 20
2.2574114378329559
 30
0.0
 40
2.0
  1
CUTTING SIZE :
  0
LINE
  5
5E881
  8
0
 62
     2
 10
268.8597031580839
 20
6.5
 30
0.0
 11
268.8597031580839
 21
0.0
 31
0.0
  0
LINE
  5
5E882
  8
0
 62
     2
 10
329.30000000000001
 20
24.25
 30
0.0
 11
329.30000000000001
 21
6.5
 31
0.0
  0
LINE
  5
5E883
  8
0
 62
     2
 10
309.2999999999999
 20
24.25
 30
0.0
 11
309.2999999999999
 21
6.5
 31
0.0
  0
TEXT
  5
5E884
  8
0
 62
     7
 10
310.26938148685667
 20
20.8838933210493
 30
0.0
 40
2.0
  1
CHECK
  0
TEXT
  5
5E885
  8
0
 62
     7
 10
330.49033471004373
 20
20.8838933210493
 30
0.0
 40
2.0
  1
APPROVE
  0
LINE
  5
5E886
  8
0
  6
CONTINUOUS
 62
     2
 10
269.30000000000001
 20
215.62385070146451
 30
0.0
 11
349.2999999999999
 21
215.62385070146451
 31
0.0
  0
LINE
  5
5E887
  8
0
  6
CONTINUOUS
 62
     2
 10
269.30000000000001
 20
234.60000000000031
 30
0.0
 11
349.2999999999999
 21
234.60000000000031
 31
0.0
  0
LINE
  5
5E888
  8
0
  6
CONTINUOUS
 62
     2
 10
269.30000000000001
 20
228.19999999999951
 30
0.0
 11
349.2999999999999
 21
228.19999999999919
 31
0.0
  0
LINE
  5
5E889
  8
0
  6
CONTINUOUS
 62
     2
 10
269.30000000000001
 20
221.8000000000003
 30
0.0
 11
349.2999999999999
 21
221.8000000000001
 31
0.0
  0
TEXT
  5
5E88A
  8
0
 62
     7
 10
287.87643544357428
 20
236.04016647108219
 30
0.0
 40
2.5
  1
REVISIONS
  0
LINE
  5
5E88B
  8
0
 62
     2
 10
269.30000000000001
 20
241.00000000000031
 30
0.0
 11
269.30000000000001
 21
215.62385070146451
 31
0.0
  0
LINE
  5
5E88C
  8
0
 62
     2
 10
275.30000000000001
 20
241.00000000000031
 30
0.0
 11
275.29999999999973
 21
215.62385070146451
 31
0.0
  0
TEXT
  5
5E88D
  8
0
 62
     7
 10
271.36049426856789
 20
217.74007257054279
 30
0.0
 40
2.5
  1
3.
  0
TEXT
  5
5E88E
  8
0
 62
     7
 10
271.36049426856789
 20
223.58559299907341
 30
0.0
 40
2.5
  1
2.
  0
TEXT
  5
5E88F
  8
0
 62
     7
 10
270.34697788810348
 20
236.25014875277051
 30
0.0
 40
2.5
  1
NO.
  0
TEXT
  5
5E890
  8
0
 62
     7
 10
271.36049426856789
 20
230.29486807554909
 30
0.0
 40
2.5
  1
1.
  0
LINE
  5
5E891
  8
0
 62
     2
 10
317.30000000000001
 20
241.00000000000031
 30
0.0
 11
317.30000000000001
 21
215.62385070146451
 31
0.0
  0
LINE
  5
5E892
  8
0
 62
     2
 10
331.30000000000001
 20
241.00000000000031
 30
0.0
 11
331.30000000000001
 21
215.62385070146451
 31
0.0
  0
TEXT
  5
5E893
  8
0
 62
     7
 10
320.14935744422269
 20
236.04016647108219
 30
0.0
 40
2.5
  1
DATE
  0
TEXT
  5
5E894
  8
0
 62
     7
 10
333.83882714560201
 20
236.1451559764231
 30
0.0
 40
2.5
  1
DEVISER
  0
TEXT
  5
5E895
  8
0
 62
     7
 10
270.83722662870952
 20
20.7469419072163
 30
0.0
 40
2.0
  1
DESIGN
  0
TEXT
  5
5E896
  8
0
 62
     7
 10
290.26938148685662
 20
20.8838933210493
 30
0.0
 40
2.0
  1
CHECK
  0
TEXT
  5
5E89A
  8
0
  6
CONTINUOUS
 62
     3
 10
20.603715362161779
 20
4.0422186541542251
 30
0.0
 40
4.0
  1
ASME B5.50-2009
  0
TEXT
  5
5E89B
  8
0
  6
CONTINUOUS
 62
     3
 10
90.645222700866029
 20
3.8315743938501319
 30
0.0
 40
4.0
  1
-
  0
TEXT
  5
5E89C
  8
0
  6
CONTINUOUS
 62
     3
 10
112.9079934060545
 20
14.881080844647499
 30
0.0
 40
4.0
  1
SHOT BLAST
  0
TEXT
  5
5E89D
  8
0
  6
CONTINUOUS
 62
     3
 10
127.2666911887793
 20
3.8315743938501319
 30
0.0
 40
4.0
  1
-
  0
DIMENSION
  5
5E8C5
  8
0
  6
CONTINUOUS
  2
*D132
 10
296.3701483309502
 20
146.6235149679184
 30
0.0
 11
296.37014833095009
 21
140.2735149679184
 31
0.0
 70
   128
 13
282.62034125093231
 23
133.92351496791841
 33
0.0
 14
282.62034125093231
 24
146.6235149679184
 34
0.0
 50
90.0
1001
ACAD
1000
DSTYLE
1002
{
1070
   287
1070
     2
1070
     3
1000
%%c<>
1070
    72
1070
     0
1070
    71
1070
     0
1070
    42
1040
0.6
1070
    43
1040
1.0
1070
    44
1040
1.0
1070
    47
1040
-0.02
1070
    48
1040
0.03
1070
    73
1070
     0
1070
   140
1040
3.0
1070
   141
1040
-0.2
1070
   144
1040
1.0
1070
   146
1040
0.7
1070
   147
1040
0.6
1070
   178
1070
     3
1070
   271
1070
     5
1070
   272
1070
     5
1070
   275
1070
     1
1070
   283
1070
     0
1070
   284
1070
     8
1070
   289
1070
     2
1002
}
  0
LINE
  5
5E8DD
  8
0
  6
HIDDEN2
 62
     3
 10
279.12034125093243
 20
149.0235149679182
 30
0.0
 11
279.12034125093243
 21
148.62351496791831
 31
0.0
  0
LINE
  5
5E8E2
  8
0
  6
HIDDEN2
 62
     3
 10
278.12034125093243
 20
147.62351496791831
 30
0.0
 11
271.52034125093252
 21
147.62351496791831
 31
0.0
  0
LINE
  5
5E8E3
  8
0
  6
HIDDEN2
 62
     3
 10
247.23581130477021
 20
146.62351496791831
 30
0.0
 11
282.62034125093231
 21
146.6235149679184
 31
0.0
1001
ACAD
1000
ASC_BOUNDS
1002
{
1070
    19
1005
0
1005
0
1005
0
1005
0
1002
}
  0
LINE
  5
5E8E4
  8
0
  6
HIDDEN2
 62
     3
 10
252.23277681623111
 20
147.62351496791831
 30
0.0
 11
258.32034125093219
 21
147.62351496791831
 31
0.0
1001
ACAD
1000
ASC_BOUNDS
1002
{
1070
    19
1005
0
1005
0
1005
0
1005
0
1002
}
  0
LINE
  5
5E8E8
  8
0
  6
HIDDEN2
 62
     3
 10
243.6203412509324
 20
147.90748956413421
 30
0.0
 11
243.6203412509324
 21
140.2735149679184
 31
0.0
  0
LINE
  5
5E8E9
  8
0
  6
HIDDEN2
 62
     3
 10
243.9203412509323
 20
146.8235149679183
 30
0.0
 11
243.92034125093241
 21
140.2735149679184
 31
0.0
  0
LINE
  5
5E8EA
  8
0
  6
HIDDEN2
 62
     3
 10
247.1203412509324
 20
146.8235149679183
 30
0.0
 11
247.1203412509324
 21
140.2735149679184
 31
0.0
  0
LINE
  5
5E8EB
  8
0
  6
HIDDEN2
 62
     3
 10
247.23581130477021
 20
146.62351496791831
 30
0.0
 11
247.23581130477021
 21
140.2735149679184
 31
0.0
1001
ACAD
1000
ASC_BOUNDS
1002
{
1070
    19
1002
}
  0
LINE
  5
5E8ED
  8
0
  6
HIDDEN2
 62
     3
 10
243.9203412509323
 20
146.8235149679183
 30
0.0
 11
247.1203412509324
 21
146.8235149679183
 31
0.0
  0
LINE
  5
5E8EE
  8
0
  6
HIDDEN2
 62
     3
 10
259.22034125093222
 20
148.5235149679184
 30
0.0
 11
270.62034125093231
 21
148.52351496791829
 31
0.0
1001
ACAD
1000
ASC_BOUNDS
1002
{
1070
    19
1005
0
1002
}
  0
LINE
  5
5E8F3
  8
0
  6
HIDDEN2
 62
     3
 10
270.62034125093231
 20
148.52351496791829
 30
0.0
 11
271.52034125093252
 21
147.62351496791831
 31
0.0
  0
ARC
  5
5E8F5
  8
0
  6
HIDDEN2
 62
     3
 10
282.62034125093231
 20
148.1235149679184
 30
0.0
 40
1.5
 50
270.0
 51
0.0
1001
ACAD
1000
ASC_BOUNDS
1002
{
1070
    19
1005
0
1005
0
1005
0
1005
0
1002
}
  0
LINE
  5
5E8FB
  8
0
  6
HIDDEN2
 62
     3
 10
259.22034125093222
 20
148.5235149679184
 30
0.0
 11
258.32034125093219
 21
147.62351496791831
 31
0.0
  0
LINE
  5
5E8FC
  8
0
  6
HIDDEN2
 62
     3
 10
247.1203412509324
 20
146.8235149679183
 30
0.0
 11
247.23581130477021
 21
146.62351496791831
 31
0.0
  0
LINE
  5
5E8FD
  8
0
  6
HIDDEN2
 62
     3
 10
243.9203412509323
 20
146.8235149679183
 30
0.0
 11
243.6203412509324
 21
146.9967200486752
 31
0.0
  0
ARC
  5
5EB4F
  8
0
  6
HIDDEN2
 62
     3
 10
278.12034125093243
 20
148.62351496791831
 30
0.0
 40
1.0
 50
270.0
 51
0.0
  0
ARC
  5
5EB50
  8
0
  6
HIDDEN2
 62
     3
 10
252.23277681623111
 20
148.62351496791831
 30
0.0
 40
1.0
 50
180.0
 51
270.0
  0
LINE
  5
5EB51
  8
0
  6
CONTINUOUS
 10
262.53352582914772
 20
126.14219790986979
 30
0.0
 11
262.53352582914772
 21
140.2735149679186
 31
0.0
  0
LINE
  5
5EB52
  8
0
  6
CONTINUOUS
 10
262.21907833567133
 20
126.6264045880346
 30
0.0
 11
262.21907833567133
 21
140.2735149679186
 31
0.0
  0
LINE
  5
5EB53
  8
0
  6
CONTINUOUS
 10
259.99119565387792
 20
126.50964620417849
 30
0.0
 11
259.99119565387792
 21
140.2735149679186
 31
0.0
  0
LINE
  5
5EB54
  8
0
  6
CONTINUOUS
 10
259.72908411664389
 20
125.99522334758871
 30
0.0
 11
259.72908411664389
 21
140.2735149679186
 31
0.0
  0
LINE
  5
5EB55
  8
0
  6
CONTINUOUS
 10
266.7194908599252
 20
126.3615750412893
 30
0.0
 11
266.7194908599252
 21
140.2735149679186
 31
0.0
  0
LINE
  5
5EB56
  8
0
  6
CONTINUOUS
 10
266.98160239715918
 20
126.8759978978792
 30
0.0
 11
266.98160239715912
 21
140.2735149679186
 31
0.0
  0
LINE
  5
5EB57
  8
0
  6
CONTINUOUS
 10
269.20948507895338
 20
126.9927562817352
 30
0.0
 11
269.20948507895338
 21
140.2735149679186
 31
0.0
  0
LINE
  5
5EB58
  8
0
  6
CONTINUOUS
 10
269.52393257242989
 20
126.5085496035705
 30
0.0
 11
269.52393257242989
 21
140.2735149679186
 31
0.0
  0
LINE
  5
5EB59
  8
0
  6
HIDDEN2
 62
     3
 10
223.12034125093251
 20
144.7735149679186
 30
0.0
 11
223.12034125093251
 21
140.2735149679186
 31
0.0
  0
LINE
  5
5EB5A
  8
0
  6
HIDDEN2
 62
     3
 10
238.12034125093251
 20
145.0235149679186
 30
0.0
 11
238.12034125093251
 21
140.2735149679186
 31
0.0
  0
LINE
  5
5EB5B
  8
0
  6
HIDDEN2
 62
     3
 10
223.62034125093251
 20
145.2735149679186
 30
0.0
 11
234.1203412509324
 21
145.2735149679186
 31
0.0
  0
LINE
  5
5EB5C
  8
0
  6
HIDDEN2
 62
     3
 10
234.6203412509324
 20
144.7735149679186
 30
0.0
 11
234.62034125093251
 21
140.2735149679186
 31
0.0
  0
LINE
  5
5EB5D
  8
0
  6
HIDDEN2
 62
     3
 10
223.12034125093251
 20
144.7735149679186
 30
0.0
 11
234.6203412509324
 21
144.7735149679186
 31
0.0
  0
LINE
  5
5EB5E
  8
0
  6
HIDDEN2
 62
     3
 10
223.12034125093251
 20
144.7735149679186
 30
0.0
 11
223.62034125093251
 21
145.2735149679186
 31
0.0
  0
LINE
  5
5EB5F
  8
0
  6
HIDDEN2
 62
     3
 10
234.1203412509324
 20
145.2735149679186
 30
0.0
 11
234.6203412509324
 21
144.7735149679186
 31
0.0
  0
LINE
  5
5EB60
  8
0
  6
HIDDEN2
 62
     3
 10
236.12034125093251
 20
145.2735149679186
 30
0.0
 11
237.87034125093251
 21
145.2735149679186
 31
0.0
  0
LINE
  5
5EB61
  8
0
  6
HIDDEN2
 62
     3
 10
234.6203412509324
 20
144.5235149679186
 30
0.0
 11
236.12034125093251
 21
144.5235149679186
 31
0.0
  0
LINE
  5
5EB62
  8
0
  6
HIDDEN2
 62
     3
 10
223.62034125093251
 20
145.2735149679186
 30
0.0
 11
223.62034125093251
 21
140.2735149679186
 31
0.0
  0
LINE
  5
5EB63
  8
0
  6
HIDDEN2
 62
     3
 10
234.1203412509324
 20
145.2735149679186
 30
0.0
 11
234.1203412509324
 21
140.2735149679186
 31
0.0
  0
LINE
  5
5EB64
  8
0
  6
HIDDEN2
 62
     3
 10
237.87034125093251
 20
145.2735149679186
 30
0.0
 11
238.12034125093251
 21
145.0235149679186
 31
0.0
  0
LINE
  5
5EB65
  8
0
  6
HIDDEN2
 62
     3
 10
237.87034125093251
 20
140.2735149679186
 30
0.0
 11
237.87034125093251
 21
145.2735149679186
 31
0.0
  0
LINE
  5
5EB66
  8
0
  6
HIDDEN2
 62
     3
 10
236.12034125093251
 20
145.2735149679186
 30
0.0
 11
236.1203412509324
 21
140.2735149679186
 31
0.0
  0
LINE
  5
5EB67
  8
0
  6
HIDDEN2
 62
     3
 10
214.1203412509324
 20
135.72351496791859
 30
0.0
 11
235.6203412509324
 21
135.72351496791859
 31
0.0
  0
LINE
  5
5EB68
  8
0
  6
HIDDEN2
 62
     3
 10
137.16937935660891
 20
135.7735149679186
 30
0.0
 11
214.0914737374728
 21
135.7735149679186
 31
0.0
  0
LINE
  5
5EB69
  8
0
  6
HIDDEN2
 62
     3
 10
67.370341250932483
 20
132.1235149679186
 30
0.0
 11
70.670341250932324
 21
132.1235149679184
 31
0.0
  0
LINE
  5
5EB6A
  8
0
  6
HIDDEN2
 62
     3
 10
110.8703412509325
 20
133.27351496791849
 30
0.0
 11
71.340115579918574
 21
133.27351496791849
 31
0.0
  0
LINE
  5
5EB6B
  8
0
  6
HIDDEN2
 62
     3
 10
95.870341250932384
 20
132.27351496791849
 30
0.0
 11
70.757703119930738
 21
132.27351496791869
 31
0.0
  0
LINE
  5
5EB6C
  8
0
  6
HIDDEN2
 62
     3
 10
70.670341250932324
 20
132.1235149679184
 30
0.0
 11
71.340115579918574
 21
133.27351496791849
 31
0.0
  0
POINT
  5
5EB6D
  8
DEFPOINTS
  6
HIDDEN2
 62
     3
 10
70.520341250932461
 20
132.1235149679186
 30
0.0
  0
LINE
  5
5EB6E
  8
0
  6
HIDDEN2
 62
     3
 10
70.670341250932324
 20
140.2735149679186
 30
0.0
 11
70.670341250932324
 21
132.12351496791851
 31
0.0
1001
ACAD
1000
ASC_BOUNDS
1002
{
1070
    19
1005
0
1002
}
  0
LINE
  5
5EB6F
  8
0
  6
HIDDEN2
 62
     3
 10
71.340115579918574
 20
133.27351496791849
 30
0.0
 11
71.340115579918574
 21
140.27351496791849
 31
0.0
  0
LINE
  5
5EB70
  8
0
  6
HIDDEN2
 62
     3
 10
95.870341250932384
 20
132.27351496791849
 30
0.0
 11
97.689944312162879
 21
133.27351496791849
 31
0.0
  0
LINE
  5
5EB71
  8
0
  6
HIDDEN2
 62
     3
 10
95.870341250932384
 20
132.27351496791849
 30
0.0
 11
95.870341250932384
 21
140.2735149679186
 31
0.0
  0
LINE
  5
5EB72
  8
0
  6
HIDDEN2
 62
     3
 10
110.8703412509325
 20
133.27351496791849
 30
0.0
 11
110.8703412509325
 21
140.2735149679186
 31
0.0
  0
LINE
  5
5EB73
  8
0
  6
HIDDEN2
 62
     3
 10
139.67164762873861
 20
112.5533682407769
 30
0.0
 11
137.29534125093241
 21
110.8894606019412
 31
0.0
1001
ACAD
1000
ASC_BOUNDS
1002
{
1070
    19
1002
}
  0
ARC
  5
5EB74
  8
0
  6
HIDDEN2
 62
     3
 10
67.37034125093237
 20
130.6235149679186
 30
0.0
 40
1.5
 50
134.99999999999989
 51
180.0
  0
ARC
  5
5EB75
  8
0
  6
HIDDEN2
 62
     3
 10
67.37034125093237
 20
130.6235149679186
 30
0.0
 40
1.5
 50
89.999999999993491
 51
105.00000000000161
  0
LINE
  5
5EB76
  8
0
  6
HIDDEN2
 62
     3
 10
66.309681079152597
 20
131.68417513969851
 30
0.0
 11
66.982112683278501
 21
132.07240370735221
 31
0.0
  0
LINE
  5
5EB77
  8
0
  6
HIDDEN2
 62
     3
 10
66.982112683278501
 20
132.07240370735221
 30
0.0
 11
66.982112683278501
 21
140.2735149679186
 31
0.0
  0
LINE
  5
5EB78
  8
0
  6
HIDDEN2
 62
     3
 10
66.309681079152597
 20
131.68417513969851
 30
0.0
 11
66.309681079152597
 21
140.2735149679186
 31
0.0
  0
LINE
  5
5EB79
  8
0
  6
HIDDEN2
 62
     3
 10
143.1203412509318
 20
112.3185149679188
 30
0.0
 11
143.57034125093179
 21
112.57895237992309
 31
0.0
1001
ACAD
1000
ASC_BOUNDS
1002
{
1070
    19
1002
}
  0
LINE
  5
5EB7A
  8
0
  6
HIDDEN2
 62
     3
 10
146.8703412509318
 20
122.1108137587163
 30
0.0
 11
146.87034125093169
 21
135.7735149679186
 31
0.0
1001
ACAD
1000
ASC_BOUNDS
1002
{
1070
    19
1002
}
  0
LINE
  5
5EB7B
  8
0
  6
HIDDEN2
 62
     3
 10
143.57034125093159
 20
119.8001288826237
 30
0.0
 11
143.57034125093139
 21
135.7735149679186
 31
0.0
1001
ACAD
1000
ASC_BOUNDS
1002
{
1070
    19
1002
}
  0
LINE
  5
5EB7C
  8
0
  6
HIDDEN2
 62
     3
 10
149.73897525144579
 20
119.9688193084517
 30
0.0
 11
146.8703412509318
 21
117.96018015692709
 31
0.0
1001
ACAD
1000
ASC_BOUNDS
1002
{
1070
    19
1002
}
  0
LINE
  5
5EB7D
  8
0
  6
HIDDEN2
 62
     3
 10
143.57034125093159
 20
119.8001288826237
 30
0.0
 11
137.79516042752661
 21
115.7563037355512
 31
0.0
1001
ACAD
1000
ASC_BOUNDS
1002
{
1070
    19
1002
}
  0
LINE
  5
5EB7E
  8
0
  6
HIDDEN2
 62
     3
 10
141.88267812692399
 20
118.98464681786341
 30
0.0
 11
142.58175422620749
 21
119.1079127957356
 31
0.0
  0
ARC
  5
5EB7F
  8
0
  6
HIDDEN2
 62
     3
 10
145.97994062479609
 20
122.1821654275808
 30
0.0
 40
3.3882543062820369
 50
224.67042229904661
 51
257.04497997176583
  0
ARC
  5
5EB80
  8
0
  6
HIDDEN2
 62
     3
 10
143.80205677295351
 20
121.6412005750896
 30
0.0
 40
3.1040145263898502
 50
297.1885004419504
 51
8.7018188055604249
  0
ARC
  5
5EB81
  8
0
  6
HIDDEN2
 62
     3
 10
144.8709950236815
 20
116.3139442160424
 30
0.0
 40
2.589879941132633
 50
39.467601650822971
 51
82.247800619969794
  0
LINE
  5
5EB82
  8
0
  6
CENTER
 62
     2
 10
150.23641299852039
 20
122.3924457696381
 30
0.0
 11
137.29534125093249
 21
113.3310097794641
 31
0.0
  0
ARC
  5
5EB83
  8
0
  6
HIDDEN2
 62
     3
 10
146.823291222379
 20
116.0247939479225
 30
0.0
 40
3.2745278447825812
 50
119.3090996729142
 51
186.5812195746046
  0
LINE
  5
5EB84
  8
0
  6
HIDDEN2
 62
     3
 10
149.73897525144591
 20
119.9688193084517
 30
0.0
 11
149.5678893202209
 21
121.924340450621
 31
0.0
1001
ACAD
1000
ASC_BOUNDS
1002
{
1070
    19
1002
}
  0
LINE
  5
5EB85
  8
0
  6
HIDDEN2
 62
     3
 10
147.78881536785201
 20
122.7539362590344
 30
0.0
 11
149.5678893202209
 21
121.924340450621
 31
0.0
1001
ACAD
1000
ASC_BOUNDS
1002
{
1070
    19
1002
}
  0
LINE
  5
5EB86
  8
0
  6
HIDDEN2
 62
     3
 10
147.78881536785201
 20
122.7539362590343
 30
0.0
 11
146.8703412509318
 21
122.1108137587163
 31
0.0
1001
ACAD
1000
ASC_BOUNDS
1002
{
1070
    19
1002
}
  0
LINE
  5
5EB87
  8
0
  6
HIDDEN2
 62
     3
 10
147.78881536785229
 20
122.7539362590346
 30
0.0
 11
148.76389530964909
 21
121.36137778374309
 31
0.0
  0
LINE
  5
5EB88
  8
0
  6
HIDDEN2
 62
     3
 10
149.73897525144591
 20
119.9688193084517
 30
0.0
 11
148.76389530964909
 21
121.36137778374309
 31
0.0
  0
LINE
  5
5EB89
  8
0
  6
HIDDEN2
 62
     3
 10
147.22034125093191
 20
117.1185149679189
 30
0.0
 11
143.73681962252999
 21
117.1185149679188
 31
0.0
1001
ACAD
1000
ASC_BOUNDS
1002
{
1070
    19
1002
}
  0
LINE
  5
5EB8A
  8
0
  6
HIDDEN2
 62
     3
 10
143.1203412509318
 20
112.3185149679188
 30
0.0
 11
145.22034125093171
 21
112.3185149679188
 31
0.0
  0
LINE
  5
5EB8B
  8
0
  6
HIDDEN2
 62
     3
 10
143.57034125093179
 20
112.57895237992309
 30
0.0
 11
145.22034125093171
 21
112.57895237992309
 31
0.0
  0
LINE
  5
5EB8C
  8
0
  6
HIDDEN2
 62
     3
 10
141.8826781269232
 20
118.98464681786329
 30
0.0
 11
137.37734188333511
 21
115.8299764179325
 31
0.0
1001
ACAD
1000
ASC_BOUNDS
1002
{
1070
    19
1002
}
  0
LINE
  5
5EB8D
  8
0
  6
HIDDEN2
 62
     3
 10
137.37734188333451
 20
115.8299764179325
 30
0.0
 11
137.29534125093241
 21
115.7725589569866
 31
0.0
1001
ACAD
1000
ASC_BOUNDS
1002
{
1070
    19
1002
}
  0
LINE
  5
5EB8E
  8
0
  6
HIDDEN2
 62
     3
 10
143.1203412509318
 20
110.9345453394846
 30
0.0
 11
143.1203412509318
 21
112.3185149679188
 31
0.0
1001
ACAD
1000
ASC_BOUNDS
1002
{
1070
    19
1002
}
  0
LINE
  5
5EB8F
  8
0
  6
HIDDEN2
 62
     3
 10
143.57034125093179
 20
115.28326290420669
 30
0.0
 11
139.67164762873861
 21
112.5533682407769
 31
0.0
1001
ACAD
1000
ASC_BOUNDS
1002
{
1070
    19
1002
}
  0
LINE
  5
5EB90
  8
0
  6
HIDDEN2
 62
     3
 10
143.5703412509317
 20
112.578952379923
 30
0.0
 11
143.57034125093159
 21
115.6494952808351
 31
0.0
1001
ACAD
1000
ASC_BOUNDS
1002
{
1070
    19
1002
}
  0
LINE
  5
5EB91
  8
0
  6
HIDDEN2
 62
     3
 10
143.22034125093171
 20
112.37638994836421
 30
0.0
 11
143.22034125093171
 21
115.4044226424616
 31
0.0
1001
ACAD
1000
ASC_BOUNDS
1002
{
1070
    19
1002
}
  0
LINE
  5
5EB92
  8
0
  6
HIDDEN2
 62
     3
 10
143.57034125093159
 20
115.6494952808351
 30
0.0
 11
139.74532031111991
 21
112.97118678496879
 31
0.0
1001
ACAD
1000
ASC_BOUNDS
1002
{
1070
    19
1002
}
  0
LINE
  5
5EB93
  8
0
  6
HIDDEN2
 62
     3
 10
137.7951604275265
 20
115.7563037355512
 30
0.0
 11
137.37734188333451
 21
115.8299764179326
 31
0.0
1001
ACAD
1000
ASC_BOUNDS
1002
{
1070
    19
1002
}
  0
LINE
  5
5EB94
  8
0
  6
HIDDEN2
 62
     3
 10
139.74532031111991
 20
112.97118678496879
 30
0.0
 11
139.67164762873861
 21
112.5533682407769
 31
0.0
1001
ACAD
1000
ASC_BOUNDS
1002
{
1070
    19
1002
}
  0
LINE
  5
5EB95
  8
0
  6
HIDDEN2
 62
     3
 10
143.57296507885161
 20
116.5706668766457
 30
0.0
 11
141.88267812692399
 21
118.98464681786341
 31
0.0
1001
ACAD
1000
ASC_BOUNDS
1002
{
1070
    19
1002
}
  0
LINE
  5
5EB96
  8
0
  6
HIDDEN2
 62
     3
 10
139.67164762873861
 20
112.55336824077681
 30
0.0
 11
138.52449475603629
 21
114.1916723293548
 31
0.0
  0
LINE
  5
5EB97
  8
0
  6
HIDDEN2
 62
     3
 10
137.7951604275265
 20
115.7563037355511
 30
0.0
 11
138.77024036932329
 21
114.3637452602599
 31
0.0
  0
LINE
  5
5EB98
  8
0
  6
HIDDEN2
 62
     3
 10
138.52449475603629
 20
114.1916723293548
 30
0.0
 11
137.37734188333479
 21
115.8299764179326
 31
0.0
  0
LINE
  5
5EB99
  8
0
  6
HIDDEN2
 62
     3
 10
139.74532031111991
 20
112.97118678496879
 30
0.0
 11
138.77024036932309
 21
114.3637452602601
 31
0.0
  0
LINE
  5
5EB9A
  8
0
  6
HIDDEN2
 62
     3
 10
147.32034125093179
 20
111.0526712045626
 30
0.0
 11
147.32034125093159
 21
112.3185149679189
 31
0.0
1001
ACAD
1000
ASC_BOUNDS
1002
{
1070
    19
1002
}
  0
LINE
  5
5EB9B
  8
0
  6
HIDDEN2
 62
     3
 10
147.32034125093179
 20
112.3185149679188
 30
0.0
 11
146.8703412509318
 21
112.57895237992309
 31
0.0
1001
ACAD
1000
ASC_BOUNDS
1002
{
1070
    19
1002
}
  0
LINE
  5
5EB9C
  8
0
  6
HIDDEN2
 62
     3
 10
147.22034125093171
 20
112.37638994836431
 30
0.0
 11
147.22034125093171
 21
117.1185149679189
 31
0.0
1001
ACAD
1000
ASC_BOUNDS
1002
{
1070
    19
1002
}
  0
LINE
  5
5EB9D
  8
0
  6
HIDDEN2
 62
     3
 10
147.22034125093191
 20
117.1185149679189
 30
0.0
 11
146.8703412509318
 21
117.7355137126452
 31
0.0
1001
ACAD
1000
ASC_BOUNDS
1002
{
1070
    19
1002
}
  0
LINE
  5
5EB9E
  8
0
  6
HIDDEN2
 62
     3
 10
146.8703412509318
 20
112.57895237992309
 30
0.0
 11
146.8703412509318
 21
117.96018015692709
 31
0.0
1001
ACAD
1000
ASC_BOUNDS
1002
{
1070
    19
1002
}
  0
LINE
  5
5EB9F
  8
0
  6
HIDDEN2
 62
     3
 10
146.8703412509318
 20
112.57895237992309
 30
0.0
 11
145.22034125093171
 21
112.57895237992309
 31
0.0
  0
LINE
  5
5EBA0
  8
0
  6
HIDDEN2
 62
     3
 10
147.32034125093159
 20
112.3185149679188
 30
0.0
 11
145.22034125093171
 21
112.3185149679188
 31
0.0
  0
LINE
  5
5EBA1
  8
0
  6
HIDDEN2
 62
     3
 10
110.8703412509325
 20
133.5235149679186
 30
0.0
 11
135.8703412509324
 21
133.5235149679186
 31
0.0
  0
LINE
  5
5EBA2
  8
0
  6
HIDDEN2
 62
     3
 10
135.8703412509324
 20
140.2735149679186
 30
0.0
 11
135.8703412509324
 21
133.5235149679186
 31
0.0
  0
LINE
  5
5EBA3
  8
0
  6
HIDDEN2
 62
     3
 10
135.8703412509324
 20
133.5235149679186
 30
0.0
 11
137.16937935660891
 21
135.7735149679186
 31
0.0
  0
LINE
  5
5EBA4
  8
0
  6
HIDDEN2
 62
     3
 10
137.16937935660891
 20
135.7735149679186
 30
0.0
 11
137.16937935660891
 21
140.2735149679186
 31
0.0
  0
LINE
  5
5EBA5
  8
0
  6
HIDDEN2
 62
     3
 10
223.12034125093251
 20
135.7735149679186
 30
0.0
 11
223.12034125093251
 21
140.2735149679186
 31
0.0
  0
LINE
  5
5EBA6
  8
0
  6
HIDDEN2
 62
     3
 10
238.12034125093251
 20
135.5235149679186
 30
0.0
 11
238.12034125093251
 21
140.2735149679186
 31
0.0
  0
LINE
  5
5EBA7
  8
0
  6
HIDDEN2
 62
     3
 10
223.62034125093251
 20
135.2735149679186
 30
0.0
 11
234.1203412509324
 21
135.2735149679186
 31
0.0
  0
LINE
  5
5EBA8
  8
0
  6
HIDDEN2
 62
     3
 10
234.6203412509324
 20
135.7735149679186
 30
0.0
 11
234.62034125093251
 21
140.2735149679186
 31
0.0
  0
LINE
  5
5EBA9
  8
0
  6
HIDDEN2
 62
     3
 10
223.12034125093251
 20
135.7735149679186
 30
0.0
 11
234.6203412509324
 21
135.7735149679186
 31
0.0
  0
LINE
  5
5EBAA
  8
0
  6
HIDDEN2
 62
     3
 10
223.12034125093251
 20
135.7735149679186
 30
0.0
 11
223.62034125093251
 21
135.2735149679186
 31
0.0
  0
LINE
  5
5EBAB
  8
0
  6
HIDDEN2
 62
     3
 10
234.1203412509324
 20
135.2735149679186
 30
0.0
 11
234.6203412509324
 21
135.7735149679186
 31
0.0
  0
LINE
  5
5EBAC
  8
0
  6
HIDDEN2
 62
     3
 10
236.12034125093251
 20
135.2735149679186
 30
0.0
 11
237.87034125093251
 21
135.2735149679186
 31
0.0
  0
LINE
  5
5EBAD
  8
0
  6
HIDDEN2
 62
     3
 10
234.6203412509324
 20
136.0235149679186
 30
0.0
 11
236.12034125093251
 21
136.0235149679186
 31
0.0
  0
LINE
  5
5EBAE
  8
0
  6
HIDDEN2
 62
     3
 10
223.62034125093251
 20
135.2735149679186
 30
0.0
 11
223.62034125093251
 21
140.2735149679186
 31
0.0
  0
LINE
  5
5EBAF
  8
0
  6
HIDDEN2
 62
     3
 10
234.1203412509324
 20
135.2735149679186
 30
0.0
 11
234.1203412509324
 21
140.2735149679186
 31
0.0
  0
LINE
  5
5EBB0
  8
0
  6
HIDDEN2
 62
     3
 10
237.87034125093251
 20
135.2735149679186
 30
0.0
 11
238.12034125093251
 21
135.5235149679186
 31
0.0
  0
LINE
  5
5EBB1
  8
0
  6
HIDDEN2
 62
     3
 10
237.87034125093251
 20
140.2735149679186
 30
0.0
 11
237.87034125093251
 21
135.2735149679186
 31
0.0
  0
LINE
  5
5EBB2
  8
0
  6
HIDDEN2
 62
     3
 10
236.12034125093251
 20
135.2735149679186
 30
0.0
 11
236.1203412509324
 21
140.2735149679186
 31
0.0
  0
LINE
  5
5EBB3
  8
0
  6
HIDDEN2
 62
     3
 10
221.1203412509324
 20
135.2735149679188
 30
0.0
 11
236.07034125093219
 21
135.2735149679188
 31
0.0
1001
ACAD
1000
ASC_BOUNDS
1002
{
1070
    19
1005
0
1005
0
1005
0
1002
}
  0
LINE
  5
5EBB4
  8
0
  6
HIDDEN2
 62
     3
 10
221.1203412509324
 20
135.2735149679188
 30
0.0
 11
220.42752092790511
 21
135.67351496791889
 31
0.0
  0
LINE
  5
5EBB5
  8
0
  6
HIDDEN2
 62
     3
 10
221.1203412509324
 20
140.2735149679188
 30
0.0
 11
221.1203412509324
 21
135.2735149679188
 31
0.0
  0
LINE
  5
5EBB6
  8
0
  6
HIDDEN2
 62
     3
 10
235.6203412509324
 20
135.72351496791859
 30
0.0
 11
236.1203412509324
 21
135.22351496791859
 31
0.0
  0
LINE
  5
5EBB7
  8
0
  6
HIDDEN2
 62
     3
 10
236.1203412509324
 20
140.2735149679188
 30
0.0
 11
236.1203412509324
 21
133.9735149679191
 31
0.0
  0
LINE
  5
5EBB8
  8
0
  6
HIDDEN2
 62
     3
 10
235.6203412509324
 20
140.2735149679188
 30
0.0
 11
235.6203412509324
 21
135.72351496791859
 31
0.0
  0
LINE
  5
5EBB9
  8
0
  6
CONTINUOUS
 10
184.12034125093231
 20
140.27351496791681
 30
0.0
 11
184.12034125093211
 21
152.79903268455951
 31
0.0
  0
LINE
  5
5EBBA
  8
0
  6
CONTINUOUS
 10
184.12034125093231
 20
140.27351496791729
 30
0.0
 11
184.12034125093211
 21
158.84659885572341
 31
0.0
  0
LINE
  5
5EBBB
  8
0
  6
HIDDEN2
 62
     3
 10
221.1203412509324
 20
135.2735149679188
 30
0.0
 11
236.07034125093219
 21
135.2735149679188
 31
0.0
1001
ACAD
1000
ASC_BOUNDS
1002
{
1070
    19
1005
0
1005
0
1005
0
1002
}
  0
LINE
  5
5EBBC
  8
0
  6
HIDDEN2
 62
     3
 10
221.1203412509324
 20
135.2735149679188
 30
0.0
 11
220.34091838752721
 21
135.72351496791859
 31
0.0
  0
LINE
  5
5EBBD
  8
0
  6
HIDDEN2
 62
     3
 10
221.1203412509324
 20
140.2735149679188
 30
0.0
 11
221.1203412509324
 21
135.2735149679188
 31
0.0
  0
LINE
  5
5EBBE
  8
0
  6
HIDDEN2
 62
     3
 10
214.1203412509324
 20
140.2735149679188
 30
0.0
 11
214.1203412509324
 21
135.72351496791859
 31
0.0
  0
LINE
  5
5EBBF
  8
0
  6
HIDDEN2
 62
     3
 10
235.6203412509324
 20
135.72351496791859
 30
0.0
 11
236.1203412509324
 21
135.22351496791859
 31
0.0
  0
LINE
  5
5EBC0
  8
0
  6
HIDDEN2
 62
     3
 10
236.1203412509324
 20
140.2735149679188
 30
0.0
 11
236.1203412509324
 21
133.673514967919
 31
0.0
  0
LINE
  5
5EBC1
  8
0
  6
HIDDEN2
 62
     3
 10
235.6203412509324
 20
140.2735149679188
 30
0.0
 11
235.6203412509324
 21
135.72351496791859
 31
0.0
  0
LINE
  5
5EBC2
  8
0
  6
CONTINUOUS
 10
180.36224013562349
 20
164.65650812977401
 30
0.0
 11
180.36224013562349
 21
140.2735149679186
 31
0.0
  0
LINE
  5
5EBC3
  8
0
  6
HIDDEN2
 62
     3
 10
251.23277681623111
 20
131.52351496791891
 30
0.0
 11
279.12034125093243
 21
131.523514967919
 31
0.0
1001
ACAD
1000
ASC_BOUNDS
1002
{
1070
    19
1005
0
1005
0
1005
0
1005
0
1005
0
1005
0
1005
0
1002
}
  0
LINE
  5
5EBC4
  8
0
  6
HIDDEN2
 62
     3
 10
243.1873285490413
 20
132.5235149679188
 30
0.0
 11
243.1873285490413
 21
140.2735149679188
 31
0.0
  0
LINE
  5
5EBC5
  8
0
  6
HIDDEN2
 62
     3
 10
241.12034125093331
 20
140.2735149679188
 30
0.0
 11
241.12034125093331
 21
133.0235149679188
 31
0.0
  0
LINE
  5
5EBC6
  8
0
  6
HIDDEN2
 62
     3
 10
251.23277681623111
 20
131.52351496791891
 30
0.0
 11
251.23277681623111
 21
131.92351496791889
 31
0.0
  0
ARC
  5
5EBC7
  8
0
  6
HIDDEN2
 62
     3
 10
252.23277681623111
 20
131.92351496791889
 30
0.0
 40
1.0
 50
90.0
 51
180.0
  0
LINE
  5
5EBC8
  8
0
  6
HIDDEN2
 62
     3
 10
243.1873285490413
 20
132.5235149679188
 30
0.0
 11
243.6203412509324
 21
132.63954037170299
 31
0.0
  0
ARC
  5
5EBC9
  8
0
  6
HIDDEN2
 62
     3
 10
241.62034125093331
 20
133.0235149679188
 30
0.0
 40
0.5
 50
180.0
 51
270.0
  0
LINE
  5
5EBCA
  8
0
  6
HIDDEN2
 62
     3
 10
241.62034125093331
 20
132.5235149679188
 30
0.0
 11
243.1873285490413
 21
132.5235149679188
 31
0.0
  0
LINE
  5
5EBCB
  8
0
  6
HIDDEN2
 62
     3
 10
236.12034125093331
 20
133.673514967919
 30
0.0
 11
241.12034125093331
 21
133.673514967919
 31
0.0
  0
LINE
  5
5EBCC
  8
0
  6
HIDDEN2
 62
     3
 10
241.12034125093331
 20
140.2735149679188
 30
0.0
 11
241.12034125093331
 21
133.2735149679188
 31
0.0
  0
LINE
  5
5EBCD
  8
0
  6
HIDDEN2
 62
     3
 10
214.1203412509324
 20
135.72351496791859
 30
0.0
 11
214.0914737374728
 21
135.7735149679186
 31
0.0
  0
LINE
  5
5EBCE
  8
0
  6
HIDDEN2
 62
     3
 10
214.0914737374728
 20
135.7735149679186
 30
0.0
 11
214.0914737374728
 21
140.2735149679186
 31
0.0
  0
LINE
  5
5EBCF
  8
0
  6
HIDDEN2
 62
     3
 10
279.12034125093243
 20
131.523514967919
 30
0.0
 11
279.12034125093243
 21
131.92351496791889
 31
0.0
  0
ARC
  5
5EBD0
  8
0
  6
HIDDEN2
 62
     3
 10
278.12034125093243
 20
131.92351496791889
 30
0.0
 40
1.0
 50
0.0
 51
90.0
  0
LINE
  5
5EBD1
  8
0
  6
HIDDEN2
 62
     3
 10
278.12034125093243
 20
132.92351496791889
 30
0.0
 11
271.52034125093252
 21
132.92351496791889
 31
0.0
  0
LINE
  5
5EBD2
  8
0
  6
HIDDEN2
 62
     3
 10
247.23581130477021
 20
133.92351496791889
 30
0.0
 11
282.62034125093231
 21
133.92351496791881
 31
0.0
1001
ACAD
1000
ASC_BOUNDS
1002
{
1070
    19
1005
0
1005
0
1005
0
1005
0
1002
}
  0
LINE
  5
5EBD3
  8
0
  6
HIDDEN2
 62
     3
 10
252.23277681623111
 20
132.92351496791889
 30
0.0
 11
258.32034125093219
 21
132.92351496791889
 31
0.0
1001
ACAD
1000
ASC_BOUNDS
1002
{
1070
    19
1005
0
1005
0
1005
0
1005
0
1002
}
  0
LINE
  5
5EBD4
  8
0
  6
HIDDEN2
 62
     3
 10
243.6203412509324
 20
132.63954037170299
 30
0.0
 11
243.6203412509324
 21
140.2735149679188
 31
0.0
  0
LINE
  5
5EBD5
  8
0
  6
HIDDEN2
 62
     3
 10
243.9203412509323
 20
133.7235149679189
 30
0.0
 11
243.92034125093241
 21
140.2735149679188
 31
0.0
  0
LINE
  5
5EBD6
  8
0
  6
HIDDEN2
 62
     3
 10
247.1203412509324
 20
133.7235149679189
 30
0.0
 11
247.1203412509324
 21
140.2735149679188
 31
0.0
  0
LINE
  5
5EBD7
  8
0
  6
HIDDEN2
 62
     3
 10
247.23581130477021
 20
133.92351496791889
 30
0.0
 11
247.23581130477021
 21
140.2735149679188
 31
0.0
1001
ACAD
1000
ASC_BOUNDS
1002
{
1070
    19
1002
}
  0
LINE
  5
5EBD8
  8
0
  6
HIDDEN2
 62
     3
 10
243.9203412509323
 20
133.7235149679189
 30
0.0
 11
247.1203412509324
 21
133.7235149679189
 31
0.0
  0
LINE
  5
5EBD9
  8
0
  6
HIDDEN2
 62
     3
 10
259.22034125093222
 20
132.0235149679188
 30
0.0
 11
270.62034125093231
 21
132.02351496791891
 31
0.0
1001
ACAD
1000
ASC_BOUNDS
1002
{
1070
    19
1005
0
1002
}
  0
LINE
  5
5EBDA
  8
0
  6
HIDDEN2
 62
     3
 10
270.62034125093231
 20
132.02351496791891
 30
0.0
 11
271.52034125093252
 21
132.92351496791889
 31
0.0
  0
ARC
  5
5EBDB
  8
0
  6
HIDDEN2
 62
     3
 10
282.62034125093231
 20
132.42351496791881
 30
0.0
 40
1.5
 50
0.0
 51
90.0
1001
ACAD
1000
ASC_BOUNDS
1002
{
1070
    19
1005
0
1005
0
1005
0
1005
0
1002
}
  0
LINE
  5
5EBDC
  8
0
  6
HIDDEN2
 62
     3
 10
259.22034125093222
 20
132.0235149679188
 30
0.0
 11
258.32034125093219
 21
132.92351496791889
 31
0.0
  0
LINE
  5
5EBDD
  8
0
  6
HIDDEN2
 62
     3
 10
247.1203412509324
 20
133.7235149679189
 30
0.0
 11
247.23581130477021
 21
133.92351496791889
 31
0.0
  0
LINE
  5
5EBDE
  8
0
  6
HIDDEN2
 62
     3
 10
243.9203412509323
 20
133.7235149679189
 30
0.0
 11
243.6203412509324
 21
133.550309887162
 31
0.0
  0
LINE
  5
5EBDF
  8
0
  6
CONTINUOUS
 10
262.53352582914772
 20
154.40483202596741
 30
0.0
 11
262.53352582914772
 21
140.2735149679186
 31
0.0
  0
LINE
  5
5EBE0
  8
0
  6
CONTINUOUS
 10
262.21907833567133
 20
153.92062534780271
 30
0.0
 11
262.21907833567133
 21
140.2735149679186
 31
0.0
  0
LINE
  5
5EBE1
  8
0
  6
CONTINUOUS
 10
259.99119565387792
 20
154.03738373165859
 30
0.0
 11
259.99119565387792
 21
140.2735149679186
 31
0.0
  0
LINE
  5
5EBE2
  8
0
  6
CONTINUOUS
 10
259.72908411664389
 20
154.5518065882485
 30
0.0
 11
259.72908411664389
 21
140.2735149679186
 31
0.0
  0
LINE
  5
5EBE3
  8
0
  6
CONTINUOUS
 10
266.7194908599252
 20
154.18545489454789
 30
0.0
 11
266.7194908599252
 21
140.2735149679186
 31
0.0
  0
LINE
  5
5EBE4
  8
0
  6
CONTINUOUS
 10
266.98160239715918
 20
153.67103203795801
 30
0.0
 11
266.98160239715912
 21
140.2735149679186
 31
0.0
  0
LINE
  5
5EBE5
  8
0
  6
CONTINUOUS
 10
269.20948507895338
 20
153.55427365410199
 30
0.0
 11
269.20948507895338
 21
140.2735149679186
 31
0.0
  0
LINE
  5
5EBE6
  8
0
  6
CONTINUOUS
 10
269.52393257242989
 20
154.03848033226669
 30
0.0
 11
269.52393257242989
 21
140.2735149679186
 31
0.0
  0
LINE
  5
5EBE7
  8
0
  6
CENTER
 62
     2
 10
145.22034125093171
 20
110.0538343700503
 30
0.0
 11
145.2203412509318
 21
135.77351496791869
 31
0.0
1001
ACAD
1000
ASC_BOUNDS
1002
{
1070
    19
1002
}
  0
LINE
  5
5EBE8
  8
0
  6
CONTINUOUS
 10
135.70374680821101
 20
162.0742427275548
 30
0.0
 11
135.70374680821109
 21
140.2735149679186
 31
0.0
  0
LINE
  5
5EBE9
  8
0
  6
CONTINUOUS
 10
134.12034125093231
 20
162.4985149679186
 30
0.0
 11
134.12034125093231
 21
140.2735149679186
 31
0.0
  0
LINE
  5
5EBEA
  8
0
  6
CONTINUOUS
 10
141.72833221688401
 20
171.9317632583822
 30
0.0
 11
141.72833221688381
 21
148.44851496791881
 31
0.0
  0
LINE
  5
5EBEB
  8
0
  6
CONTINUOUS
 10
148.78055028498059
 20
171.9317632583822
 30
0.0
 11
148.7805502849809
 21
148.44851496791881
 31
0.0
  0
LINE
  5
5EBEC
  8
0
  6
CONTINUOUS
 10
153.17034125093241
 20
148.4485149679187
 30
0.0
 11
137.2953412509323
 21
148.44851496791881
 31
0.0
  0
ARC
  5
5EBED
  8
0
  6
CONTINUOUS
 10
145.26034125093221
 20
140.2735149679186
 30
0.0
 40
4.7625000000000002
 50
0.0
 51
180.0
  0
DIMENSION
  5
5EBFA
  8
0
  6
CONTINUOUS
  2
*D155
 10
312.37014833095009
 20
115.5235149679186
 30
0.0
 11
310.27014833095012
 21
140.2735149679186
 31
0.0
 70
     0
 13
179.20753959724581
 23
165.02351496791849
 33
0.0
 14
179.20753959724411
 24
115.5235149679186
 34
0.0
 50
90.0
1001
ACAD
1000
DSTYLE
1002
{
1070
   287
1070
     2
1070
     3
1000
%%C<>
1070
    42
1040
0.6
1070
    43
1040
1.0
1070
    44
1040
1.0
1070
    47
1040
0.1
1070
    48
1040
0.1
1070
    73
1070
     0
1070
   140
1040
3.0
1070
   141
1040
-0.2
1070
   146
1040
0.7
1070
   147
1040
0.6
1070
   178
1070
     3
1070
   271
1070
     2
1070
   272
1070
     2
1070
   275
1070
     1
1070
   283
1070
     0
1070
   284
1070
     8
1070
   289
1070
     2
1002
}
  0
TEXT
  5
5EC5A
  8
0
  6
CONTINUOUS
 62
     3
 10
201.88339183969751
 20
8.8919364728639039
 30
0.0
 40
3.419999999999999
  1
CAT40AD/B-HMC12.7-150-PB25
  0
DIMENSION
  5
5EC5B
  8
0
  6
CONTINUOUS
  2
*D156
 10
284.12034125093243
 20
177.02377169838491
 30
0.0
 11
265.62034125093243
 21
179.1237716983849
 31
0.0
 70
     0
 13
247.1203412509324
 23
146.8235149679183
 33
0.0
 14
284.12034125093243
 24
152.7990326845611
 34
0.0
1001
ACAD
1000
DSTYLE
1002
{
1070
   287
1070
     2
1070
    42
1040
0.6
1070
    43
1040
1.0
1070
    44
1040
1.0
1070
    47
1040
0.1
1070
    48
1040
0.1
1070
    73
1070
     0
1070
   140
1040
3.0
1070
   141
1040
-0.2
1070
   146
1040
0.7
1070
   147
1040
0.6
1070
   178
1070
     3
1070
   271
1070
     5
1070
   272
1070
     5
1070
   275
1070
     1
1070
   283
1070
     0
1070
   284
1070
     8
1070
   289
1070
     2
1002
}
  0
TEXT
  5
5ECFF
  8
0
 62
     7
 10
157.7891582145744
 20
52.024027894302201
 30
0.0
 40
4.0
  1
CODE : 854034
  0
INSERT
  5
5ED00
  8
0
  6
CONTINUOUS
  2
*U303
 10
0.0
 20
0.0
 30
0.0
  0
ENDSEC
  0
EOF
