999
DXF file: 42250-100.dxf
999
Pro/ENGINEER 2016050 by Parametric Technology Corporation
  0
SECTION
  2
HEADER
  9
$ACADVER
  1
AC1027
  9
$DWGCODEPAGE
  3
ANSI_1252
  9
$EXTMAX
 10
210.0
 20
297.0
 30
0.0
  9
$EXTMIN
 10
0.0
 20
0.0
 30
0.0
  9
$LIMMIN
 10
0.0
 20
0.0
  9
$LIMMAX
 10
210.0
 20
297.0
  9
$VIEWCTR
 10
105.0
 20
148.5
  9
$VIEWSIZE
 40
297.0
  9
$CLAYER
  8
0
  9
$LTSCALE
 40
19.36
  9
$CELTYPE
  6
BYLAYER
  9
$DIMSCALE
 40
1.0
  9
$DIMASZ
 40
4.76
  9
$DIMEXO
 40
0.1
  9
$DIMDLI
 40
13.376
  9
$DIMEXE
 40
1.0
  9
$DIMCEN
 40
3.168
  9
$DIMLFAC
 40
1.0
  9
$DIMBLK
  1
_FILLED
  9
$DIMALT
 70
0
  9
$DIMALTF
 40
0.0393700787
  9
$DIMTXT
 40
3.0
  9
$DIMTOL
 70
1
  9
$DIMLIM
 70
0
  9
$DIMTFAC
 40
1.0
  9
$DIMTP
 40
0.001
  9
$DIMTM
 40
0.001
  9
$DIMGAP
 40
0.625
  9
$DIMDSEP
 70
46
  9
$AUNITS
 70
0
  9
$PDMODE
 70
3
  9
$PDSIZE
 40
0.3125
  9
$HANDSEED
  5
2BB
  9
$TILEMODE
 70
1
  9
$MEASUREMENT
 70
1
  9
$INSUNITS
 70
4
  0
ENDSEC
  0
SECTION
  2
CLASSES
  0
CLASS
  1
ACDBDICTIONARYWDFLT
  2
AcDbDictionaryWithDefault
  3
AutoCAD 2000
 90
0
 91
1
280
0
281
0
  0
CLASS
  1
ACDBPLACEHOLDER
  2
AcDbPlaceHolder
  3
AutoCAD 2000
 90
0
 91
1
280
0
281
0
  0
CLASS
  1
LAYOUT
  2
AcDbLayout
  3
AutoCAD 2000
 90
0
 91
0
280
0
281
0
  0
ENDSEC
  0
SECTION
  2
TABLES
  0
TABLE
  2
VPORT
  5
8
100
AcDbSymbolTable
 70
2
  0
VPORT
  5
1F4
100
AcDbSymbolTableRecord
100
AcDbViewportTableRecord
  2
*ACTIVE
 70
0
 10
0.0
 20
0.0
 11
1.0
 21
1.0
 12
105.0
 22
148.5
 13
0.0
 23
0.0
 14
1.0
 24
1.0
 15
0.0
 25
0.0
 16
0.0
 26
0.0
 36
1.0
 17
0.0
 27
0.0
 37
0.0
 40
297.0
 41
0.7070707071
 42
50.0
 43
0.0
 44
0.0
 50
0.0
 51
0.0
 71
0
 72
100
 73
1
 74
1
 75
0
 76
0
 77
0
 78
0
  0
ENDTAB
  0
TABLE
  2
LTYPE
  5
5
100
AcDbSymbolTable
 70
6
  0
LTYPE
  5
14
100
AcDbSymbolTableRecord
100
AcDbLinetypeTableRecord
  2
BYBLOCK
 70
0
  3

 72
65
 73
0
 40
0.0
  0
LTYPE
  5
15
100
AcDbSymbolTableRecord
100
AcDbLinetypeTableRecord
  2
BYLAYER
 70
0
  3

 72
65
 73
0
 40
0.0
  0
LTYPE
  5
16
100
AcDbSymbolTableRecord
100
AcDbLinetypeTableRecord
  2
CONTINUOUS
 70
64
  3
Solid line
 72
65
 73
0
 40
0.0
  0
LTYPE
  5
1F5
100
AcDbSymbolTableRecord
100
AcDbLinetypeTableRecord
  2
CENTER
 70
64
  3
____ _ ____ _ ____ _ ____ _ ____ _ ____ _ ____
 72
65
 73
4
 40
0.6
 49
0.375
 74
0
 49
-0.075
 74
0
 49
0.075
 74
0
 49
-0.075
 74
0
  0
LTYPE
  5
1F6
100
AcDbSymbolTableRecord
100
AcDbLinetypeTableRecord
  2
HIDDEN
 70
64
  3
- - - - - - - - - - - - - - - - - - - -
 72
65
 73
2
 40
0.2
 49
0.1
 74
0
 49
-0.1
 74
0
  0
LTYPE
  5
1F7
100
AcDbSymbolTableRecord
100
AcDbLinetypeTableRecord
  2
PHANTOM
 70
64
  3
_____ _ _ _____ _ _ _____ _ _ _____
 72
65
 73
6
 40
0.8
 49
0.45
 74
0
 49
-0.05
 74
0
 49
0.1
 74
0
 49
-0.05
 74
0
 49
0.1
 74
0
 49
-0.05
 74
0
  0
LTYPE
  5
1F8
100
AcDbSymbolTableRecord
100
AcDbLinetypeTableRecord
  2
DOT
 70
64
  3
. . . . . . . . . . . . . . . . . . . .
 72
65
 73
2
 40
0.2
 49
0.1
 74
0
 49
-0.1
 74
0
  0
LTYPE
  5
1F9
100
AcDbSymbolTableRecord
100
AcDbLinetypeTableRecord
  2
DASHED
 70
64
  3
- - - - - - - - - - - - - - - - - - - -
 72
65
 73
2
 40
0.2
 49
0.1
 74
0
 49
-0.1
 74
0
  0
ENDTAB
  0
TABLE
  2
LAYER
  5
2
100
AcDbSymbolTable
 70
36
  0
LAYER
  5
10
100
AcDbSymbolTableRecord
100
AcDbLayerTableRecord
  2
0
 70
0
 62
7
  6
CONTINUOUS
370
-3
390
F
  0
LAYER
  5
1FA
100
AcDbSymbolTableRecord
100
AcDbLayerTableRecord
  2
DEFAULT_1
 70
0
 62
7
  6
CENTER
370
-3
390
F
  0
LAYER
  5
1FB
100
AcDbSymbolTableRecord
100
AcDbLayerTableRecord
  2
DEFAULT_2
 70
0
 62
8
  6
HIDDEN
370
-3
390
F
  0
LAYER
  5
1FC
100
AcDbSymbolTableRecord
100
AcDbLayerTableRecord
  2
DEFAULT_3
 70
0
 62
7
  6
PHANTOM
370
-3
390
F
  0
LAYER
  5
1FD
100
AcDbSymbolTableRecord
100
AcDbLayerTableRecord
  2
0_COMPONENTS
 70
0
 62
7
  6
CONTINUOUS
370
-3
390
F
  0
LAYER
  5
1FE
100
AcDbSymbolTableRecord
100
AcDbLayerTableRecord
  2
1_ALL_PLANES
 70
0
 62
7
  6
CONTINUOUS
370
-3
390
F
  0
LAYER
  5
1FF
100
AcDbSymbolTableRecord
100
AcDbLayerTableRecord
  2
1__DEF_ASM_PLN
 70
0
 62
7
  6
CONTINUOUS
370
-3
390
F
  0
LAYER
  5
200
100
AcDbSymbolTableRecord
100
AcDbLayerTableRecord
  2
1__DEF_PLANES
 70
0
 62
7
  6
CONTINUOUS
370
-3
390
F
  0
LAYER
  5
201
100
AcDbSymbolTableRecord
100
AcDbLayerTableRecord
  2
2_ALL_CSYS
 70
0
 62
7
  6
CONTINUOUS
370
-3
390
F
  0
LAYER
  5
202
100
AcDbSymbolTableRecord
100
AcDbLayerTableRecord
  2
2__DEF_ASM_CSYS
 70
0
 62
7
  6
CONTINUOUS
370
-3
390
F
  0
LAYER
  5
203
100
AcDbSymbolTableRecord
100
AcDbLayerTableRecord
  2
2__DEF_CSYS
 70
0
 62
7
  6
CONTINUOUS
370
-3
390
F
  0
LAYER
  5
204
100
AcDbSymbolTableRecord
100
AcDbLayerTableRecord
  2
3_ALL_AXES
 70
0
 62
7
  6
CONTINUOUS
370
-3
390
F
  0
LAYER
  5
205
100
AcDbSymbolTableRecord
100
AcDbLayerTableRecord
  2
4_ALL_POINTS
 70
0
 62
7
  6
CONTINUOUS
370
-3
390
F
  0
LAYER
  5
206
100
AcDbSymbolTableRecord
100
AcDbLayerTableRecord
  2
5_ALL_CURVES
 70
0
 62
7
  6
CONTINUOUS
370
-3
390
F
  0
LAYER
  5
207
100
AcDbSymbolTableRecord
100
AcDbLayerTableRecord
  2
5_ALL_GTOLS(FREE)
 70
0
 62
7
  6
CONTINUOUS
370
-3
390
F
  0
LAYER
  5
208
100
AcDbSymbolTableRecord
100
AcDbLayerTableRecord
  2
6_ALL_SURFS
 70
0
 62
7
  6
CONTINUOUS
370
-3
390
F
  0
LAYER
  5
209
100
AcDbSymbolTableRecord
100
AcDbLayerTableRecord
  2
PIANI
 70
0
 62
7
  6
CONTINUOUS
370
-3
390
F
  0
ENDTAB
  0
TABLE
  2
STYLE
  5
3
100
AcDbSymbolTable
 70
1
  0
STYLE
  5
11
100
AcDbSymbolTableRecord
100
AcDbTextStyleTableRecord
  2
STANDARD
 70
0
 40
0.0
 41
1.2
 50
0.0
 71
0
 42
0.2
  3
txt
  4

  0
STYLE
  5
20A
100
AcDbSymbolTableRecord
100
AcDbTextStyleTableRecord
  2
TEXTSTYLE_1
 70
0
 40
0.0
 41
0.8
 50
0.0
 71
0
 42
0.2
  3
gdt
  4

  0
ENDTAB
  0
TABLE
  2
VIEW
  5
6
100
AcDbSymbolTable
 70
0
  0
ENDTAB
  0
TABLE
  2
UCS
  5
7
100
AcDbSymbolTable
 70
0
  0
ENDTAB
  0
TABLE
  2
APPID
  5
9
100
AcDbSymbolTable
 70
1
  0
APPID
  5
20B
100
AcDbSymbolTableRecord
100
AcDbRegAppTableRecord
  2
ACAD
 70
0
  0
ENDTAB
  0
TABLE
  2
BLOCK_RECORD
  5
1
100
AcDbSymbolTable
 70
0
  0
BLOCK_RECORD
  5
20C
100
AcDbSymbolTableRecord
100
AcDbBlockTableRecord
  2
*Model_Space
  0
BLOCK_RECORD
  5
20D
100
AcDbSymbolTableRecord
100
AcDbBlockTableRecord
  2
*Paper_Space
  0
BLOCK_RECORD
  5
20E
100
AcDbSymbolTableRecord
100
AcDbBlockTableRecord
  2
_FILLED
  0
BLOCK_RECORD
  5
20F
100
AcDbSymbolTableRecord
100
AcDbBlockTableRecord
  2
*D0
  0
BLOCK_RECORD
  5
210
100
AcDbSymbolTableRecord
100
AcDbBlockTableRecord
  2
*D1
  0
ENDTAB
  0
TABLE
  2
DIMSTYLE
  5
A
100
AcDbSymbolTable
 70
1
100
AcDbDimStyleTable
 71
0
  0
DIMSTYLE
105
211
100
AcDbSymbolTableRecord
100
AcDbDimStyleTableRecord
  2
STANDARD
 70
0
  3

  4

 40
1.0
 41
4.76
 42
0.1
 43
0.38
 44
1.0
 45
0.0
 46
0.0
 47
0.001
 48
0.001
140
3.0
141
0.09
142
0.0
143
25.4
144
1.0
145
0.0
146
1.0
147
0.625
 71
1.0
 72
0.0
 73
0
 74
0
 75
0
 76
0
 77
1
 78
8
170
0
171
2
172
0
173
0
174
0
175
0
176
0
177
0
178
5
270
2
271
3
272
3
273
2
274
2
275
0
280
0
281
0
282
0
283
1
284
8
285
0
286
0
287
3
288
0
340
11
278
46
341
20E
342
20E
343
20E
344
20E
  0
DIMSTYLE
105
212
100
AcDbSymbolTableRecord
100
AcDbDimStyleTableRecord
  2
DIMSTYLE_1
 70
0
  3

  4

 40
1.0
 41
4.76
 42
0.1
 43
0.38
 44
1.0
 45
0.0
 46
0.0
 47
0.001
 48
0.001
140
3.0
141
0.09
142
0.0
143
25.4
144
1.0
145
0.0
146
1.0
147
0.75
 71
0.0
 72
0.0
 73
0
 74
0
 75
0
 76
0
 77
1
 78
8
170
0
171
2
172
0
173
0
174
0
175
0
176
0
177
0
178
5
270
2
271
0
272
0
273
2
274
2
275
0
280
0
281
0
282
0
283
1
284
8
285
0
286
0
287
3
288
0
340
11
278
46
341
20E
342
20E
343
20E
344
20E
  0
DIMSTYLE
105
213
100
AcDbSymbolTableRecord
100
AcDbDimStyleTableRecord
  2
DIMSTYLE_2
 70
0
  3

  4

 40
1.0
 41
4.76
 42
0.1
 43
0.38
 44
1.0
 45
0.0
 46
0.0
 47
0.001
 48
0.001
140
3.0
141
0.09
142
0.0
143
25.4
144
1.0
145
0.0
146
1.0
147
0.75
 71
0.0
 72
0.0
 73
0
 74
0
 75
0
 76
0
 77
1
 78
8
170
0
171
2
172
0
173
0
174
0
175
0
176
0
177
0
178
5
270
2
271
3
272
3
273
2
274
2
275
0
280
0
281
0
282
0
283
1
284
8
285
0
286
0
287
3
288
0
340
11
278
46
341
20E
342
20E
343
20E
344
20E
  0
ENDTAB
  0
ENDSEC
  0
SECTION
  2
BLOCKS
  0
BLOCK
  5
20
100
AcDbEntity
  8
0
100
AcDbBlockBegin
  2
*Model_Space
 70
0
 10
0.0
 20
0.0
 30
0.0
  3
*Model_Space
  1

  0
ENDBLK
  5
21
100
AcDbEntity
  8
0
100
AcDbBlockEnd
  0
BLOCK
  5
1C
100
AcDbEntity
  8
0
100
AcDbBlockBegin
  2
*Paper_Space
 70
0
 10
0.0
 20
0.0
 30
0.0
  3
*Paper_Space
  1

  0
ENDBLK
  5
1D
100
AcDbEntity
  8
0
100
AcDbBlockEnd
  0
BLOCK
  5
214
100
AcDbEntity
  8
0
100
AcDbBlockBegin
  2
_FILLED
 70
64
 10
0.0
 20
0.0
  3
_FILLED
  1

  0
SOLID
  5
215
100
AcDbEntity
  8
0
  6
BYBLOCK
 62
0
100
AcDbTrace
 10
0.0
 20
0.0
 11
-1.0
 21
0.1050420168
 12
-1.0
 22
-0.1050420168
 13
-1.0
 23
-0.1050420168
  0
ENDBLK
  5
216
100
AcDbEntity
  8
0
  6
BYBLOCK
 62
0
100
AcDbBlockEnd
  0
BLOCK
  5
217
100
AcDbEntity
  8
0
100
AcDbBlockBegin
 62
2
  6
CONTINUOUS
  2
*D0
 70
65
 10
0.0
 20
0.0
  3
*D0
  1

  0
MTEXT
  5
218
100
AcDbEntity
  8
0
100
AcDbMText
 62
5
  6
CONTINUOUS
  7
STANDARD
 71
2
 72
1
 10
96.719330855
 20
235.8808561891
 30
0.0
 11
1.0
 21
0.0
 31
0.0
 44
0.9
  1
Ø35
 40
3.0
 41
11.8285714286
  0
LINE
  5
219
100
AcDbEntity
  8
0
100
AcDbLine
 62
2
  6
CONTINUOUS
 10
79.394330855
 20
185.5705390335
 11
79.394330855
 21
233.1308561891
  0
LINE
  5
21A
100
AcDbEntity
  8
0
100
AcDbLine
 62
2
  6
CONTINUOUS
 10
114.044330855
 20
185.5705390335
 11
114.044330855
 21
233.1308561891
  0
LINE
  5
21B
100
AcDbEntity
  8
0
100
AcDbLine
 62
2
  6
CONTINUOUS
 10
79.394330855
 20
232.1308561891
 11
96.719330855
 21
232.1308561891
  0
LINE
  5
21C
100
AcDbEntity
  8
0
100
AcDbLine
 62
2
  6
CONTINUOUS
 10
114.044330855
 20
232.1308561891
 11
96.719330855
 21
232.1308561891
  0
INSERT
  5
21D
100
AcDbEntity
  8
0
100
AcDbBlockReference
 62
2
  6
CONTINUOUS
  2
_FILLED
 10
79.394330855
 20
232.1308561891
 41
4.76
 42
4.76
 43
4.76
 50
180.0
  0
INSERT
  5
21E
100
AcDbEntity
  8
0
100
AcDbBlockReference
 62
2
  6
CONTINUOUS
  2
_FILLED
 10
114.044330855
 20
232.1308561891
 41
4.76
 42
4.76
 43
4.76
  0
ENDBLK
  5
21F
100
AcDbEntity
  8
0
  6
BYBLOCK
 62
0
100
AcDbBlockEnd
  0
BLOCK
  5
220
100
AcDbEntity
  8
0
100
AcDbBlockBegin
 62
2
  6
CONTINUOUS
  2
*D1
 70
65
 10
0.0
 20
0.0
  3
*D1
  1

  0
MTEXT
  5
221
100
AcDbEntity
  8
0
100
AcDbMText
 62
5
  6
CONTINUOUS
  7
STANDARD
 71
2
 72
1
 10
136.8085999919
 20
150.8543527531
 30
0.0
 11
0.0
 21
1.0
 31
0.0
 44
0.9
  1
100
 40
3.0
 41
9.6428571429
  0
LINE
  5
222
100
AcDbEntity
  8
0
100
AcDbLine
 62
2
  6
CONTINUOUS
 10
113.9946682336
 20
200.7955390335
 11
141.5585999919
 21
200.7955390335
  0
LINE
  5
223
100
AcDbEntity
  8
0
100
AcDbLine
 62
2
  6
CONTINUOUS
 10
114.8267802603
 20
100.7955390335
 11
141.5585999919
 21
100.7955390335
  0
LINE
  5
224
100
AcDbEntity
  8
0
100
AcDbLine
 62
2
  6
CONTINUOUS
 10
140.5585999919
 20
200.7955390335
 11
140.5585999919
 21
150.7955390335
  0
LINE
  5
225
100
AcDbEntity
  8
0
100
AcDbLine
 62
2
  6
CONTINUOUS
 10
140.5585999919
 20
100.7955390335
 11
140.5585999919
 21
150.7955390335
  0
INSERT
  5
226
100
AcDbEntity
  8
0
100
AcDbBlockReference
 62
2
  6
CONTINUOUS
  2
_FILLED
 10
140.5585999919
 20
200.7955390335
 41
4.76
 42
4.76
 43
4.76
 50
90.0
  0
INSERT
  5
227
100
AcDbEntity
  8
0
100
AcDbBlockReference
 62
2
  6
CONTINUOUS
  2
_FILLED
 10
140.5585999919
 20
100.7955390335
 41
4.76
 42
4.76
 43
4.76
 50
270.0
  0
ENDBLK
  5
228
100
AcDbEntity
  8
0
  6
BYBLOCK
 62
0
100
AcDbBlockEnd
  0
ENDSEC
  0
SECTION
  2
ENTITIES
  0
DIMENSION
  5
229
100
AcDbEntity
  8
0
100
AcDbDimension
 62
2
  6
CONTINUOUS
  2
*D0
 10
114.044330855
 20
232.1308561891
 11
96.719330855
 21
232.1308561891
 70
160
 71
2
 42
34.65
  1
Ø<>
  3
DIMSTYLE_1
100
AcDbAlignedDimension
 13
79.394330855
 23
185.4705390335
 14
114.044330855
 24
185.4705390335
100
AcDbRotatedDimension
  0
DIMENSION
  5
22A
100
AcDbEntity
  8
0
100
AcDbDimension
 62
2
  6
CONTINUOUS
  2
*D1
 10
140.5585999919
 20
100.7955390335
 11
140.5585999919
 21
150.4257824766
 70
160
 71
2
 42
100.0
  3
DIMSTYLE_2
100
AcDbAlignedDimension
 13
113.8946682336
 23
200.7955390335
 14
114.7267802603
 24
100.7955390335
 50
270.0
100
AcDbRotatedDimension
  0
LINE
  5
22B
100
AcDbEntity
  8
0
100
AcDbLine
 62
7
  6
CONTINUOUS
 10
0.0
 20
0.0
 11
210.0
 21
0.0
  0
LINE
  5
22C
100
AcDbEntity
  8
0
100
AcDbLine
 62
7
  6
CONTINUOUS
 10
0.0
 20
0.0
 11
0.0
 21
297.0
  0
LINE
  5
22D
100
AcDbEntity
  8
0
100
AcDbLine
 62
7
  6
CONTINUOUS
 10
210.0
 20
0.0
 11
210.0
 21
297.0
  0
LINE
  5
22E
100
AcDbEntity
  8
0
100
AcDbLine
 62
7
  6
CONTINUOUS
 10
0.0
 20
297.0
 11
210.0
 21
297.0
  0
LINE
  5
22F
100
AcDbEntity
  8
0
100
AcDbLine
 62
7
  6
CONTINUOUS
 10
106.219330855
 20
84.7955390335
 11
87.219330855
 21
84.7955390335
  0
LINE
  5
230
100
AcDbEntity
  8
0
100
AcDbLine
 62
7
  6
CONTINUOUS
 10
106.719330855
 20
85.2955390335
 11
86.719330855
 21
85.2955390335
  0
LINE
  5
231
100
AcDbEntity
  8
DEFAULT_2
100
AcDbLine
 62
8
  6
HIDDEN
 10
98.719330855
 20
91.0355310206
 11
94.719330855
 21
91.0355310206
  0
LINE
  5
232
100
AcDbEntity
  8
DEFAULT_2
100
AcDbLine
 62
8
  6
HIDDEN
 10
88.0263857834
 20
92.0845390335
 11
90.219330855
 21
92.0845390335
  0
LINE
  5
233
100
AcDbEntity
  8
DEFAULT_2
100
AcDbLine
 62
8
  6
HIDDEN
 10
88.0263857834
 20
93.0845390335
 11
90.219330855
 21
93.0845390335
  0
LINE
  5
234
100
AcDbEntity
  8
0
100
AcDbLine
 62
7
  6
CONTINUOUS
 10
87.2561073804
 20
97.7955390335
 11
106.719330855
 21
97.7955390335
  0
LINE
  5
235
100
AcDbEntity
  8
0
100
AcDbLine
 62
7
  6
CONTINUOUS
 10
87.2782183566
 20
98.2285517353
 11
106.469330855
 21
98.2285517353
  0
LINE
  5
236
100
AcDbEntity
  8
0
100
AcDbLine
 62
7
  6
CONTINUOUS
 10
79.719330855
 20
185.7955390335
 11
79.394330855
 21
185.4705390335
  0
LINE
  5
237
100
AcDbEntity
  8
0
100
AcDbLine
 62
7
  6
CONTINUOUS
 10
86.969330855
 20
100.3955390335
 11
106.469330855
 21
100.3955390335
  0
LINE
  5
238
100
AcDbEntity
  8
0
100
AcDbLine
 62
7
  6
CONTINUOUS
 10
113.219330855
 20
100.7955390335
 11
80.219330855
 21
100.7955390335
  0
LINE
  5
239
100
AcDbEntity
  8
DEFAULT_2
100
AcDbLine
 62
8
  6
HIDDEN
 10
85.1482322391
 20
100.9955390335
 11
108.2904294709
 21
100.9955390335
  0
LINE
  5
23A
100
AcDbEntity
  8
0
100
AcDbLine
 62
7
  6
CONTINUOUS
 10
113.719330855
 20
101.2955390335
 11
79.719330855
 21
101.2955390335
  0
LINE
  5
23B
100
AcDbEntity
  8
DEFAULT_2
100
AcDbLine
 62
8
  6
HIDDEN
 10
98.719330855
 20
106.7540871491
 11
94.719330855
 21
106.7540871491
  0
LINE
  5
23C
100
AcDbEntity
  8
DEFAULT_2
100
AcDbLine
 62
8
  6
HIDDEN
 10
90.219330855
 20
95.8345390335
 11
86.969330855
 21
99.0845390335
  0
LINE
  5
23D
100
AcDbEntity
  8
DEFAULT_2
100
AcDbLine
 62
8
  6
HIDDEN
 10
87.719330855
 20
110.7955390335
 11
105.719330855
 21
110.7955390335
  0
LINE
  5
23E
100
AcDbEntity
  8
DEFAULT_2
100
AcDbLine
 62
8
  6
HIDDEN
 10
108.2904294709
 20
100.9955390335
 11
108.719330855
 21
100.7955390335
  0
LINE
  5
23F
100
AcDbEntity
  8
DEFAULT_2
100
AcDbLine
 62
8
  6
HIDDEN
 10
87.719330855
 20
110.7955390335
 11
94.719330855
 21
106.7540871491
  0
LINE
  5
240
100
AcDbEntity
  8
DEFAULT_2
100
AcDbLine
 62
8
  6
HIDDEN
 10
86.719330855
 20
185.7955390335
 11
86.469330855
 21
185.3625263316
  0
LINE
  5
241
100
AcDbEntity
  8
DEFAULT_2
100
AcDbLine
 62
8
  6
HIDDEN
 10
105.719330855
 20
195.5955390335
 11
106.719330855
 21
196.5955390335
  0
LINE
  5
242
100
AcDbEntity
  8
3_ALL_AXES
100
AcDbLine
 62
8
  6
HIDDEN
 10
113.6638172279
 20
194.5400254063
 11
113.719330855
 21
194.5955390335
  0
LINE
  5
243
100
AcDbEntity
  8
DEFAULT_2
100
AcDbLine
 62
8
  6
HIDDEN
 10
86.9960524999
 20
99.0139409112
 11
86.969330855
 21
99.0845390335
  0
LINE
  5
244
100
AcDbEntity
  8
DEFAULT_2
100
AcDbLine
 62
8
  6
HIDDEN
 10
113.6604864932
 20
187.5366946717
 11
112.719330855
 21
186.5955390335
  0
LINE
  5
245
100
AcDbEntity
  8
0
100
AcDbLine
 62
7
  6
CONTINUOUS
 10
113.719330855
 20
187.5955390335
 11
113.6604864932
 21
187.5366946717
  0
LINE
  5
246
100
AcDbEntity
  8
0
100
AcDbLine
 62
7
  6
CONTINUOUS
 10
79.394330855
 20
185.4705390335
 11
79.394330855
 21
176.1205390335
  0
LINE
  5
247
100
AcDbEntity
  8
0
100
AcDbLine
 62
7
  6
CONTINUOUS
 10
79.719330855
 20
200.2955390335
 11
79.719330855
 21
185.7955390335
  0
LINE
  5
248
100
AcDbEntity
  8
0
100
AcDbLine
 62
7
  6
CONTINUOUS
 10
79.719330855
 20
175.7955390335
 11
79.719330855
 21
101.2955390335
  0
LINE
  5
249
100
AcDbEntity
  8
3_ALL_AXES
100
AcDbLine
 62
8
  6
HIDDEN
 10
106.275955182
 20
191.5955390335
 11
107.719330855
 21
194.0955390335
  0
LINE
  5
24A
100
AcDbEntity
  8
0
100
AcDbLine
 62
7
  6
CONTINUOUS
 10
106.469330855
 20
98.2285517353
 11
106.719330855
 21
97.7955390335
  0
LINE
  5
24B
100
AcDbEntity
  8
DEFAULT_2
100
AcDbLine
 62
8
  6
HIDDEN
 10
86.469330855
 20
185.3625263316
 11
86.469330855
 21
175.7955390335
  0
LINE
  5
24C
100
AcDbEntity
  8
DEFAULT_2
100
AcDbLine
 62
8
  6
HIDDEN
 10
86.719330855
 20
200.2955390335
 11
86.719330855
 21
185.7955390335
  0
LINE
  5
24D
100
AcDbEntity
  8
0
100
AcDbLine
 62
7
  6
CONTINUOUS
 10
86.719330855
 20
85.8345390335
 11
86.719330855
 21
85.2955390335
  0
LINE
  5
24E
100
AcDbEntity
  8
0
100
AcDbLine
 62
7
  6
CONTINUOUS
 10
86.969330855
 20
99.0845390335
 11
86.969330855
 21
100.3955390335
  0
LINE
  5
24F
100
AcDbEntity
  8
DEFAULT_2
100
AcDbLine
 62
8
  6
HIDDEN
 10
87.719330855
 20
175.7955390335
 11
87.719330855
 21
110.7955390335
  0
LINE
  5
250
100
AcDbEntity
  8
0
100
AcDbLine
 62
7
  6
CONTINUOUS
 10
88.0263857834
 20
92.0845390335
 11
88.0263857834
 21
93.0845390335
  0
LINE
  5
251
100
AcDbEntity
  8
0
100
AcDbLine
 62
7
  6
CONTINUOUS
 10
114.044330855
 20
176.1205390335
 11
113.719330855
 21
175.7955390335
  0
LINE
  5
252
100
AcDbEntity
  8
DEFAULT_2
100
AcDbLine
 62
8
  6
HIDDEN
 10
90.219330855
 20
89.334964946
 11
90.219330855
 21
95.8341131209
  0
LINE
  5
253
100
AcDbEntity
  8
DEFAULT_2
100
AcDbLine
 62
8
  6
HIDDEN
 10
94.719330855
 20
91.0355310206
 11
94.719330855
 21
106.7540871491
  0
LINE
  5
254
100
AcDbEntity
  8
3_ALL_AXES
100
AcDbLine
 62
7
  6
CENTER
 10
96.719330855
 20
78.7955390335
 11
96.719330855
 21
206.7955390335
  0
LINE
  5
255
100
AcDbEntity
  8
DEFAULT_2
100
AcDbLine
 62
8
  6
HIDDEN
 10
98.719330855
 20
91.0355310206
 11
98.719330855
 21
106.7540871491
  0
LINE
  5
256
100
AcDbEntity
  8
3_ALL_AXES
100
AcDbLine
 62
7
  6
CONTINUOUS
 10
113.719330855
 20
195.8955390335
 11
113.6541635466
 21
195.6302476732
  0
LINE
  5
257
100
AcDbEntity
  8
3_ALL_AXES
100
AcDbLine
 62
8
  6
HIDDEN
 10
113.6965240917
 20
195.8044698159
 11
113.719330855
 21
195.8955390335
  0
LWPOLYLINE
  5
258
100
AcDbEntity
  8
3_ALL_AXES
100
AcDbPolyline
 62
7
  6
CONTINUOUS
 90
3
 70
0
 10
113.719330855
 20
195.8955390335
 10
113.6962289529
 20
195.8032782155
 10
113.6502998223
 20
195.6121254266
  0
LINE
  5
259
100
AcDbEntity
  8
3_ALL_AXES
100
AcDbLine
 62
8
  6
HIDDEN
 10
113.6960712301
 20
195.802621788
 11
113.719330855
 21
195.8955390335
  0
LINE
  5
25A
100
AcDbEntity
  8
DEFAULT_2
100
AcDbLine
 62
8
  6
HIDDEN
 10
105.719330855
 20
175.7955390335
 11
105.719330855
 21
110.7955390335
  0
LINE
  5
25B
100
AcDbEntity
  8
DEFAULT_2
100
AcDbLine
 62
8
  6
HIDDEN
 10
105.719330855
 20
187.5955390335
 11
105.719330855
 21
195.5955390335
  0
LINE
  5
25C
100
AcDbEntity
  8
DEFAULT_2
100
AcDbLine
 62
8
  6
HIDDEN
 10
106.094330855
 20
195.9705390335
 11
106.094330855
 21
187.2205390335
  0
LINE
  5
25D
100
AcDbEntity
  8
0
100
AcDbLine
 62
7
  6
CONTINUOUS
 10
106.469330855
 20
98.2285517353
 11
106.469330855
 21
100.3955390335
  0
LINE
  5
25E
100
AcDbEntity
  8
3_ALL_AXES
100
AcDbLine
 62
8
  6
HIDDEN
 10
106.719330855
 20
200.2955390335
 11
106.719330855
 21
195.8955390335
  0
LINE
  5
25F
100
AcDbEntity
  8
DEFAULT_2
100
AcDbLine
 62
8
  6
HIDDEN
 10
106.719330855
 20
196.5955390335
 11
106.719330855
 21
186.5955390335
  0
LINE
  5
260
100
AcDbEntity
  8
3_ALL_AXES
100
AcDbLine
 62
8
  6
HIDDEN
 10
106.719330855
 20
187.2955390335
 11
106.719330855
 21
185.7955390335
  0
LINE
  5
261
100
AcDbEntity
  8
0
100
AcDbLine
 62
7
  6
CONTINUOUS
 10
106.719330855
 20
97.7955390335
 11
106.719330855
 21
85.2955390335
  0
LINE
  5
262
100
AcDbEntity
  8
DEFAULT_2
100
AcDbLine
 62
8
  6
HIDDEN
 10
106.969330855
 20
185.3625263316
 11
106.969330855
 21
175.7955390335
  0
LINE
  5
263
100
AcDbEntity
  8
3_ALL_AXES
100
AcDbLine
 62
8
  6
HIDDEN
 10
107.719330855
 20
189.0955390335
 11
107.719330855
 21
194.0955390335
  0
LINE
  5
264
100
AcDbEntity
  8
DEFAULT_2
100
AcDbLine
 62
8
  6
HIDDEN
 10
108.219330855
 20
194.5400254063
 11
108.219330855
 21
188.6510526606
  0
LINE
  5
265
100
AcDbEntity
  8
3_ALL_AXES
100
AcDbLine
 62
8
  6
HIDDEN
 10
108.219330855
 20
189.0955390335
 11
108.219330855
 21
194.0955390335
  0
LINE
  5
266
100
AcDbEntity
  8
DEFAULT_2
100
AcDbLine
 62
8
  6
HIDDEN
 10
86.719330855
 20
85.8345390335
 11
86.757765459
 21
85.9350442612
  0
LINE
  5
267
100
AcDbEntity
  8
0
100
AcDbLine
 62
7
  6
CONTINUOUS
 10
79.394330855
 20
176.1205390335
 11
79.719330855
 21
175.7955390335
  0
LINE
  5
268
100
AcDbEntity
  8
DEFAULT_2
100
AcDbLine
 62
8
  6
HIDDEN
 10
112.719330855
 20
196.5955390335
 11
112.719330855
 21
186.5955390335
  0
LINE
  5
269
100
AcDbEntity
  8
DEFAULT_2
100
AcDbLine
 62
8
  6
HIDDEN
 10
113.344330855
 20
195.9705390335
 11
113.344330855
 21
193.9995138207
  0
LINE
  5
26A
100
AcDbEntity
  8
DEFAULT_2
100
AcDbLine
 62
8
  6
HIDDEN
 10
113.344330855
 20
189.195135824
 11
113.344330855
 21
187.2205390335
  0
LINE
  5
26B
100
AcDbEntity
  8
0
100
AcDbLine
 62
7
  6
CONTINUOUS
 10
113.344330855
 20
189.195135824
 11
113.344330855
 21
193.9995138207
  0
LINE
  5
26C
100
AcDbEntity
  8
0
100
AcDbLine
 62
7
  6
CONTINUOUS
 10
113.719330855
 20
200.2955390335
 11
113.719330855
 21
195.8955390335
  0
LINE
  5
26D
100
AcDbEntity
  8
3_ALL_AXES
100
AcDbLine
 62
7
  6
CONTINUOUS
 10
113.719330855
 20
187.2955390335
 11
113.719330855
 21
185.7955390335
  0
LINE
  5
26E
100
AcDbEntity
  8
0
100
AcDbLine
 62
7
  6
CONTINUOUS
 10
113.719330855
 20
175.7955390335
 11
113.719330855
 21
101.2955390335
  0
LINE
  5
26F
100
AcDbEntity
  8
3_ALL_AXES
100
AcDbLine
 62
8
  6
HIDDEN
 10
113.719330855
 20
188.5955390335
 11
113.719330855
 21
194.5955390335
  0
LINE
  5
270
100
AcDbEntity
  8
0
100
AcDbLine
 62
7
  6
CONTINUOUS
 10
113.719330855
 20
187.5955390335
 11
113.719330855
 21
195.5955390335
  0
LINE
  5
271
100
AcDbEntity
  8
0
100
AcDbLine
 62
7
  6
CONTINUOUS
 10
114.044330855
 20
185.4705390335
 11
114.044330855
 21
176.1205390335
  0
LINE
  5
272
100
AcDbEntity
  8
3_ALL_AXES
100
AcDbLine
 62
8
  6
HIDDEN
 10
113.719330855
 20
187.2955390335
 11
113.6960519828
 21
187.3885139852
  0
LINE
  5
273
100
AcDbEntity
  8
3_ALL_AXES
100
AcDbLine
 62
7
  6
CONTINUOUS
 10
113.6545053109
 20
187.5593905809
 11
113.719330855
 21
187.2955390335
  0
LINE
  5
274
100
AcDbEntity
  8
3_ALL_AXES
100
AcDbLine
 62
7
  6
CONTINUOUS
 10
113.6503401543
 20
187.5789878159
 11
113.6955412736
 21
187.390575279
  0
LINE
  5
275
100
AcDbEntity
  8
DEFAULT_2
100
AcDbLine
 62
8
  6
HIDDEN
 10
105.719330855
 20
110.7955390335
 11
98.719330855
 21
106.7540871491
  0
LINE
  5
276
100
AcDbEntity
  8
DEFAULT_2
100
AcDbLine
 62
8
  6
HIDDEN
 10
106.719330855
 20
185.7955390335
 11
106.969330855
 21
185.3625263316
  0
LINE
  5
277
100
AcDbEntity
  8
3_ALL_AXES
100
AcDbLine
 62
8
  6
HIDDEN
 10
106.275955182
 20
191.5955390335
 11
107.719330855
 21
189.0955390335
  0
LINE
  5
278
100
AcDbEntity
  8
DEFAULT_2
100
AcDbLine
 62
8
  6
HIDDEN
 10
90.219330855
 20
89.3345390335
 11
86.719330855
 21
85.8345390335
  0
LINE
  5
279
100
AcDbEntity
  8
DEFAULT_2
100
AcDbLine
 62
8
  6
HIDDEN
 10
85.1482322391
 20
100.9955390335
 11
84.719330855
 21
100.7955390335
  0
LINE
  5
27A
100
AcDbEntity
  8
0
100
AcDbLine
 62
7
  6
CONTINUOUS
 10
79.719330855
 20
175.7955390335
 11
113.719330855
 21
175.7955390335
  0
LINE
  5
27B
100
AcDbEntity
  8
0
100
AcDbLine
 62
7
  6
CONTINUOUS
 10
79.394330855
 20
176.1205390335
 11
114.044330855
 21
176.1205390335
  0
LINE
  5
27C
100
AcDbEntity
  8
DEFAULT_2
100
AcDbLine
 62
8
  6
HIDDEN
 10
105.719330855
 20
187.5955390335
 11
106.719330855
 21
186.5955390335
  0
LINE
  5
27D
100
AcDbEntity
  8
DEFAULT_2
100
AcDbLine
 62
8
  6
HIDDEN
 10
86.469330855
 20
185.3625263316
 11
106.969330855
 21
185.3625263316
  0
LINE
  5
27E
100
AcDbEntity
  8
0
100
AcDbLine
 62
7
  6
CONTINUOUS
 10
79.394330855
 20
185.4705390335
 11
114.044330855
 21
185.4705390335
  0
LINE
  5
27F
100
AcDbEntity
  8
0
100
AcDbLine
 62
7
  6
CONTINUOUS
 10
79.719330855
 20
185.7955390335
 11
113.719330855
 21
185.7955390335
  0
LINE
  5
280
100
AcDbEntity
  8
DEFAULT_2
100
AcDbLine
 62
8
  6
HIDDEN
 10
113.719330855
 20
186.5955390335
 11
106.719330855
 21
186.5955390335
  0
LINE
  5
281
100
AcDbEntity
  8
DEFAULT_2
100
AcDbLine
 62
8
  6
HIDDEN
 10
113.344330855
 20
187.2205390335
 11
106.094330855
 21
187.2205390335
  0
LINE
  5
282
100
AcDbEntity
  8
3_ALL_AXES
100
AcDbLine
 62
8
  6
HIDDEN
 10
113.719330855
 20
187.2955390335
 11
106.719330855
 21
187.2955390335
  0
LINE
  5
283
100
AcDbEntity
  8
0
100
AcDbLine
 62
7
  6
CONTINUOUS
 10
113.719330855
 20
185.7955390335
 11
114.044330855
 21
185.4705390335
  0
LINE
  5
284
100
AcDbEntity
  8
3_ALL_AXES
100
AcDbLine
 62
8
  6
HIDDEN
 10
113.6638172279
 20
188.6510526606
 11
113.719330855
 21
188.5955390335
  0
LINE
  5
285
100
AcDbEntity
  8
3_ALL_AXES
100
AcDbLine
 62
8
  6
HIDDEN
 10
113.6638172279
 20
188.6510526606
 11
108.219330855
 21
188.6510526606
  0
LINE
  5
286
100
AcDbEntity
  8
3_ALL_AXES
100
AcDbLine
 62
8
  6
HIDDEN
 10
107.719330855
 20
189.0955390335
 11
108.219330855
 21
189.0955390335
  0
LINE
  5
287
100
AcDbEntity
  8
3_ALL_AXES
100
AcDbLine
 62
8
  6
HIDDEN
 10
113.6638172279
 20
190.123295847
 11
108.219330855
 21
190.123295847
  0
LINE
  5
288
100
AcDbEntity
  8
3_ALL_AXES
100
AcDbLine
 62
8
  6
HIDDEN
 10
113.6638172279
 20
193.0677822199
 11
108.219330855
 21
193.0677822199
  0
LINE
  5
289
100
AcDbEntity
  8
3_ALL_AXES
100
AcDbLine
 62
8
  6
HIDDEN
 10
107.719330855
 20
194.0955390335
 11
108.219330855
 21
194.0955390335
  0
LINE
  5
28A
100
AcDbEntity
  8
3_ALL_AXES
100
AcDbLine
 62
8
  6
HIDDEN
 10
113.6638172279
 20
194.5400254063
 11
108.219330855
 21
194.5400254063
  0
LINE
  5
28B
100
AcDbEntity
  8
0
100
AcDbLine
 62
7
  6
CONTINUOUS
 10
113.719330855
 20
195.5955390335
 11
113.6604597565
 21
195.654410132
  0
LINE
  5
28C
100
AcDbEntity
  8
DEFAULT_2
100
AcDbLine
 62
8
  6
HIDDEN
 10
113.6604597565
 20
195.654410132
 11
112.719330855
 21
196.5955390335
  0
LINE
  5
28D
100
AcDbEntity
  8
3_ALL_AXES
100
AcDbLine
 62
8
  6
HIDDEN
 10
113.719330855
 20
195.8955390335
 11
106.719330855
 21
195.8955390335
  0
LINE
  5
28E
100
AcDbEntity
  8
DEFAULT_2
100
AcDbLine
 62
8
  6
HIDDEN
 10
113.344330855
 20
195.9705390335
 11
106.094330855
 21
195.9705390335
  0
LINE
  5
28F
100
AcDbEntity
  8
DEFAULT_2
100
AcDbLine
 62
8
  6
HIDDEN
 10
113.719330855
 20
196.5955390335
 11
106.719330855
 21
196.5955390335
  0
LINE
  5
290
100
AcDbEntity
  8
0
100
AcDbLine
 62
7
  6
CONTINUOUS
 10
113.719330855
 20
200.2955390335
 11
79.719330855
 21
200.2955390335
  0
LINE
  5
291
100
AcDbEntity
  8
0
100
AcDbLine
 62
7
  6
CONTINUOUS
 10
113.219330855
 20
200.7955390335
 11
80.219330855
 21
200.7955390335
  0
ARC
  5
292
100
AcDbEntity
  8
DEFAULT_2
100
AcDbCircle
 62
8
  6
HIDDEN
 10
61.8893602816
 20
89.530382985
 40
26.8381622022
100
AcDbArc
 50
20.4515271351
 51
20.7116301076
  0
ARC
  5
293
100
AcDbEntity
  8
DEFAULT_2
100
AcDbCircle
 62
8
  6
HIDDEN
 10
62.8394689532
 20
89.8845226055
 40
25.8241990222
100
AcDbArc
 50
20.2802480302
 51
20.451892136
  0
ARC
  5
294
100
AcDbEntity
  8
0
100
AcDbCircle
 62
7
  6
CONTINUOUS
 10
62.9895500831
 20
89.9475840107
 40
25.6615243693
100
AcDbArc
 50
18.8262736732
 51
20.8582146241
  0
ARC
  5
295
100
AcDbEntity
  8
DEFAULT_2
100
AcDbCircle
 62
8
  6
HIDDEN
 10
63.1206419873
 20
89.9877999505
 40
25.5246591397
100
AcDbArc
 50
19.8562575408
 51
20.2815567221
  0
ARC
  5
296
100
AcDbEntity
  8
DEFAULT_2
100
AcDbCircle
 62
8
  6
HIDDEN
 10
63.8318868263
 20
90.2448880957
 40
24.7683764644
100
AcDbArc
 50
19.6135584694
 51
19.8557460408
  0
ARC
  5
297
100
AcDbEntity
  8
DEFAULT_2
100
AcDbCircle
 62
8
  6
HIDDEN
 10
64.7526561168
 20
90.5702359489
 40
23.7918211767
100
AcDbArc
 50
18.7771773558
 51
19.6198396342
  0
ARC
  5
298
100
AcDbEntity
  8
DEFAULT_2
100
AcDbCircle
 62
8
  6
HIDDEN
 10
67.208459401
 20
91.5706217536
 40
20.9918504341
100
AcDbArc
 50
16.4291213575
 51
17.2498882257
  0
ARC
  5
299
100
AcDbEntity
  8
DEFAULT_2
100
AcDbCircle
 62
8
  6
HIDDEN
 10
74.2173826323
 20
92.0888660635
 40
13.809003829
100
AcDbArc
 50
355.7142904166
 51
359.9820464556
  0
ARC
  5
29A
100
AcDbEntity
  8
DEFAULT_2
100
AcDbCircle
 62
8
  6
HIDDEN
 10
74.330550842
 20
93.0836972831
 40
13.6958349672
100
AcDbArc
 50
0.0035214167
 51
2.9511563656
  0
ARC
  5
29B
100
AcDbEntity
  8
DEFAULT_2
100
AcDbCircle
 62
8
  6
HIDDEN
 10
82.719330855
 20
91.0355310206
 40
12.0
100
AcDbArc
 50
328.6677932928
 51
360.0
  0
ARC
  5
29C
100
AcDbEntity
  8
DEFAULT_2
100
AcDbCircle
 62
8
  6
HIDDEN
 10
110.719330855
 20
91.0355310206
 40
12.0
100
AcDbArc
 50
180.0
 51
211.3322067072
  0
ARC
  5
29D
100
AcDbEntity
  8
DEFAULT_2
100
AcDbCircle
 62
8
  6
HIDDEN
 10
75.8148465947
 20
98.5968362946
 40
11.4692861882
100
AcDbArc
 50
355.9937888223
 51
358.1598873354
  0
ARC
  5
29E
100
AcDbEntity
  8
0
100
AcDbCircle
 62
7
  6
CONTINUOUS
 10
75.8450630984
 20
98.5952933459
 40
11.4390357359
100
AcDbArc
 50
355.9909243633
 51
358.1627517944
  0
ARC
  5
29F
100
AcDbEntity
  8
DEFAULT_2
100
AcDbCircle
 62
8
  6
HIDDEN
 10
86.369330855
 20
100.3955390335
 40
0.6
100
AcDbArc
 50
43.6602540378
 51
90.0
  0
ARC
  5
2A0
100
AcDbEntity
  8
DEFAULT_2
100
AcDbCircle
 62
8
  6
HIDDEN
 10
107.069330855
 20
100.3955390335
 40
0.6
100
AcDbArc
 50
90.0
 51
136.3397459622
  0
ARC
  5
2A1
100
AcDbEntity
  8
0
100
AcDbCircle
 62
7
  6
CONTINUOUS
 10
86.369330855
 20
100.3955390335
 40
0.6
100
AcDbArc
 50
0.0
 51
43.6602540378
  0
ARC
  5
2A2
100
AcDbEntity
  8
0
100
AcDbCircle
 62
7
  6
CONTINUOUS
 10
107.069330855
 20
100.3955390335
 40
0.6
100
AcDbArc
 50
136.3397459622
 51
180.0
  0
ARC
  5
2A3
100
AcDbEntity
  8
DEFAULT_2
100
AcDbCircle
 62
8
  6
HIDDEN
 10
86.219330855
 20
200.2955390335
 40
0.5
100
AcDbArc
 50
0.0
 51
89.9999999961
  0
ARC
  5
2A4
100
AcDbEntity
  8
DEFAULT_2
100
AcDbCircle
 62
8
  6
HIDDEN
 10
107.219330855
 20
200.2955390335
 40
0.5
100
AcDbArc
 50
90.0000000039
 51
180.0
  0
ARC
  5
2A5
100
AcDbEntity
  8
0
100
AcDbCircle
 62
7
  6
CONTINUOUS
 10
87.219330855
 20
85.2955390335
 40
0.5
100
AcDbArc
 50
180.0
 51
270.0
  0
ARC
  5
2A6
100
AcDbEntity
  8
0
100
AcDbCircle
 62
7
  6
CONTINUOUS
 10
106.219330855
 20
85.2955390335
 40
0.5
100
AcDbArc
 50
270.0
 51
360.0
  0
ARC
  5
2A7
100
AcDbEntity
  8
0
100
AcDbCircle
 62
7
  6
CONTINUOUS
 10
80.219330855
 20
200.2955390335
 40
0.5
100
AcDbArc
 50
90.0
 51
180.0
  0
ARC
  5
2A8
100
AcDbEntity
  8
0
100
AcDbCircle
 62
7
  6
CONTINUOUS
 10
113.219330855
 20
200.2955390335
 40
0.5
100
AcDbArc
 50
0.0
 51
90.0
  0
ARC
  5
2A9
100
AcDbEntity
  8
0
100
AcDbCircle
 62
7
  6
CONTINUOUS
 10
80.219330855
 20
101.2955390335
 40
0.5
100
AcDbArc
 50
180.0
 51
270.0
  0
ARC
  5
2AA
100
AcDbEntity
  8
0
100
AcDbCircle
 62
7
  6
CONTINUOUS
 10
113.219330855
 20
101.2955390335
 40
0.5
100
AcDbArc
 50
270.0
 51
360.0
  0
SPLINE
  5
2AB
100
AcDbEntity
  8
3_ALL_AXES
100
AcDbSpline
 62
8
  6
HIDDEN
 70
0
 71
3
 72
17
 73
13
 74
0
 42
0.0000001
 43
0.0000001
 44
0.0000000001
 40
0.0
 40
0.0
 40
0.0
 40
0.0
 40
0.1379636327
 40
0.2669139492
 40
0.3865440803
 40
0.443729988
 40
0.4999999267
 40
0.5562698647
 40
0.6134558079
 40
0.7330860299
 40
0.8620364002
 40
1.0
 40
1.0
 40
1.0
 40
1.0
 10
113.6638172279
 20
193.0677822199
 30
0.0
 10
113.6081426414
 20
193.1234568063
 30
0.0
 10
113.5047919573
 20
193.235796157
 30
0.0
 10
113.3766658071
 20
193.4163144618
 30
0.0
 10
113.3038277537
 20
193.5768152089
 30
0.0
 10
113.2742751658
 20
193.7069512155
 30
0.0
 10
113.2668959944
 20
193.8039036852
 30
0.0
 10
113.2742751888
 20
193.9008561669
 30
0.0
 10
113.3038276416
 20
194.0309922781
 30
0.0
 10
113.3766657923
 20
194.1914931128
 30
0.0
 10
113.5047919607
 20
194.3720114718
 30
0.0
 10
113.6081426547
 20
194.4843508332
 30
0.0
 10
113.6638172279
 20
194.5400254063
 30
0.0
  0
SPLINE
  5
2AC
100
AcDbEntity
  8
3_ALL_AXES
100
AcDbSpline
 62
8
  6
HIDDEN
 70
0
 71
3
 72
17
 73
13
 74
0
 42
0.0000001
 43
0.0000001
 44
0.0000000001
 40
0.0
 40
0.0
 40
0.0
 40
0.0
 40
0.1379636613
 40
0.2669139954
 40
0.3865441456
 40
0.4437300352
 40
0.4999999426
 40
0.5562698416
 40
0.6134557385
 40
0.7330859018
 40
0.8620363101
 40
1.0
 40
1.0
 40
1.0
 40
1.0
 10
113.6638172279
 20
188.6510526606
 30
0.0
 10
113.6081426292
 20
188.7067272592
 30
0.0
 10
113.5047919183
 20
188.8190666278
 30
0.0
 10
113.3766657775
 20
188.999584978
 30
0.0
 10
113.3038276673
 20
189.1600857282
 30
0.0
 10
113.2742751897
 20
189.2902217384
 30
0.0
 10
113.2668959374
 20
189.387174154
 30
0.0
 10
113.2742752212
 20
189.4841265631
 30
0.0
 10
113.3038275171
 20
189.6142626217
 30
0.0
 10
113.3766657113
 20
189.7747634136
 30
0.0
 10
113.504791859
 20
189.9552818277
 30
0.0
 10
113.6081426177
 20
190.0676212368
 30
0.0
 10
113.6638172279
 20
190.123295847
 30
0.0
  0
SPLINE
  5
2AD
100
AcDbEntity
  8
3_ALL_AXES
100
AcDbSpline
 62
8
  6
HIDDEN
 70
0
 71
3
 72
11
 73
7
 74
0
 42
0.0000001
 43
0.0000001
 44
0.0000000001
 40
0.0
 40
0.0
 40
0.0
 40
0.0
 40
0.2460633375
 40
0.4901539887
 40
0.7396089735
 40
1.0
 40
1.0
 40
1.0
 40
1.0
 10
113.2905332158
 20
189.5518967658
 30
0.0
 10
113.2796255379
 20
189.5093269341
 30
0.0
 10
113.2657190168
 20
189.4222131533
 30
0.0
 10
113.2723154132
 20
189.2893614122
 30
0.0
 10
113.3059470378
 20
189.1581651613
 30
0.0
 10
113.3435684337
 20
189.0747891645
 30
0.0
 10
113.3654784353
 20
189.0337701187
 30
0.0
  0
SPLINE
  5
2AE
100
AcDbEntity
  8
3_ALL_AXES
100
AcDbSpline
 62
8
  6
HIDDEN
 70
0
 71
3
 72
9
 73
5
 74
0
 42
0.0000001
 43
0.0000001
 44
0.0000000001
 40
0.0
 40
0.0
 40
0.0
 40
0.0
 40
0.4816866736
 40
1.0
 40
1.0
 40
1.0
 40
1.0
 10
113.3654784353
 20
189.0337701187
 30
0.0
 10
113.4022836797
 20
188.9648647835
 30
0.0
 10
113.494656095
 20
188.8303051467
 30
0.0
 10
113.6043785453
 20
188.7104913431
 30
0.0
 10
113.6638172279
 20
188.6510526606
 30
0.0
  0
SPLINE
  5
2AF
100
AcDbEntity
  8
3_ALL_AXES
100
AcDbSpline
 62
8
  6
HIDDEN
 70
0
 71
3
 72
15
 73
11
 74
0
 42
0.0000001
 43
0.0000001
 44
0.0000000001
 40
0.0
 40
0.0
 40
0.0
 40
0.0
 40
0.1250196725
 40
0.250028552
 40
0.3750216918
 40
0.4999999178
 40
0.6249781717
 40
0.7499713827
 40
0.8749803244
 40
1.0
 40
1.0
 40
1.0
 40
1.0
 10
113.6638172279
 20
193.0677822199
 30
0.0
 10
113.606512893
 20
192.9531735502
 30
0.0
 10
113.4998239662
 20
192.7198356002
 30
0.0
 10
113.3725396186
 20
192.3564307184
 30
0.0
 10
113.2889410252
 20
191.9801675775
 30
0.0
 10
113.2595437494
 20
191.595539258
 30
0.0
 10
113.288940926
 20
191.2109108535
 30
0.0
 10
113.3725395518
 20
190.8346475471
 30
0.0
 10
113.4998239364
 20
190.4712425304
 30
0.0
 10
113.6065128916
 20
190.2379045195
 30
0.0
 10
113.6638172279
 20
190.123295847
 30
0.0
  0
SPLINE
  5
2B0
100
AcDbEntity
  8
3_ALL_AXES
100
AcDbSpline
 62
8
  6
HIDDEN
 70
0
 71
3
 72
9
 73
5
 74
0
 42
0.0000001
 43
0.0000001
 44
0.0000000001
 40
0.0
 40
0.0
 40
0.0
 40
0.0
 40
0.5183281641
 40
1.0
 40
1.0
 40
1.0
 40
1.0
 10
113.6638172279
 20
194.5400254063
 30
0.0
 10
113.6043402551
 20
194.4805484336
 30
0.0
 10
113.4945531017
 20
194.3606578187
 30
0.0
 10
113.4021436293
 20
194.2259990035
 30
0.0
 10
113.3653368085
 20
194.1570427278
 30
0.0
  0
SPLINE
  5
2B1
100
AcDbEntity
  8
3_ALL_AXES
100
AcDbSpline
 62
8
  6
HIDDEN
 70
0
 71
3
 72
11
 73
7
 74
0
 42
0.0000001
 43
0.0000001
 44
0.0000000001
 40
0.0
 40
0.0
 40
0.0
 40
0.0
 40
0.1800187128
 40
0.500420061
 40
0.8205894617
 40
1.0
 40
1.0
 40
1.0
 40
1.0
 10
113.6960519828
 20
187.3885139852
 30
0.0
 10
113.5734280186
 20
187.8834052105
 30
0.0
 10
113.2854691015
 20
189.2726324945
 30
0.0
 10
113.0900565188
 20
191.599459445
 30
0.0
 10
113.2864449668
 20
193.9244540758
 30
0.0
 10
113.5742909209
 20
195.3112563474
 30
0.0
 10
113.6965240917
 20
195.8044698159
 30
0.0
  0
SPLINE
  5
2B2
100
AcDbEntity
  8
DEFAULT_2
100
AcDbSpline
 62
8
  6
HIDDEN
 70
0
 71
3
 72
21
 73
17
 74
0
 42
0.0000001
 43
0.0000001
 44
0.0000000001
 40
0.0
 40
0.0
 40
0.0
 40
0.0
 40
0.0714285714
 40
0.1428571429
 40
0.2142857143
 40
0.2857142857
 40
0.3571428571
 40
0.4285714286
 40
0.5
 40
0.5714285714
 40
0.6428571429
 40
0.7142857143
 40
0.7857142857
 40
0.8571428571
 40
0.9285714286
 40
1.0
 40
1.0
 40
1.0
 40
1.0
 10
106.719330855
 20
186.5955390335
 30
0.0
 10
106.7198323699
 20
186.5955390335
 30
0.0
 10
106.6827028228
 20
186.6676121643
 30
0.0
 10
106.5041803328
 20
187.0344822003
 30
0.0
 10
106.2281209897
 20
187.6510015632
 30
0.0
 10
105.9124078218
 20
188.4721779563
 30
0.0
 10
105.6222803777
 20
189.4518335588
 30
0.0
 10
105.4254843121
 20
190.5097409124
 30
0.0
 10
105.3566390821
 20
191.5955444086
 30
0.0
 10
105.4254687167
 20
192.681209608
 30
0.0
 10
105.6222818298
 20
193.7392520768
 30
0.0
 10
105.9123569741
 20
194.7187435758
 30
0.0
 10
106.2280995981
 20
195.5400318157
 30
0.0
 10
106.5041617934
 20
196.1565546201
 30
0.0
 10
106.6827088663
 20
196.5234821135
 30
0.0
 10
106.7198357018
 20
196.5955390335
 30
0.0
 10
106.719330855
 20
196.5955390335
 30
0.0
  0
SPLINE
  5
2B3
100
AcDbEntity
  8
DEFAULT_2
100
AcDbSpline
 62
8
  6
HIDDEN
 70
0
 71
3
 72
9
 73
5
 74
0
 42
0.0000001
 43
0.0000001
 44
0.0000000001
 40
0.0
 40
0.0
 40
0.0
 40
0.0
 40
0.5264429301
 40
1.0
 40
1.0
 40
1.0
 40
1.0
 10
88.0082222198
 20
93.7888221884
 30
0.0
 10
87.9740664295
 20
94.4520426318
 30
0.0
 10
87.8166082656
 20
95.7084169701
 30
0.0
 10
87.5121606394
 20
96.9347272328
 30
0.0
 10
87.343219861
 20
97.5077259187
 30
0.0
  0
SPLINE
  5
2B4
100
AcDbEntity
  8
DEFAULT_2
100
AcDbSpline
 62
8
  6
HIDDEN
 70
0
 71
3
 72
10
 73
6
 74
0
 42
0.0000001
 43
0.0000001
 44
0.0000000001
 40
0.0
 40
0.0
 40
0.0
 40
0.0
 40
0.3861193893
 40
0.6791546401
 40
1.0
 40
1.0
 40
1.0
 40
1.0
 10
86.757544257
 20
85.9344587546
 30
0.0
 10
86.9992545359
 20
86.5702276498
 30
0.0
 10
87.3842686352
 20
87.7049948114
 30
0.0
 10
87.7985160115
 20
89.4190337839
 30
0.0
 10
87.945555819
 20
90.4933149735
 30
0.0
 10
87.9877737706
 20
91.0569190452
 30
0.0
  0
SPLINE
  5
2B5
100
AcDbEntity
  8
3_ALL_AXES
100
AcDbSpline
 62
8
  6
HIDDEN
 70
0
 71
3
 72
15
 73
11
 74
0
 42
0.0000001
 43
0.0000001
 44
0.0000000001
 40
0.0
 40
0.0
 40
0.0
 40
0.0
 40
0.040626185
 40
0.1518182037
 40
0.3123838815
 40
0.499986461
 40
0.6875876624
 40
0.8481654694
 40
0.9593684622
 40
1.0
 40
1.0
 40
1.0
 40
1.0
 10
106.719330855
 20
187.2955390335
 30
0.0
 10
106.671874577
 20
187.4059080948
 30
0.0
 10
106.499187336
 20
187.820423157
 30
0.0
 10
106.1829686903
 20
188.6892715689
 30
0.0
 10
105.8447840395
 20
190.0089360668
 30
0.0
 10
105.6953863438
 20
191.595413977
 30
0.0
 10
105.8447550279
 20
193.1819293727
 30
0.0
 10
106.182918471
 20
194.501666587
 30
0.0
 10
106.4991608169
 20
195.3705964813
 30
0.0
 10
106.6718677889
 20
195.7851556785
 30
0.0
 10
106.719330855
 20
195.8955390335
 30
0.0
  0
SPLINE
  5
2B6
100
AcDbEntity
  8
0
100
AcDbSpline
 62
2
  6
CONTINUOUS
 70
0
 71
3
 72
21
 73
17
 74
0
 42
0.0000001
 43
0.0000001
 44
0.0000000001
 40
0.0
 40
0.0
 40
0.0
 40
0.0
 40
0.0714285714
 40
0.1428571429
 40
0.2142857143
 40
0.2857142857
 40
0.3571428571
 40
0.4285714286
 40
0.5
 40
0.5714285714
 40
0.6428571429
 40
0.7142857143
 40
0.7857142857
 40
0.8571428571
 40
0.9285714286
 40
1.0
 40
1.0
 40
1.0
 40
1.0
 10
113.719330855
 20
186.5955390335
 30
0.0
 10
113.7187397669
 20
186.5955390335
 30
0.0
 10
113.6961365927
 20
186.674234339
 30
0.0
 10
113.5892414485
 20
187.0495537958
 30
0.0
 10
113.4355380898
 20
187.6470198781
 30
0.0
 10
113.2588363722
 20
188.4638259212
 30
0.0
 10
113.1032387342
 20
189.4113876809
 30
0.0
 10
112.9929444403
 20
190.4839982209
 30
0.0
 10
112.9546395691
 20
191.59550768
 30
0.0
 10
112.9929432692
 20
192.7070702334
 30
0.0
 10
113.1032338303
 20
193.7796502327
 30
0.0
 10
113.2588319666
 20
194.7272314882
 30
0.0
 10
113.4355351358
 20
195.5440454307
 30
0.0
 10
113.5892375912
 20
196.1415101818
 30
0.0
 10
113.6961366635
 20
196.5168443594
 30
0.0
 10
113.718739896
 20
196.5955390335
 30
0.0
 10
113.719330855
 20
196.5955390335
 30
0.0
  0
SPLINE
  5
2B7
100
AcDbEntity
  8
0
100
AcDbSpline
 62
7
  6
CONTINUOUS
 70
0
 71
3
 72
11
 73
7
 74
0
 42
0.0000001
 43
0.0000001
 44
0.0000000001
 40
0.0
 40
0.0
 40
0.0
 40
0.0
 40
0.3425136453
 40
0.6557064995
 40
0.8994513945
 40
1.0
 40
1.0
 40
1.0
 40
1.0
 10
88.0263857834
 20
92.0845390335
 30
0.0
 10
88.0263857834
 20
91.3517275535
 30
0.0
 10
87.9105223378
 20
89.9466060799
 30
0.0
 10
87.4858923928
 20
88.0655056922
 30
0.0
 10
87.0532041711
 20
86.7258751419
 30
0.0
 10
86.7965256241
 20
86.0353030631
 30
0.0
 10
86.719330855
 20
85.8345390335
 30
0.0
  0
SPLINE
  5
2B8
100
AcDbEntity
  8
0
100
AcDbSpline
 62
7
  6
CONTINUOUS
 70
0
 71
3
 72
10
 73
6
 74
0
 42
0.0000001
 43
0.0000001
 44
0.0000000001
 40
0.0
 40
0.0
 40
0.0
 40
0.0
 40
0.4679801795
 40
0.7301761664
 40
1.0
 40
1.0
 40
1.0
 40
1.0
 10
87.2561073804
 20
97.7955390335
 30
0.0
 10
87.4776146308
 20
97.081955286
 30
0.0
 10
87.7658725053
 20
95.9482860761
 30
0.0
 10
87.9857767539
 20
94.36532658
 30
0.0
 10
88.0263857834
 20
93.5153372684
 30
0.0
 10
88.0263857834
 20
93.0845390335
 30
0.0
  0
ENDSEC
  0
SECTION
  2
OBJECTS
  0
DICTIONARY
  5
C
100
AcDbDictionary
280
0
281
1
  3
ACAD_GROUP
350
D
  3
ACAD_MLINESTYLE
350
17
  3
ACAD_LAYOUT
350
1A
  3
ACAD_PLOTSETTINGS
350
19
  3
ACAD_PLOTSTYLENAME
350
E
  0
DICTIONARY
  5
D
102
{ACAD_REACTORS
330
C
102
}
100
AcDbDictionary
280
0
281
1
  0
ACDBDICTIONARYWDFLT
  5
E
102
{ACAD_REACTORS
330
C
102
}
100
AcDbDictionary
281
1
  3
Normal
350
F
100
AcDbDictionaryWithDefault
340
F
  0
DICTIONARY
  5
17
102
{ACAD_REACTORS
330
C
102
}
100
AcDbDictionary
280
0
281
1
  3
Standard
350
18
  0
DICTIONARY
  5
19
102
{ACAD_REACTORS
330
C
102
}
100
AcDbDictionary
281
1
  0
DICTIONARY
  5
1A
102
{ACAD_REACTORS
330
C
102
}
100
AcDbDictionary
281
1
  3
Model
350
2B9
  3
Layout1
350
2BA
  0
ACDBPLACEHOLDER
  5
F
102
{ACAD_REACTORS
330
E
102
}
  0
MLINESTYLE
  5
18
102
{ACAD_REACTORS
330
17
102
}
100
AcDbMlineStyle
  2
STANDARD
 70
0
  3

 62
256
 51
90.0
 52
90.0
 71
2
 49
0.5
 62
256
  6
BYLAYER
 49
-0.5
 62
256
  6
BYLAYER
  0
LAYOUT
  5
2B9
102
{ACAD_REACTORS
330
1A
102
}
100
AcDbPlotSettings
  1

  2
none_device
  4

  6

 40
0.0
 41
0.0
 42
0.0
 43
0.0
 44
210.0
 45
297.0
 46
0.0
 47
0.0
 48
0.0
 49
0.0
140
0.0
141
0.0
142
1.0
143
1.0
 70
1024
 72
1
 73
0
 74
0
  7

 75
0
147
1.0
148
0.0
149
0.0
100
AcDbLayout
  1
Model
 70
0
 71
0
 10
0.0
 20
0.0
 11
210.0
 21
297.0
 12
0.0
 22
0.0
 32
0.0
 14
0.0
 24
0.0
 34
0.0
 15
0.0
 25
0.0
 35
0.0
146
0.0
 13
0.0
 23
0.0
 33
0.0
 16
1.0
 26
0.0
 36
0.0
 17
0.0
 27
1.0
 37
0.0
 76
0
330
20C
345
0
346
0
  0
LAYOUT
  5
2BA
102
{ACAD_REACTORS
330
1A
102
}
100
AcDbPlotSettings
  1

  2
none_device
  4

  6

 40
0.0
 41
0.0
 42
0.0
 43
0.0
 44
210.0
 45
297.0
 46
0.0
 47
0.0
 48
0.0
 49
0.0
140
0.0
141
0.0
142
1.0
143
1.0
 70
0
 72
1
 73
0
 74
0
  7

 75
0
147
1.0
148
0.0
149
0.0
100
AcDbLayout
  1
Layout1
 70
0
 71
1
 10
0.0
 20
0.0
 11
210.0
 21
297.0
 12
0.0
 22
0.0
 32
0.0
 14
0.0
 24
0.0
 34
0.0
 15
0.0
 25
0.0
 35
0.0
146
0.0
 13
0.0
 23
0.0
 33
0.0
 16
1.0
 26
0.0
 36
0.0
 17
0.0
 27
1.0
 37
0.0
 76
0
330
20D
345
0
346
0
  0
ENDSEC
  0
EOF
