999
DXF file: 42247-er25_2.dxf
999
Pro/ENGINEER 2016050 by Parametric Technology Corporation
  0
SECTION
  2
HEADER
  9
$ACADVER
  1
AC1027
  9
$DWGCODEPAGE
  3
ANSI_1252
  9
$EXTMAX
 10
210.0
 20
297.0
 30
0.0
  9
$EXTMIN
 10
0.0
 20
0.0
 30
0.0
  9
$LIMMIN
 10
0.0
 20
0.0
  9
$LIMMAX
 10
210.0
 20
297.0
  9
$VIEWCTR
 10
105.0
 20
148.5
  9
$VIEWSIZE
 40
297.0
  9
$CLAYER
  8
0
  9
$LTSCALE
 40
19.36
  9
$CELTYPE
  6
BYLAYER
  9
$DIMSCALE
 40
1.0
  9
$DIMASZ
 40
4.76
  9
$DIMEXO
 40
0.1
  9
$DIMDLI
 40
13.376
  9
$DIMEXE
 40
1.0
  9
$DIMCEN
 40
3.168
  9
$DIMLFAC
 40
1.0
  9
$DIMBLK
  1
_FILLED
  9
$DIMALT
 70
0
  9
$DIMALTF
 40
0.0393700787
  9
$DIMTXT
 40
3.0
  9
$DIMTOL
 70
1
  9
$DIMLIM
 70
0
  9
$DIMTFAC
 40
1.0
  9
$DIMTP
 40
0.001
  9
$DIMTM
 40
0.001
  9
$DIMGAP
 40
0.625
  9
$DIMDSEP
 70
46
  9
$AUNITS
 70
0
  9
$PDMODE
 70
3
  9
$PDSIZE
 40
0.3125
  9
$HANDSEED
  5
3C3
  9
$TILEMODE
 70
1
  9
$MEASUREMENT
 70
1
  9
$INSUNITS
 70
4
  0
ENDSEC
  0
SECTION
  2
CLASSES
  0
CLASS
  1
ACDBDICTIONARYWDFLT
  2
AcDbDictionaryWithDefault
  3
AutoCAD 2000
 90
0
 91
1
280
0
281
0
  0
CLASS
  1
ACDBPLACEHOLDER
  2
AcDbPlaceHolder
  3
AutoCAD 2000
 90
0
 91
1
280
0
281
0
  0
CLASS
  1
LAYOUT
  2
AcDbLayout
  3
AutoCAD 2000
 90
0
 91
0
280
0
281
0
  0
ENDSEC
  0
SECTION
  2
TABLES
  0
TABLE
  2
VPORT
  5
8
100
AcDbSymbolTable
 70
2
  0
VPORT
  5
1F4
100
AcDbSymbolTableRecord
100
AcDbViewportTableRecord
  2
*ACTIVE
 70
0
 10
0.0
 20
0.0
 11
1.0
 21
1.0
 12
105.0
 22
148.5
 13
0.0
 23
0.0
 14
1.0
 24
1.0
 15
0.0
 25
0.0
 16
0.0
 26
0.0
 36
1.0
 17
0.0
 27
0.0
 37
0.0
 40
297.0
 41
0.7070707071
 42
50.0
 43
0.0
 44
0.0
 50
0.0
 51
0.0
 71
0
 72
100
 73
1
 74
1
 75
0
 76
0
 77
0
 78
0
  0
ENDTAB
  0
TABLE
  2
LTYPE
  5
5
100
AcDbSymbolTable
 70
6
  0
LTYPE
  5
14
100
AcDbSymbolTableRecord
100
AcDbLinetypeTableRecord
  2
BYBLOCK
 70
0
  3

 72
65
 73
0
 40
0.0
  0
LTYPE
  5
15
100
AcDbSymbolTableRecord
100
AcDbLinetypeTableRecord
  2
BYLAYER
 70
0
  3

 72
65
 73
0
 40
0.0
  0
LTYPE
  5
16
100
AcDbSymbolTableRecord
100
AcDbLinetypeTableRecord
  2
CONTINUOUS
 70
64
  3
Solid line
 72
65
 73
0
 40
0.0
  0
LTYPE
  5
1F5
100
AcDbSymbolTableRecord
100
AcDbLinetypeTableRecord
  2
CENTER
 70
64
  3
____ _ ____ _ ____ _ ____ _ ____ _ ____ _ ____
 72
65
 73
4
 40
0.6
 49
0.375
 74
0
 49
-0.075
 74
0
 49
0.075
 74
0
 49
-0.075
 74
0
  0
LTYPE
  5
1F6
100
AcDbSymbolTableRecord
100
AcDbLinetypeTableRecord
  2
HIDDEN
 70
64
  3
- - - - - - - - - - - - - - - - - - - -
 72
65
 73
2
 40
0.2
 49
0.1
 74
0
 49
-0.1
 74
0
  0
LTYPE
  5
1F7
100
AcDbSymbolTableRecord
100
AcDbLinetypeTableRecord
  2
PHANTOM
 70
64
  3
_____ _ _ _____ _ _ _____ _ _ _____
 72
65
 73
6
 40
0.8
 49
0.45
 74
0
 49
-0.05
 74
0
 49
0.1
 74
0
 49
-0.05
 74
0
 49
0.1
 74
0
 49
-0.05
 74
0
  0
LTYPE
  5
1F8
100
AcDbSymbolTableRecord
100
AcDbLinetypeTableRecord
  2
DOT
 70
64
  3
. . . . . . . . . . . . . . . . . . . .
 72
65
 73
2
 40
0.2
 49
0.1
 74
0
 49
-0.1
 74
0
  0
LTYPE
  5
1F9
100
AcDbSymbolTableRecord
100
AcDbLinetypeTableRecord
  2
DASHED
 70
64
  3
- - - - - - - - - - - - - - - - - - - -
 72
65
 73
2
 40
0.2
 49
0.1
 74
0
 49
-0.1
 74
0
  0
ENDTAB
  0
TABLE
  2
LAYER
  5
2
100
AcDbSymbolTable
 70
36
  0
LAYER
  5
10
100
AcDbSymbolTableRecord
100
AcDbLayerTableRecord
  2
0
 70
0
 62
7
  6
CONTINUOUS
370
-3
390
F
  0
LAYER
  5
1FA
100
AcDbSymbolTableRecord
100
AcDbLayerTableRecord
  2
DEFAULT_1
 70
0
 62
7
  6
CENTER
370
-3
390
F
  0
LAYER
  5
1FB
100
AcDbSymbolTableRecord
100
AcDbLayerTableRecord
  2
DEFAULT_2
 70
0
 62
8
  6
HIDDEN
370
-3
390
F
  0
LAYER
  5
1FC
100
AcDbSymbolTableRecord
100
AcDbLayerTableRecord
  2
DEFAULT_3
 70
0
 62
7
  6
PHANTOM
370
-3
390
F
  0
LAYER
  5
1FD
100
AcDbSymbolTableRecord
100
AcDbLayerTableRecord
  2
0_COMPONENTS
 70
0
 62
7
  6
CONTINUOUS
370
-3
390
F
  0
LAYER
  5
1FE
100
AcDbSymbolTableRecord
100
AcDbLayerTableRecord
  2
1_ALL_PLANES
 70
0
 62
7
  6
CONTINUOUS
370
-3
390
F
  0
LAYER
  5
1FF
100
AcDbSymbolTableRecord
100
AcDbLayerTableRecord
  2
1__DEF_ASM_PLN
 70
0
 62
7
  6
CONTINUOUS
370
-3
390
F
  0
LAYER
  5
200
100
AcDbSymbolTableRecord
100
AcDbLayerTableRecord
  2
1__DEF_PLANES
 70
0
 62
7
  6
CONTINUOUS
370
-3
390
F
  0
LAYER
  5
201
100
AcDbSymbolTableRecord
100
AcDbLayerTableRecord
  2
2_ALL_CSYS
 70
0
 62
7
  6
CONTINUOUS
370
-3
390
F
  0
LAYER
  5
202
100
AcDbSymbolTableRecord
100
AcDbLayerTableRecord
  2
2__DEF_ASM_CSYS
 70
0
 62
7
  6
CONTINUOUS
370
-3
390
F
  0
LAYER
  5
203
100
AcDbSymbolTableRecord
100
AcDbLayerTableRecord
  2
2__DEF_CSYS
 70
0
 62
7
  6
CONTINUOUS
370
-3
390
F
  0
LAYER
  5
204
100
AcDbSymbolTableRecord
100
AcDbLayerTableRecord
  2
3_ALL_AXES
 70
0
 62
7
  6
CONTINUOUS
370
-3
390
F
  0
LAYER
  5
205
100
AcDbSymbolTableRecord
100
AcDbLayerTableRecord
  2
4_ALL_POINTS
 70
0
 62
7
  6
CONTINUOUS
370
-3
390
F
  0
LAYER
  5
206
100
AcDbSymbolTableRecord
100
AcDbLayerTableRecord
  2
5_ALL_CURVES
 70
0
 62
7
  6
CONTINUOUS
370
-3
390
F
  0
LAYER
  5
207
100
AcDbSymbolTableRecord
100
AcDbLayerTableRecord
  2
5_ALL_GTOLS(FREE)
 70
0
 62
7
  6
CONTINUOUS
370
-3
390
F
  0
LAYER
  5
208
100
AcDbSymbolTableRecord
100
AcDbLayerTableRecord
  2
6_ALL_SURFS
 70
0
 62
7
  6
CONTINUOUS
370
-3
390
F
  0
LAYER
  5
209
100
AcDbSymbolTableRecord
100
AcDbLayerTableRecord
  2
CURVE
 70
0
 62
7
  6
CONTINUOUS
370
-3
390
F
  0
LAYER
  5
20A
100
AcDbSymbolTableRecord
100
AcDbLayerTableRecord
  2
GIANNI_ASSI
 70
0
 62
7
  6
CONTINUOUS
370
-3
390
F
  0
LAYER
  5
20B
100
AcDbSymbolTableRecord
100
AcDbLayerTableRecord
  2
GIANNI_CURVE
 70
0
 62
7
  6
CONTINUOUS
370
-3
390
F
  0
LAYER
  5
20C
100
AcDbSymbolTableRecord
100
AcDbLayerTableRecord
  2
GIANNI_PIANI
 70
0
 62
7
  6
CONTINUOUS
370
-3
390
F
  0
LAYER
  5
20D
100
AcDbSymbolTableRecord
100
AcDbLayerTableRecord
  2
PIANI
 70
0
 62
7
  6
CONTINUOUS
370
-3
390
F
  0
ENDTAB
  0
TABLE
  2
STYLE
  5
3
100
AcDbSymbolTable
 70
1
  0
STYLE
  5
11
100
AcDbSymbolTableRecord
100
AcDbTextStyleTableRecord
  2
STANDARD
 70
0
 40
0.0
 41
1.2
 50
0.0
 71
0
 42
0.2
  3
txt
  4

  0
STYLE
  5
20E
100
AcDbSymbolTableRecord
100
AcDbTextStyleTableRecord
  2
TEXTSTYLE_1
 70
0
 40
0.0
 41
0.8
 50
0.0
 71
0
 42
0.2
  3
gdt
  4

  0
ENDTAB
  0
TABLE
  2
VIEW
  5
6
100
AcDbSymbolTable
 70
0
  0
ENDTAB
  0
TABLE
  2
UCS
  5
7
100
AcDbSymbolTable
 70
0
  0
ENDTAB
  0
TABLE
  2
APPID
  5
9
100
AcDbSymbolTable
 70
1
  0
APPID
  5
20F
100
AcDbSymbolTableRecord
100
AcDbRegAppTableRecord
  2
ACAD
 70
0
  0
ENDTAB
  0
TABLE
  2
BLOCK_RECORD
  5
1
100
AcDbSymbolTable
 70
0
  0
BLOCK_RECORD
  5
210
100
AcDbSymbolTableRecord
100
AcDbBlockTableRecord
  2
*Model_Space
  0
BLOCK_RECORD
  5
211
100
AcDbSymbolTableRecord
100
AcDbBlockTableRecord
  2
*Paper_Space
  0
BLOCK_RECORD
  5
212
100
AcDbSymbolTableRecord
100
AcDbBlockTableRecord
  2
_FILLED
  0
BLOCK_RECORD
  5
213
100
AcDbSymbolTableRecord
100
AcDbBlockTableRecord
  2
*D0
  0
BLOCK_RECORD
  5
214
100
AcDbSymbolTableRecord
100
AcDbBlockTableRecord
  2
*D1
  0
BLOCK_RECORD
  5
215
100
AcDbSymbolTableRecord
100
AcDbBlockTableRecord
  2
*D2
  0
BLOCK_RECORD
  5
216
100
AcDbSymbolTableRecord
100
AcDbBlockTableRecord
  2
*D3
  0
ENDTAB
  0
TABLE
  2
DIMSTYLE
  5
A
100
AcDbSymbolTable
 70
1
100
AcDbDimStyleTable
 71
0
  0
DIMSTYLE
105
217
100
AcDbSymbolTableRecord
100
AcDbDimStyleTableRecord
  2
STANDARD
 70
0
  3

  4

 40
1.0
 41
4.76
 42
0.1
 43
0.38
 44
1.0
 45
0.0
 46
0.0
 47
0.001
 48
0.001
140
3.0
141
0.09
142
0.0
143
25.4
144
1.0
145
0.0
146
1.0
147
0.625
 71
1.0
 72
0.0
 73
0
 74
0
 75
0
 76
0
 77
1
 78
8
170
0
171
2
172
0
173
0
174
0
175
0
176
0
177
0
178
5
270
2
271
3
272
3
273
2
274
2
275
0
280
0
281
0
282
0
283
1
284
8
285
0
286
0
287
3
288
0
340
11
278
46
341
212
342
212
343
212
344
212
  0
DIMSTYLE
105
218
100
AcDbSymbolTableRecord
100
AcDbDimStyleTableRecord
  2
DIMSTYLE_1
 70
0
  3

  4

 40
1.0
 41
4.76
 42
0.1
 43
0.38
 44
1.0
 45
0.0
 46
0.0
 47
0.001
 48
0.001
140
3.0
141
0.09
142
0.0
143
25.4
144
1.0
145
0.0
146
1.0
147
0.75
 71
0.0
 72
0.0
 73
0
 74
0
 75
0
 76
0
 77
1
 78
8
170
0
171
2
172
0
173
0
174
0
175
0
176
0
177
0
178
5
270
2
271
3
272
3
273
2
274
2
275
0
280
0
281
0
282
0
283
1
284
8
285
0
286
0
287
3
288
0
340
11
278
46
341
212
342
212
343
212
344
212
  0
DIMSTYLE
105
219
100
AcDbSymbolTableRecord
100
AcDbDimStyleTableRecord
  2
DIMSTYLE_2
 70
0
  3

  4

 40
1.0
 41
4.76
 42
0.1
 43
0.38
 44
1.0
 45
0.0
 46
0.0
 47
0.001
 48
0.001
140
3.0
141
0.09
142
0.0
143
25.4
144
1.0
145
0.0
146
1.0
147
0.75
 71
0.0
 72
0.0
 73
0
 74
0
 75
0
 76
0
 77
1
 78
8
170
0
171
2
172
0
173
0
174
0
175
0
176
0
177
0
178
5
270
2
271
0
272
0
273
2
274
2
275
0
280
0
281
0
282
0
283
1
284
8
285
0
286
0
287
3
288
0
340
11
278
46
341
212
342
212
343
212
344
212
  0
ENDTAB
  0
ENDSEC
  0
SECTION
  2
BLOCKS
  0
BLOCK
  5
20
100
AcDbEntity
  8
0
100
AcDbBlockBegin
  2
*Model_Space
 70
0
 10
0.0
 20
0.0
 30
0.0
  3
*Model_Space
  1

  0
ENDBLK
  5
21
100
AcDbEntity
  8
0
100
AcDbBlockEnd
  0
BLOCK
  5
1C
100
AcDbEntity
  8
0
100
AcDbBlockBegin
  2
*Paper_Space
 70
0
 10
0.0
 20
0.0
 30
0.0
  3
*Paper_Space
  1

  0
ENDBLK
  5
1D
100
AcDbEntity
  8
0
100
AcDbBlockEnd
  0
BLOCK
  5
21A
100
AcDbEntity
  8
0
100
AcDbBlockBegin
  2
_FILLED
 70
64
 10
0.0
 20
0.0
  3
_FILLED
  1

  0
SOLID
  5
21B
100
AcDbEntity
  8
0
  6
BYBLOCK
 62
0
100
AcDbTrace
 10
0.0
 20
0.0
 11
-1.0
 21
0.1050420168
 12
-1.0
 22
-0.1050420168
 13
-1.0
 23
-0.1050420168
  0
ENDBLK
  5
21C
100
AcDbEntity
  8
0
  6
BYBLOCK
 62
0
100
AcDbBlockEnd
  0
BLOCK
  5
21D
100
AcDbEntity
  8
0
100
AcDbBlockBegin
 62
2
  6
CONTINUOUS
  2
*D0
 70
65
 10
0.0
 20
0.0
  3
*D0
  1

  0
MTEXT
  5
21E
100
AcDbEntity
  8
0
100
AcDbMText
 62
5
  6
CONTINUOUS
  7
STANDARD
 71
2
 72
1
 10
109.968401487
 20
92.6649172903
 30
0.0
 11
1.0
 21
0.0
 31
0.0
 44
0.9
  1
Ø42
 40
3.0
 41
12.4714285714
  0
LINE
  5
21F
100
AcDbEntity
  8
0
100
AcDbLine
 62
2
  6
CONTINUOUS
 10
88.968401487
 20
130.268401487
 11
88.968401487
 21
87.9149172903
  0
LINE
  5
220
100
AcDbEntity
  8
0
100
AcDbLine
 62
2
  6
CONTINUOUS
 10
130.968401487
 20
130.268401487
 11
130.968401487
 21
87.9149172903
  0
LINE
  5
221
100
AcDbEntity
  8
0
100
AcDbLine
 62
2
  6
CONTINUOUS
 10
88.968401487
 20
88.9149172903
 11
109.968401487
 21
88.9149172903
  0
LINE
  5
222
100
AcDbEntity
  8
0
100
AcDbLine
 62
2
  6
CONTINUOUS
 10
130.968401487
 20
88.9149172903
 11
109.968401487
 21
88.9149172903
  0
INSERT
  5
223
100
AcDbEntity
  8
0
100
AcDbBlockReference
 62
2
  6
CONTINUOUS
  2
_FILLED
 10
88.968401487
 20
88.9149172903
 41
4.76
 42
4.76
 43
4.76
 50
180.0
  0
INSERT
  5
224
100
AcDbEntity
  8
0
100
AcDbBlockReference
 62
2
  6
CONTINUOUS
  2
_FILLED
 10
130.968401487
 20
88.9149172903
 41
4.76
 42
4.76
 43
4.76
  0
ENDBLK
  5
225
100
AcDbEntity
  8
0
  6
BYBLOCK
 62
0
100
AcDbBlockEnd
  0
BLOCK
  5
226
100
AcDbEntity
  8
0
100
AcDbBlockBegin
 62
2
  6
CONTINUOUS
  2
*D1
 70
65
 10
0.0
 20
0.0
  3
*D1
  1

  0
MTEXT
  5
227
100
AcDbEntity
  8
0
100
AcDbMText
 62
5
  6
CONTINUOUS
  7
STANDARD
 71
2
 72
1
 10
109.968401487
 20
217.5939969879
 30
0.0
 11
1.0
 21
0.0
 31
0.0
 44
0.9
  1
Ø35
 40
3.0
 41
11.8285714286
  0
LINE
  5
228
100
AcDbEntity
  8
0
100
AcDbLine
 62
2
  6
CONTINUOUS
 10
92.643401487
 20
192.268401487
 11
92.643401487
 21
214.8439969879
  0
LINE
  5
229
100
AcDbEntity
  8
0
100
AcDbLine
 62
2
  6
CONTINUOUS
 10
127.293401487
 20
192.268401487
 11
127.293401487
 21
214.8439969879
  0
LINE
  5
22A
100
AcDbEntity
  8
0
100
AcDbLine
 62
2
  6
CONTINUOUS
 10
92.643401487
 20
213.8439969879
 11
109.968401487
 21
213.8439969879
  0
LINE
  5
22B
100
AcDbEntity
  8
0
100
AcDbLine
 62
2
  6
CONTINUOUS
 10
127.293401487
 20
213.8439969879
 11
109.968401487
 21
213.8439969879
  0
INSERT
  5
22C
100
AcDbEntity
  8
0
100
AcDbBlockReference
 62
2
  6
CONTINUOUS
  2
_FILLED
 10
92.643401487
 20
213.8439969879
 41
4.76
 42
4.76
 43
4.76
 50
180.0
  0
INSERT
  5
22D
100
AcDbEntity
  8
0
100
AcDbBlockReference
 62
2
  6
CONTINUOUS
  2
_FILLED
 10
127.293401487
 20
213.8439969879
 41
4.76
 42
4.76
 43
4.76
  0
ENDBLK
  5
22E
100
AcDbEntity
  8
0
  6
BYBLOCK
 62
0
100
AcDbBlockEnd
  0
BLOCK
  5
22F
100
AcDbEntity
  8
0
100
AcDbBlockBegin
 62
2
  6
CONTINUOUS
  2
*D2
 70
65
 10
0.0
 20
0.0
  3
*D2
  1

  0
MTEXT
  5
230
100
AcDbEntity
  8
0
100
AcDbMText
 62
5
  6
CONTINUOUS
  7
STANDARD
 71
2
 72
1
 10
58.9202895162
 20
142.968401487
 30
0.0
 11
0.0
 21
1.0
 31
0.0
 44
0.9
  1
58
 40
3.0
 41
6.75
  0
LINE
  5
231
100
AcDbEntity
  8
0
100
AcDbLine
 62
2
  6
CONTINUOUS
 10
93.0980223048
 20
113.968401487
 11
61.6702895162
 21
113.968401487
  0
LINE
  5
232
100
AcDbEntity
  8
0
100
AcDbLine
 62
2
  6
CONTINUOUS
 10
98.1856654275
 20
171.968401487
 11
61.6702895162
 21
171.968401487
  0
LINE
  5
233
100
AcDbEntity
  8
0
100
AcDbLine
 62
2
  6
CONTINUOUS
 10
62.6702895162
 20
113.968401487
 11
62.6702895162
 21
142.968401487
  0
LINE
  5
234
100
AcDbEntity
  8
0
100
AcDbLine
 62
2
  6
CONTINUOUS
 10
62.6702895162
 20
171.968401487
 11
62.6702895162
 21
142.968401487
  0
INSERT
  5
235
100
AcDbEntity
  8
0
100
AcDbBlockReference
 62
2
  6
CONTINUOUS
  2
_FILLED
 10
62.6702895162
 20
113.968401487
 41
4.76
 42
4.76
 43
4.76
 50
270.0
  0
INSERT
  5
236
100
AcDbEntity
  8
0
100
AcDbBlockReference
 62
2
  6
CONTINUOUS
  2
_FILLED
 10
62.6702895162
 20
171.968401487
 41
4.76
 42
4.76
 43
4.76
 50
90.0
  0
ENDBLK
  5
237
100
AcDbEntity
  8
0
  6
BYBLOCK
 62
0
100
AcDbBlockEnd
  0
BLOCK
  5
238
100
AcDbEntity
  8
0
100
AcDbBlockBegin
 62
2
  6
CONTINUOUS
  2
*D3
 70
65
 10
0.0
 20
0.0
  3
*D3
  1

  0
MTEXT
  5
239
100
AcDbEntity
  8
0
100
AcDbMText
 62
5
  6
CONTINUOUS
  7
STANDARD
 71
2
 72
1
 10
159.2038956447
 20
153.468401487
 30
0.0
 11
0.0
 21
1.0
 31
0.0
 44
0.9
  1
79
 40
3.0
 41
7.0714285714
  0
LINE
  5
23A
100
AcDbEntity
  8
0
100
AcDbLine
 62
2
  6
CONTINUOUS
 10
128.8545753365
 20
192.968401487
 11
163.9538956447
 21
192.968401487
  0
LINE
  5
23B
100
AcDbEntity
  8
0
100
AcDbLine
 62
2
  6
CONTINUOUS
 10
124.9344269345
 20
113.968401487
 11
163.9538956447
 21
113.968401487
  0
LINE
  5
23C
100
AcDbEntity
  8
0
100
AcDbLine
 62
2
  6
CONTINUOUS
 10
162.9538956447
 20
192.968401487
 11
162.9538956447
 21
153.468401487
  0
LINE
  5
23D
100
AcDbEntity
  8
0
100
AcDbLine
 62
2
  6
CONTINUOUS
 10
162.9538956447
 20
113.968401487
 11
162.9538956447
 21
153.468401487
  0
INSERT
  5
23E
100
AcDbEntity
  8
0
100
AcDbBlockReference
 62
2
  6
CONTINUOUS
  2
_FILLED
 10
162.9538956447
 20
192.968401487
 41
4.76
 42
4.76
 43
4.76
 50
90.0
  0
INSERT
  5
23F
100
AcDbEntity
  8
0
100
AcDbBlockReference
 62
2
  6
CONTINUOUS
  2
_FILLED
 10
162.9538956447
 20
113.968401487
 41
4.76
 42
4.76
 43
4.76
 50
270.0
  0
ENDBLK
  5
240
100
AcDbEntity
  8
0
  6
BYBLOCK
 62
0
100
AcDbBlockEnd
  0
ENDSEC
  0
SECTION
  2
ENTITIES
  0
DIMENSION
  5
241
100
AcDbEntity
  8
0
100
AcDbDimension
 62
2
  6
CONTINUOUS
  2
*D0
 10
130.968401487
 20
88.9149172903
 11
109.968401487
 21
88.9149172903
 70
160
 71
2
 42
42.0
  1
Ø<>
  3
DIMSTYLE_1
100
AcDbAlignedDimension
 13
88.968401487
 23
130.368401487
 14
130.968401487
 24
130.368401487
100
AcDbRotatedDimension
  0
DIMENSION
  5
242
100
AcDbEntity
  8
0
100
AcDbDimension
 62
2
  6
CONTINUOUS
  2
*D1
 10
127.293401487
 20
213.8439969879
 11
109.968401487
 21
213.8439969879
 70
160
 71
2
 42
34.65
  1
Ø<>
  3
DIMSTYLE_2
100
AcDbAlignedDimension
 13
92.643401487
 23
192.168401487
 14
127.293401487
 24
192.168401487
100
AcDbRotatedDimension
  0
DIMENSION
  5
243
100
AcDbEntity
  8
0
100
AcDbDimension
 62
2
  6
CONTINUOUS
  2
*D2
 10
62.6702895162
 20
171.968401487
 11
62.6702895162
 21
142.5398297443
 70
160
 71
2
 42
58.0
  3
DIMSTYLE_1
100
AcDbAlignedDimension
 13
93.1980223048
 23
113.968401487
 14
98.2856654275
 24
171.968401487
 50
90.0
100
AcDbRotatedDimension
  0
DIMENSION
  5
244
100
AcDbEntity
  8
0
100
AcDbDimension
 62
2
  6
CONTINUOUS
  2
*D3
 10
162.9538956447
 20
113.968401487
 11
162.9538956447
 21
153.0398288054
 70
160
 71
2
 42
79.0
  3
DIMSTYLE_1
100
AcDbAlignedDimension
 13
128.7545753365
 23
192.968401487
 14
124.8344269345
 24
113.968401487
 50
270.0
100
AcDbRotatedDimension
  0
LINE
  5
245
100
AcDbEntity
  8
0
100
AcDbLine
 62
7
  6
CONTINUOUS
 10
0.0
 20
0.0
 11
210.0
 21
0.0
  0
LINE
  5
246
100
AcDbEntity
  8
0
100
AcDbLine
 62
7
  6
CONTINUOUS
 10
0.0
 20
0.0
 11
0.0
 21
297.0
  0
LINE
  5
247
100
AcDbEntity
  8
0
100
AcDbLine
 62
7
  6
CONTINUOUS
 10
210.0
 20
0.0
 11
210.0
 21
297.0
  0
LINE
  5
248
100
AcDbEntity
  8
0
100
AcDbLine
 62
7
  6
CONTINUOUS
 10
0.0
 20
297.0
 11
210.0
 21
297.0
  0
LINE
  5
249
100
AcDbEntity
  8
3_ALL_AXES
100
AcDbLine
 62
7
  6
CONTINUOUS
 10
91.9364627403
 20
115.7188921386
 11
94.8523760846
 21
114.0353887843
  0
LINE
  5
24A
100
AcDbEntity
  8
0
100
AcDbLine
 62
7
  6
CONTINUOUS
 10
124.834426889
 20
113.968401487
 11
95.1025610266
 21
113.968401487
  0
LINE
  5
24B
100
AcDbEntity
  8
0
100
AcDbLine
 62
7
  6
CONTINUOUS
 10
94.8523760839
 20
114.0353887847
 11
125.0844268901
 21
114.0353887847
  0
LINE
  5
24C
100
AcDbEntity
  8
DEFAULT_2
100
AcDbLine
 62
8
  6
HIDDEN
 10
120.168401487
 20
114.268401487
 11
99.768401487
 21
114.268401487
  0
LINE
  5
24D
100
AcDbEntity
  8
3_ALL_AXES
100
AcDbLine
 62
8
  6
HIDDEN
 10
120.168401487
 20
114.7644029674
 11
99.768401487
 21
114.7644029674
  0
LINE
  5
24E
100
AcDbEntity
  8
0
100
AcDbLine
 62
7
  6
CONTINUOUS
 10
89.5702986793
 20
117.2304305079
 11
96.9845832373
 21
117.2304305079
  0
LINE
  5
24F
100
AcDbEntity
  8
0
100
AcDbLine
 62
7
  6
CONTINUOUS
 10
102.554116929
 20
117.2304305079
 11
117.382686045
 21
117.2304305079
  0
LINE
  5
250
100
AcDbEntity
  8
0
100
AcDbLine
 62
7
  6
CONTINUOUS
 10
122.9522197367
 20
117.2304305079
 11
130.3665042947
 21
117.2304305079
  0
LINE
  5
251
100
AcDbEntity
  8
0
100
AcDbLine
 62
7
  6
CONTINUOUS
 10
89.3196443891
 20
117.6634432098
 11
97.1447446075
 21
117.6634432098
  0
LINE
  5
252
100
AcDbEntity
  8
0
100
AcDbLine
 62
7
  6
CONTINUOUS
 10
102.3408970302
 20
117.6634432098
 11
117.5959059437
 21
117.6634432098
  0
LINE
  5
253
100
AcDbEntity
  8
0
100
AcDbLine
 62
7
  6
CONTINUOUS
 10
122.7920583665
 20
117.6634432098
 11
130.6171585849
 21
117.6634432098
  0
LINE
  5
254
100
AcDbEntity
  8
3_ALL_AXES
100
AcDbLine
 62
8
  6
HIDDEN
 10
96.718401487
 20
118.968401487
 11
123.218401487
 21
118.968401487
  0
LINE
  5
255
100
AcDbEntity
  8
DEFAULT_2
100
AcDbLine
 62
8
  6
HIDDEN
 10
89.2683880418
 20
126.9684014868
 11
89.068401487
 21
127.1683864138
  0
LINE
  5
256
100
AcDbEntity
  8
DEFAULT_2
100
AcDbLine
 62
8
  6
HIDDEN
 10
96.7185570928
 20
120.168401487
 11
123.2182458812
 21
120.168401487
  0
LINE
  5
257
100
AcDbEntity
  8
DEFAULT_2
100
AcDbLine
 62
8
  6
HIDDEN
 10
94.1185872247
 20
121.368401487
 11
125.8182157492
 21
121.368401487
  0
LINE
  5
258
100
AcDbEntity
  8
DEFAULT_2
100
AcDbLine
 62
8
  6
HIDDEN
 10
126.218401487
 20
121.768401487
 11
93.718401487
 21
121.768401487
  0
LINE
  5
259
100
AcDbEntity
  8
DEFAULT_2
100
AcDbLine
 62
8
  6
HIDDEN
 10
94.068401487
 20
126.468401487
 11
94.568401487
 21
125.968401487
  0
LINE
  5
25A
100
AcDbEntity
  8
DEFAULT_2
100
AcDbLine
 62
8
  6
HIDDEN
 10
107.418401487
 20
185.2406446734
 11
109.968401487
 21
186.7128878599
  0
LINE
  5
25B
100
AcDbEntity
  8
DEFAULT_2
100
AcDbLine
 62
8
  6
HIDDEN
 10
130.6171585849
 20
123.968401487
 11
127.968401487
 21
123.968401487
  0
LINE
  5
25C
100
AcDbEntity
  8
0
100
AcDbLine
 62
7
  6
CONTINUOUS
 10
123.0908369927
 20
123.968401487
 11
121.5664776983
 21
123.968401487
  0
LINE
  5
25D
100
AcDbEntity
  8
DEFAULT_2
100
AcDbLine
 62
8
  6
HIDDEN
 10
117.4947230792
 20
123.968401487
 11
116.3703252756
 21
123.968401487
  0
LINE
  5
25E
100
AcDbEntity
  8
0
100
AcDbLine
 62
7
  6
CONTINUOUS
 10
102.4420798948
 20
123.968401487
 11
102.3408970302
 21
123.968401487
  0
LINE
  5
25F
100
AcDbEntity
  8
DEFAULT_2
100
AcDbLine
 62
8
  6
HIDDEN
 10
89.3196443891
 20
123.968401487
 11
91.968401487
 21
123.968401487
  0
LINE
  5
260
100
AcDbEntity
  8
0
100
AcDbLine
 62
7
  6
CONTINUOUS
 10
96.8459659813
 20
123.968401487
 11
98.3703252756
 21
123.968401487
  0
LINE
  5
261
100
AcDbEntity
  8
DEFAULT_2
100
AcDbLine
 62
8
  6
HIDDEN
 10
102.4420798948
 20
123.968401487
 11
103.5664776983
 21
123.968401487
  0
LINE
  5
262
100
AcDbEntity
  8
0
100
AcDbLine
 62
7
  6
CONTINUOUS
 10
117.4947230792
 20
123.968401487
 11
117.5959059437
 21
123.968401487
  0
LINE
  5
263
100
AcDbEntity
  8
3_ALL_AXES
100
AcDbLine
 62
8
  6
HIDDEN
 10
126.218401487
 20
124.368401487
 11
93.718401487
 21
124.368401487
  0
LINE
  5
264
100
AcDbEntity
  8
DEFAULT_2
100
AcDbLine
 62
8
  6
HIDDEN
 10
125.968401487
 20
124.618401487
 11
93.968401487
 21
124.618401487
  0
LINE
  5
265
100
AcDbEntity
  8
3_ALL_AXES
100
AcDbLine
 62
8
  6
HIDDEN
 10
125.218401487
 20
125.368401487
 11
94.718401487
 21
125.368401487
  0
LINE
  5
266
100
AcDbEntity
  8
DEFAULT_2
100
AcDbLine
 62
8
  6
HIDDEN
 10
94.568401487
 20
125.968401487
 11
125.368401487
 21
125.968401487
  0
LINE
  5
267
100
AcDbEntity
  8
DEFAULT_2
100
AcDbLine
 62
8
  6
HIDDEN
 10
102.4115035509
 20
117.4100231409
 11
102.4168163739
 21
117.4036355887
  0
LINE
  5
268
100
AcDbEntity
  8
0
100
AcDbLine
 62
7
  6
CONTINUOUS
 10
102.4114915802
 20
117.4099849927
 11
102.5159443882
 21
117.2785441892
  0
LINE
  5
269
100
AcDbEntity
  8
DEFAULT_2
100
AcDbLine
 62
8
  6
HIDDEN
 10
102.5541172299
 20
117.2304317447
 11
102.5159647689
 21
117.2785611584
  0
LINE
  5
26A
100
AcDbEntity
  8
3_ALL_AXES
100
AcDbLine
 62
8
  6
HIDDEN
 10
99.768401487
 20
114.7644029674
 11
97.34122181
 21
118.968401487
  0
LINE
  5
26B
100
AcDbEntity
  8
3_ALL_AXES
100
AcDbLine
 62
8
  6
HIDDEN
 10
99.818401487
 20
177.818401487
 11
99.968401487
 21
177.968401487
  0
LINE
  5
26C
100
AcDbEntity
  8
DEFAULT_2
100
AcDbLine
 62
8
  6
HIDDEN
 10
125.868401487
 20
126.468401487
 11
94.068401487
 21
126.468401487
  0
LINE
  5
26D
100
AcDbEntity
  8
DEFAULT_2
100
AcDbLine
 62
8
  6
HIDDEN
 10
122.3976177969
 20
126.4720536122
 11
97.5391851771
 21
126.4720536122
  0
LINE
  5
26E
100
AcDbEntity
  8
DEFAULT_2
100
AcDbLine
 62
8
  6
HIDDEN
 10
130.6656763947
 20
126.968401487
 11
127.968401487
 21
126.968401487
  0
LINE
  5
26F
100
AcDbEntity
  8
DEFAULT_2
100
AcDbLine
 62
8
  6
HIDDEN
 10
120.3170389106
 20
126.968401487
 11
118.968401487
 21
126.968401487
  0
LINE
  5
270
100
AcDbEntity
  8
DEFAULT_2
100
AcDbLine
 62
8
  6
HIDDEN
 10
89.2711265735
 20
126.968401487
 11
91.968401487
 21
126.968401487
  0
LINE
  5
271
100
AcDbEntity
  8
DEFAULT_2
100
AcDbLine
 62
8
  6
HIDDEN
 10
99.6197649753
 20
126.968401487
 11
100.968401487
 21
126.968401487
  0
LINE
  5
272
100
AcDbEntity
  8
DEFAULT_2
100
AcDbLine
 62
8
  6
HIDDEN
 10
94.718401487
 20
132.968401487
 11
93.218401487
 21
134.468401487
  0
LINE
  5
273
100
AcDbEntity
  8
DEFAULT_2
100
AcDbLine
 62
8
  6
HIDDEN
 10
112.518401487
 20
182.2961583006
 11
109.968401487
 21
180.8239151141
  0
LINE
  5
274
100
AcDbEntity
  8
0
100
AcDbLine
 62
7
  6
CONTINUOUS
 10
88.968401487
 20
130.368401487
 11
130.968401487
 21
130.368401487
  0
LINE
  5
275
100
AcDbEntity
  8
DEFAULT_2
100
AcDbLine
 62
8
  6
HIDDEN
 10
129.7441374183
 20
131.4926655557
 11
90.1926655557
 21
131.4926655557
  0
LINE
  5
276
100
AcDbEntity
  8
DEFAULT_2
100
AcDbLine
 62
8
  6
HIDDEN
 10
129.7941374183
 20
131.5426655557
 11
90.1426655557
 21
131.5426655557
  0
LINE
  5
277
100
AcDbEntity
  8
0
100
AcDbLine
 62
7
  6
CONTINUOUS
 10
122.9522206817
 20
117.2304317772
 11
122.7161394219
 21
117.4036362132
  0
LINE
  5
278
100
AcDbEntity
  8
DEFAULT_2
100
AcDbLine
 62
8
  6
HIDDEN
 10
93.818401487
 20
135.468401487
 11
93.918401487
 21
135.368401487
  0
LINE
  5
279
100
AcDbEntity
  8
0
100
AcDbLine
 62
7
  6
CONTINUOUS
 10
88.968401487
 20
135.368401487
 11
88.968401487
 21
130.368401487
  0
LINE
  5
27A
100
AcDbEntity
  8
3_ALL_AXES
100
AcDbLine
 62
7
  6
CONTINUOUS
 10
89.068401487
 20
130.368401487
 11
89.068401487
 21
127.1682377717
  0
LINE
  5
27B
100
AcDbEntity
  8
3_ALL_AXES
100
AcDbLine
 62
8
  6
HIDDEN
 10
89.068401487
 20
127.1682377717
 11
89.068401487
 21
127.1507090745
  0
LINE
  5
27C
100
AcDbEntity
  8
0
100
AcDbLine
 62
7
  6
CONTINUOUS
 10
89.3196443891
 20
123.968401487
 11
89.3196443891
 21
117.6634432098
  0
LINE
  5
27D
100
AcDbEntity
  8
DEFAULT_2
100
AcDbLine
 62
8
  6
HIDDEN
 10
89.5172401508
 20
123.968401487
 11
89.5172401508
 21
117.6634432098
  0
LINE
  5
27E
100
AcDbEntity
  8
DEFAULT_2
100
AcDbLine
 62
8
  6
HIDDEN
 10
90.118401487
 20
134.468401487
 11
90.118401487
 21
132.4042693417
  0
LINE
  5
27F
100
AcDbEntity
  8
DEFAULT_2
100
AcDbLine
 62
8
  6
HIDDEN
 10
129.818401487
 20
132.4042693417
 11
90.118401487
 21
132.4042693417
  0
LINE
  5
280
100
AcDbEntity
  8
DEFAULT_2
100
AcDbLine
 62
8
  6
HIDDEN
 10
129.818401487
 20
132.4141432199
 11
90.118401487
 21
132.4141432199
  0
LINE
  5
281
100
AcDbEntity
  8
DEFAULT_2
100
AcDbLine
 62
8
  6
HIDDEN
 10
125.218401487
 20
132.968401487
 11
94.718401487
 21
132.968401487
  0
LINE
  5
282
100
AcDbEntity
  8
DEFAULT_2
100
AcDbLine
 62
8
  6
HIDDEN
 10
129.818401487
 20
133.2747523197
 11
90.118401487
 21
133.2747523197
  0
LINE
  5
283
100
AcDbEntity
  8
DEFAULT_2
100
AcDbLine
 62
8
  6
HIDDEN
 10
129.818401487
 20
133.6620506543
 11
90.118401487
 21
133.6620506543
  0
LINE
  5
284
100
AcDbEntity
  8
DEFAULT_2
100
AcDbLine
 62
8
  6
HIDDEN
 10
129.818401487
 20
134.168401487
 11
90.118401487
 21
134.168401487
  0
LINE
  5
285
100
AcDbEntity
  8
GIANNI_ASSI
100
AcDbLine
 62
8
  6
HIDDEN
 10
113.8095550624
 20
134.368401487
 11
106.1272479116
 21
134.368401487
  0
LINE
  5
286
100
AcDbEntity
  8
GIANNI_CURVE
100
AcDbLine
 62
2
  6
PHANTOM
 10
88.968401487
 20
134.468401487
 11
86.2648845861
 21
134.468401487
  0
LINE
  5
287
100
AcDbEntity
  8
DEFAULT_2
100
AcDbLine
 62
8
  6
HIDDEN
 10
90.118401487
 20
134.468401487
 11
129.818401487
 21
134.468401487
  0
LINE
  5
288
100
AcDbEntity
  8
GIANNI_ASSI
100
AcDbLine
 62
8
  6
HIDDEN
 10
93.2185112833
 20
134.468401487
 11
126.7182916907
 21
134.468401487
  0
LINE
  5
289
100
AcDbEntity
  8
GIANNI_CURVE
100
AcDbLine
 62
8
  6
PHANTOM
 10
88.968401487
 20
134.468401487
 11
133.6719183879
 21
134.468401487
  0
LINE
  5
28A
100
AcDbEntity
  8
DEFAULT_2
100
AcDbLine
 62
8
  6
HIDDEN
 10
126.018401487
 20
134.568401487
 11
93.918401487
 21
134.568401487
  0
LINE
  5
28B
100
AcDbEntity
  8
0
100
AcDbLine
 62
7
  6
CONTINUOUS
 10
88.968401487
 20
135.368401487
 11
130.968401487
 21
135.368401487
  0
LINE
  5
28C
100
AcDbEntity
  8
0
100
AcDbLine
 62
7
  6
CONTINUOUS
 10
91.968401487
 20
115.8651819629
 11
91.968401487
 21
115.7006059121
  0
LINE
  5
28D
100
AcDbEntity
  8
DEFAULT_2
100
AcDbLine
 62
8
  6
HIDDEN
 10
91.968401487
 20
115.8651819629
 11
91.968401487
 21
126.9681628461
  0
LINE
  5
28E
100
AcDbEntity
  8
3_ALL_AXES
100
AcDbLine
 62
7
  6
CONTINUOUS
 10
92.643401487
 20
192.168401487
 11
92.643401487
 21
146.468401487
  0
LINE
  5
28F
100
AcDbEntity
  8
3_ALL_AXES
100
AcDbLine
 62
8
  6
HIDDEN
 10
93.718401487
 20
121.768401487
 11
93.718401487
 21
124.368401487
  0
LINE
  5
290
100
AcDbEntity
  8
DEFAULT_2
100
AcDbLine
 62
8
  6
HIDDEN
 10
93.918401487
 20
135.368401487
 11
93.918401487
 21
134.568401487
  0
LINE
  5
291
100
AcDbEntity
  8
DEFAULT_2
100
AcDbLine
 62
8
  6
HIDDEN
 10
93.968401487
 20
134.468401487
 11
93.968401487
 21
124.618401487
  0
LINE
  5
292
100
AcDbEntity
  8
3_ALL_AXES
100
AcDbLine
 62
7
  6
CONTINUOUS
 10
94.068401487
 20
137.968401487
 11
94.068401487
 21
135.468401487
  0
LINE
  5
293
100
AcDbEntity
  8
3_ALL_AXES
100
AcDbLine
 62
8
  6
HIDDEN
 10
94.068401487
 20
135.468401487
 11
94.068401487
 21
126.468401487
  0
LINE
  5
294
100
AcDbEntity
  8
3_ALL_AXES
100
AcDbLine
 62
8
  6
HIDDEN
 10
94.718401487
 20
125.368401487
 11
94.718401487
 21
132.968401487
  0
LINE
  5
295
100
AcDbEntity
  8
DEFAULT_2
100
AcDbLine
 62
8
  6
HIDDEN
 10
94.718401487
 20
125.968401487
 11
94.718401487
 21
135.468401487
  0
LINE
  5
296
100
AcDbEntity
  8
0
100
AcDbLine
 62
2
  6
CONTINUOUS
 10
94.718401487
 20
135.468401487
 11
94.718401487
 21
139.0942345119
  0
LINE
  5
297
100
AcDbEntity
  8
0
100
AcDbLine
 62
7
  6
CONTINUOUS
 10
89.068401487
 20
135.468401487
 11
130.868401487
 21
135.468401487
  0
LINE
  5
298
100
AcDbEntity
  8
3_ALL_AXES
100
AcDbLine
 62
7
  6
CONTINUOUS
 10
94.068401487
 20
137.968401487
 11
125.868401487
 21
137.968401487
  0
LINE
  5
299
100
AcDbEntity
  8
0
100
AcDbLine
 62
7
  6
CONTINUOUS
 10
92.643401487
 20
146.468401487
 11
94.143401487
 21
144.968401487
  0
LINE
  5
29A
100
AcDbEntity
  8
3_ALL_AXES
100
AcDbLine
 62
7
  6
CONTINUOUS
 10
95.068401487
 20
144.968401487
 11
95.068401487
 21
139.7004522946
  0
LINE
  5
29B
100
AcDbEntity
  8
3_ALL_AXES
100
AcDbLine
 62
8
  6
HIDDEN
 10
96.718401487
 20
118.968401487
 11
96.718401487
 21
120.168401487
  0
LINE
  5
29C
100
AcDbEntity
  8
0
100
AcDbLine
 62
7
  6
CONTINUOUS
 10
96.8459659813
 20
117.6634432098
 11
96.8459659813
 21
123.968401487
  0
LINE
  5
29D
100
AcDbEntity
  8
DEFAULT_2
100
AcDbLine
 62
8
  6
HIDDEN
 10
96.968401487
 20
120.168401487
 11
96.968401487
 21
121.368401487
  0
LINE
  5
29E
100
AcDbEntity
  8
0
100
AcDbLine
 62
7
  6
CONTINUOUS
 10
97.1447446075
 20
117.6634432098
 11
97.1447446075
 21
123.968401487
  0
LINE
  5
29F
100
AcDbEntity
  8
DEFAULT_2
100
AcDbLine
 62
8
  6
HIDDEN
 10
97.3545570454
 20
121.368401487
 11
97.3545570454
 21
120.168401487
  0
LINE
  5
2A0
100
AcDbEntity
  8
0
100
AcDbLine
 62
7
  6
CONTINUOUS
 10
94.718401487
 20
139.0942345119
 11
125.218401487
 21
139.0942345119
  0
LINE
  5
2A1
100
AcDbEntity
  8
3_ALL_AXES
100
AcDbLine
 62
7
  6
CONTINUOUS
 10
95.068401487
 20
139.7004522946
 11
124.868401487
 21
139.7004522946
  0
LINE
  5
2A2
100
AcDbEntity
  8
0
100
AcDbLine
 62
7
  6
CONTINUOUS
 10
98.3703252756
 20
116.0943390144
 11
98.3703252756
 21
123.968401487
  0
LINE
  5
2A3
100
AcDbEntity
  8
3_ALL_AXES
100
AcDbLine
 62
8
  6
HIDDEN
 10
99.768401487
 20
114.268401487
 11
99.768401487
 21
114.7644029674
  0
LINE
  5
2A4
100
AcDbEntity
  8
3_ALL_AXES
100
AcDbLine
 62
8
  6
HIDDEN
 10
99.818401487
 20
171.968401487
 11
99.818401487
 21
177.818401487
  0
LINE
  5
2A5
100
AcDbEntity
  8
3_ALL_AXES
100
AcDbLine
 62
8
  6
HIDDEN
 10
99.968401487
 20
177.968401487
 11
99.968401487
 21
192.468401487
  0
LINE
  5
2A6
100
AcDbEntity
  8
DEFAULT_2
100
AcDbLine
 62
8
  6
HIDDEN
 10
100.761115557
 20
120.168401487
 11
100.761115557
 21
121.368401487
  0
LINE
  5
2A7
100
AcDbEntity
  8
DEFAULT_2
100
AcDbLine
 62
8
  6
HIDDEN
 10
100.968401487
 20
171.968401487
 11
100.968401487
 21
150.8721955153
  0
LINE
  5
2A8
100
AcDbEntity
  8
3_ALL_AXES
100
AcDbLine
 62
8
  6
HIDDEN
 10
126.218401487
 20
124.368401487
 11
125.218401487
 21
125.368401487
  0
LINE
  5
2A9
100
AcDbEntity
  8
0
100
AcDbLine
 62
7
  6
CONTINUOUS
 10
102.3408970302
 20
123.968401487
 11
102.3408970302
 21
117.6634432098
  0
LINE
  5
2AA
100
AcDbEntity
  8
0
100
AcDbLine
 62
7
  6
CONTINUOUS
 10
102.4420798948
 20
123.968401487
 11
102.4420798948
 21
117.6634432098
  0
LINE
  5
2AB
100
AcDbEntity
  8
DEFAULT_2
100
AcDbLine
 62
8
  6
HIDDEN
 10
103.5664776983
 20
123.968401487
 11
103.5664776983
 21
116.0943390144
  0
LINE
  5
2AC
100
AcDbEntity
  8
DEFAULT_2
100
AcDbLine
 62
8
  6
HIDDEN
 10
103.6619937212
 20
120.168401487
 11
103.6619937212
 21
121.368401487
  0
LINE
  5
2AD
100
AcDbEntity
  8
DEFAULT_2
100
AcDbLine
 62
8
  6
HIDDEN
 10
100.968401487
 20
150.8721955153
 11
97.5391851771
 21
126.4720536122
  0
LINE
  5
2AE
100
AcDbEntity
  8
3_ALL_AXES
100
AcDbLine
 62
7
  6
CONTINUOUS
 10
95.068401487
 20
139.7004522946
 11
94.068401487
 21
137.968401487
  0
LINE
  5
2AF
100
AcDbEntity
  8
3_ALL_AXES
100
AcDbLine
 62
7
  6
CONTINUOUS
 10
108.411450758
 20
159.9562469105
 11
107.468401487
 21
159.41177716
  0
LINE
  5
2B0
100
AcDbEntity
  8
3_ALL_AXES
100
AcDbLine
 62
7
  6
CONTINUOUS
 10
109.0253522159
 20
160.3106830824
 11
109.968401487
 21
160.8551528329
  0
LINE
  5
2B1
100
AcDbEntity
  8
0
100
AcDbLine
 62
7
  6
CONTINUOUS
 10
94.143678086
 20
144.968401487
 11
125.793124888
 21
144.968401487
  0
LINE
  5
2B2
100
AcDbEntity
  8
3_ALL_AXES
100
AcDbLine
 62
8
  6
HIDDEN
 10
95.0686619183
 20
144.968401487
 11
124.8681410557
 21
144.968401487
  0
LINE
  5
2B3
100
AcDbEntity
  8
0
100
AcDbLine
 62
7
  6
CONTINUOUS
 10
92.643401487
 20
146.468401487
 11
127.293401487
 21
146.468401487
  0
LINE
  5
2B4
100
AcDbEntity
  8
DEFAULT_2
100
AcDbLine
 62
8
  6
HIDDEN
 10
105.5221396238
 20
121.368401487
 11
105.5221396238
 21
120.168401487
  0
LINE
  5
2B5
100
AcDbEntity
  8
DEFAULT_2
100
AcDbLine
 62
8
  6
HIDDEN
 10
107.2925335375
 20
121.368401487
 11
107.2925335375
 21
120.168401487
  0
LINE
  5
2B6
100
AcDbEntity
  8
DEFAULT_2
100
AcDbLine
 62
8
  6
HIDDEN
 10
122.3976177969
 20
126.4720536122
 11
122.688401487
 21
125.968401487
  0
LINE
  5
2B7
100
AcDbEntity
  8
DEFAULT_2
100
AcDbLine
 62
8
  6
HIDDEN
 10
107.418401487
 20
182.2961583006
 11
107.418401487
 21
185.2406446734
  0
LINE
  5
2B8
100
AcDbEntity
  8
3_ALL_AXES
100
AcDbLine
 62
7
  6
CONTINUOUS
 10
107.468401487
 20
157.613965315
 11
107.468401487
 21
156.525025814
  0
LINE
  5
2B9
100
AcDbEntity
  8
3_ALL_AXES
100
AcDbLine
 62
7
  6
CONTINUOUS
 10
107.468401487
 20
158.322837659
 11
107.468401487
 21
159.41177716
  0
LINE
  5
2BA
100
AcDbEntity
  8
DEFAULT_2
100
AcDbLine
 62
8
  6
HIDDEN
 10
107.6415159063
 20
121.368401487
 11
107.6415159063
 21
120.168401487
  0
LINE
  5
2BB
100
AcDbEntity
  8
3_ALL_AXES
100
AcDbLine
 62
7
  6
CENTER
 10
109.968401487
 20
198.968401487
 11
109.968401487
 21
107.968401487
  0
LINE
  5
2BC
100
AcDbEntity
  8
GIANNI_CURVE
100
AcDbLine
 62
8
  6
DOT
 10
109.968401487
 20
142.1512455961
 11
109.968401487
 21
116.1500436134
  0
LINE
  5
2BD
100
AcDbEntity
  8
DEFAULT_2
100
AcDbLine
 62
8
  6
HIDDEN
 10
89.5702873176
 20
117.2304128876
 11
89.6690723788
 21
117.4036242856
  0
LINE
  5
2BE
100
AcDbEntity
  8
0
100
AcDbLine
 62
7
  6
CONTINUOUS
 10
89.068401487
 20
135.468401487
 11
88.968401487
 21
135.368401487
  0
LINE
  5
2BF
100
AcDbEntity
  8
DEFAULT_2
100
AcDbLine
 62
8
  6
HIDDEN
 10
90.418401487
 20
134.468401487
 11
90.118401487
 21
134.168401487
  0
LINE
  5
2C0
100
AcDbEntity
  8
3_ALL_AXES
100
AcDbLine
 62
7
  6
CONTINUOUS
 10
109.968401487
 20
155.081650141
 11
110.911450758
 21
155.6261198915
  0
LINE
  5
2C1
100
AcDbEntity
  8
3_ALL_AXES
100
AcDbLine
 62
7
  6
CONTINUOUS
 10
111.5253522159
 20
155.9805560635
 11
112.468401487
 21
156.525025814
  0
LINE
  5
2C2
100
AcDbEntity
  8
DEFAULT_2
100
AcDbLine
 62
8
  6
HIDDEN
 10
118.968401487
 20
150.8721955153
 11
100.968401487
 21
150.8721955153
  0
LINE
  5
2C3
100
AcDbEntity
  8
DEFAULT_2
100
AcDbLine
 62
8
  6
HIDDEN
 10
107.1552545604
 20
153.8347246388
 11
107.1469617262
 21
153.8403880499
  0
LINE
  5
2C4
100
AcDbEntity
  8
DEFAULT_2
100
AcDbLine
 62
8
  6
HIDDEN
 10
126.018401487
 20
134.568401487
 11
126.118401487
 21
134.468401487
  0
LINE
  5
2C5
100
AcDbEntity
  8
DEFAULT_2
100
AcDbLine
 62
8
  6
HIDDEN
 10
129.7441374183
 20
131.4926655557
 11
130.868401487
 21
130.368401487
  0
LINE
  5
2C6
100
AcDbEntity
  8
DEFAULT_2
100
AcDbLine
 62
8
  6
HIDDEN
 10
129.7941374183
 20
131.5426655557
 11
130.968401487
 21
130.368401487
  0
LINE
  5
2C7
100
AcDbEntity
  8
DEFAULT_2
100
AcDbLine
 62
8
  6
HIDDEN
 10
129.518401487
 20
134.468401487
 11
129.818401487
 21
134.168401487
  0
LINE
  5
2C8
100
AcDbEntity
  8
DEFAULT_2
100
AcDbLine
 62
8
  6
HIDDEN
 10
106.0629928478
 20
154.8458606931
 11
106.0557216594
 21
154.8549651173
  0
LINE
  5
2C9
100
AcDbEntity
  8
DEFAULT_2
100
AcDbLine
 62
8
  6
HIDDEN
 10
130.3665049687
 20
117.2304316563
 11
130.2677238542
 21
117.4036361058
  0
LINE
  5
2CA
100
AcDbEntity
  8
DEFAULT_2
100
AcDbLine
 62
8
  6
HIDDEN
 10
112.2952870677
 20
121.368401487
 11
112.2952870677
 21
120.168401487
  0
LINE
  5
2CB
100
AcDbEntity
  8
3_ALL_AXES
100
AcDbLine
 62
7
  6
CONTINUOUS
 10
112.468401487
 20
156.525025814
 11
112.468401487
 21
157.613965315
  0
LINE
  5
2CC
100
AcDbEntity
  8
3_ALL_AXES
100
AcDbLine
 62
7
  6
CONTINUOUS
 10
112.468401487
 20
158.322837659
 11
112.468401487
 21
159.41177716
  0
LINE
  5
2CD
100
AcDbEntity
  8
DEFAULT_2
100
AcDbLine
 62
8
  6
HIDDEN
 10
112.518401487
 20
185.2406446734
 11
112.518401487
 21
182.2961583006
  0
LINE
  5
2CE
100
AcDbEntity
  8
DEFAULT_2
100
AcDbLine
 62
8
  6
HIDDEN
 10
112.6442694365
 20
121.368401487
 11
112.6442694365
 21
120.168401487
  0
LINE
  5
2CF
100
AcDbEntity
  8
DEFAULT_2
100
AcDbLine
 62
8
  6
HIDDEN
 10
97.5391851771
 20
126.4720536122
 11
97.248401487
 21
125.968401487
  0
LINE
  5
2D0
100
AcDbEntity
  8
DEFAULT_2
100
AcDbLine
 62
8
  6
HIDDEN
 10
90.1426655557
 20
131.5426655557
 11
88.968401487
 21
130.368401487
  0
LINE
  5
2D1
100
AcDbEntity
  8
DEFAULT_2
100
AcDbLine
 62
8
  6
HIDDEN
 10
90.1926655557
 20
131.4926655557
 11
89.068401487
 21
130.368401487
  0
LINE
  5
2D2
100
AcDbEntity
  8
DEFAULT_2
100
AcDbLine
 62
8
  6
HIDDEN
 10
93.918401487
 20
134.568401487
 11
93.818401487
 21
134.468401487
  0
LINE
  5
2D3
100
AcDbEntity
  8
3_ALL_AXES
100
AcDbLine
 62
7
  6
CONTINUOUS
 10
107.468401487
 20
156.525025814
 11
108.411450758
 21
155.9805560635
  0
LINE
  5
2D4
100
AcDbEntity
  8
3_ALL_AXES
100
AcDbLine
 62
7
  6
CONTINUOUS
 10
109.0253522159
 20
155.6261198915
 11
109.968401487
 21
155.081650141
  0
LINE
  5
2D5
100
AcDbEntity
  8
0
100
AcDbLine
 62
7
  6
CONTINUOUS
 10
130.868401487
 20
135.468401487
 11
130.968401487
 21
135.368401487
  0
LINE
  5
2D6
100
AcDbEntity
  8
DEFAULT_2
100
AcDbLine
 62
8
  6
HIDDEN
 10
114.4146633502
 20
121.368401487
 11
114.4146633502
 21
120.168401487
  0
LINE
  5
2D7
100
AcDbEntity
  8
DEFAULT_2
100
AcDbLine
 62
8
  6
HIDDEN
 10
116.2748092528
 20
120.168401487
 11
116.2748092528
 21
121.368401487
  0
LINE
  5
2D8
100
AcDbEntity
  8
DEFAULT_2
100
AcDbLine
 62
8
  6
HIDDEN
 10
116.3703252756
 20
123.968401487
 11
116.3703252756
 21
116.0943390144
  0
LINE
  5
2D9
100
AcDbEntity
  8
DEFAULT_2
100
AcDbLine
 62
8
  6
HIDDEN
 10
114.5505964472
 20
157.968401487
 11
114.068401487
 21
157.968401487
  0
LINE
  5
2DA
100
AcDbEntity
  8
DEFAULT_2
100
AcDbLine
 62
8
  6
HIDDEN
 10
105.3862065267
 20
157.968401487
 11
105.868401487
 21
157.968401487
  0
LINE
  5
2DB
100
AcDbEntity
  8
3_ALL_AXES
100
AcDbLine
 62
7
  6
CONTINUOUS
 10
110.911450758
 20
160.3106830824
 11
109.968401487
 21
160.8551528329
  0
LINE
  5
2DC
100
AcDbEntity
  8
3_ALL_AXES
100
AcDbLine
 62
7
  6
CONTINUOUS
 10
111.5253522159
 20
159.9562469105
 11
112.468401487
 21
159.41177716
  0
LINE
  5
2DD
100
AcDbEntity
  8
3_ALL_AXES
100
AcDbLine
 62
7
  6
CONTINUOUS
 10
124.868401487
 20
139.7004522946
 11
125.868401487
 21
137.968401487
  0
LINE
  5
2DE
100
AcDbEntity
  8
0
100
AcDbLine
 62
7
  6
CONTINUOUS
 10
117.4947230792
 20
117.6634432098
 11
117.4947230792
 21
123.968401487
  0
LINE
  5
2DF
100
AcDbEntity
  8
0
100
AcDbLine
 62
7
  6
CONTINUOUS
 10
117.5959059437
 20
117.6634432098
 11
117.5959059437
 21
123.968401487
  0
LINE
  5
2E0
100
AcDbEntity
  8
DEFAULT_2
100
AcDbLine
 62
8
  6
HIDDEN
 10
118.968401487
 20
171.968401487
 11
118.968401487
 21
150.8721955153
  0
LINE
  5
2E1
100
AcDbEntity
  8
DEFAULT_2
100
AcDbLine
 62
8
  6
HIDDEN
 10
119.175687417
 20
120.168401487
 11
119.175687417
 21
121.368401487
  0
LINE
  5
2E2
100
AcDbEntity
  8
3_ALL_AXES
100
AcDbLine
 62
8
  6
HIDDEN
 10
93.718401487
 20
124.368401487
 11
94.718401487
 21
125.368401487
  0
LINE
  5
2E3
100
AcDbEntity
  8
DEFAULT_2
100
AcDbLine
 62
8
  6
HIDDEN
 10
118.968401487
 20
150.8721955153
 11
122.3976177969
 21
126.4720536122
  0
LINE
  5
2E4
100
AcDbEntity
  8
3_ALL_AXES
100
AcDbLine
 62
8
  6
HIDDEN
 10
119.968401487
 20
177.968401487
 11
119.968401487
 21
192.468401487
  0
LINE
  5
2E5
100
AcDbEntity
  8
3_ALL_AXES
100
AcDbLine
 62
8
  6
HIDDEN
 10
120.118401487
 20
171.968401487
 11
120.118401487
 21
177.818401487
  0
LINE
  5
2E6
100
AcDbEntity
  8
3_ALL_AXES
100
AcDbLine
 62
8
  6
HIDDEN
 10
120.168401487
 20
114.268401487
 11
120.168401487
 21
114.7644029674
  0
LINE
  5
2E7
100
AcDbEntity
  8
0
100
AcDbLine
 62
7
  6
CONTINUOUS
 10
121.5664776983
 20
123.968401487
 11
121.5664776983
 21
116.0943390144
  0
LINE
  5
2E8
100
AcDbEntity
  8
DEFAULT_2
100
AcDbLine
 62
8
  6
HIDDEN
 10
122.5822459286
 20
121.368401487
 11
122.5822459286
 21
120.168401487
  0
LINE
  5
2E9
100
AcDbEntity
  8
0
100
AcDbLine
 62
7
  6
CONTINUOUS
 10
122.7920583665
 20
123.968401487
 11
122.7920583665
 21
117.6634432098
  0
LINE
  5
2EA
100
AcDbEntity
  8
DEFAULT_2
100
AcDbLine
 62
8
  6
HIDDEN
 10
122.968401487
 20
120.168401487
 11
122.968401487
 21
121.368401487
  0
LINE
  5
2EB
100
AcDbEntity
  8
0
100
AcDbLine
 62
7
  6
CONTINUOUS
 10
123.0908369927
 20
123.968401487
 11
123.0908369927
 21
117.6634432098
  0
LINE
  5
2EC
100
AcDbEntity
  8
3_ALL_AXES
100
AcDbLine
 62
8
  6
HIDDEN
 10
123.218401487
 20
118.968401487
 11
123.218401487
 21
120.168401487
  0
LINE
  5
2ED
100
AcDbEntity
  8
3_ALL_AXES
100
AcDbLine
 62
7
  6
CONTINUOUS
 10
124.868401487
 20
144.968401487
 11
124.868401487
 21
139.7004522946
  0
LINE
  5
2EE
100
AcDbEntity
  8
3_ALL_AXES
100
AcDbLine
 62
8
  6
HIDDEN
 10
125.218401487
 20
125.368401487
 11
125.218401487
 21
132.968401487
  0
LINE
  5
2EF
100
AcDbEntity
  8
DEFAULT_2
100
AcDbLine
 62
8
  6
HIDDEN
 10
125.218401487
 20
125.968401487
 11
125.218401487
 21
135.468401487
  0
LINE
  5
2F0
100
AcDbEntity
  8
0
100
AcDbLine
 62
2
  6
CONTINUOUS
 10
125.218401487
 20
135.468401487
 11
125.218401487
 21
139.0942345119
  0
LINE
  5
2F1
100
AcDbEntity
  8
3_ALL_AXES
100
AcDbLine
 62
7
  6
CONTINUOUS
 10
125.868401487
 20
137.968401487
 11
125.868401487
 21
135.468401487
  0
LINE
  5
2F2
100
AcDbEntity
  8
3_ALL_AXES
100
AcDbLine
 62
8
  6
HIDDEN
 10
125.868401487
 20
135.468401487
 11
125.868401487
 21
126.468401487
  0
LINE
  5
2F3
100
AcDbEntity
  8
DEFAULT_2
100
AcDbLine
 62
8
  6
HIDDEN
 10
125.968401487
 20
134.468401487
 11
125.968401487
 21
124.618401487
  0
LINE
  5
2F4
100
AcDbEntity
  8
DEFAULT_2
100
AcDbLine
 62
8
  6
HIDDEN
 10
126.018401487
 20
135.368401487
 11
126.018401487
 21
134.568401487
  0
LINE
  5
2F5
100
AcDbEntity
  8
3_ALL_AXES
100
AcDbLine
 62
8
  6
HIDDEN
 10
126.218401487
 20
121.768401487
 11
126.218401487
 21
124.368401487
  0
LINE
  5
2F6
100
AcDbEntity
  8
3_ALL_AXES
100
AcDbLine
 62
7
  6
CONTINUOUS
 10
127.293401487
 20
192.168401487
 11
127.293401487
 21
146.468401487
  0
LINE
  5
2F7
100
AcDbEntity
  8
0
100
AcDbLine
 62
7
  6
CONTINUOUS
 10
127.968401487
 20
115.700605912
 11
127.968401487
 21
115.8651819483
  0
LINE
  5
2F8
100
AcDbEntity
  8
DEFAULT_2
100
AcDbLine
 62
8
  6
HIDDEN
 10
127.968401487
 20
115.8651819483
 11
127.968401487
 21
126.9681628461
  0
LINE
  5
2F9
100
AcDbEntity
  8
0
100
AcDbLine
 62
7
  6
CONTINUOUS
 10
127.293401487
 20
146.468401487
 11
125.793401487
 21
144.968401487
  0
LINE
  5
2FA
100
AcDbEntity
  8
3_ALL_AXES
100
AcDbLine
 62
8
  6
HIDDEN
 10
99.8186781462
 20
171.968401487
 11
120.1181248278
 21
171.968401487
  0
LINE
  5
2FB
100
AcDbEntity
  8
DEFAULT_2
100
AcDbLine
 62
8
  6
HIDDEN
 10
100.9686468006
 20
171.968401487
 11
118.9681561734
 21
171.968401487
  0
LINE
  5
2FC
100
AcDbEntity
  8
DEFAULT_2
100
AcDbLine
 62
8
  6
HIDDEN
 10
129.818401487
 20
134.468401487
 11
129.818401487
 21
132.4042693417
  0
LINE
  5
2FD
100
AcDbEntity
  8
DEFAULT_2
100
AcDbLine
 62
8
  6
HIDDEN
 10
130.4195628232
 20
123.968401487
 11
130.4195628232
 21
117.6634432098
  0
LINE
  5
2FE
100
AcDbEntity
  8
0
100
AcDbLine
 62
7
  6
CONTINUOUS
 10
130.6171585849
 20
117.6634432098
 11
130.6171585849
 21
123.968401487
  0
LINE
  5
2FF
100
AcDbEntity
  8
3_ALL_AXES
100
AcDbLine
 62
7
  6
CONTINUOUS
 10
130.868401487
 20
130.368401487
 11
130.868401487
 21
127.1682377692
  0
LINE
  5
300
100
AcDbEntity
  8
3_ALL_AXES
100
AcDbLine
 62
8
  6
HIDDEN
 10
130.868401487
 20
127.1682377692
 11
130.868401487
 21
127.1507090287
  0
LINE
  5
301
100
AcDbEntity
  8
0
100
AcDbLine
 62
7
  6
CONTINUOUS
 10
130.968401487
 20
135.368401487
 11
130.968401487
 21
130.368401487
  0
LINE
  5
302
100
AcDbEntity
  8
0
100
AcDbLine
 62
7
  6
CONTINUOUS
 10
96.9845943222
 20
117.2304128953
 11
97.2206711474
 21
117.4036242906
  0
LINE
  5
303
100
AcDbEntity
  8
DEFAULT_2
100
AcDbLine
 62
8
  6
HIDDEN
 10
126.118401487
 20
135.468401487
 11
126.018401487
 21
135.368401487
  0
LINE
  5
304
100
AcDbEntity
  8
3_ALL_AXES
100
AcDbLine
 62
8
  6
HIDDEN
 10
120.118401487
 20
177.818401487
 11
99.818401487
 21
177.818401487
  0
LINE
  5
305
100
AcDbEntity
  8
3_ALL_AXES
100
AcDbLine
 62
8
  6
HIDDEN
 10
119.968401487
 20
177.968401487
 11
99.968401487
 21
177.968401487
  0
LINE
  5
306
100
AcDbEntity
  8
DEFAULT_2
100
AcDbLine
 62
8
  6
HIDDEN
 10
109.968401487
 20
180.8239151141
 11
107.418401487
 21
182.2961583006
  0
LINE
  5
307
100
AcDbEntity
  8
3_ALL_AXES
100
AcDbLine
 62
8
  6
HIDDEN
 10
120.118401487
 20
177.818401487
 11
119.968401487
 21
177.968401487
  0
LINE
  5
308
100
AcDbEntity
  8
DEFAULT_2
100
AcDbLine
 62
8
  6
HIDDEN
 10
125.218401487
 20
132.968401487
 11
126.718401487
 21
134.468401487
  0
LINE
  5
309
100
AcDbEntity
  8
3_ALL_AXES
100
AcDbLine
 62
8
  6
HIDDEN
 10
120.168401487
 20
114.7644029674
 11
122.595581164
 21
118.968401487
  0
LINE
  5
30A
100
AcDbEntity
  8
DEFAULT_2
100
AcDbLine
 62
8
  6
HIDDEN
 10
117.3827084866
 20
117.2304128953
 11
117.420888595
 21
117.2785820497
  0
LINE
  5
30B
100
AcDbEntity
  8
0
100
AcDbLine
 62
7
  6
CONTINUOUS
 10
117.420888595
 20
117.2785820497
 11
117.5253122206
 21
117.4099860293
  0
LINE
  5
30C
100
AcDbEntity
  8
DEFAULT_2
100
AcDbLine
 62
8
  6
HIDDEN
 10
117.5199866
 20
117.4036355887
 11
117.5253002496
 21
117.4100241783
  0
LINE
  5
30D
100
AcDbEntity
  8
DEFAULT_2
100
AcDbLine
 62
8
  6
HIDDEN
 10
125.868401487
 20
126.468401487
 11
125.368401487
 21
125.968401487
  0
LINE
  5
30E
100
AcDbEntity
  8
DEFAULT_2
100
AcDbLine
 62
8
  6
HIDDEN
 10
109.968401487
 20
186.7128878599
 11
112.518401487
 21
185.2406446734
  0
LINE
  5
30F
100
AcDbEntity
  8
DEFAULT_2
100
AcDbLine
 62
8
  6
HIDDEN
 10
130.868401487
 20
127.1683864128
 11
130.6684149331
 21
126.9684014868
  0
LINE
  5
310
100
AcDbEntity
  8
0
100
AcDbLine
 62
7
  6
CONTINUOUS
 10
92.643401487
 20
192.168401487
 11
127.293401487
 21
192.168401487
  0
LINE
  5
311
100
AcDbEntity
  8
DEFAULT_2
100
AcDbLine
 62
8
  6
HIDDEN
 10
119.968401487
 20
192.468401487
 11
99.968401487
 21
192.468401487
  0
LINE
  5
312
100
AcDbEntity
  8
0
100
AcDbLine
 62
7
  6
CONTINUOUS
 10
126.4934006542
 20
192.968401487
 11
93.4434023198
 21
192.968401487
  0
LINE
  5
313
100
AcDbEntity
  8
3_ALL_AXES
100
AcDbLine
 62
7
  6
CONTINUOUS
 10
128.0003402317
 20
115.7188921374
 11
125.0844268894
 21
114.0353887843
  0
ARC
  5
314
100
AcDbEntity
  8
0
100
AcDbCircle
 62
7
  6
CONTINUOUS
 10
100.9684014873
 20
139.3542931945
 40
23.6538167389
100
AcDbArc
 50
263.2346016575
 51
276.7653984688
  0
ARC
  5
315
100
AcDbEntity
  8
DEFAULT_2
100
AcDbCircle
 62
8
  6
HIDDEN
 10
68.5298807777
 20
123.9421416923
 40
20.7903554129
100
AcDbArc
 50
1.9103339129
 51
8.878161313
  0
ARC
  5
316
100
AcDbEntity
  8
DEFAULT_2
100
AcDbCircle
 62
8
  6
HIDDEN
 10
68.7437170078
 20
123.9635921881
 40
20.5759279434
100
AcDbArc
 50
0.0133919855
 51
1.8704855542
  0
ARC
  5
317
100
AcDbEntity
  8
GIANNI_ASSI
100
AcDbCircle
 62
8
  6
HIDDEN
 10
108.8780317313
 20
131.4320734736
 40
4.0235349911
100
AcDbArc
 50
131.0059120565
 51
133.1313661429
  0
ARC
  5
318
100
AcDbEntity
  8
0
100
AcDbCircle
 62
7
  6
CONTINUOUS
 10
99.2511060604
 20
123.971983031
 40
3.1913436632
100
AcDbArc
 50
359.9356911607
 51
0.1078605652
  0
ARC
  5
319
100
AcDbEntity
  8
DEFAULT_2
100
AcDbCircle
 62
8
  6
HIDDEN
 10
99.1969063776
 20
123.9696319355
 40
3.1439908934
100
AcDbArc
 50
359.9775764269
 51
10.9080537305
  0
ARC
  5
31A
100
AcDbEntity
  8
DEFAULT_2
100
AcDbCircle
 62
8
  6
HIDDEN
 10
100.9706118866
 20
124.6912650357
 40
2.277110283
100
AcDbArc
 50
90.0556172402
 51
106.8564247495
  0
ARC
  5
31B
100
AcDbEntity
  8
0
100
AcDbCircle
 62
7
  6
CONTINUOUS
 10
103.5255878027
 20
117.6624773203
 40
1.0835083385
100
AcDbArc
 50
179.9489238847
 51
186.7927873092
  0
ARC
  5
31C
100
AcDbEntity
  8
DEFAULT_2
100
AcDbCircle
 62
8
  6
HIDDEN
 10
89.718401487
 20
131.9669296244
 40
0.6
100
AcDbArc
 50
315.0
 51
48.1896851042
  0
ARC
  5
31D
100
AcDbEntity
  8
DEFAULT_2
100
AcDbCircle
 62
8
  6
HIDDEN
 10
89.768401487
 20
131.9169296244
 40
0.6
100
AcDbArc
 50
315.0
 51
54.3146652873
  0
ARC
  5
31E
100
AcDbEntity
  8
0
100
AcDbCircle
 62
7
  6
CONTINUOUS
 10
95.1023760832
 20
114.468401487
 40
0.5
100
AcDbArc
 50
240.0000001831
 51
270.0000002004
  0
ARC
  5
31F
100
AcDbEntity
  8
0
100
AcDbCircle
 62
7
  6
CONTINUOUS
 10
89.819428919
 20
117.6636957429
 40
0.4997845937
100
AcDbArc
 50
180.0289506298
 51
240.1008268855
  0
ARC
  5
320
100
AcDbEntity
  8
DEFAULT_2
100
AcDbCircle
 62
8
  6
HIDDEN
 10
94.118401487
 20
121.768401487
 40
0.4
100
AcDbArc
 50
180.0
 51
270.0
  0
ARC
  5
321
100
AcDbEntity
  8
DEFAULT_2
100
AcDbCircle
 62
8
  6
HIDDEN
 10
89.768401487
 20
133.468401487
 40
0.4
100
AcDbArc
 50
331.0449756281
 51
28.9550243719
  0
ARC
  5
322
100
AcDbEntity
  8
DEFAULT_2
100
AcDbCircle
 62
8
  6
HIDDEN
 10
99.468401487
 20
114.268401487
 40
0.3
100
AcDbArc
 50
270.0
 51
360.0
  0
ARC
  5
323
100
AcDbEntity
  8
0
100
AcDbCircle
 62
7
  6
CONTINUOUS
 10
93.443401487
 20
192.168401487
 40
0.8
100
AcDbArc
 50
89.9999874586
 51
180.0
  0
ARC
  5
324
100
AcDbEntity
  8
DEFAULT_2
100
AcDbCircle
 62
8
  6
HIDDEN
 10
99.468401487
 20
192.468401487
 40
0.5
100
AcDbArc
 50
0.0
 51
89.9999895547
  0
CIRCLE
  5
325
100
AcDbEntity
  8
0
100
AcDbCircle
 62
7
  6
CONTINUOUS
 10
109.968401487
 20
157.968401487
 40
5.0
  0
ARC
  5
326
100
AcDbEntity
  8
DEFAULT_2
100
AcDbCircle
 62
8
  6
HIDDEN
 10
109.9677669513
 20
157.967050029
 40
4.9986485823
100
AcDbArc
 50
261.522833269
 51
270.0072732096
  0
ARC
  5
327
100
AcDbEntity
  8
DEFAULT_2
100
AcDbCircle
 62
8
  6
HIDDEN
 10
109.9508907267
 20
157.9685538439
 40
4.9833801676
100
AcDbArc
 50
192.9563519594
 51
201.3521275717
  0
ARC
  5
328
100
AcDbEntity
  8
DEFAULT_2
100
AcDbCircle
 62
8
  6
HIDDEN
 10
109.9665615142
 20
157.9502821014
 40
4.9818881924
100
AcDbArc
 50
252.9698551842
 51
261.3182187011
  0
ARC
  5
329
100
AcDbEntity
  8
DEFAULT_2
100
AcDbCircle
 62
8
  6
HIDDEN
 10
109.9658807815
 20
157.9440447474
 40
4.975643899
100
AcDbArc
 50
255.1446176997
 51
270.0290265535
  0
ARC
  5
32A
100
AcDbEntity
  8
DEFAULT_2
100
AcDbCircle
 62
8
  6
HIDDEN
 10
109.9641851008
 20
157.9383308012
 40
4.9697151496
100
AcDbArc
 50
261.3245040441
 51
261.5148674911
  0
ARC
  5
32B
100
AcDbEntity
  8
DEFAULT_2
100
AcDbCircle
 62
8
  6
HIDDEN
 10
109.948128961
 20
157.9332733655
 40
4.9596621944
100
AcDbArc
 50
235.7283054808
 51
244.3412850193
  0
ARC
  5
32C
100
AcDbEntity
  8
DEFAULT_2
100
AcDbCircle
 62
8
  6
HIDDEN
 10
109.9285662912
 20
157.958362911
 40
4.9593416372
100
AcDbArc
 50
184.3093019715
 51
192.8994396314
  0
ARC
  5
32D
100
AcDbEntity
  8
DEFAULT_2
100
AcDbCircle
 62
8
  6
HIDDEN
 10
109.9635945164
 20
157.9166342203
 40
4.9482350682
100
AcDbArc
 50
255.5698650213
 51
270.0556600823
  0
ARC
  5
32E
100
AcDbEntity
  8
DEFAULT_2
100
AcDbCircle
 62
8
  6
HIDDEN
 10
109.9173240932
 20
157.9316591673
 40
4.9374102154
100
AcDbArc
 50
209.9571817736
 51
218.545742581
  0
CIRCLE
  5
32F
100
AcDbEntity
  8
0
100
AcDbCircle
 62
7
  6
CONTINUOUS
 10
109.968401487
 20
157.968401487
 40
4.5
  0
CIRCLE
  5
330
100
AcDbEntity
  8
GIANNI_ASSI
100
AcDbCircle
 62
8
  6
HIDDEN
 10
109.968401487
 20
157.968401487
 40
4.1
  0
ARC
  5
331
100
AcDbEntity
  8
DEFAULT_2
100
AcDbCircle
 62
8
  6
HIDDEN
 10
109.968401487
 20
157.968401487
 40
4.1
100
AcDbArc
 50
195.0
 51
255.0
  0
ARC
  5
332
100
AcDbEntity
  8
0
100
AcDbCircle
 62
2
  6
CONTINUOUS
 10
109.968401487
 20
157.968401487
 40
4.1
100
AcDbArc
 50
255.0
 51
195.0
  0
ARC
  5
333
100
AcDbEntity
  8
3_ALL_AXES
100
AcDbCircle
 62
7
  6
CONTINUOUS
 10
109.968401487
 20
157.968401487
 40
2.825
100
AcDbArc
 50
272.2460766442
 51
327.7539233558
  0
ARC
  5
334
100
AcDbEntity
  8
3_ALL_AXES
100
AcDbCircle
 62
7
  6
CONTINUOUS
 10
109.968401487
 20
157.968401487
 40
2.825
100
AcDbArc
 50
32.2460766442
 51
87.7539233558
  0
ARC
  5
335
100
AcDbEntity
  8
3_ALL_AXES
100
AcDbCircle
 62
7
  6
CONTINUOUS
 10
109.968401487
 20
157.968401487
 40
2.825
100
AcDbArc
 50
212.2460766442
 51
267.7539233558
  0
ARC
  5
336
100
AcDbEntity
  8
3_ALL_AXES
100
AcDbCircle
 62
7
  6
CONTINUOUS
 10
109.968401487
 20
157.968401487
 40
2.825
100
AcDbArc
 50
92.2460766442
 51
147.7539233558
  0
ARC
  5
337
100
AcDbEntity
  8
3_ALL_AXES
100
AcDbCircle
 62
7
  6
CONTINUOUS
 10
109.968401487
 20
157.968401487
 40
2.825
100
AcDbArc
 50
332.2460766442
 51
27.7539233558
  0
ARC
  5
338
100
AcDbEntity
  8
3_ALL_AXES
100
AcDbCircle
 62
7
  6
CONTINUOUS
 10
109.968401487
 20
157.968401487
 40
2.825
100
AcDbArc
 50
152.2460766442
 51
207.7539233558
  0
CIRCLE
  5
339
100
AcDbEntity
  8
3_ALL_AXES
100
AcDbCircle
 62
7
  6
CONTINUOUS
 10
109.968401487
 20
157.968401487
 40
2.525
  0
ARC
  5
33A
100
AcDbEntity
  8
DEFAULT_2
100
AcDbCircle
 62
8
  6
HIDDEN
 10
109.9873250864
 20
158.0263518195
 40
5.0607040226
100
AcDbArc
 50
252.7156717577
 51
252.997319339
  0
ARC
  5
33B
100
AcDbEntity
  8
DEFAULT_2
100
AcDbCircle
 62
8
  6
HIDDEN
 10
109.9715859568
 20
157.9831557857
 40
5.0147827997
100
AcDbArc
 50
244.3464914175
 51
252.7407418854
  0
ARC
  5
33C
100
AcDbEntity
  8
DEFAULT_2
100
AcDbCircle
 62
8
  6
HIDDEN
 10
109.977971792
 20
157.975561788
 40
5.0114149536
100
AcDbArc
 50
227.2784871297
 51
235.6037968764
  0
ARC
  5
33D
100
AcDbEntity
  8
DEFAULT_2
100
AcDbCircle
 62
8
  6
HIDDEN
 10
109.9711105554
 20
157.976363562
 40
5.0073378384
100
AcDbArc
 50
218.6956259545
 51
227.0104031713
  0
ARC
  5
33E
100
AcDbEntity
  8
DEFAULT_2
100
AcDbCircle
 62
8
  6
HIDDEN
 10
109.9658807815
 20
157.9927582265
 40
4.975643899
100
AcDbArc
 50
89.9709734465
 51
104.8553823003
  0
ARC
  5
33F
100
AcDbEntity
  8
DEFAULT_2
100
AcDbCircle
 62
8
  6
HIDDEN
 10
109.9209168228
 20
157.9791239086
 40
4.9516623968
100
AcDbArc
 50
165.1281134782
 51
175.6919027794
  0
ARC
  5
340
100
AcDbEntity
  8
DEFAULT_2
100
AcDbCircle
 62
8
  6
HIDDEN
 10
109.9635945164
 20
158.0201687537
 40
4.9482350682
100
AcDbArc
 50
89.9443399177
 51
104.4301349787
  0
ARC
  5
341
100
AcDbEntity
  8
DEFAULT_2
100
AcDbCircle
 62
8
  6
HIDDEN
 10
110.059441108
 20
157.9684013798
 40
5.0906029608
100
AcDbArc
 50
175.8672444219
 51
184.1327864906
  0
ARC
  5
342
100
AcDbEntity
  8
DEFAULT_2
100
AcDbCircle
 62
8
  6
HIDDEN
 10
110.0136583267
 20
157.9710813959
 40
5.0447461228
100
AcDbArc
 50
175.6799424152
 51
175.8601299543
  0
ARC
  5
343
100
AcDbEntity
  8
DEFAULT_2
100
AcDbCircle
 62
8
  6
HIDDEN
 10
110.0136199748
 20
157.9657195018
 40
5.0447077369
100
AcDbArc
 50
184.1399115948
 51
184.3200327122
  0
ARC
  5
344
100
AcDbEntity
  8
DEFAULT_2
100
AcDbCircle
 62
8
  6
HIDDEN
 10
110.0503357601
 20
158.0048975987
 40
5.089232591
100
AcDbArc
 50
201.3255730191
 51
201.5883939291
  0
ARC
  5
345
100
AcDbEntity
  8
DEFAULT_2
100
AcDbCircle
 62
8
  6
HIDDEN
 10
110.0211271393
 20
158.0266359914
 40
5.0782161003
100
AcDbArc
 50
226.9843744301
 51
227.3117264312
  0
ARC
  5
346
100
AcDbEntity
  8
DEFAULT_2
100
AcDbCircle
 62
8
  6
HIDDEN
 10
110.0101550049
 20
157.9855762093
 40
5.0447624391
100
AcDbArc
 50
201.5522537564
 51
209.9612511425
  0
ARC
  5
347
100
AcDbEntity
  8
DEFAULT_2
100
AcDbCircle
 62
8
  6
HIDDEN
 10
109.968401487
 20
183.768401487
 40
5.0
100
AcDbArc
 50
194.8459648234
 51
270.0
  0
ARC
  5
348
100
AcDbEntity
  8
DEFAULT_2
100
AcDbCircle
 62
8
  6
HIDDEN
 10
109.968401487
 20
183.768401487
 40
5.0
100
AcDbArc
 50
270.0
 51
194.8459648234
  0
ARC
  5
349
100
AcDbEntity
  8
DEFAULT_2
100
AcDbCircle
 62
8
  6
HIDDEN
 10
109.9658807815
 20
183.7440447474
 40
4.975643899
100
AcDbArc
 50
255.1446176997
 51
270.0290265535
  0
ARC
  5
34A
100
AcDbEntity
  8
DEFAULT_2
100
AcDbCircle
 62
8
  6
HIDDEN
 10
109.9641679171
 20
183.7233108988
 40
4.9549112205
100
AcDbArc
 50
255.4608428635
 51
270.0489546042
  0
ARC
  5
34B
100
AcDbEntity
  8
DEFAULT_2
100
AcDbCircle
 62
8
  6
HIDDEN
 10
109.968401487
 20
183.768401487
 40
4.375
100
AcDbArc
 50
255.0
 51
195.0
  0
CIRCLE
  5
34C
100
AcDbEntity
  8
3_ALL_AXES
100
AcDbCircle
 62
8
  6
HIDDEN
 10
109.968401487
 20
183.768401487
 40
4.351
  0
CIRCLE
  5
34D
100
AcDbEntity
  8
DEFAULT_2
100
AcDbCircle
 62
8
  6
HIDDEN
 10
109.968401487
 20
183.768401487
 40
4.0
  0
CIRCLE
  5
34E
100
AcDbEntity
  8
3_ALL_AXES
100
AcDbCircle
 62
8
  6
HIDDEN
 10
109.968401487
 20
183.768401487
 40
3.0
  0
CIRCLE
  5
34F
100
AcDbEntity
  8
3_ALL_AXES
100
AcDbCircle
 62
8
  6
HIDDEN
 10
109.968401487
 20
183.768401487
 40
2.5
  0
ARC
  5
350
100
AcDbEntity
  8
0
100
AcDbCircle
 62
7
  6
CONTINUOUS
 10
118.9684014878
 20
139.3542932117
 40
23.6538167561
100
AcDbArc
 50
263.2346015578
 51
276.7653987926
  0
ARC
  5
351
100
AcDbEntity
  8
DEFAULT_2
100
AcDbCircle
 62
8
  6
HIDDEN
 10
151.6622833171
 20
123.9179813431
 40
21.0463913015
100
AcDbArc
 50
171.1638835096
 51
178.0470833737
  0
ARC
  5
352
100
AcDbEntity
  8
0
100
AcDbCircle
 62
7
  6
CONTINUOUS
 10
151.399158525
 20
123.9465089175
 40
20.7820114714
100
AcDbArc
 50
171.1287918839
 51
179.9396424129
  0
ARC
  5
353
100
AcDbEntity
  8
DEFAULT_2
100
AcDbCircle
 62
8
  6
HIDDEN
 10
151.0681024007
 20
123.9658151512
 40
20.4509439794
100
AcDbArc
 50
178.1242887494
 51
179.9927540693
  0
ARC
  5
354
100
AcDbEntity
  8
GIANNI_ASSI
100
AcDbCircle
 62
8
  6
HIDDEN
 10
111.0587712426
 20
131.4320734735
 40
4.0235349913
100
AcDbArc
 50
46.8686338571
 51
48.9940879435
  0
ARC
  5
355
100
AcDbEntity
  8
0
100
AcDbCircle
 62
7
  6
CONTINUOUS
 10
120.6558789115
 20
123.9743253095
 40
3.161466313
100
AcDbArc
 50
179.9339661481
 51
180.1073690917
  0
ARC
  5
356
100
AcDbEntity
  8
DEFAULT_2
100
AcDbCircle
 62
8
  6
HIDDEN
 10
120.7490043341
 20
123.9686841196
 40
3.1530984031
100
AcDbArc
 50
169.1063733208
 51
180.0051357907
  0
ARC
  5
357
100
AcDbEntity
  8
0
100
AcDbCircle
 62
7
  6
CONTINUOUS
 10
116.4112151713
 20
117.6624773203
 40
1.0835083384
100
AcDbArc
 50
353.2072126907
 51
0.0510761154
  0
ARC
  5
358
100
AcDbEntity
  8
DEFAULT_2
100
AcDbCircle
 62
8
  6
HIDDEN
 10
130.218401487
 20
131.9669296244
 40
0.6
100
AcDbArc
 50
131.8103148958
 51
225.0
  0
ARC
  5
359
100
AcDbEntity
  8
DEFAULT_2
100
AcDbCircle
 62
8
  6
HIDDEN
 10
130.168401487
 20
131.9169296244
 40
0.6
100
AcDbArc
 50
125.6853347127
 51
225.0
  0
ARC
  5
35A
100
AcDbEntity
  8
0
100
AcDbCircle
 62
7
  6
CONTINUOUS
 10
124.8344268908
 20
114.468401487
 40
0.5
100
AcDbArc
 50
269.9999997996
 51
299.9999998169
  0
ARC
  5
35B
100
AcDbEntity
  8
0
100
AcDbCircle
 62
7
  6
CONTINUOUS
 10
130.1173740526
 20
117.6636957442
 40
0.4997845961
100
AcDbArc
 50
299.8991732691
 51
359.9710492156
  0
ARC
  5
35C
100
AcDbEntity
  8
DEFAULT_2
100
AcDbCircle
 62
8
  6
HIDDEN
 10
125.818401487
 20
121.768401487
 40
0.4
100
AcDbArc
 50
270.0
 51
360.0
  0
ARC
  5
35D
100
AcDbEntity
  8
DEFAULT_2
100
AcDbCircle
 62
8
  6
HIDDEN
 10
130.168401487
 20
133.468401487
 40
0.4
100
AcDbArc
 50
151.0449756281
 51
208.9550243719
  0
ARC
  5
35E
100
AcDbEntity
  8
DEFAULT_2
100
AcDbCircle
 62
8
  6
HIDDEN
 10
120.468401487
 20
114.268401487
 40
0.3
100
AcDbArc
 50
180.0
 51
270.0
  0
ARC
  5
35F
100
AcDbEntity
  8
0
100
AcDbCircle
 62
7
  6
CONTINUOUS
 10
126.493401487
 20
192.168401487
 40
0.8
100
AcDbArc
 50
0.0
 51
90.0000125414
  0
ARC
  5
360
100
AcDbEntity
  8
DEFAULT_2
100
AcDbCircle
 62
8
  6
HIDDEN
 10
120.468401487
 20
192.468401487
 40
0.5
100
AcDbArc
 50
90.0000104453
 51
180.0
  0
SPLINE
  5
361
100
AcDbEntity
  8
DEFAULT_2
100
AcDbSpline
 62
8
  6
HIDDEN
 70
0
 71
3
 72
23
 73
19
 74
0
 42
0.0000001
 43
0.0000001
 44
0.0000000001
 40
0.0
 40
0.0
 40
0.0
 40
0.0
 40
0.0627826739
 40
0.1254051674
 40
0.1877915702
 40
0.2500051818
 40
0.3122232723
 40
0.3746088647
 40
0.4372178253
 40
0.5000003395
 40
0.5627827138
 40
0.625391348
 40
0.6877770924
 40
0.7499954936
 40
0.8122088527
 40
0.8745950631
 40
0.9372173653
 40
1.0
 40
1.0
 40
1.0
 40
1.0
 10
109.968401487
 20
188.619401487
 30
0.0
 10
109.650455676
 20
188.619403551
 30
0.0
 10
109.0134753108
 20
188.5565318047
 30
0.0
 10
108.0987693795
 20
188.276347934
 30
0.0
 10
107.2555591582
 20
187.829734497
 30
0.0
 10
106.5202381512
 20
187.2237671594
 30
0.0
 10
105.9240036047
 20
186.4811009661
 30
0.0
 10
105.4796449863
 20
185.6374954169
 30
0.0
 10
105.1975881186
 20
184.7230818019
 30
0.0
 10
105.1034680166
 20
183.7684000718
 30
0.0
 10
105.1975374547
 20
182.8137051587
 30
0.0
 10
105.4797179832
 20
181.8993247682
 30
0.0
 10
105.9241063692
 20
181.0557520577
 30
0.0
 10
106.5201976208
 20
180.3129711681
 30
0.0
 10
107.2555324135
 20
179.7069969929
 30
0.0
 10
108.0987822852
 20
179.2604747897
 30
0.0
 10
109.0134738864
 20
178.9802632953
 30
0.0
 10
109.6504558745
 20
178.9174022243
 30
0.0
 10
109.968401487
 20
178.917401487
 30
0.0
  0
SPLINE
  5
362
100
AcDbEntity
  8
DEFAULT_2
100
AcDbSpline
 62
8
  6
HIDDEN
 70
0
 71
3
 72
23
 73
19
 74
0
 42
0.0000001
 43
0.0000001
 44
0.0000000001
 40
0.0
 40
0.0
 40
0.0
 40
0.0
 40
0.0627826693
 40
0.1254051512
 40
0.1877915533
 40
0.250005153
 40
0.3122232448
 40
0.3746088316
 40
0.4372177774
 40
0.5000002861
 40
0.5627826596
 40
0.6253913066
 40
0.6877770324
 40
0.7499954172
 40
0.8122087869
 40
0.8745950075
 40
0.9372173476
 40
1.0
 40
1.0
 40
1.0
 40
1.0
 10
109.968401487
 20
178.917401487
 30
0.0
 10
110.2863472928
 20
178.9174007497
 30
0.0
 10
110.923327664
 20
178.9802699096
 30
0.0
 10
111.8380336204
 20
179.2604545414
 30
0.0
 10
112.6812438894
 20
179.7070673896
 30
0.0
 10
113.4165649838
 20
180.3130351069
 30
0.0
 10
114.0127964379
 20
181.0557034604
 30
0.0
 10
114.4571590018
 20
181.899306523
 30
0.0
 10
114.7392169211
 20
182.8137203629
 30
0.0
 10
114.8333303559
 20
183.7684028075
 30
0.0
 10
114.7392611404
 20
184.7230969588
 30
0.0
 10
114.4570911906
 20
185.6374804708
 30
0.0
 10
114.0127041743
 20
186.4810550014
 30
0.0
 10
113.4166055772
 20
187.223829765
 30
0.0
 10
112.6812713633
 20
187.8298041667
 30
0.0
 10
111.8380207583
 20
188.2763255327
 30
0.0
 10
110.9233297049
 20
188.5565407474
 30
0.0
 10
110.2863472073
 20
188.619399423
 30
0.0
 10
109.968401487
 20
188.619401487
 30
0.0
  0
LINE
  5
363
100
AcDbEntity
  8
DEFAULT_2
100
AcDbLine
 62
8
  6
HIDDEN
 10
121.7549217876
 20
115.8651825507
 11
122.9522195144
 21
117.2304316941
  0
SPLINE
  5
364
100
AcDbEntity
  8
DEFAULT_2
100
AcDbSpline
 62
8
  6
HIDDEN
 70
0
 71
3
 72
23
 73
19
 74
0
 42
0.0000001
 43
0.0000001
 44
0.0000000001
 40
0.0
 40
0.0
 40
0.0
 40
0.0
 40
0.0636993351
 40
0.1284945378
 40
0.1930211646
 40
0.2560377762
 40
0.3168472284
 40
0.3757461536
 40
0.4336720297
 40
0.491753892
 40
0.5507895804
 40
0.6112294831
 40
0.6735234679
 40
0.7379493982
 40
0.8041061569
 40
0.8706921091
 40
0.9363441612
 40
1.0
 40
1.0
 40
1.0
 40
1.0
 10
123.0909997004
 20
123.9684010421
 30
0.0
 10
123.0912000773
 20
124.1684026744
 30
0.0
 10
123.0605550025
 20
124.5724803951
 30
0.0
 10
122.9232677516
 20
125.1652560055
 30
0.0
 10
122.6900529475
 20
125.7256949261
 30
0.0
 10
122.365227858
 20
126.2242466085
 30
0.0
 10
121.9591750559
 20
126.6355542189
 30
0.0
 10
121.486650412
 20
126.9406026658
 30
0.0
 10
120.9650255621
 20
127.1275203669
 30
0.0
 10
120.4140064101
 20
127.189267655
 30
0.0
 10
119.8556331956
 20
127.1250521165
 30
0.0
 10
119.3118080639
 20
126.9385546513
 30
0.0
 10
118.8028538712
 20
126.6370514902
 30
0.0
 10
118.3493072986
 20
126.230019069
 30
0.0
 10
117.9737391747
 20
125.733170126
 30
0.0
 10
117.6967312389
 20
125.1709951602
 30
0.0
 10
117.5316015974
 20
124.5751156814
 30
0.0
 10
117.4941306907
 20
124.1682661017
 30
0.0
 10
117.494355369
 20
123.9684010641
 30
0.0
  0
LINE
  5
365
100
AcDbEntity
  8
DEFAULT_2
100
AcDbLine
 62
8
  6
HIDDEN
 10
96.9845834556
 20
117.2304316687
 11
98.181881191
 21
115.8651825773
  0
SPLINE
  5
366
100
AcDbEntity
  8
DEFAULT_2
100
AcDbSpline
 62
8
  6
HIDDEN
 70
0
 71
3
 72
23
 73
19
 74
0
 42
0.0000001
 43
0.0000001
 44
0.0000000001
 40
0.0
 40
0.0
 40
0.0
 40
0.0
 40
0.0634956038
 40
0.1290482286
 40
0.1955906
 40
0.2617733997
 40
0.326262603
 40
0.38859726
 40
0.4490476162
 40
0.5080824371
 40
0.5661448749
 40
0.6240133057
 40
0.6828543106
 40
0.7436067547
 40
0.8066025392
 40
0.8711806321
 40
0.9361005889
 40
1.0
 40
1.0
 40
1.0
 40
1.0
 10
102.4423847019
 20
123.9684009015
 30
0.0
 10
102.4427586043
 20
124.1677626964
 30
0.0
 10
102.4053910382
 20
124.5738082405
 30
0.0
 10
102.2408332059
 20
125.1688270607
 30
0.0
 10
101.9644632342
 20
125.7309023367
 30
0.0
 10
101.58919634
 20
126.2281616703
 30
0.0
 10
101.135665171
 20
126.6358336983
 30
0.0
 10
100.6265790741
 20
126.9378338918
 30
0.0
 10
100.0827129885
 20
127.1247026201
 30
0.0
 10
99.524411845
 20
127.1892398012
 30
0.0
 10
98.9735948566
 20
127.1279301035
 30
0.0
 10
98.4522289886
 20
126.9415780121
 30
0.0
 10
97.9798517747
 20
126.6373248917
 30
0.0
 10
97.5736211888
 20
126.2267974399
 30
0.0
 10
97.2482985002
 20
125.7286653188
 30
0.0
 10
97.0143514986
 20
125.1679920614
 30
0.0
 10
96.8764309738
 20
124.5741273846
 30
0.0
 10
96.8456482128
 20
124.1690311346
 30
0.0
 10
96.8457693042
 20
123.9684011598
 30
0.0
  0
SPLINE
  5
367
100
AcDbEntity
  8
DEFAULT_2
100
AcDbSpline
 62
8
  6
HIDDEN
 70
0
 71
3
 72
10
 73
6
 74
0
 42
0.0000001
 43
0.0000001
 44
0.0000000001
 40
0.0
 40
0.0
 40
0.0
 40
0.0
 40
0.5559519559
 40
0.7973812717
 40
1.0
 40
1.0
 40
1.0
 40
1.0
 10
117.4947230792
 20
117.6634432098
 30
0.0
 10
117.4947066392
 20
117.5794381362
 30
0.0
 10
117.4818574431
 20
117.4578454627
 30
0.0
 10
117.4343243034
 20
117.3139968184
 30
0.0
 10
117.4014241703
 20
117.2546424785
 30
0.0
 10
117.382686045
 20
117.2304305079
 30
0.0
  0
SPLINE
  5
368
100
AcDbEntity
  8
DEFAULT_2
100
AcDbSpline
 62
8
  6
HIDDEN
 70
0
 71
3
 72
10
 73
6
 74
0
 42
0.0000001
 43
0.0000001
 44
0.0000000001
 40
0.0
 40
0.0
 40
0.0
 40
0.0
 40
0.2026187283
 40
0.4440480441
 40
1.0
 40
1.0
 40
1.0
 40
1.0
 10
102.554116929
 20
117.2304305079
 30
0.0
 10
102.5353788037
 20
117.2546424785
 30
0.0
 10
102.5024786706
 20
117.3139968184
 30
0.0
 10
102.4549455309
 20
117.4578454627
 30
0.0
 10
102.4420963348
 20
117.5794381362
 30
0.0
 10
102.4420798948
 20
117.6634432098
 30
0.0
  0
LINE
  5
369
100
AcDbEntity
  8
DEFAULT_2
100
AcDbLine
 62
8
  6
HIDDEN
 10
89.6690794838
 20
117.4036367208
 11
91.9684021368
 21
116.0943401575
  0
LINE
  5
36A
100
AcDbEntity
  8
DEFAULT_2
100
AcDbLine
 62
8
  6
HIDDEN
 10
97.2206642712
 20
117.4036367109
 11
98.3703256065
 21
116.0943401785
  0
SPLINE
  5
36B
100
AcDbEntity
  8
DEFAULT_2
100
AcDbSpline
 62
8
  6
HIDDEN
 70
0
 71
3
 72
14
 73
10
 74
0
 42
0.0000001
 43
0.0000001
 44
0.0000000001
 40
0.0
 40
0.0
 40
0.0
 40
0.0
 40
0.1161745393
 40
0.2337818895
 40
0.3539915041
 40
0.477516608
 40
0.6045383102
 40
0.7346806707
 40
1.0
 40
1.0
 40
1.0
 40
1.0
 10
100.968401487
 20
126.9683742459
 30
0.0
 10
101.1384418325
 20
126.9683742459
 30
0.0
 10
101.4818530023
 20
126.9291259313
 30
0.0
 10
101.9742997473
 20
126.7554743053
 30
0.0
 10
102.4270182165
 20
126.4743666891
 30
0.0
 10
102.8224353374
 20
126.0975230938
 30
0.0
 10
103.1459613482
 20
125.6395581024
 30
0.0
 10
103.4675318515
 20
124.9424272006
 30
0.0
 10
103.5664776983
 20
124.3567395059
 30
0.0
 10
103.5664776983
 20
123.968401487
 30
0.0
  0
SPLINE
  5
36C
100
AcDbEntity
  8
DEFAULT_2
100
AcDbSpline
 62
8
  6
HIDDEN
 70
0
 71
3
 72
14
 73
10
 74
0
 42
0.0000001
 43
0.0000001
 44
0.0000000001
 40
0.0
 40
0.0
 40
0.0
 40
0.0
 40
0.2653193293
 40
0.3954616898
 40
0.522483392
 40
0.6460084959
 40
0.7662181105
 40
0.8838254607
 40
1.0
 40
1.0
 40
1.0
 40
1.0
 10
121.5664776983
 20
123.968401487
 30
0.0
 10
121.5664776983
 20
124.3567395059
 30
0.0
 10
121.4675318515
 20
124.9424272006
 30
0.0
 10
121.1459613482
 20
125.6395581024
 30
0.0
 10
120.8224353374
 20
126.0975230938
 30
0.0
 10
120.4270182165
 20
126.4743666891
 30
0.0
 10
119.9742997473
 20
126.7554743053
 30
0.0
 10
119.4818530023
 20
126.9291259313
 30
0.0
 10
119.1384418325
 20
126.9683742459
 30
0.0
 10
118.968401487
 20
126.9683742459
 30
0.0
  0
SPLINE
  5
36D
100
AcDbEntity
  8
DEFAULT_2
100
AcDbSpline
 62
8
  6
HIDDEN
 70
0
 71
3
 72
14
 73
10
 74
0
 42
0.0000001
 43
0.0000001
 44
0.0000000001
 40
0.0
 40
0.0
 40
0.0
 40
0.0
 40
0.1161745393
 40
0.2337818895
 40
0.3539915041
 40
0.477516608
 40
0.6045383102
 40
0.7346806707
 40
1.0
 40
1.0
 40
1.0
 40
1.0
 10
100.968401487
 20
126.9683742459
 30
0.0
 10
100.7983611415
 20
126.9683742459
 30
0.0
 10
100.4549499716
 20
126.9291259313
 30
0.0
 10
99.9625032267
 20
126.7554743053
 30
0.0
 10
99.5097847575
 20
126.4743666891
 30
0.0
 10
99.1143676365
 20
126.0975230938
 30
0.0
 10
98.7908416258
 20
125.6395581024
 30
0.0
 10
98.4692711224
 20
124.9424272006
 30
0.0
 10
98.3703252756
 20
124.3567395059
 30
0.0
 10
98.3703252756
 20
123.968401487
 30
0.0
  0
SPLINE
  5
36E
100
AcDbEntity
  8
DEFAULT_2
100
AcDbSpline
 62
8
  6
HIDDEN
 70
0
 71
3
 72
13
 73
9
 74
0
 42
0.0000001
 43
0.0000001
 44
0.0000000001
 40
0.0
 40
0.0
 40
0.0
 40
0.0
 40
0.1174438692
 40
0.234393635
 40
0.3528347481
 40
0.4745415891
 40
0.7301596604
 40
1.0
 40
1.0
 40
1.0
 40
1.0
 10
99.618458663
 20
126.9683835409
 30
0.0
 10
99.4497099615
 20
126.9683879291
 30
0.0
 10
99.1115396298
 20
126.9300290601
 30
0.0
 10
98.630656666
 20
126.7560960079
 30
0.0
 10
98.1969341963
 20
126.4737782495
 30
0.0
 10
97.6941151347
 20
125.962379381
 30
0.0
 10
97.2578583321
 20
125.1163149713
 30
0.0
 10
97.1449779932
 20
124.3561203095
 30
0.0
 10
97.1447446075
 20
123.968401487
 30
0.0
  0
SPLINE
  5
36F
100
AcDbEntity
  8
DEFAULT_2
100
AcDbSpline
 62
8
  6
HIDDEN
 70
0
 71
3
 72
28
 73
24
 74
0
 42
0.0000001
 43
0.0000001
 44
0.0000000001
 40
0.0
 40
0.0
 40
0.0
 40
0.0
 40
0.0003042469
 40
0.0012170463
 40
0.0027383919
 40
0.0048682775
 40
0.0076064817
 40
0.0109506074
 40
0.0194419715
 40
0.0303130113
 40
0.0435343906
 40
0.0590760237
 40
0.0768948167
 40
0.1191488022
 40
0.1698590256
 40
0.2285020865
 40
0.2944956667
 40
0.3672011788
 40
0.4459254623
 40
0.5299284842
 40
0.6184028234
 40
0.8054663511
 40
1.0
 40
1.0
 40
1.0
 40
1.0
 10
89.2684117267
 20
126.968383721
 30
0.0
 10
89.268120998
 20
126.968477975
 30
0.0
 10
89.269146838
 20
126.9663074911
 30
0.0
 10
89.2687917653
 20
126.9645243017
 30
0.0
 10
89.2699898005
 20
126.9594688949
 30
0.0
 10
89.2708266366
 20
126.9533698679
 30
0.0
 10
89.2722398465
 20
126.9451382544
 30
0.0
 10
89.2745673873
 20
126.930734067
 30
0.0
 10
89.2782537799
 20
126.9081922454
 30
0.0
 10
89.2834423053
 20
126.8758886291
 30
0.0
 10
89.2896918383
 20
126.8365634832
 30
0.0
 10
89.2969341345
 20
126.7903361008
 30
0.0
 10
89.3085027109
 20
126.7152643793
 30
0.0
 10
89.3249158743
 20
126.6051959074
 30
0.0
 10
89.3462818958
 20
126.4544060744
 30
0.0
 10
89.36948203
 20
126.2797966284
 30
0.0
 10
89.3936270355
 20
126.0830323933
 30
0.0
 10
89.4178080702
 20
125.8659613168
 30
0.0
 10
89.4410533621
 20
125.630600132
 30
0.0
 10
89.4624867392
 20
125.3791636785
 30
0.0
 10
89.4881939727
 20
125.0189004882
 30
0.0
 10
89.5112178917
 20
124.5471741966
 30
0.0
 10
89.5170391685
 20
124.1638165683
 30
0.0
 10
89.5172401508
 20
123.968401487
 30
0.0
  0
SPLINE
  5
370
100
AcDbEntity
  8
DEFAULT_2
100
AcDbSpline
 62
8
  6
HIDDEN
 70
0
 71
3
 72
14
 73
10
 74
0
 42
0.0000001
 43
0.0000001
 44
0.0000000001
 40
0.0
 40
0.0
 40
0.0
 40
0.0
 40
0.2695549483
 40
0.4000130146
 40
0.5259544549
 40
0.6475340221
 40
0.7658509728
 40
0.8826790289
 40
1.0
 40
1.0
 40
1.0
 40
1.0
 10
122.7920583665
 20
123.968401487
 30
0.0
 10
122.7916751834
 20
124.3561201713
 30
0.0
 10
122.7046730862
 20
124.9376869257
 30
0.0
 10
122.410248449
 20
125.6376687697
 30
0.0
 10
122.1113722966
 20
126.0958908219
 30
0.0
 10
121.7398386688
 20
126.4738189739
 30
0.0
 10
121.3061341699
 20
126.7560982697
 30
0.0
 10
120.8252358152
 20
126.9300372673
 30
0.0
 10
120.4870618531
 20
126.9683901682
 30
0.0
 10
120.3183112699
 20
126.9683835711
 30
0.0
  0
LINE
  5
371
100
AcDbEntity
  8
DEFAULT_2
100
AcDbLine
 62
8
  6
HIDDEN
 10
121.5664773712
 20
116.0943401655
 11
122.7161386955
 21
117.4036367362
  0
SPLINE
  5
372
100
AcDbEntity
  8
DEFAULT_2
100
AcDbSpline
 62
8
  6
HIDDEN
 70
0
 71
3
 72
22
 73
18
 74
0
 42
0.0000001
 43
0.0000001
 44
0.0000000001
 40
0.0
 40
0.0
 40
0.0
 40
0.0
 40
0.1945343868
 40
0.3815989739
 40
0.5540720448
 40
0.7054991515
 40
0.7714929473
 40
0.8301361534
 40
0.8808468816
 40
0.9231013772
 40
0.956462606
 40
0.9696843753
 40
0.9805557615
 40
0.9890475529
 40
0.9951305108
 40
0.9987823824
 40
1.0
 40
1.0
 40
1.0
 40
1.0
 10
130.4195628232
 20
123.968401487
 30
0.0
 10
130.4198286014
 20
124.1638158054
 30
0.0
 10
130.4256245584
 20
124.5471729856
 30
0.0
 10
130.4527131077
 20
125.1031862449
 30
0.0
 10
130.4926882849
 20
125.6149692366
 30
0.0
 10
130.5335415281
 20
126.0045342001
 30
0.0
 10
130.5673215634
 20
126.2797863202
 30
0.0
 10
130.5905194189
 20
126.4543957193
 30
0.0
 10
130.6118818149
 20
126.6051863665
 30
0.0
 10
130.6306076106
 20
126.7306949347
 30
0.0
 10
130.6442905011
 20
126.8188820994
 30
0.0
 10
130.6533732432
 20
126.875873437
 30
0.0
 10
130.6585090642
 20
126.9082084687
 30
0.0
 10
130.6627750583
 20
126.9333912889
 30
0.0
 10
130.6653670391
 20
126.9515658975
 30
0.0
 10
130.6677980458
 20
126.9622353626
 30
0.0
 10
130.6679165126
 20
126.9672564831
 30
0.0
 10
130.6683912475
 20
126.9683837208
 30
0.0
  0
LINE
  5
373
100
AcDbEntity
  8
DEFAULT_2
100
AcDbLine
 62
8
  6
HIDDEN
 10
127.9684009452
 20
116.0943399676
 11
130.2677235791
 21
117.4036365648
  0
SPLINE
  5
374
100
AcDbEntity
  8
DEFAULT_2
100
AcDbSpline
 62
8
  6
HIDDEN
 70
0
 71
3
 72
14
 73
10
 74
0
 42
0.0000001
 43
0.0000001
 44
0.0000000001
 40
0.0
 40
0.0
 40
0.0
 40
0.0
 40
0.2653193293
 40
0.3954616898
 40
0.522483392
 40
0.6460084959
 40
0.7662181105
 40
0.8838254607
 40
1.0
 40
1.0
 40
1.0
 40
1.0
 10
116.3703252756
 20
123.968401487
 30
0.0
 10
116.3703252756
 20
124.3567395059
 30
0.0
 10
116.4692711224
 20
124.9424272006
 30
0.0
 10
116.7908416258
 20
125.6395581024
 30
0.0
 10
117.1143676365
 20
126.0975230938
 30
0.0
 10
117.5097847575
 20
126.4743666891
 30
0.0
 10
117.9625032267
 20
126.7554743053
 30
0.0
 10
118.4549499716
 20
126.9291259313
 30
0.0
 10
118.7983611415
 20
126.9683742459
 30
0.0
 10
118.968401487
 20
126.9683742459
 30
0.0
  0
LINE
  5
375
100
AcDbEntity
  8
DEFAULT_2
100
AcDbLine
 62
8
  6
HIDDEN
 10
116.3703250023
 20
116.094339976
 11
117.519986295
 21
117.4036366583
  0
LINE
  5
376
100
AcDbEntity
  8
DEFAULT_2
100
AcDbLine
 62
8
  6
HIDDEN
 10
102.4168166861
 20
117.4036366833
 11
103.5664779777
 21
116.0943399972
  0
LINE
  5
377
100
AcDbEntity
  8
DEFAULT_2
100
AcDbLine
 62
8
  6
HIDDEN
 10
98.1818803517
 20
115.8651819662
 11
98.3703252756
 21
116.0943390144
  0
LINE
  5
378
100
AcDbEntity
  8
DEFAULT_2
100
AcDbLine
 62
8
  6
HIDDEN
 10
116.181880541
 20
115.865181944
 11
116.3703252756
 21
116.0943390144
  0
LINE
  5
379
100
AcDbEntity
  8
DEFAULT_2
100
AcDbLine
 62
8
  6
HIDDEN
 10
121.5664776983
 20
116.0943390144
 11
121.7549225947
 21
115.865181963
  0
LINE
  5
37A
100
AcDbEntity
  8
DEFAULT_2
100
AcDbLine
 62
8
  6
HIDDEN
 10
116.3703252756
 20
116.0943390144
 11
116.1818805445
 21
115.8651819436
  0
LINE
  5
37B
100
AcDbEntity
  8
DEFAULT_2
100
AcDbLine
 62
8
  6
HIDDEN
 10
103.7549224394
 20
115.8651819448
 11
103.5664776983
 21
116.0943390144
  0
LINE
  5
37C
100
AcDbEntity
  8
DEFAULT_2
100
AcDbLine
 62
8
  6
HIDDEN
 10
130.3665037339
 20
117.2304314915
 11
127.9684012722
 21
115.8651823103
  0
LINE
  5
37D
100
AcDbEntity
  8
DEFAULT_2
100
AcDbLine
 62
8
  6
HIDDEN
 10
117.3826856212
 20
117.2304316174
 11
116.3778657606
 21
116.087635548
  0
LINE
  5
37E
100
AcDbEntity
  8
DEFAULT_2
100
AcDbLine
 62
8
  6
HIDDEN
 10
116.3778657606
 20
116.087635548
 11
116.1818809051
 21
115.865182397
  0
LINE
  5
37F
100
AcDbEntity
  8
DEFAULT_2
100
AcDbLine
 62
8
  6
HIDDEN
 10
103.7549220713
 20
115.8651824034
 11
103.7080153964
 21
115.9184090329
  0
LINE
  5
380
100
AcDbEntity
  8
DEFAULT_2
100
AcDbLine
 62
8
  6
HIDDEN
 10
103.7080153964
 20
115.9184090329
 11
103.5589372124
 21
116.0876356185
  0
LINE
  5
381
100
AcDbEntity
  8
DEFAULT_2
100
AcDbLine
 62
8
  6
HIDDEN
 10
103.5589372124
 20
116.0876356185
 11
102.5541173612
 21
117.2304316383
  0
LINE
  5
382
100
AcDbEntity
  8
DEFAULT_2
100
AcDbLine
 62
8
  6
HIDDEN
 10
91.968401725
 20
115.865182357
 11
89.5702993204
 21
117.2304316323
  0
SPLINE
  5
383
100
AcDbEntity
  8
DEFAULT_2
100
AcDbSpline
 62
8
  6
HIDDEN
 70
0
 71
3
 72
9
 73
5
 74
0
 42
0.0000001
 43
0.0000001
 44
0.0000000001
 40
0.0
 40
0.0
 40
0.0
 40
0.0
 40
0.5041126076
 40
1.0
 40
1.0
 40
1.0
 40
1.0
 10
102.2840920301
 20
124.5645802397
 30
0.0
 10
102.2339775365
 20
124.8250244119
 30
0.0
 10
102.0688636848
 20
125.33123026
 30
0.0
 10
101.7819083727
 20
125.779838256
 30
0.0
 10
101.6143153761
 20
125.9797844761
 30
0.0
  0
SPLINE
  5
384
100
AcDbEntity
  8
DEFAULT_2
100
AcDbSpline
 62
8
  6
HIDDEN
 70
0
 71
3
 72
9
 73
5
 74
0
 42
0.0000001
 43
0.0000001
 44
0.0000000001
 40
0.0
 40
0.0
 40
0.0
 40
0.0
 40
0.2365911081
 40
1.0
 40
1.0
 40
1.0
 40
1.0
 10
102.4114907103
 20
117.4099860692
 30
0.0
 10
102.409081436
 20
117.4130067357
 30
0.0
 10
102.3992862834
 20
117.4260829867
 30
0.0
 10
102.390979006
 20
117.440240206
 30
0.0
 10
102.3853479526
 20
117.451363441
 30
0.0
  0
SPLINE
  5
385
100
AcDbEntity
  8
DEFAULT_2
100
AcDbSpline
 62
8
  6
HIDDEN
 70
0
 71
3
 72
8
 73
4
 74
0
 42
0.0000001
 43
0.0000001
 44
0.0000000001
 40
0.0
 40
0.0
 40
0.0
 40
0.0
 40
1.0
 40
1.0
 40
1.0
 40
1.0
 10
102.3853479526
 20
117.451363441
 30
0.0
 10
102.3752831991
 20
117.4712447333
 30
0.0
 10
102.3673624917
 20
117.4922051194
 30
0.0
 10
102.3611194551
 20
117.5136989449
 30
0.0
  0
SPLINE
  5
386
100
AcDbEntity
  8
DEFAULT_2
100
AcDbSpline
 62
8
  6
HIDDEN
 70
0
 71
3
 72
11
 73
7
 74
0
 42
0.0000001
 43
0.0000001
 44
0.0000000001
 40
0.0
 40
0.0
 40
0.0
 40
0.0
 40
0.2393291801
 40
0.4855745766
 40
0.7393513648
 40
1.0
 40
1.0
 40
1.0
 40
1.0
 10
120.3183112699
 20
126.9683835711
 30
0.0
 10
120.1352657084
 20
126.9683764151
 30
0.0
 10
119.7625822754
 20
126.9225165547
 30
0.0
 10
119.2277461494
 20
126.7255104352
 30
0.0
 10
118.7340022333
 20
126.4099655237
 30
0.0
 10
118.4505465909
 20
126.1325668619
 30
0.0
 10
118.3224893283
 20
125.9797851024
 30
0.0
  0
SPLINE
  5
387
100
AcDbEntity
  8
DEFAULT_2
100
AcDbSpline
 62
8
  6
HIDDEN
 70
0
 71
3
 72
9
 73
5
 74
0
 42
0.0000001
 43
0.0000001
 44
0.0000000001
 40
0.0
 40
0.0
 40
0.0
 40
0.0
 40
0.4958860879
 40
1.0
 40
1.0
 40
1.0
 40
1.0
 10
118.3224893283
 20
125.9797851024
 30
0.0
 10
118.1548990669
 20
125.7798375594
 30
0.0
 10
117.8679532871
 20
125.3312292197
 30
0.0
 10
117.7028107187
 20
124.8250267061
 30
0.0
 10
117.6527255818
 20
124.5645762467
 30
0.0
  0
SPLINE
  5
388
100
AcDbEntity
  8
DEFAULT_2
100
AcDbSpline
 62
8
  6
HIDDEN
 70
0
 71
3
 72
9
 73
5
 74
0
 42
0.0000001
 43
0.0000001
 44
0.0000000001
 40
0.0
 40
0.0
 40
0.0
 40
0.0
 40
0.2582970486
 40
1.0
 40
1.0
 40
1.0
 40
1.0
 10
117.5959087701
 20
117.6634432086
 30
0.0
 10
117.5959073617
 20
117.6504106346
 30
0.0
 10
117.5942328258
 20
117.5999863699
 30
0.0
 10
117.5861088742
 20
117.5496406447
 30
0.0
 10
117.5756360671
 20
117.513712728
 30
0.0
  0
SPLINE
  5
389
100
AcDbEntity
  8
DEFAULT_2
100
AcDbSpline
 62
8
  6
HIDDEN
 70
0
 71
3
 72
9
 73
5
 74
0
 42
0.0000001
 43
0.0000001
 44
0.0000000001
 40
0.0
 40
0.0
 40
0.0
 40
0.0
 40
0.262092722
 40
1.0
 40
1.0
 40
1.0
 40
1.0
 10
117.5756360671
 20
117.513712728
 30
0.0
 10
117.5739998234
 20
117.5080994452
 30
0.0
 10
117.5673311655
 20
117.4868126946
 30
0.0
 10
117.5588901562
 20
117.4660503539
 30
0.0
 10
117.5514550463
 20
117.4513634903
 30
0.0
  0
SPLINE
  5
38A
100
AcDbEntity
  8
DEFAULT_2
100
AcDbSpline
 62
8
  6
HIDDEN
 70
0
 71
3
 72
9
 73
5
 74
0
 42
0.0000001
 43
0.0000001
 44
0.0000000001
 40
0.0
 40
0.0
 40
0.0
 40
0.0
 40
0.2636484798
 40
1.0
 40
1.0
 40
1.0
 40
1.0
 10
117.5514550463
 20
117.4513634903
 30
0.0
 10
117.5495104094
 20
117.4475221729
 30
0.0
 10
117.5418184623
 20
117.43311881
 30
0.0
 10
117.5328096498
 20
117.4193859043
 30
0.0
 10
117.5253114367
 20
117.4099850324
 30
0.0
  0
SPLINE
  5
38B
100
AcDbEntity
  8
DEFAULT_2
100
AcDbSpline
 62
8
  6
HIDDEN
 70
0
 71
3
 72
22
 73
18
 74
0
 42
0.0000001
 43
0.0000001
 44
0.0000000001
 40
0.0
 40
0.0
 40
0.0
 40
0.0
 40
0.1945343887
 40
0.3815989778
 40
0.5540720492
 40
0.7054991556
 40
0.771492951
 40
0.8301361567
 40
0.8808468846
 40
0.9231013796
 40
0.9564626079
 40
0.9696843769
 40
0.9805557628
 40
0.9890475539
 40
0.9951305114
 40
0.9987823827
 40
1.0
 40
1.0
 40
1.0
 40
1.0
 10
89.5172401508
 20
123.968401487
 30
0.0
 10
89.5169742957
 20
124.1638158072
 30
0.0
 10
89.5111783623
 20
124.5471729891
 30
0.0
 10
89.4840899
 20
125.1031862581
 30
0.0
 10
89.444114692
 20
125.61496925
 30
0.0
 10
89.4032614406
 20
126.0045342121
 30
0.0
 10
89.3694814083
 20
126.2797863315
 30
0.0
 10
89.3462835537
 20
126.4543957295
 30
0.0
 10
89.3249211581
 20
126.6051863753
 30
0.0
 10
89.3061953629
 20
126.7306949422
 30
0.0
 10
89.2925124712
 20
126.8188821049
 30
0.0
 10
89.2834297307
 20
126.8758734422
 30
0.0
 10
89.278293906
 20
126.9082084714
 30
0.0
 10
89.2740279218
 20
126.9333912947
 30
0.0
 10
89.2714359191
 20
126.951565893
 30
0.0
 10
89.2690049519
 20
126.9622353737
 30
0.0
 10
89.2688864448
 20
126.9672564764
 30
0.0
 10
89.2684117268
 20
126.9683837209
 30
0.0
  0
LINE
  5
38C
100
AcDbEntity
  8
DEFAULT_2
100
AcDbLine
 62
8
  6
HIDDEN
 10
91.9684020191
 20
116.0943399505
 11
89.6690794584
 21
117.4036366763
  0
SPLINE
  5
38D
100
AcDbEntity
  8
DEFAULT_2
100
AcDbSpline
 62
8
  6
HIDDEN
 70
0
 71
3
 72
9
 73
5
 74
0
 42
0.0000001
 43
0.0000001
 44
0.0000000001
 40
0.0
 40
0.0
 40
0.0
 40
0.0
 40
0.5023339267
 40
1.0
 40
1.0
 40
1.0
 40
1.0
 10
89.6690668517
 20
117.4036146142
 30
0.0
 10
89.6237566745
 20
117.4295083879
 30
0.0
 10
89.5455382261
 20
117.505979057
 30
0.0
 10
89.5172456532
 20
117.6117409901
 30
0.0
 10
89.5172345137
 20
117.6634432086
 30
0.0
  0
SPLINE
  5
38E
100
AcDbEntity
  8
DEFAULT_2
100
AcDbSpline
 62
8
  6
HIDDEN
 70
0
 71
3
 72
9
 73
5
 74
0
 42
0.0000001
 43
0.0000001
 44
0.0000000001
 40
0.0
 40
0.0
 40
0.0
 40
0.0
 40
0.2494999994
 40
1.0
 40
1.0
 40
1.0
 40
1.0
 10
118.968401487
 20
126.9683742459
 30
0.0
 10
119.0238621777
 20
126.9683742459
 30
0.0
 10
119.2460889742
 20
126.9602329595
 30
0.0
 10
119.4669825172
 20
126.9187728387
 30
0.0
 10
119.6266680393
 20
126.8704855286
 30
0.0
  0
LINE
  5
38F
100
AcDbEntity
  8
DEFAULT_2
100
AcDbLine
 62
8
  6
HIDDEN
 10
103.5664779777
 20
116.0943399972
 11
102.5623845539
 21
117.2376329231
  0
LINE
  5
390
100
AcDbEntity
  8
DEFAULT_2
100
AcDbLine
 62
8
  6
HIDDEN
 10
102.5623845539
 20
117.2376329231
 11
102.5219331058
 21
117.2837574911
  0
LINE
  5
391
100
AcDbEntity
  8
DEFAULT_2
100
AcDbLine
 62
8
  6
HIDDEN
 10
102.5219331058
 20
117.2837574911
 11
102.4168166856
 21
117.4036366818
  0
SPLINE
  5
392
100
AcDbEntity
  8
DEFAULT_2
100
AcDbSpline
 62
8
  6
HIDDEN
 70
0
 71
3
 72
28
 73
24
 74
0
 42
0.0000001
 43
0.0000001
 44
0.0000000001
 40
0.0
 40
0.0
 40
0.0
 40
0.0
 40
0.0003042469
 40
0.0012170462
 40
0.0027383918
 40
0.0048682774
 40
0.0076064816
 40
0.0109506073
 40
0.0194419715
 40
0.0303130114
 40
0.0435343908
 40
0.059076024
 40
0.076894817
 40
0.119148803
 40
0.1698590267
 40
0.2285020882
 40
0.2944956689
 40
0.3672011815
 40
0.4459254652
 40
0.5299284876
 40
0.6184028269
 40
0.8054663528
 40
1.0
 40
1.0
 40
1.0
 40
1.0
 10
130.6683912476
 20
126.9683837209
 30
0.0
 10
130.6686819795
 20
126.968477965
 30
0.0
 10
130.667656132
 20
126.9663075052
 30
0.0
 10
130.6680112121
 20
126.9645242926
 30
0.0
 10
130.6668131728
 20
126.9594688992
 30
0.0
 10
130.6659763387
 20
126.9533698663
 30
0.0
 10
130.664563128
 20
126.9451382552
 30
0.0
 10
130.6622355874
 20
126.9307340666
 30
0.0
 10
130.6585491942
 20
126.9081922455
 30
0.0
 10
130.6533606685
 20
126.8758886287
 30
0.0
 10
130.6471111354
 20
126.8365634826
 30
0.0
 10
130.6398688395
 20
126.7903360999
 30
0.0
 10
130.6283002637
 20
126.7152643777
 30
0.0
 10
130.6118871009
 20
126.6051959048
 30
0.0
 10
130.5905210786
 20
126.4544060705
 30
0.0
 10
130.5673209421
 20
126.2797966233
 30
0.0
 10
130.5431759353
 20
126.0830323866
 30
0.0
 10
130.5189949028
 20
125.8659613085
 30
0.0
 10
130.4957496237
 20
125.6306001212
 30
0.0
 10
130.4743162674
 20
125.3791636651
 30
0.0
 10
130.4486090303
 20
125.0189004764
 30
0.0
 10
130.4255850016
 20
124.547174195
 30
0.0
 10
130.4197636791
 20
124.1638165668
 30
0.0
 10
130.4195628232
 20
123.968401487
 30
0.0
  0
LINE
  5
393
100
AcDbEntity
  8
DEFAULT_2
100
AcDbLine
 62
8
  6
HIDDEN
 10
117.5199862942
 20
117.4036366612
 11
117.4149021644
 21
117.2837942349
  0
LINE
  5
394
100
AcDbEntity
  8
DEFAULT_2
100
AcDbLine
 62
8
  6
HIDDEN
 10
117.4149021644
 20
117.2837942349
 11
117.3744184519
 21
117.2376328587
  0
LINE
  5
395
100
AcDbEntity
  8
DEFAULT_2
100
AcDbLine
 62
8
  6
HIDDEN
 10
117.3744184519
 20
117.2376328587
 11
116.3703250009
 21
116.094339981
  0
LINE
  5
396
100
AcDbEntity
  8
DEFAULT_2
100
AcDbLine
 62
8
  6
HIDDEN
 10
130.2677235947
 20
117.4036365375
 11
127.9684010195
 21
116.0943398369
  0
SPLINE
  5
397
100
AcDbEntity
  8
DEFAULT_2
100
AcDbSpline
 62
8
  6
HIDDEN
 70
0
 71
3
 72
9
 73
5
 74
0
 42
0.0000001
 43
0.0000001
 44
0.0000000001
 40
0.0
 40
0.0
 40
0.0
 40
0.0
 40
0.4976662165
 40
1.0
 40
1.0
 40
1.0
 40
1.0
 10
130.419568476
 20
117.6634432086
 30
0.0
 10
130.4195573009
 20
117.6117409749
 30
0.0
 10
130.3912647582
 20
117.5059790291
 30
0.0
 10
130.3130462659
 20
117.4295084172
 30
0.0
 10
130.2677361197
 20
117.4036146187
 30
0.0
  0
SPLINE
  5
398
100
AcDbEntity
  8
DEFAULT_2
100
AcDbSpline
 62
8
  6
HIDDEN
 70
0
 71
3
 72
17
 73
13
 74
0
 42
0.0000001
 43
0.0000001
 44
0.0000000001
 40
0.0
 40
0.0
 40
0.0
 40
0.0
 40
0.1224494217
 40
0.185759429
 40
0.2495701205
 40
0.3746543927
 40
0.4985981853
 40
0.6226833806
 40
0.7478479296
 40
0.8109466647
 40
0.8739942561
 40
1.0
 40
1.0
 40
1.0
 40
1.0
 10
109.968401487
 20
162.568401487
 30
0.0
 10
110.2625330443
 20
162.5684156913
 30
0.0
 10
110.7104204628
 20
162.5258673229
 30
0.0
 10
111.292745319
 20
162.3805566402
 30
0.0
 10
111.8649323725
 20
162.1788509568
 30
0.0
 10
112.5322303448
 20
161.8216300573
 30
0.0
 10
113.2291259873
 20
161.2491959007
 30
0.0
 10
113.8008262091
 20
160.5513452737
 30
0.0
 10
114.156415506
 20
159.8846948448
 30
0.0
 10
114.3589434074
 20
159.3151034231
 30
0.0
 10
114.5062196874
 20
158.7268662229
 30
0.0
 10
114.5503304282
 20
158.2710754475
 30
0.0
 10
114.5505964472
 20
157.968401487
 30
0.0
  0
SPLINE
  5
399
100
AcDbEntity
  8
DEFAULT_2
100
AcDbSpline
 62
8
  6
HIDDEN
 70
0
 71
3
 72
17
 73
13
 74
0
 42
0.0000001
 43
0.0000001
 44
0.0000000001
 40
0.0
 40
0.0
 40
0.0
 40
0.0
 40
0.1260519731
 40
0.1891155383
 40
0.2522526467
 40
0.3774526503
 40
0.5015354715
 40
0.6252632291
 40
0.7502053359
 40
0.8140432711
 40
0.877407134
 40
1.0
 40
1.0
 40
1.0
 40
1.0
 10
105.3862065267
 20
157.968401487
 30
0.0
 10
105.3862146043
 20
158.2711865898
 30
0.0
 10
105.4306556658
 20
158.7271330184
 30
0.0
 10
105.5780169475
 20
159.3155803825
 30
0.0
 10
105.7806634894
 20
159.8853652776
 30
0.0
 10
106.1364728162
 20
160.5520966845
 30
0.0
 10
106.7080384628
 20
161.2494881727
 30
0.0
 10
107.4042714868
 20
161.8213162631
 30
0.0
 10
108.0707556338
 20
162.178346829
 30
0.0
 10
108.6427583911
 20
162.3801317696
 30
0.0
 10
109.2255522311
 20
162.525800215
 30
0.0
 10
109.6739253866
 20
162.5683872688
 30
0.0
 10
109.968401487
 20
162.568401487
 30
0.0
  0
SPLINE
  5
39A
100
AcDbEntity
  8
DEFAULT_2
100
AcDbSpline
 62
8
  6
HIDDEN
 70
0
 71
3
 72
16
 73
12
 74
0
 42
0.0000001
 43
0.0000001
 44
0.0000000001
 40
0.0
 40
0.0
 40
0.0
 40
0.0
 40
0.1224888958
 40
0.1857910138
 40
0.2495886063
 40
0.374675847
 40
0.4986627417
 40
0.6227701464
 40
0.7479596119
 40
0.873971054
 40
1.0
 40
1.0
 40
1.0
 40
1.0
 10
109.968401487
 20
153.368401487
 30
0.0
 10
109.6742191982
 20
153.3683893067
 30
0.0
 10
109.2263229252
 20
153.4109466046
 30
0.0
 10
108.6440431099
 20
153.5562496659
 30
0.0
 10
108.0719846001
 20
153.7579113019
 30
0.0
 10
107.4046942418
 20
154.1150884701
 30
0.0
 10
106.7077821132
 20
154.6874983746
 30
0.0
 10
106.1359132463
 20
155.3854849395
 30
0.0
 10
105.7091105702
 20
156.1860900046
 30
0.0
 10
105.4455377462
 20
157.0587280949
 30
0.0
 10
105.386198451
 20
157.6657170388
 30
0.0
 10
105.3862065267
 20
157.968401487
 30
0.0
  0
SPLINE
  5
39B
100
AcDbEntity
  8
DEFAULT_2
100
AcDbSpline
 62
8
  6
HIDDEN
 70
0
 71
3
 72
17
 73
13
 74
0
 42
0.0000001
 43
0.0000001
 44
0.0000000001
 40
0.0
 40
0.0
 40
0.0
 40
0.0
 40
0.1260434543
 40
0.1891085199
 40
0.2522466049
 40
0.3774390667
 40
0.5015177483
 40
0.6252178657
 40
0.7501730104
 40
0.8140343489
 40
0.8774180367
 40
1.0
 40
1.0
 40
1.0
 40
1.0
 10
114.5505964472
 20
157.968401487
 30
0.0
 10
114.5505885342
 20
157.6656368255
 30
0.0
 10
114.5061546114
 20
157.2097068355
 30
0.0
 10
114.3587969894
 20
156.6212735651
 30
0.0
 10
114.1561670511
 20
156.0514957249
 30
0.0
 10
113.8003772109
 20
155.3847834865
 30
0.0
 10
113.2288901701
 20
154.687450752
 30
0.0
 10
112.5327224703
 20
154.1156197651
 30
0.0
 10
111.8662416809
 20
153.7585333652
 30
0.0
 10
111.2941143155
 20
153.5566930074
 30
0.0
 10
110.7112465117
 20
153.4109982461
 30
0.0
 10
110.2628514194
 20
153.3684136783
 30
0.0
 10
109.968401487
 20
153.368401487
 30
0.0
  0
LINE
  5
39C
100
AcDbEntity
  8
0
100
AcDbLine
 62
7
  6
CONTINUOUS
 10
127.9684012109
 20
115.8651824331
 11
130.3665037176
 21
117.23043152
  0
LINE
  5
39D
100
AcDbEntity
  8
0
100
AcDbLine
 62
7
  6
CONTINUOUS
 10
116.1818809063
 20
115.8651823936
 11
117.3826856224
 21
117.2304316144
  0
LINE
  5
39E
100
AcDbEntity
  8
0
100
AcDbLine
 62
7
  6
CONTINUOUS
 10
130.8657521769
 20
127.1513840382
 11
130.8683909055
 21
127.1683836307
  0
LINE
  5
39F
100
AcDbEntity
  8
0
100
AcDbLine
 62
7
  6
CONTINUOUS
 10
102.5541173618
 20
117.2304316398
 11
103.7549220711
 21
115.8651824029
  0
LINE
  5
3A0
100
AcDbEntity
  8
0
100
AcDbLine
 62
7
  6
CONTINUOUS
 10
89.5702993467
 20
117.2304316784
 11
91.9684018213
 21
115.8651825499
  0
LINE
  5
3A1
100
AcDbEntity
  8
0
100
AcDbLine
 62
7
  6
CONTINUOUS
 10
89.071142014
 20
127.1507963975
 11
89.0684120684
 21
127.1683836312
  0
SPLINE
  5
3A2
100
AcDbEntity
  8
0
100
AcDbSpline
 62
7
  6
CONTINUOUS
 70
0
 71
3
 72
9
 73
5
 74
0
 42
0.0000001
 43
0.0000001
 44
0.0000000001
 40
0.0
 40
0.0
 40
0.0
 40
0.0
 40
0.2365910794
 40
1.0
 40
1.0
 40
1.0
 40
1.0
 10
117.5253122109
 20
117.4099860171
 30
0.0
 10
117.527721493
 20
117.4130066934
 30
0.0
 10
117.5375166804
 20
117.4260829873
 30
0.0
 10
117.5458239897
 20
117.4402402525
 30
0.0
 10
117.5514550614
 20
117.451363526
 30
0.0
  0
SPLINE
  5
3A3
100
AcDbEntity
  8
0
100
AcDbSpline
 62
7
  6
CONTINUOUS
 70
0
 71
3
 72
9
 73
5
 74
0
 42
0.0000001
 43
0.0000001
 44
0.0000000001
 40
0.0
 40
0.0
 40
0.0
 40
0.0
 40
0.2375527961
 40
1.0
 40
1.0
 40
1.0
 40
1.0
 10
117.5514550614
 20
117.451363526
 30
0.0
 10
117.5538487606
 20
117.4560918923
 30
0.0
 10
117.5633904978
 20
117.4762662902
 30
0.0
 10
117.5708758512
 20
117.4973823791
 30
0.0
 10
117.5756360661
 20
117.5137127279
 30
0.0
  0
SPLINE
  5
3A4
100
AcDbEntity
  8
0
100
AcDbSpline
 62
7
  6
CONTINUOUS
 70
0
 71
3
 72
9
 73
5
 74
0
 42
0.0000001
 43
0.0000001
 44
0.0000000001
 40
0.0
 40
0.0
 40
0.0
 40
0.0
 40
0.2398538788
 40
1.0
 40
1.0
 40
1.0
 40
1.0
 10
117.5756360661
 20
117.5137127279
 30
0.0
 10
117.5790231389
 20
117.5253323884
 30
0.0
 10
117.5911399296
 20
117.5743512569
 30
0.0
 10
117.5959046194
 20
117.6250855133
 30
0.0
 10
117.595908778
 20
117.6634432086
 30
0.0
  0
SPLINE
  5
3A5
100
AcDbEntity
  8
0
100
AcDbSpline
 62
7
  6
CONTINUOUS
 70
0
 71
3
 72
13
 73
9
 74
0
 42
0.0000001
 43
0.0000001
 44
0.0000000001
 40
0.0
 40
0.0
 40
0.0
 40
0.0
 40
0.1155010294
 40
0.2341046249
 40
0.3561303114
 40
0.4813609154
 40
0.7380575986
 40
1.0
 40
1.0
 40
1.0
 40
1.0
 10
99.6184916579
 20
126.9683835711
 30
0.0
 10
99.7903631269
 20
126.9683768556
 30
0.0
 10
100.1398259504
 20
126.9280253095
 30
0.0
 10
100.6443023775
 20
126.7540396517
 30
0.0
 10
101.1154394617
 20
126.4738012796
 30
0.0
 10
101.6766913267
 20
125.9704677078
 30
0.0
 10
102.1951461595
 20
125.1371212006
 30
0.0
 10
102.3411573744
 20
124.3581851584
 30
0.0
 10
102.3408970302
 20
123.968401487
 30
0.0
  0
SPLINE
  5
3A6
100
AcDbEntity
  8
0
100
AcDbSpline
 62
7
  6
CONTINUOUS
 70
0
 71
3
 72
13
 73
9
 74
0
 42
0.0000001
 43
0.0000001
 44
0.0000000001
 40
0.0
 40
0.0
 40
0.0
 40
0.0
 40
0.0192386087
 40
0.0761652084
 40
0.1684951426
 40
0.2926457644
 40
0.6167373117
 40
1.0
 40
1.0
 40
1.0
 40
1.0
 10
89.0684120684
 20
127.1683836312
 30
0.0
 10
89.071454165
 20
127.1480065439
 30
0.0
 10
89.0842425935
 20
127.0674474379
 30
0.0
 10
89.1105006657
 20
126.8889206891
 30
0.0
 10
89.1505546274
 20
126.598869772
 30
0.0
 10
89.2199573387
 20
126.0241074741
 30
0.0
 10
89.2965967089
 20
125.1365686144
 30
0.0
 10
89.3195783284
 20
124.3788432187
 30
0.0
 10
89.3196443891
 20
123.968401487
 30
0.0
  0
SPLINE
  5
3A7
100
AcDbEntity
  8
0
100
AcDbSpline
 62
7
  6
CONTINUOUS
 70
0
 71
3
 72
13
 73
9
 74
0
 42
0.0000001
 43
0.0000001
 44
0.0000000001
 40
0.0
 40
0.0
 40
0.0
 40
0.0
 40
0.2619408765
 40
0.5186381346
 40
0.6438693038
 40
0.7658949751
 40
0.8844982529
 40
1.0
 40
1.0
 40
1.0
 40
1.0
 10
117.5959059437
 20
123.968401487
 30
0.0
 10
117.5954724158
 20
124.3581856134
 30
0.0
 10
117.7417359234
 20
125.1371268926
 30
0.0
 10
118.2601090027
 20
125.9704769332
 30
0.0
 10
118.8213810002
 20
126.4738114567
 30
0.0
 10
119.2925209392
 20
126.7540499336
 30
0.0
 10
119.797003978
 20
126.9280328326
 30
0.0
 10
120.1464705737
 20
126.9683790766
 30
0.0
 10
120.3183443799
 20
126.9683835408
 30
0.0
  0
LINE
  5
3A8
100
AcDbEntity
  8
0
100
AcDbLine
 62
7
  6
CONTINUOUS
 10
130.8683909055
 20
127.1683836307
 11
130.8656758441
 21
127.1508909348
  0
SPLINE
  5
3A9
100
AcDbEntity
  8
0
100
AcDbSpline
 62
7
  6
CONTINUOUS
 70
0
 71
3
 72
9
 73
5
 74
0
 42
0.0000001
 43
0.0000001
 44
0.0000000001
 40
0.0
 40
0.0
 40
0.0
 40
0.0
 40
0.2582965552
 40
1.0
 40
1.0
 40
1.0
 40
1.0
 10
102.340894196
 20
117.6634432086
 30
0.0
 10
102.3408956089
 20
117.6504106595
 30
0.0
 10
102.3425701584
 20
117.599986396
 30
0.0
 10
102.3506940932
 20
117.5496406683
 30
0.0
 10
102.3611669079
 20
117.5137127279
 30
0.0
  0
SPLINE
  5
3AA
100
AcDbEntity
  8
0
100
AcDbSpline
 62
7
  6
CONTINUOUS
 70
0
 71
3
 72
9
 73
5
 74
0
 42
0.0000001
 43
0.0000001
 44
0.0000000001
 40
0.0
 40
0.0
 40
0.0
 40
0.0
 40
0.2759213743
 40
1.0
 40
1.0
 40
1.0
 40
1.0
 10
102.3611669079
 20
117.5137127279
 30
0.0
 10
102.3641438711
 20
117.5034999858
 30
0.0
 10
102.3762623995
 20
117.4669548293
 30
0.0
 10
102.3940845179
 20
117.4318090671
 30
0.0
 10
102.41149159
 20
117.4099849804
 30
0.0
  0
SPLINE
  5
3AB
100
AcDbEntity
  8
0
100
AcDbSpline
 62
7
  6
CONTINUOUS
 70
0
 71
3
 72
9
 73
5
 74
0
 42
0.0000001
 43
0.0000001
 44
0.0000000001
 40
0.0
 40
0.0
 40
0.0
 40
0.0
 40
0.2305047284
 40
1.0
 40
1.0
 40
1.0
 40
1.0
 10
117.382686045
 20
117.2304305079
 30
0.0
 10
117.3870289207
 20
117.2360420487
 30
0.0
 10
117.404951182
 20
117.26109638
 30
0.0
 10
117.4194675717
 20
117.2884779906
 30
0.0
 10
117.429148719
 20
117.3100971886
 30
0.0
  0
SPLINE
  5
3AC
100
AcDbEntity
  8
0
100
AcDbSpline
 62
7
  6
CONTINUOUS
 70
0
 71
3
 72
9
 73
5
 74
0
 42
0.0000001
 43
0.0000001
 44
0.0000000001
 40
0.0
 40
0.0
 40
0.0
 40
0.0
 40
0.2363543687
 40
1.0
 40
1.0
 40
1.0
 40
1.0
 10
117.429148719
 20
117.3100971886
 30
0.0
 10
117.4326837341
 20
117.317991314
 30
0.0
 10
117.4467956784
 20
117.351767696
 30
0.0
 10
117.4577838083
 20
117.3868062536
 30
0.0
 10
117.4647736201
 20
117.4138639104
 30
0.0
  0
SPLINE
  5
3AD
100
AcDbEntity
  8
0
100
AcDbSpline
 62
7
  6
CONTINUOUS
 70
0
 71
3
 72
9
 73
5
 74
0
 42
0.0000001
 43
0.0000001
 44
0.0000000001
 40
0.0
 40
0.0
 40
0.0
 40
0.0
 40
0.2416936286
 40
1.0
 40
1.0
 40
1.0
 40
1.0
 10
117.4647736201
 20
117.4138639104
 30
0.0
 10
117.4672433675
 20
117.4234243362
 30
0.0
 10
117.4767285912
 20
117.4631678753
 30
0.0
 10
117.4834310426
 20
117.5035609639
 30
0.0
 10
117.4871177206
 20
117.5343210726
 30
0.0
  0
SPLINE
  5
3AE
100
AcDbEntity
  8
0
100
AcDbSpline
 62
7
  6
CONTINUOUS
 70
0
 71
3
 72
10
 73
6
 74
0
 42
0.0000001
 43
0.0000001
 44
0.0000000001
 40
0.0
 40
0.0
 40
0.0
 40
0.0
 40
0.2112874496
 40
0.4540433123
 40
1.0
 40
1.0
 40
1.0
 40
1.0
 10
96.9845832373
 20
117.2304305079
 30
0.0
 10
96.9619557612
 20
117.2539427565
 30
0.0
 10
96.9214304869
 20
117.312348428
 30
0.0
 10
96.8623825594
 20
117.4557308091
 30
0.0
 10
96.8459521713
 20
117.5791244289
 30
0.0
 10
96.8459659813
 20
117.6634432098
 30
0.0
  0
LINE
  5
3AF
100
AcDbEntity
  8
0
100
AcDbLine
 62
7
  6
CONTINUOUS
 10
122.9522195144
 20
117.2304316946
 11
121.7549217906
 21
115.8651825316
  0
SPLINE
  5
3B0
100
AcDbEntity
  8
0
100
AcDbSpline
 62
7
  6
CONTINUOUS
 70
0
 71
3
 72
12
 73
8
 74
0
 42
0.0000001
 43
0.0000001
 44
0.0000000001
 40
0.0
 40
0.0
 40
0.0
 40
0.0
 40
0.1166561221
 40
0.2355784738
 40
0.4809712496
 40
0.7371616026
 40
1.0
 40
1.0
 40
1.0
 40
1.0
 10
119.6266680393
 20
126.8704855286
 30
0.0
 10
119.7652102813
 20
126.8285917357
 30
0.0
 10
120.0376710701
 20
126.7173933581
 30
0.0
 10
120.5431646023
 20
126.3953781007
 30
0.0
 10
121.0741637828
 20
125.81660505
 30
0.0
 10
121.4748405694
 20
124.942443233
 30
0.0
 10
121.5664776983
 20
124.2945109234
 30
0.0
 10
121.5664776983
 20
123.968401487
 30
0.0
  0
SPLINE
  5
3B1
100
AcDbEntity
  8
0
100
AcDbSpline
 62
7
  6
CONTINUOUS
 70
0
 71
3
 72
21
 73
17
 74
0
 42
0.0000001
 43
0.0000001
 44
0.0000000001
 40
0.0
 40
0.0
 40
0.0
 40
0.0
 40
0.0637702519
 40
0.128637876
 40
0.1932395414
 40
0.2563341237
 40
0.3172221284
 40
0.3761956499
 40
0.4341893068
 40
0.4923313317
 40
0.5514232197
 40
0.6119152924
 40
0.6742570271
 40
0.7387307109
 40
0.871012736
 40
1.0
 40
1.0
 40
1.0
 40
1.0
 10
96.8458032089
 20
123.9684010422
 30
0.0
 10
96.8456031467
 20
124.168197032
 30
0.0
 10
96.8761856254
 20
124.5718588612
 30
0.0
 10
97.0131913233
 20
125.164063031
 30
0.0
 10
97.2459316459
 20
125.7240534354
 30
0.0
 10
97.5701180725
 20
126.2223611812
 30
0.0
 10
97.9754118191
 20
126.6336888636
 30
0.0
 10
98.4471186343
 20
126.9390494259
 30
0.0
 10
98.9679323733
 20
127.126580478
 30
0.0
 10
99.5182320702
 20
127.1892343309
 30
0.0
 10
100.0760609492
 20
127.1261629779
 30
0.0
 10
100.6195485076
 20
126.941045688
 30
0.0
 10
101.1285142459
 20
126.6409175091
 30
0.0
 10
101.7374053178
 20
126.0973686776
 30
0.0
 10
102.2877724594
 20
125.2072017416
 30
0.0
 10
102.4416834936
 20
124.3821150545
 30
0.0
 10
102.4424440687
 20
123.9779908021
 30
0.0
  0
SPLINE
  5
3B2
100
AcDbEntity
  8
0
100
AcDbSpline
 62
7
  6
CONTINUOUS
 70
0
 71
3
 72
13
 73
9
 74
0
 42
0.0000001
 43
0.0000001
 44
0.0000000001
 40
0.0
 40
0.0
 40
0.0
 40
0.0
 40
0.1174438681
 40
0.2343936324
 40
0.3528347452
 40
0.4745415856
 40
0.7301596573
 40
1.0
 40
1.0
 40
1.0
 40
1.0
 10
120.3183443799
 20
126.9683835408
 30
0.0
 10
120.4870930771
 20
126.9683879239
 30
0.0
 10
120.8252633986
 20
126.9300290473
 30
0.0
 10
121.3061463466
 20
126.7560959862
 30
0.0
 10
121.7398688004
 20
126.4737782293
 30
0.0
 10
122.2426878614
 20
125.9623793624
 30
0.0
 10
122.6789445359
 20
125.1163149645
 30
0.0
 10
122.7918252318
 20
124.3561203081
 30
0.0
 10
122.7920583665
 20
123.968401487
 30
0.0
  0
SPLINE
  5
3B3
100
AcDbEntity
  8
0
100
AcDbSpline
 62
7
  6
CONTINUOUS
 70
0
 71
3
 72
10
 73
6
 74
0
 42
0.0000001
 43
0.0000001
 44
0.0000000001
 40
0.0
 40
0.0
 40
0.0
 40
0.0
 40
0.5459566877
 40
0.7887125504
 40
1.0
 40
1.0
 40
1.0
 40
1.0
 10
123.0908369927
 20
117.6634432098
 30
0.0
 10
123.0908508027
 20
117.5791244289
 30
0.0
 10
123.0744204145
 20
117.4557308091
 30
0.0
 10
123.0153724871
 20
117.312348428
 30
0.0
 10
122.9748472128
 20
117.2539427565
 30
0.0
 10
122.9522197367
 20
117.2304305079
 30
0.0
  0
SPLINE
  5
3B4
100
AcDbEntity
  8
0
100
AcDbSpline
 62
7
  6
CONTINUOUS
 70
0
 71
3
 72
23
 73
19
 74
0
 42
0.0000001
 43
0.0000001
 44
0.0000000001
 40
0.0
 40
0.0
 40
0.0
 40
0.0
 40
0.063537056
 40
0.1291117718
 40
0.1956587558
 40
0.2618273761
 40
0.3262913987
 40
0.3886029916
 40
0.4490369752
 40
0.5080611388
 40
0.5661176774
 40
0.6239882374
 40
0.6828371575
 40
0.7435993435
 40
0.8066020026
 40
0.8711823665
 40
0.9361015974
 40
1.0
 40
1.0
 40
1.0
 40
1.0
 10
117.4944146982
 20
123.9779689243
 30
0.0
 10
117.4946442759
 20
124.1772593975
 30
0.0
 10
117.5331244813
 20
124.5829811257
 30
0.0
 10
117.6991817946
 20
125.177157208
 30
0.0
 10
117.9767483677
 20
125.73797311
 30
0.0
 10
118.3527716278
 20
126.2337248949
 30
0.0
 10
118.8066256092
 20
126.6398097549
 30
0.0
 10
119.3156635237
 20
126.940305486
 30
0.0
 10
119.8592059372
 20
127.125824252
 30
0.0
 10
120.4169572172
 20
127.1892069662
 30
0.0
 10
120.9670545856
 20
127.1269937378
 30
0.0
 10
121.4876081849
 20
126.9400278255
 30
0.0
 10
121.959168205
 20
126.6354630068
 30
0.0
 10
122.3646403616
 20
126.2249144344
 30
0.0
 10
122.6893246921
 20
125.7270247757
 30
0.0
 10
122.9227966947
 20
125.1667985569
 30
0.0
 10
123.0604344307
 20
124.5735050309
 30
0.0
 10
123.091154561
 20
124.1688251304
 30
0.0
 10
123.0910337277
 20
123.96840116
 30
0.0
  0
LINE
  5
3B5
100
AcDbEntity
  8
0
100
AcDbLine
 62
7
  6
CONTINUOUS
 10
98.1818811561
 20
115.8651823531
 11
96.9845834455
 21
117.2304316156
  0
LINE
  5
3B6
100
AcDbEntity
  8
0
100
AcDbLine
 62
7
  6
CONTINUOUS
 10
122.7161386954
 20
117.4036367368
 11
121.5664773764
 21
116.0943401471
  0
SPLINE
  5
3B7
100
AcDbEntity
  8
0
100
AcDbSpline
 62
7
  6
CONTINUOUS
 70
0
 71
3
 72
9
 73
5
 74
0
 42
0.0000001
 43
0.0000001
 44
0.0000000001
 40
0.0
 40
0.0
 40
0.0
 40
0.0
 40
0.5504748889
 40
1.0
 40
1.0
 40
1.0
 40
1.0
 10
122.7920612007
 20
117.6634432086
 30
0.0
 10
122.7920557408
 20
117.613082652
 30
0.0
 10
122.7810109796
 20
117.5216293035
 30
0.0
 10
122.7432247017
 20
117.4345656223
 30
0.0
 10
122.7161450134
 20
117.4036146233
 30
0.0
  0
SPLINE
  5
3B8
100
AcDbEntity
  8
0
100
AcDbSpline
 62
7
  6
CONTINUOUS
 70
0
 71
3
 72
12
 73
8
 74
0
 42
0.0000001
 43
0.0000001
 44
0.0000000001
 40
0.0
 40
0.0
 40
0.0
 40
0.0
 40
0.2628393266
 40
0.5190299478
 40
0.7644221527
 40
0.8833441413
 40
1.0
 40
1.0
 40
1.0
 40
1.0
 10
98.3703252756
 20
123.968401487
 30
0.0
 10
98.3703252756
 20
124.2945277496
 30
0.0
 10
98.4619718388
 20
124.9424931054
 30
0.0
 10
98.8626887398
 20
125.8166899655
 30
0.0
 10
99.3937387356
 20
126.3954692107
 30
0.0
 10
99.8992748675
 20
126.7174691335
 30
0.0
 10
100.1717563032
 20
126.8286529566
 30
0.0
 10
100.310308147
 20
126.8705378989
 30
0.0
  0
SPLINE
  5
3B9
100
AcDbEntity
  8
0
100
AcDbSpline
 62
7
  6
CONTINUOUS
 70
0
 71
3
 72
14
 73
10
 74
0
 42
0.0000001
 43
0.0000001
 44
0.0000000001
 40
0.0
 40
0.0
 40
0.0
 40
0.0
 40
0.2695549504
 40
0.4000130165
 40
0.5259544572
 40
0.6475340241
 40
0.7658509742
 40
0.8826790298
 40
1.0
 40
1.0
 40
1.0
 40
1.0
 10
97.1447446075
 20
123.968401487
 30
0.0
 10
97.1451275879
 20
124.3561201704
 30
0.0
 10
97.2321299331
 20
124.9376869201
 30
0.0
 10
97.5265545092
 20
125.6376687632
 30
0.0
 10
97.8254306715
 20
126.0958908085
 30
0.0
 10
98.1969642881
 20
126.4738189594
 30
0.0
 10
98.630668778
 20
126.7560982562
 30
0.0
 10
99.111567122
 20
126.9300372581
 30
0.0
 10
99.4497410778
 20
126.9683901646
 30
0.0
 10
99.6184916579
 20
126.9683835711
 30
0.0
  0
SPLINE
  5
3BA
100
AcDbEntity
  8
0
100
AcDbSpline
 62
7
  6
CONTINUOUS
 70
0
 71
3
 72
9
 73
5
 74
0
 42
0.0000001
 43
0.0000001
 44
0.0000000001
 40
0.0
 40
0.0
 40
0.0
 40
0.0
 40
0.2576862843
 40
1.0
 40
1.0
 40
1.0
 40
1.0
 10
102.4496852534
 20
117.5343210726
 30
0.0
 10
102.4509380349
 20
117.5238683846
 30
0.0
 10
102.4564325656
 20
117.4833853923
 30
0.0
 10
102.464444131
 20
117.4432264113
 30
0.0
 10
102.4720293538
 20
117.4138639104
 30
0.0
  0
SPLINE
  5
3BB
100
AcDbEntity
  8
0
100
AcDbSpline
 62
7
  6
CONTINUOUS
 70
0
 71
3
 72
9
 73
5
 74
0
 42
0.0000001
 43
0.0000001
 44
0.0000000001
 40
0.0
 40
0.0
 40
0.0
 40
0.0
 40
0.2632530144
 40
1.0
 40
1.0
 40
1.0
 40
1.0
 10
102.4720293538
 20
117.4138639104
 30
0.0
 10
102.4744388458
 20
117.4045367342
 30
0.0
 10
102.4842324415
 20
117.3692811655
 30
0.0
 10
102.4966357032
 20
117.3347029761
 30
0.0
 10
102.507654255
 20
117.3100971886
 30
0.0
  0
SPLINE
  5
3BC
100
AcDbEntity
  8
0
100
AcDbSpline
 62
7
  6
CONTINUOUS
 70
0
 71
3
 72
9
 73
5
 74
0
 42
0.0000001
 43
0.0000001
 44
0.0000000001
 40
0.0
 40
0.0
 40
0.0
 40
0.0
 40
0.2695289294
 40
1.0
 40
1.0
 40
1.0
 40
1.0
 10
102.507654255
 20
117.3100971886
 30
0.0
 10
102.5110448241
 20
117.3025256289
 30
0.0
 10
102.5243017961
 20
117.2747571971
 30
0.0
 10
102.5403560262
 20
117.2482113223
 30
0.0
 10
102.554116929
 20
117.2304305079
 30
0.0
  0
LINE
  5
3BD
100
AcDbEntity
  8
0
100
AcDbLine
 62
7
  6
CONTINUOUS
 10
98.3703255382
 20
116.0943399381
 11
97.2206642567
 21
117.4036366598
  0
SPLINE
  5
3BE
100
AcDbEntity
  8
0
100
AcDbSpline
 62
7
  6
CONTINUOUS
 70
0
 71
3
 72
9
 73
5
 74
0
 42
0.0000001
 43
0.0000001
 44
0.0000000001
 40
0.0
 40
0.0
 40
0.0
 40
0.0
 40
0.4495251111
 40
1.0
 40
1.0
 40
1.0
 40
1.0
 10
97.2206579606
 20
117.4036146233
 30
0.0
 10
97.1935782722
 20
117.4345656223
 30
0.0
 10
97.1557919944
 20
117.5216293035
 30
0.0
 10
97.1447472332
 20
117.613082652
 30
0.0
 10
97.1447417733
 20
117.6634432086
 30
0.0
  0
LINE
  5
3BF
100
AcDbEntity
  8
0
100
AcDbLine
 62
7
  6
CONTINUOUS
 10
121.7549225747
 20
115.8651819606
 11
121.5664776983
 21
116.0943390144
  0
LINE
  5
3C0
100
AcDbEntity
  8
0
100
AcDbLine
 62
7
  6
CONTINUOUS
 10
98.3703252756
 20
116.0943390144
 11
98.1818805869
 21
115.8651819386
  0
ENDSEC
  0
SECTION
  2
OBJECTS
  0
DICTIONARY
  5
C
100
AcDbDictionary
280
0
281
1
  3
ACAD_GROUP
350
D
  3
ACAD_MLINESTYLE
350
17
  3
ACAD_LAYOUT
350
1A
  3
ACAD_PLOTSETTINGS
350
19
  3
ACAD_PLOTSTYLENAME
350
E
  0
DICTIONARY
  5
D
102
{ACAD_REACTORS
330
C
102
}
100
AcDbDictionary
280
0
281
1
  0
ACDBDICTIONARYWDFLT
  5
E
102
{ACAD_REACTORS
330
C
102
}
100
AcDbDictionary
281
1
  3
Normal
350
F
100
AcDbDictionaryWithDefault
340
F
  0
DICTIONARY
  5
17
102
{ACAD_REACTORS
330
C
102
}
100
AcDbDictionary
280
0
281
1
  3
Standard
350
18
  0
DICTIONARY
  5
19
102
{ACAD_REACTORS
330
C
102
}
100
AcDbDictionary
281
1
  0
DICTIONARY
  5
1A
102
{ACAD_REACTORS
330
C
102
}
100
AcDbDictionary
281
1
  3
Model
350
3C1
  3
Layout1
350
3C2
  0
ACDBPLACEHOLDER
  5
F
102
{ACAD_REACTORS
330
E
102
}
  0
MLINESTYLE
  5
18
102
{ACAD_REACTORS
330
17
102
}
100
AcDbMlineStyle
  2
STANDARD
 70
0
  3

 62
256
 51
90.0
 52
90.0
 71
2
 49
0.5
 62
256
  6
BYLAYER
 49
-0.5
 62
256
  6
BYLAYER
  0
LAYOUT
  5
3C1
102
{ACAD_REACTORS
330
1A
102
}
100
AcDbPlotSettings
  1

  2
none_device
  4

  6

 40
0.0
 41
0.0
 42
0.0
 43
0.0
 44
210.0
 45
297.0
 46
0.0
 47
0.0
 48
0.0
 49
0.0
140
0.0
141
0.0
142
1.0
143
1.0
 70
1024
 72
1
 73
0
 74
0
  7

 75
0
147
1.0
148
0.0
149
0.0
100
AcDbLayout
  1
Model
 70
0
 71
0
 10
0.0
 20
0.0
 11
210.0
 21
297.0
 12
0.0
 22
0.0
 32
0.0
 14
0.0
 24
0.0
 34
0.0
 15
0.0
 25
0.0
 35
0.0
146
0.0
 13
0.0
 23
0.0
 33
0.0
 16
1.0
 26
0.0
 36
0.0
 17
0.0
 27
1.0
 37
0.0
 76
0
330
210
345
0
346
0
  0
LAYOUT
  5
3C2
102
{ACAD_REACTORS
330
1A
102
}
100
AcDbPlotSettings
  1

  2
none_device
  4

  6

 40
0.0
 41
0.0
 42
0.0
 43
0.0
 44
210.0
 45
297.0
 46
0.0
 47
0.0
 48
0.0
 49
0.0
140
0.0
141
0.0
142
1.0
143
1.0
 70
0
 72
1
 73
0
 74
0
  7

 75
0
147
1.0
148
0.0
149
0.0
100
AcDbLayout
  1
Layout1
 70
0
 71
1
 10
0.0
 20
0.0
 11
210.0
 21
297.0
 12
0.0
 22
0.0
 32
0.0
 14
0.0
 24
0.0
 34
0.0
 15
0.0
 25
0.0
 35
0.0
146
0.0
 13
0.0
 23
0.0
 33
0.0
 16
1.0
 26
0.0
 36
0.0
 17
0.0
 27
1.0
 37
0.0
 76
0
330
211
345
0
346
0
  0
ENDSEC
  0
EOF
