  0
SECTION
  2
HEADER
  9
$ACADVER
  1
AC1018
  9
$ACADMAINTVER
 70
    76
  9
$DWGCODEPAGE
  3
ANSI_1252
  9
$INSBASE
 10
0.0
 20
0.0
 30
0.0
  9
$EXTMIN
 10
232.5
 20
-3.0625
 30
0.0
  9
$EXTMAX
 10
432.5
 20
283.9375
 30
0.0
  9
$LIMMIN
 10
0.0
 20
0.0
  9
$LIMMAX
 10
420.0
 20
297.0
  9
$ORTHOMODE
 70
     0
  9
$REGENMODE
 70
     1
  9
$FILLMODE
 70
     1
  9
$QTEXTMODE
 70
     0
  9
$MIRRTEXT
 70
     0
  9
$LTSCALE
 40
23.1
  9
$ATTMODE
 70
     1
  9
$TEXTSIZE
 40
0.2
  9
$TRACEWID
 40
0.05
  9
$TEXTSTYLE
  7
STANDARD
  9
$CLAYER
  8
0
  9
$CELTYPE
  6
BYLAYER
  9
$CECOLOR
 62
   256
  9
$CELTSCALE
 40
1.0
  9
$DISPSILH
 70
     0
  9
$DIMSCALE
 40
1.0
  9
$DIMASZ
 40
4.759999999999999
  9
$DIMEXO
 40
2.625
  9
$DIMDLI
 40
15.96
  9
$DIMRND
 40
0.0
  9
$DIMDLE
 40
0.0
  9
$DIMEXE
 40
7.559999999999999
  9
$DIMTP
 40
0.001
  9
$DIMTM
 40
0.001
  9
$DIMTXT
 40
3.0
  9
$DIMCEN
 40
3.779999999999999
  9
$DIMTSZ
 40
0.0
  9
$DIMTOL
 70
     1
  9
$DIMLIM
 70
     0
  9
$DIMTIH
 70
     1
  9
$DIMTOH
 70
     1
  9
$DIMSE1
 70
     0
  9
$DIMSE2
 70
     0
  9
$DIMTAD
 70
     0
  9
$DIMZIN
 70
     0
  9
$DIMBLK
  1

  9
$DIMASO
 70
     1
  9
$DIMSHO
 70
     1
  9
$DIMPOST
  1

  9
$DIMAPOST
  1

  9
$DIMALT
 70
     0
  9
$DIMALTD
 70
     2
  9
$DIMALTF
 40
25.4
  9
$DIMLFAC
 40
1.0
  9
$DIMTOFL
 70
     0
  9
$DIMTVP
 40
0.0
  9
$DIMTIX
 70
     0
  9
$DIMSOXD
 70
     0
  9
$DIMSAH
 70
     0
  9
$DIMBLK1
  1

  9
$DIMBLK2
  1

  9
$DIMSTYLE
  2
STANDARD
  9
$DIMCLRD
 70
     0
  9
$DIMCLRE
 70
     0
  9
$DIMCLRT
 70
     0
  9
$DIMTFAC
 40
1.0
  9
$DIMGAP
 40
0.09
  9
$DIMJUST
 70
     0
  9
$DIMSD1
 70
     0
  9
$DIMSD2
 70
     0
  9
$DIMTOLJ
 70
     1
  9
$DIMTZIN
 70
     0
  9
$DIMALTZ
 70
     0
  9
$DIMALTTZ
 70
     0
  9
$DIMUPT
 70
     0
  9
$DIMDEC
 70
     4
  9
$DIMTDEC
 70
     4
  9
$DIMALTU
 70
     2
  9
$DIMALTTD
 70
     2
  9
$DIMTXSTY
  7
STANDARD
  9
$DIMAUNIT
 70
     0
  9
$DIMADEC
 70
     0
  9
$DIMALTRND
 40
0.0
  9
$DIMAZIN
 70
     0
  9
$DIMDSEP
 70
    46
  9
$DIMATFIT
 70
     3
  9
$DIMFRAC
 70
     0
  9
$DIMLDRBLK
  1

  9
$DIMLUNIT
 70
     2
  9
$DIMLWD
 70
    -2
  9
$DIMLWE
 70
    -2
  9
$DIMTMOVE
 70
     0
  9
$LUNITS
 70
     2
  9
$LUPREC
 70
     4
  9
$SKETCHINC
 40
0.1
  9
$FILLETRAD
 40
0.0
  9
$AUNITS
 70
     0
  9
$AUPREC
 70
     0
  9
$MENU
  1
.
  9
$ELEVATION
 40
0.0
  9
$PELEVATION
 40
0.0
  9
$THICKNESS
 40
0.0
  9
$LIMCHECK
 70
     0
  9
$CHAMFERA
 40
0.0
  9
$CHAMFERB
 40
0.0
  9
$CHAMFERC
 40
0.0
  9
$CHAMFERD
 40
0.0
  9
$SKPOLY
 70
     0
  9
$TDCREATE
 40
2454382.695026644
  9
$TDUCREATE
 40
2454382.611693310
  9
$TDUPDATE
 40
2454382.695251968
  9
$TDUUPDATE
 40
2454382.611918634
  9
$TDINDWG
 40
0.0002381713
  9
$TDUSRTIMER
 40
0.0002381713
  9
$USRTIMER
 70
     1
  9
$ANGBASE
 50
0.0
  9
$ANGDIR
 70
     0
  9
$PDMODE
 70
     0
  9
$PDSIZE
 40
0.0
  9
$PLINEWID
 40
0.0
  9
$SPLFRAME
 70
     0
  9
$SPLINETYPE
 70
     6
  9
$SPLINESEGS
 70
     8
  9
$HANDSEED
  5
4DA
  9
$SURFTAB1
 70
     6
  9
$SURFTAB2
 70
     6
  9
$SURFTYPE
 70
     6
  9
$SURFU
 70
     6
  9
$SURFV
 70
     6
  9
$UCSBASE
  2

  9
$UCSNAME
  2

  9
$UCSORG
 10
0.0
 20
0.0
 30
0.0
  9
$UCSXDIR
 10
1.0
 20
0.0
 30
0.0
  9
$UCSYDIR
 10
0.0
 20
1.0
 30
0.0
  9
$UCSORTHOREF
  2

  9
$UCSORTHOVIEW
 70
     0
  9
$UCSORGTOP
 10
0.0
 20
0.0
 30
0.0
  9
$UCSORGBOTTOM
 10
0.0
 20
0.0
 30
0.0
  9
$UCSORGLEFT
 10
0.0
 20
0.0
 30
0.0
  9
$UCSORGRIGHT
 10
0.0
 20
0.0
 30
0.0
  9
$UCSORGFRONT
 10
0.0
 20
0.0
 30
0.0
  9
$UCSORGBACK
 10
0.0
 20
0.0
 30
0.0
  9
$PUCSBASE
  2

  9
$PUCSNAME
  2

  9
$PUCSORG
 10
0.0
 20
0.0
 30
0.0
  9
$PUCSXDIR
 10
1.0
 20
0.0
 30
0.0
  9
$PUCSYDIR
 10
0.0
 20
1.0
 30
0.0
  9
$PUCSORTHOREF
  2

  9
$PUCSORTHOVIEW
 70
     0
  9
$PUCSORGTOP
 10
0.0
 20
0.0
 30
0.0
  9
$PUCSORGBOTTOM
 10
0.0
 20
0.0
 30
0.0
  9
$PUCSORGLEFT
 10
0.0
 20
0.0
 30
0.0
  9
$PUCSORGRIGHT
 10
0.0
 20
0.0
 30
0.0
  9
$PUCSORGFRONT
 10
0.0
 20
0.0
 30
0.0
  9
$PUCSORGBACK
 10
0.0
 20
0.0
 30
0.0
  9
$USERI1
 70
     0
  9
$USERI2
 70
     0
  9
$USERI3
 70
     0
  9
$USERI4
 70
     0
  9
$USERI5
 70
     0
  9
$USERR1
 40
0.0
  9
$USERR2
 40
0.0
  9
$USERR3
 40
0.0
  9
$USERR4
 40
0.0
  9
$USERR5
 40
0.0
  9
$WORLDVIEW
 70
     1
  9
$SHADEDGE
 70
     3
  9
$SHADEDIF
 70
    70
  9
$TILEMODE
 70
     1
  9
$MAXACTVP
 70
    64
  9
$PINSBASE
 10
0.0
 20
0.0
 30
0.0
  9
$PLIMCHECK
 70
     0
  9
$PEXTMIN
 10
1.000000000000000E+20
 20
1.000000000000000E+20
 30
1.000000000000000E+20
  9
$PEXTMAX
 10
-1.000000000000000E+20
 20
-1.000000000000000E+20
 30
-1.000000000000000E+20
  9
$PLIMMIN
 10
0.0
 20
0.0
  9
$PLIMMAX
 10
12.0
 20
9.0
  9
$UNITMODE
 70
     0
  9
$VISRETAIN
 70
     1
  9
$PLINEGEN
 70
     0
  9
$PSLTSCALE
 70
     1
  9
$TREEDEPTH
 70
  3020
  9
$CMLSTYLE
  2
STANDARD
  9
$CMLJUST
 70
     0
  9
$CMLSCALE
 40
1.0
  9
$PROXYGRAPHICS
 70
     1
  9
$MEASUREMENT
 70
     0
  9
$CELWEIGHT
370
    -1
  9
$ENDCAPS
280
     0
  9
$JOINSTYLE
280
     0
  9
$LWDISPLAY
290
     0
  9
$INSUNITS
 70
     0
  9
$HYPERLINKBASE
  1

  9
$STYLESHEET
  1

  9
$XEDIT
290
     1
  9
$CEPSNTYPE
380
     0
  9
$PSTYLEMODE
290
     1
  9
$FINGERPRINTGUID
  2
{0161F4BD-FE41-4E88-8208-631816511E23}
  9
$VERSIONGUID
  2
{D5E58040-7214-4FB1-8F00-7114124F7732}
  9
$EXTNAMES
290
     1
  9
$PSVPSCALE
 40
0.0
  9
$OLESTARTUP
290
     0
  9
$SORTENTS
280
   127
  9
$INDEXCTL
280
     0
  9
$HIDETEXT
280
     0
  9
$XCLIPFRAME
290
     0
  9
$HALOGAP
280
     0
  9
$OBSCOLOR
 70
   257
  9
$OBSLTYPE
280
     0
  9
$INTERSECTIONDISPLAY
280
     0
  9
$INTERSECTIONCOLOR
 70
   257
  9
$DIMASSOC
280
     1
  9
$PROJECTNAME
  1

  0
ENDSEC
  0
SECTION
  2
CLASSES
  0
CLASS
  1
ACDBDICTIONARYWDFLT
  2
AcDbDictionaryWithDefault
  3
ObjectDBX Classes
 90
        0
 91
        1
280
     0
281
     0
  0
CLASS
  1
TABLESTYLE
  2
AcDbTableStyle
  3
ObjectDBX Classes
 90
     2047
 91
        1
280
     0
281
     0
  0
CLASS
  1
DICTIONARYVAR
  2
AcDbDictionaryVar
  3
ObjectDBX Classes
 90
        0
 91
        1
280
     0
281
     0
  0
ENDSEC
  0
SECTION
  2
TABLES
  0
TABLE
  2
VPORT
  5
8
330
0
100
AcDbSymbolTable
 70
     2
  0
VPORT
  5
4D9
330
8
100
AcDbSymbolTableRecord
100
AcDbViewportTableRecord
  2
*Active
 70
     0
 10
0.0
 20
0.0
 11
1.0
 21
1.0
 12
210.0
 22
157.5744680804916
 13
0.0
 23
0.0
 14
1.0
 24
1.0
 15
0.0
 25
0.0
 16
0.0
 26
0.0
 36
1.0
 17
0.0
 27
0.0
 37
0.0
 40
315.1489361609833
 41
1.332703213610586
 42
50.0
 43
0.0
 44
0.0
 50
0.0
 51
0.0
 71
     0
 72
   100
 73
     1
 74
     1
 75
     0
 76
     0
 77
     0
 78
     0
281
     0
 65
     1
110
0.0
120
0.0
130
0.0
111
1.0
121
0.0
131
0.0
112
0.0
122
1.0
132
0.0
 79
     0
146
0.0
  0
ENDTAB
  0
TABLE
  2
LTYPE
  5
5
330
0
100
AcDbSymbolTable
 70
     6
  0
LTYPE
  5
14
330
5
100
AcDbSymbolTableRecord
100
AcDbLinetypeTableRecord
  2
BYBLOCK
 70
     0
  3

 72
    65
 73
     0
 40
0.0
  0
LTYPE
  5
15
330
5
100
AcDbSymbolTableRecord
100
AcDbLinetypeTableRecord
  2
BYLAYER
 70
     0
  3

 72
    65
 73
     0
 40
0.0
  0
LTYPE
  5
16
330
5
100
AcDbSymbolTableRecord
100
AcDbLinetypeTableRecord
  2
CONTINUOUS
 70
     0
  3
Solid line
 72
    65
 73
     0
 40
0.0
  0
LTYPE
  5
1F5
330
5
100
AcDbSymbolTableRecord
100
AcDbLinetypeTableRecord
  2
CENTER
 70
     0
  3
____ _ ____ _ ____ _ ____ _ ____ _ ____ _ ____
 72
    65
 73
     4
 40
0.6
 49
0.375
 74
     0
 49
-0.075
 74
     0
 49
0.075
 74
     0
 49
-0.075
 74
     0
  0
LTYPE
  5
1F6
330
5
100
AcDbSymbolTableRecord
100
AcDbLinetypeTableRecord
  2
HIDDEN
 70
     0
  3
- - - - - - - - - - - - - - - - - - - -
 72
    65
 73
     2
 40
0.2
 49
0.1
 74
     0
 49
-0.1
 74
     0
  0
LTYPE
  5
1F7
330
5
100
AcDbSymbolTableRecord
100
AcDbLinetypeTableRecord
  2
PHANTOM
 70
     0
  3
_____ _ _ _____ _ _ _____ _ _ _____
 72
    65
 73
     6
 40
0.8
 49
0.45
 74
     0
 49
-0.05
 74
     0
 49
0.1
 74
     0
 49
-0.05
 74
     0
 49
0.1
 74
     0
 49
-0.05
 74
     0
  0
LTYPE
  5
1F8
330
5
100
AcDbSymbolTableRecord
100
AcDbLinetypeTableRecord
  2
DOT
 70
     0
  3
. . . . . . . . . . . . . . . . . . . .
 72
    65
 73
     2
 40
0.2
 49
0.1
 74
     0
 49
-0.1
 74
     0
  0
LTYPE
  5
1F9
330
5
100
AcDbSymbolTableRecord
100
AcDbLinetypeTableRecord
  2
DASHED
 70
     0
  3
- - - - - - - - - - - - - - - - - - - -
 72
    65
 73
     2
 40
0.2
 49
0.1
 74
     0
 49
-0.1
 74
     0
  0
ENDTAB
  0
TABLE
  2
LAYER
  5
2
330
0
100
AcDbSymbolTable
 70
    18
  0
LAYER
  5
10
330
2
100
AcDbSymbolTableRecord
100
AcDbLayerTableRecord
  2
0
 70
     0
 62
     7
  6
CONTINUOUS
370
    -3
390
4CD
  0
LAYER
  5
1FA
330
2
100
AcDbSymbolTableRecord
100
AcDbLayerTableRecord
  2
DEFAULT_1
 70
     0
 62
     7
  6
CENTER
370
    -3
390
4CD
  0
LAYER
  5
1FB
330
2
100
AcDbSymbolTableRecord
100
AcDbLayerTableRecord
  2
DEFAULT_2
 70
     0
 62
     8
  6
HIDDEN
370
    -3
390
4CD
  0
LAYER
  5
1FC
330
2
100
AcDbSymbolTableRecord
100
AcDbLayerTableRecord
  2
DEFAULT_3
 70
     0
 62
     7
  6
PHANTOM
370
    -3
390
4CD
  0
LAYER
  5
1FD
330
2
100
AcDbSymbolTableRecord
100
AcDbLayerTableRecord
  2
0_COMPONENTS
 70
     0
 62
     7
  6
CONTINUOUS
370
    -3
390
4CD
  0
LAYER
  5
1FE
330
2
100
AcDbSymbolTableRecord
100
AcDbLayerTableRecord
  2
1_ALL_PLANES
 70
     0
 62
     7
  6
CONTINUOUS
370
    -3
390
4CD
  0
LAYER
  5
1FF
330
2
100
AcDbSymbolTableRecord
100
AcDbLayerTableRecord
  2
1__DEF_ASM_PLN
 70
     0
 62
     7
  6
CONTINUOUS
370
    -3
390
4CD
  0
LAYER
  5
200
330
2
100
AcDbSymbolTableRecord
100
AcDbLayerTableRecord
  2
1__DEF_PLANES
 70
     0
 62
     7
  6
CONTINUOUS
370
    -3
390
4CD
  0
LAYER
  5
201
330
2
100
AcDbSymbolTableRecord
100
AcDbLayerTableRecord
  2
2_ALL_CSYS
 70
     0
 62
     7
  6
CONTINUOUS
370
    -3
390
4CD
  0
LAYER
  5
202
330
2
100
AcDbSymbolTableRecord
100
AcDbLayerTableRecord
  2
2__DEF_ASM_CSYS
 70
     0
 62
     7
  6
CONTINUOUS
370
    -3
390
4CD
  0
LAYER
  5
203
330
2
100
AcDbSymbolTableRecord
100
AcDbLayerTableRecord
  2
2__DEF_CSYS
 70
     0
 62
     7
  6
CONTINUOUS
370
    -3
390
4CD
  0
LAYER
  5
204
330
2
100
AcDbSymbolTableRecord
100
AcDbLayerTableRecord
  2
3_ALL_AXES
 70
     0
 62
     7
  6
CONTINUOUS
370
    -3
390
4CD
  0
LAYER
  5
205
330
2
100
AcDbSymbolTableRecord
100
AcDbLayerTableRecord
  2
4_ALL_POINTS
 70
     0
 62
     7
  6
CONTINUOUS
370
    -3
390
4CD
  0
LAYER
  5
206
330
2
100
AcDbSymbolTableRecord
100
AcDbLayerTableRecord
  2
5_ALL_CURVES
 70
     0
 62
     7
  6
CONTINUOUS
370
    -3
390
4CD
  0
LAYER
  5
207
330
2
100
AcDbSymbolTableRecord
100
AcDbLayerTableRecord
  2
5_ALL_GTOLS_FREE_
 70
     0
 62
     7
  6
CONTINUOUS
370
    -3
390
4CD
  0
LAYER
  5
208
330
2
100
AcDbSymbolTableRecord
100
AcDbLayerTableRecord
  2
6_ALL_SURFS
 70
     0
 62
     7
  6
CONTINUOUS
370
    -3
390
4CD
  0
LAYER
  5
209
330
2
100
AcDbSymbolTableRecord
100
AcDbLayerTableRecord
  2
CURVE
 70
     0
 62
     7
  6
CONTINUOUS
370
    -3
390
4CD
  0
LAYER
  5
20A
330
2
100
AcDbSymbolTableRecord
100
AcDbLayerTableRecord
  2
PIANI
 70
     0
 62
     7
  6
CONTINUOUS
370
    -3
390
4CD
  0
ENDTAB
  0
TABLE
  2
STYLE
  5
3
330
0
100
AcDbSymbolTable
 70
     1
  0
STYLE
  5
11
330
3
100
AcDbSymbolTableRecord
100
AcDbTextStyleTableRecord
  2
STANDARD
 70
     0
 40
0.0
 41
1.199999999999999
 50
0.0
 71
     0
 42
0.2
  3
txt
  4

  0
ENDTAB
  0
TABLE
  2
VIEW
  5
6
330
0
100
AcDbSymbolTable
 70
     0
  0
ENDTAB
  0
TABLE
  2
UCS
  5
7
330
0
100
AcDbSymbolTable
 70
     0
  0
ENDTAB
  0
TABLE
  2
APPID
  5
9
330
0
100
AcDbSymbolTable
 70
     1
  0
APPID
  5
20B
330
9
100
AcDbSymbolTableRecord
100
AcDbRegAppTableRecord
  2
ACAD
 70
     0
  0
ENDTAB
  0
TABLE
  2
DIMSTYLE
  5
A
330
0
100
AcDbSymbolTable
 70
     2
100
AcDbDimStyleTable
 71
     0
  0
DIMSTYLE
105
20C
330
A
100
AcDbSymbolTableRecord
100
AcDbDimStyleTableRecord
  2
STANDARD
 70
     0
 41
4.759999999999999
 47
0.001
 48
0.001
 71
     1
 73
     0
 74
     0
 77
     1
 78
     8
140
3.0
178
     5
271
     3
272
     3
284
     8
340
11
  0
DIMSTYLE
105
20D
102
{ACAD_REACTORS
330
24E
330
24F
330
253
102
}
330
A
100
AcDbSymbolTableRecord
100
AcDbDimStyleTableRecord
  2
DIMSTYLE_1
 70
     0
 41
4.759999999999999
 47
0.001
 48
0.001
 73
     0
 74
     0
 77
     1
 78
     8
140
3.0
178
     5
271
     3
272
     3
284
     8
340
11
  0
ENDTAB
  0
TABLE
  2
BLOCK_RECORD
  5
1
330
0
100
AcDbSymbolTable
 70
     6
  0
BLOCK_RECORD
  5
1B
330
1
100
AcDbSymbolTableRecord
100
AcDbBlockTableRecord
  2
*MODEL_SPACE
340
4D4
  0
BLOCK_RECORD
  5
1C
330
1
100
AcDbSymbolTableRecord
100
AcDbBlockTableRecord
  2
*PAPER_SPACE
340
4D5
  0
BLOCK_RECORD
  5
20E
330
1
100
AcDbSymbolTableRecord
100
AcDbBlockTableRecord
  2
*D0
340
0
  0
BLOCK_RECORD
  5
20F
330
1
100
AcDbSymbolTableRecord
100
AcDbBlockTableRecord
  2
*D1
340
0
  0
BLOCK_RECORD
  5
210
330
1
100
AcDbSymbolTableRecord
100
AcDbBlockTableRecord
  2
*D2
340
0
  0
BLOCK_RECORD
  5
211
330
1
100
AcDbSymbolTableRecord
100
AcDbBlockTableRecord
  2
*D3
340
0
  0
BLOCK_RECORD
  5
212
330
1
100
AcDbSymbolTableRecord
100
AcDbBlockTableRecord
  2
*D4
340
0
  0
BLOCK_RECORD
  5
213
330
1
100
AcDbSymbolTableRecord
100
AcDbBlockTableRecord
  2
*D5
340
0
  0
ENDTAB
  0
ENDSEC
  0
SECTION
  2
BLOCKS
  0
BLOCK
  5
1E
330
1B
100
AcDbEntity
  8
0
100
AcDbBlockBegin
  2
*MODEL_SPACE
 70
     0
 10
0.0
 20
0.0
 30
0.0
  3
*MODEL_SPACE
  1

  0
ENDBLK
  5
1F
330
1B
100
AcDbEntity
  8
0
100
AcDbBlockEnd
  0
BLOCK
  5
20
330
1C
100
AcDbEntity
 67
     1
  8
0
100
AcDbBlockBegin
  2
*PAPER_SPACE
 70
     0
 10
0.0
 20
0.0
 30
0.0
  3
*PAPER_SPACE
  1

  0
ENDBLK
  5
21
330
1C
100
AcDbEntity
 67
     1
  8
0
100
AcDbBlockEnd
  0
BLOCK
  5
214
330
20E
100
AcDbEntity
  8
0
  6
Continuous
 62
     2
100
AcDbBlockBegin
  2
*D0
 70
     1
 10
0.0
 20
0.0
 30
0.0
  3
*D0
  1

  0
TEXT
  5
215
330
20E
100
AcDbEntity
  8
0
  6
Continuous
 62
     5
100
AcDbText
 10
277.9556918096
 20
121.2194071803
 30
0.0
 40
3.0
  1
%%c
 41
1.999999999999999
 72
     5
 11
281.9556918096
 21
121.2194071803
 31
0.0
100
AcDbText
  0
TEXT
  5
216
330
20E
100
AcDbEntity
  8
0
  6
Continuous
 62
     5
100
AcDbText
 10
281.9556918096
 20
121.2194071803
 30
0.0
 40
3.0
  1
11.5
 41
1.040816326528564
 72
     5
 11
289.2414060952999
 21
121.2194071803
 31
0.0
100
AcDbText
  0
LINE
  5
217
330
20E
100
AcDbEntity
  8
0
  6
Continuous
 62
     2
100
AcDbLine
 10
275.33106593
 20
133.0563866574
 30
0.0
 11
275.33106593
 21
119.4694071803
 31
0.0
  0
LINE
  5
218
330
20E
100
AcDbEntity
  8
0
  6
Continuous
 62
     2
100
AcDbLine
 10
286.83106593
 20
133.0563866574
 30
0.0
 11
286.83106593
 21
119.4694071803
 31
0.0
  0
LINE
  5
219
330
20E
100
AcDbEntity
  8
0
  6
Continuous
 62
     2
100
AcDbLine
 10
275.33106593
 20
120.4694071803
 30
0.0
 11
281.08106593
 21
120.4694071803
 31
0.0
  0
LINE
  5
21A
330
20E
100
AcDbEntity
  8
0
  6
Continuous
 62
     2
100
AcDbLine
 10
286.83106593
 20
120.4694071803
 30
0.0
 11
281.08106593
 21
120.4694071803
 31
0.0
  0
SOLID
  5
21B
330
20E
100
AcDbEntity
  8
0
  6
Continuous
 62
     2
100
AcDbTrace
 10
280.09106593
 20
120.9694071803
 30
0.0
 11
275.33106593
 21
120.4694071803
 31
0.0
 12
280.09106593
 22
119.9694071803
 32
0.0
 13
280.09106593
 23
119.9694071803
 33
0.0
  0
SOLID
  5
21C
330
20E
100
AcDbEntity
  8
0
  6
Continuous
 62
     2
100
AcDbTrace
 10
282.07106593
 20
119.9694071803
 30
0.0
 11
286.83106593
 21
120.4694071803
 31
0.0
 12
282.07106593
 22
120.9694071803
 32
0.0
 13
282.07106593
 23
120.9694071803
 33
0.0
  0
ENDBLK
  5
21D
330
20E
100
AcDbEntity
  8
0
100
AcDbBlockEnd
  0
BLOCK
  5
21E
330
20F
100
AcDbEntity
  8
0
  6
Continuous
 62
     2
100
AcDbBlockBegin
  2
*D1
 70
     1
 10
0.0
 20
0.0
 30
0.0
  3
*D1
  1

  0
TEXT
  5
21F
330
20F
100
AcDbEntity
  8
0
  6
Continuous
 62
     5
100
AcDbText
 10
278.000066083
 20
112.7460818013
 30
0.0
 40
3.0
  1
%%c
 41
1.999999999999999
 72
     5
 11
282.000066083
 21
112.7460818013
 31
0.0
100
AcDbText
  0
TEXT
  5
220
330
20F
100
AcDbEntity
  8
0
  6
Continuous
 62
     5
100
AcDbText
 10
282.0000660448
 20
112.7460818013
 30
0.0
 40
3.0
  1
22.2
 41
0.9761904761888898
 72
     5
 11
290.7857803305
 21
112.7460818013
 31
0.0
100
AcDbText
  0
LINE
  5
221
330
20F
100
AcDbEntity
  8
0
  6
Continuous
 62
     2
100
AcDbLine
 10
292.18106593
 20
133.0563866574
 30
0.0
 11
292.18106593
 21
110.9960818013
 31
0.0
  0
LINE
  5
222
330
20F
100
AcDbEntity
  8
0
  6
Continuous
 62
     2
100
AcDbLine
 10
269.98106593
 20
133.0563866574
 30
0.0
 11
269.98106593
 21
110.9960818013
 31
0.0
  0
LINE
  5
223
330
20F
100
AcDbEntity
  8
0
  6
Continuous
 62
     2
100
AcDbLine
 10
292.18106593
 20
111.9960818013
 30
0.0
 11
281.08106593
 21
111.9960818013
 31
0.0
  0
LINE
  5
224
330
20F
100
AcDbEntity
  8
0
  6
Continuous
 62
     2
100
AcDbLine
 10
269.98106593
 20
111.9960818013
 30
0.0
 11
281.08106593
 21
111.9960818013
 31
0.0
  0
SOLID
  5
225
330
20F
100
AcDbEntity
  8
0
  6
Continuous
 62
     2
100
AcDbTrace
 10
287.42106593
 20
111.4960818013
 30
0.0
 11
292.18106593
 21
111.9960818013
 31
0.0
 12
287.42106593
 22
112.4960818013
 32
0.0
 13
287.42106593
 23
112.4960818013
 33
0.0
  0
SOLID
  5
226
330
20F
100
AcDbEntity
  8
0
  6
Continuous
 62
     2
100
AcDbTrace
 10
274.74106593
 20
112.4960818013
 30
0.0
 11
269.98106593
 21
111.9960818013
 31
0.0
 12
274.74106593
 22
111.4960818013
 32
0.0
 13
274.74106593
 23
111.4960818013
 33
0.0
  0
ENDBLK
  5
227
330
20F
100
AcDbEntity
  8
0
100
AcDbBlockEnd
  0
BLOCK
  5
228
330
210
100
AcDbEntity
  8
0
  6
Continuous
 62
     2
100
AcDbBlockBegin
  2
*D2
 70
     1
 10
0.0
 20
0.0
 30
0.0
  3
*D2
  1

  0
TEXT
  5
229
330
210
100
AcDbEntity
  8
0
  6
Continuous
 62
     5
100
AcDbText
 10
379.1060135205
 20
121.4841985984
 30
0.0
 40
3.0
  1
%%c
 41
1.999999999999999
 72
     5
 11
383.1060135205
 21
121.4841985984
 31
0.0
100
AcDbText
  0
TEXT
  5
22A
330
210
100
AcDbEntity
  8
0
  6
Continuous
 62
     5
100
AcDbText
 10
383.1060135205
 20
121.4841985984
 30
0.0
 40
3.0
  1
11.5
 41
1.040816326528572
 72
     5
 11
390.3917278062
 21
121.4841985984
 31
0.0
100
AcDbText
  0
LINE
  5
22B
330
210
100
AcDbEntity
  8
0
  6
Continuous
 62
     2
100
AcDbLine
 10
388.1826836466
 20
134.9881960242
 30
0.0
 11
388.1826836466
 21
119.7341985984
 31
0.0
  0
LINE
  5
22C
330
210
100
AcDbEntity
  8
0
  6
Continuous
 62
     2
100
AcDbLine
 10
376.6826836466
 20
134.9881960242
 30
0.0
 11
376.6826836466
 21
119.7341985984
 31
0.0
  0
LINE
  5
22D
330
210
100
AcDbEntity
  8
0
  6
Continuous
 62
     2
100
AcDbLine
 10
388.1826836466
 20
120.7341985984
 30
0.0
 11
382.4326836466
 21
120.7341985984
 31
0.0
  0
LINE
  5
22E
330
210
100
AcDbEntity
  8
0
  6
Continuous
 62
     2
100
AcDbLine
 10
376.6826836466
 20
120.7341985984
 30
0.0
 11
382.4326836466
 21
120.7341985984
 31
0.0
  0
SOLID
  5
22F
330
210
100
AcDbEntity
  8
0
  6
Continuous
 62
     2
100
AcDbTrace
 10
383.4226836466001
 20
120.2341985984
 30
0.0
 11
388.1826836466
 21
120.7341985984
 31
0.0
 12
383.4226836466001
 22
121.2341985984
 32
0.0
 13
383.4226836466001
 23
121.2341985984
 33
0.0
  0
SOLID
  5
230
330
210
100
AcDbEntity
  8
0
  6
Continuous
 62
     2
100
AcDbTrace
 10
381.4426836466
 20
121.2341985984
 30
0.0
 11
376.6826836466
 21
120.7341985984
 31
0.0
 12
381.4426836466
 22
120.2341985984
 32
0.0
 13
381.4426836466
 23
120.2341985984
 33
0.0
  0
ENDBLK
  5
231
330
210
100
AcDbEntity
  8
0
100
AcDbBlockEnd
  0
BLOCK
  5
232
330
211
100
AcDbEntity
  8
0
  6
Continuous
 62
     2
100
AcDbBlockBegin
  2
*D3
 70
     1
 10
0.0
 20
0.0
 30
0.0
  3
*D3
  1

  0
TEXT
  5
233
330
211
100
AcDbEntity
  8
0
  6
Continuous
 62
     5
100
AcDbText
 10
378.8855963567
 20
113.5404560556
 30
0.0
 40
3.0
  1
%%c
 41
1.999999999999999
 72
     5
 11
382.8855963567
 21
113.5404560556
 31
0.0
100
AcDbText
  0
TEXT
  5
234
330
211
100
AcDbEntity
  8
0
  6
Continuous
 62
     5
100
AcDbText
 10
382.8855963567
 20
113.5404560556
 30
0.0
 40
3.0
  1
22.2
 41
0.9761904761888898
 72
     5
 11
391.6713106424
 21
113.5404560556
 31
0.0
100
AcDbText
  0
LINE
  5
235
330
211
100
AcDbEntity
  8
0
  6
Continuous
 62
     2
100
AcDbLine
 10
393.5326836466001
 20
134.9881960242
 30
0.0
 11
393.5326836466001
 21
111.7904560556
 31
0.0
  0
LINE
  5
236
330
211
100
AcDbEntity
  8
0
  6
Continuous
 62
     2
100
AcDbLine
 10
371.3326836466001
 20
134.9881960242
 30
0.0
 11
371.3326836466001
 21
111.7904560556
 31
0.0
  0
LINE
  5
237
330
211
100
AcDbEntity
  8
0
  6
Continuous
 62
     2
100
AcDbLine
 10
393.5326836466001
 20
112.7904560556
 30
0.0
 11
382.4326836466
 21
112.7904560556
 31
0.0
  0
LINE
  5
238
330
211
100
AcDbEntity
  8
0
  6
Continuous
 62
     2
100
AcDbLine
 10
371.3326836466001
 20
112.7904560556
 30
0.0
 11
382.4326836466
 21
112.7904560556
 31
0.0
  0
SOLID
  5
239
330
211
100
AcDbEntity
  8
0
  6
Continuous
 62
     2
100
AcDbTrace
 10
388.7726836466001
 20
112.2904560556
 30
0.0
 11
393.5326836466001
 21
112.7904560556
 31
0.0
 12
388.7726836466001
 22
113.2904560556
 32
0.0
 13
388.7726836466001
 23
113.2904560556
 33
0.0
  0
SOLID
  5
23A
330
211
100
AcDbEntity
  8
0
  6
Continuous
 62
     2
100
AcDbTrace
 10
376.0926836466
 20
113.2904560556
 30
0.0
 11
371.3326836466001
 21
112.7904560556
 31
0.0
 12
376.0926836466
 22
112.2904560556
 32
0.0
 13
376.0926836466
 23
112.2904560556
 33
0.0
  0
ENDBLK
  5
23B
330
211
100
AcDbEntity
  8
0
100
AcDbBlockEnd
  0
BLOCK
  5
23C
330
212
100
AcDbEntity
  8
0
  6
Continuous
 62
     2
100
AcDbBlockBegin
  2
*D4
 70
     1
 10
0.0
 20
0.0
 30
0.0
  3
*D4
  1

  0
TEXT
  5
23D
330
212
100
AcDbEntity
  8
0
  6
Continuous
 62
     5
100
AcDbText
 10
407.3005154554
 20
144.5661532804
 30
0.0
 40
3.0
  1
25
 50
90.0
 41
0.9
 72
     5
 11
407.3005154554
 21
149.0661532804
 31
0.0
100
AcDbText
  0
LINE
  5
23E
330
212
100
AcDbEntity
  8
0
  6
Continuous
 62
     2
100
AcDbLine
 10
393.1326836466
 20
134.5881960242
 30
0.0
 11
409.0505154554
 21
134.5881960242
 31
0.0
  0
LINE
  5
23F
330
212
100
AcDbEntity
  8
0
  6
Continuous
 62
     2
100
AcDbLine
 10
393.1326836466
 20
159.5881960242
 30
0.0
 11
409.0505154554
 21
159.5881960242
 31
0.0
  0
LINE
  5
240
330
212
100
AcDbEntity
  8
0
  6
Continuous
 62
     2
100
AcDbLine
 10
408.0505154554
 20
134.5881960242
 30
0.0
 11
408.0505154554
 21
147.0881960242
 31
0.0
  0
LINE
  5
241
330
212
100
AcDbEntity
  8
0
  6
Continuous
 62
     2
100
AcDbLine
 10
408.0505154554
 20
159.5881960242
 30
0.0
 11
408.0505154554
 21
147.0881960242
 31
0.0
  0
SOLID
  5
242
330
212
100
AcDbEntity
  8
0
  6
Continuous
 62
     2
100
AcDbTrace
 10
407.5505154553999
 20
139.3481960242
 30
0.0
 11
408.0505154554
 21
134.5881960242
 31
0.0
 12
408.5505154554
 22
139.3481960242
 32
0.0
 13
408.5505154554
 23
139.3481960242
 33
0.0
  0
SOLID
  5
243
330
212
100
AcDbEntity
  8
0
  6
Continuous
 62
     2
100
AcDbTrace
 10
408.5505154554
 20
154.8281960242
 30
0.0
 11
408.0505154554
 21
159.5881960242
 31
0.0
 12
407.5505154553999
 22
154.8281960242
 32
0.0
 13
407.5505154553999
 23
154.8281960242
 33
0.0
  0
ENDBLK
  5
244
330
212
100
AcDbEntity
  8
0
100
AcDbBlockEnd
  0
BLOCK
  5
245
330
213
100
AcDbEntity
  8
0
  6
Continuous
 62
     2
100
AcDbBlockBegin
  2
*D5
 70
     1
 10
0.0
 20
0.0
 30
0.0
  3
*D5
  1

  0
TEXT
  5
246
330
213
100
AcDbEntity
  8
0
  6
Continuous
 62
     5
100
AcDbText
 10
309.3276907616
 20
154.4958314588
 30
0.0
 40
3.0
  1
50
 50
90.0
 72
     5
 11
309.3276907616
 21
158.9958314588
 31
0.0
100
AcDbText
  0
LINE
  5
247
330
213
100
AcDbEntity
  8
0
  6
Continuous
 62
     2
100
AcDbLine
 10
291.78106593
 20
182.6563866574
 30
0.0
 11
311.0776907616
 21
182.6563866574
 31
0.0
  0
LINE
  5
248
330
213
100
AcDbEntity
  8
0
  6
Continuous
 62
     2
100
AcDbLine
 10
291.78106593
 20
132.6563866574
 30
0.0
 11
311.0776907616
 21
132.6563866574
 31
0.0
  0
LINE
  5
249
330
213
100
AcDbEntity
  8
0
  6
Continuous
 62
     2
100
AcDbLine
 10
310.0776907616
 20
182.6563866574
 30
0.0
 11
310.0776907616
 21
157.6563866574
 31
0.0
  0
LINE
  5
24A
330
213
100
AcDbEntity
  8
0
  6
Continuous
 62
     2
100
AcDbLine
 10
310.0776907616
 20
132.6563866574
 30
0.0
 11
310.0776907616
 21
157.6563866574
 31
0.0
  0
SOLID
  5
24B
330
213
100
AcDbEntity
  8
0
  6
Continuous
 62
     2
100
AcDbTrace
 10
310.5776907616
 20
177.8963866574
 30
0.0
 11
310.0776907616
 21
182.6563866574
 31
0.0
 12
309.5776907616
 22
177.8963866574
 32
0.0
 13
309.5776907616
 23
177.8963866574
 33
0.0
  0
SOLID
  5
24C
330
213
100
AcDbEntity
  8
0
  6
Continuous
 62
     2
100
AcDbTrace
 10
309.5776907616
 20
137.4163866574
 30
0.0
 11
310.0776907616
 21
132.6563866574
 31
0.0
 12
310.5776907616
 22
137.4163866574
 32
0.0
 13
310.5776907616
 23
137.4163866574
 33
0.0
  0
ENDBLK
  5
24D
330
213
100
AcDbEntity
  8
0
100
AcDbBlockEnd
  0
ENDSEC
  0
SECTION
  2
ENTITIES
  0
DIMENSION
  5
24E
330
1B
100
AcDbEntity
  8
0
  6
Continuous
 62
     2
100
AcDbDimension
  2
*D0
 10
286.83106593
 20
120.4694071803
 30
0.0
 11
283.5985489525
 21
122.7194071803
 31
0.0
 70
   160
  1
%%c<>
 71
     5
 42
-1.0
  3
DIMSTYLE_1
100
AcDbAlignedDimension
 13
275.33106593
 23
133.0563866574
 33
0.0
 14
286.83106593
 24
133.0563866574
 34
0.0
100
AcDbRotatedDimension
  0
DIMENSION
  5
24F
330
1B
100
AcDbEntity
  8
0
  6
Continuous
 62
     2
100
AcDbDimension
  2
*D1
 10
269.98106593
 20
111.9960818013
 30
0.0
 11
284.3929232067
 21
114.2460818013
 31
0.0
 70
   160
  1
%%c<>
 71
     5
 42
-1.0
  3
DIMSTYLE_1
100
AcDbAlignedDimension
 13
292.18106593
 23
133.0563866574
 33
0.0
 14
269.98106593
 24
133.0563866574
 34
0.0
 50
180.0
100
AcDbRotatedDimension
  0
DIMENSION
  5
253
330
1B
100
AcDbEntity
  8
0
  6
Continuous
 62
     2
100
AcDbDimension
  2
*D5
 10
310.0776907616
 20
132.6563866574
 30
0.0
 11
307.8276907616
 21
156.7458314588
 31
0.0
 70
   160
 71
     5
 42
-1.0
  3
DIMSTYLE_1
100
AcDbAlignedDimension
 13
291.78106593
 23
182.6563866574
 33
0.0
 14
291.78106593
 24
132.6563866574
 34
0.0
 50
270.0
100
AcDbRotatedDimension
  0
LINE
  5
254
330
1B
100
AcDbEntity
  8
0
  6
Continuous
 62
     7
100
AcDbLine
 10
432.5
 20
-3.0625
 30
0.0
 11
232.5
 21
-3.0625
 31
0.0
  0
LINE
  5
255
330
1B
100
AcDbEntity
  8
0
  6
Continuous
 62
     7
100
AcDbLine
 10
291.68106593
 20
132.6563866574
 30
0.0
 11
270.48106593
 21
132.6563866574
 31
0.0
  0
LINE
  5
256
330
1B
100
AcDbEntity
  8
0
  6
Continuous
 62
     7
100
AcDbLine
 10
269.98106593
 20
133.1563866574
 30
0.0
 11
292.18106593
 21
133.1563866574
 31
0.0
  0
LINE
  5
259
330
1B
100
AcDbEntity
  8
DEFAULT_2
  6
HIDDEN
 62
     8
100
AcDbLine
 10
269.98106593
 20
136.3563866574
 30
0.0
 11
275.33106593
 21
136.3563866574
 31
0.0
  0
LINE
  5
25A
330
1B
100
AcDbEntity
  8
DEFAULT_2
  6
HIDDEN
 62
     8
100
AcDbLine
 10
269.98106593
 20
136.7563866574
 30
0.0
 11
275.33106593
 21
136.7563866574
 31
0.0
  0
LINE
  5
25D
330
1B
100
AcDbEntity
  8
DEFAULT_1
  6
CENTER
 62
     2
100
AcDbLine
 10
287.08106593
 20
139.3563866574
 30
0.0
 11
263.98106593
 21
139.3563866574
 31
0.0
  0
LINE
  5
25F
330
1B
100
AcDbEntity
  8
DEFAULT_2
  6
HIDDEN
 62
     8
100
AcDbLine
 10
269.98106593
 20
141.9563866574
 30
0.0
 11
275.33106593
 21
141.9563866574
 31
0.0
  0
LINE
  5
260
330
1B
100
AcDbEntity
  8
DEFAULT_2
  6
HIDDEN
 62
     8
100
AcDbLine
 10
269.98106593
 20
142.3563866574
 30
0.0
 11
275.33106593
 21
142.3563866574
 31
0.0
  0
LINE
  5
261
330
1B
100
AcDbEntity
  8
DEFAULT_2
  6
HIDDEN
 62
     8
100
AcDbLine
 10
286.83106593
 20
142.6563866574
 30
0.0
 11
275.33106593
 21
142.6563866574
 31
0.0
  0
LINE
  5
262
330
1B
100
AcDbEntity
  8
DEFAULT_2
  6
HIDDEN
 62
     8
100
AcDbLine
 10
286.93106593
 20
142.8295917382
 30
0.0
 11
275.23106593
 21
142.8295917382
 31
0.0
  0
LINE
  5
266
330
1B
100
AcDbEntity
  8
0
  6
Continuous
 62
     7
100
AcDbLine
 10
292.18106593
 20
144.6563866574
 30
0.0
 11
269.98106593
 21
144.6563866574
 31
0.0
  0
LINE
  5
268
330
1B
100
AcDbEntity
  8
0
  6
Continuous
 62
     7
100
AcDbLine
 10
292.33106593
 20
144.8063866574
 30
0.0
 11
269.83106593
 21
144.8063866574
 31
0.0
  0
LINE
  5
26B
330
1B
100
AcDbEntity
  8
DEFAULT_2
  6
HIDDEN
 62
     8
100
AcDbLine
 10
275.58106593
 20
177.6563866574
 30
0.0
 11
279.83106593
 21
180.1101253015
 31
0.0
  0
LINE
  5
26C
330
1B
100
AcDbEntity
  8
DEFAULT_2
  6
HIDDEN
 62
     8
100
AcDbLine
 10
287.759389892
 20
182.5063866574
 30
0.0
 11
288.08106593
 21
182.6563866574
 31
0.0
  0
LINE
  5
26D
330
1B
100
AcDbEntity
  8
DEFAULT_2
  6
HIDDEN
 62
     8
100
AcDbLine
 10
286.93106593
 20
150.6563866574
 30
0.0
 11
275.23106593
 21
150.6563866574
 31
0.0
  0
LINE
  5
26E
330
1B
100
AcDbEntity
  8
0
  6
Continuous
 62
     7
100
AcDbLine
 10
292.33106593
 20
152.5063866574
 30
0.0
 11
269.83106593
 21
152.5063866574
 31
0.0
  0
LINE
  5
270
330
1B
100
AcDbEntity
  8
0
  6
Continuous
 62
     7
100
AcDbLine
 10
292.18106593
 20
152.6563866574
 30
0.0
 11
269.98106593
 21
152.6563866574
 31
0.0
  0
LINE
  5
27B
330
1B
100
AcDbEntity
  8
0
  6
Continuous
 62
     7
100
AcDbLine
 10
232.5
 20
-3.0625
 30
0.0
 11
232.5
 21
283.9375
 31
0.0
  0
LINE
  5
27C
330
1B
100
AcDbEntity
  8
DEFAULT_2
  6
HIDDEN
 62
     8
100
AcDbLine
 10
284.58106593
 20
190.4063866574
 30
0.0
 11
286.83106593
 21
192.6563866574
 31
0.0
  0
LINE
  5
281
330
1B
100
AcDbEntity
  8
DEFAULT_2
  6
HIDDEN
 62
     8
100
AcDbLine
 10
286.58106593
 20
177.6563866574
 30
0.0
 11
275.58106593
 21
177.6563866574
 31
0.0
  0
LINE
  5
282
330
1B
100
AcDbEntity
  8
0
  6
Continuous
 62
     7
100
AcDbLine
 10
269.98106593
 20
152.6563866574
 30
0.0
 11
269.83106593
 21
152.5063866574
 31
0.0
  0
LINE
  5
283
330
1B
100
AcDbEntity
  8
DEFAULT_2
  6
HIDDEN
 62
     8
100
AcDbLine
 10
282.33106593
 20
180.1101253015
 30
0.0
 11
279.83106593
 21
180.1101253015
 31
0.0
  0
LINE
  5
284
330
1B
100
AcDbEntity
  8
0
  6
Continuous
 62
     7
100
AcDbLine
 10
269.98106593
 20
182.1563866574
 30
0.0
 11
292.18106593
 21
182.1563866574
 31
0.0
  0
LINE
  5
285
330
1B
100
AcDbEntity
  8
DEFAULT_2
  6
HIDDEN
 62
     8
100
AcDbLine
 10
287.759389892
 20
182.5063866574
 30
0.0
 11
274.4027419681
 21
182.5063866574
 31
0.0
  0
LINE
  5
286
330
1B
100
AcDbEntity
  8
0
  6
Continuous
 62
     7
100
AcDbLine
 10
291.68106593
 20
182.6563866574
 30
0.0
 11
270.48106593
 21
182.6563866574
 31
0.0
  0
LINE
  5
287
330
1B
100
AcDbEntity
  8
0
  6
Continuous
 62
     7
100
AcDbLine
 10
286.58106593
 20
183.1063866574
 30
0.0
 11
275.58106593
 21
183.1063866574
 31
0.0
  0
LINE
  5
288
330
1B
100
AcDbEntity
  8
0
  6
Continuous
 62
     7
100
AcDbLine
 10
286.4617947427
 20
184.2233739556
 30
0.0
 11
275.58106593
 21
184.2233739556
 31
0.0
  0
LINE
  5
289
330
1B
100
AcDbEntity
  8
0
  6
Continuous
 62
     7
100
AcDbLine
 10
286.4756648879
 20
184.6563866574
 30
0.0
 11
275.33106593
 21
184.6563866574
 31
0.0
  0
LINE
  5
28A
330
1B
100
AcDbEntity
  8
DEFAULT_2
  6
HIDDEN
 62
     8
100
AcDbLine
 10
286.0220366227
 20
187.4063866574
 30
0.0
 11
284.58106593
 21
187.4063866574
 31
0.0
  0
LINE
  5
28B
330
1B
100
AcDbEntity
  8
DEFAULT_2
  6
HIDDEN
 62
     8
100
AcDbLine
 10
286.0220366227
 20
188.9063866574
 30
0.0
 11
284.58106593
 21
188.9063866574
 31
0.0
  0
LINE
  5
28C
330
1B
100
AcDbEntity
  8
DEFAULT_2
  6
HIDDEN
 62
     8
100
AcDbLine
 10
282.33106593
 20
190.2834033111999
 30
0.0
 11
279.83106593
 21
190.2834033111999
 31
0.0
  0
LINE
  5
28D
330
1B
100
AcDbEntity
  8
0
  6
Continuous
 62
     7
100
AcDbLine
 10
275.33106593
 20
193.6563866574
 30
0.0
 11
286.83106593
 21
193.6563866574
 31
0.0
  0
LINE
  5
28E
330
1B
100
AcDbEntity
  8
0
  6
Continuous
 62
     7
100
AcDbLine
 10
286.33106593
 20
194.1563866574
 30
0.0
 11
275.83106593
 21
194.1563866574
 31
0.0
  0
LINE
  5
28F
330
1B
100
AcDbEntity
  8
0
  6
Continuous
 62
     7
100
AcDbLine
 10
269.83106593
 20
144.8063866574
 30
0.0
 11
269.98106593
 21
144.6563866574
 31
0.0
  0
LINE
  5
290
330
1B
100
AcDbEntity
  8
0
  6
Continuous
 62
     2
100
AcDbLine
 10
270.3277328319
 20
140.5497106144
 30
0.0
 11
270.3387433934
 21
140.4459445546
 31
0.0
  0
LINE
  5
291
330
1B
100
AcDbEntity
  8
0
  6
Continuous
 62
     2
100
AcDbLine
 10
270.3387433934
 20
140.4459445546
 30
0.0
 11
270.3488945674
 21
140.3407940192
 31
0.0
  0
LINE
  5
292
330
1B
100
AcDbEntity
  8
0
  6
Continuous
 62
     7
100
AcDbLine
 10
270.2607557366
 20
140.1495528967
 30
0.0
 11
270.2128200485
 21
140.6481949025
 31
0.0
  0
LINE
  5
293
330
1B
100
AcDbEntity
  8
0
  6
Continuous
 62
     2
100
AcDbLine
 10
270.3488945674
 20
140.3407940192
 30
0.0
 11
270.3581335337
 21
140.2344108429
 31
0.0
  0
LINE
  5
294
330
1B
100
AcDbEntity
  8
0
  6
Continuous
 62
     2
100
AcDbLine
 10
270.3581335337
 20
140.2344108429
 30
0.0
 11
270.3664074721
 21
140.1269468603
 31
0.0
  0
LINE
  5
295
330
1B
100
AcDbEntity
  8
DEFAULT_2
  6
HIDDEN
 62
     8
100
AcDbLine
 10
270.2583399613
 20
140.1818546424
 30
0.0
 11
270.2607557366
 21
140.1495528967
 31
0.0
  0
LINE
  5
296
330
1B
100
AcDbEntity
  8
0
  6
Continuous
 62
     2
100
AcDbLine
 10
270.3664074721
 20
140.1269468603
 30
0.0
 11
270.3736635623
 21
140.0185539062
 31
0.0
  0
LINE
  5
297
330
1B
100
AcDbEntity
  8
0
  6
Continuous
 62
     2
100
AcDbLine
 10
270.3736635623
 20
140.0185539062
 30
0.0
 11
270.3798549594
 21
139.9093801154
 31
0.0
  0
LINE
  5
298
330
1B
100
AcDbEntity
  8
0
  6
Continuous
 62
     7
100
AcDbLine
 10
270.2868447269
 20
139.6117518522
 30
0.0
 11
270.2607557366
 21
140.1495528967
 31
0.0
  0
LINE
  5
299
330
1B
100
AcDbEntity
  8
0
  6
Continuous
 62
     2
100
AcDbLine
 10
270.3798549594
 20
139.9093801154
 30
0.0
 11
270.3849587205
 21
139.799558823
 31
0.0
  0
LINE
  5
29A
330
1B
100
AcDbEntity
  8
0
  6
Continuous
 62
     2
100
AcDbLine
 10
270.3849587205
 20
139.799558823
 30
0.0
 11
270.3889578779
 21
139.6892196645
 31
0.0
  0
LINE
  5
29B
330
1B
100
AcDbEntity
  8
0
  6
Continuous
 62
     2
100
AcDbLine
 10
270.3889578779
 20
139.6892196645
 30
0.0
 11
270.391835464
 21
139.5784922751
 31
0.0
  0
LINE
  5
29C
330
1B
100
AcDbEntity
  8
DEFAULT_2
  6
HIDDEN
 62
     8
100
AcDbLine
 10
270.2859989576
 20
139.645300033
 30
0.0
 11
270.2868447269
 21
139.6117518522
 31
0.0
  0
LINE
  5
29D
330
1B
100
AcDbEntity
  8
0
  6
Continuous
 62
     2
100
AcDbLine
 10
270.391835464
 20
139.5784922751
 30
0.0
 11
270.3935745111
 21
139.4675062902
 31
0.0
  0
LINE
  5
29E
330
1B
100
AcDbEntity
  8
0
  6
Continuous
 62
     2
100
AcDbLine
 10
270.3935745111
 20
139.4675062902
 30
0.0
 11
270.3941580517
 21
139.356391345
 31
0.0
  0
LINE
  5
29F
330
1B
100
AcDbEntity
  8
0
  6
Continuous
 62
     7
100
AcDbLine
 10
269.83106593
 20
152.5063866574
 30
0.0
 11
269.83106593
 21
144.8063866574
 31
0.0
  0
LINE
  5
2A0
330
1B
100
AcDbEntity
  8
0
  6
Continuous
 62
     7
100
AcDbLine
 10
269.98106593
 20
182.1563866574
 30
0.0
 11
269.98106593
 21
152.6563866574
 31
0.0
  0
LINE
  5
2A1
330
1B
100
AcDbEntity
  8
0
  6
Continuous
 62
     7
100
AcDbLine
 10
269.98106593
 20
144.6563866574
 30
0.0
 11
269.98106593
 21
141.9563866574
 31
0.0
  0
LINE
  5
2A2
330
1B
100
AcDbEntity
  8
0
  6
Continuous
 62
     7
100
AcDbLine
 10
269.98106593
 20
136.7563866574
 30
0.0
 11
269.98106593
 21
133.1563866574
 31
0.0
  0
LINE
  5
2A3
330
1B
100
AcDbEntity
  8
0
  6
Continuous
 62
     7
100
AcDbLine
 10
270.2858960177
 20
139.0636522442
 30
0.0
 11
270.2868447269
 21
139.6117518522
 31
0.0
  0
LINE
  5
2A4
330
1B
100
AcDbEntity
  8
0
  6
Continuous
 62
     2
100
AcDbLine
 10
270.3941580517
 20
139.356391345
 30
0.0
 11
270.3935747716
 21
139.2452769984
 31
0.0
  0
LINE
  5
2A5
330
1B
100
AcDbEntity
  8
0
  6
Continuous
 62
     2
100
AcDbLine
 10
270.3935747716
 20
139.2452769984
 30
0.0
 11
270.3918359705
 21
139.1342925025
 31
0.0
  0
LINE
  5
2A6
330
1B
100
AcDbEntity
  8
DEFAULT_2
  6
HIDDEN
 62
     8
100
AcDbLine
 10
270.2867684887
 20
139.0978189645
 30
0.0
 11
270.2858960177
 21
139.0636522442
 31
0.0
  0
LINE
  5
2A7
330
1B
100
AcDbEntity
  8
DEFAULT_2
  6
HIDDEN
 62
     8
100
AcDbLine
 10
286.4956836639
 20
191.7197830874
 30
0.0
 11
286.4944336838
 21
191.7158581129
 31
0.0
  0
LINE
  5
2A8
330
1B
100
AcDbEntity
  8
0
  6
Continuous
 62
     7
100
AcDbLine
 10
286.4944336838
 20
191.7158581129
 30
0.0
 11
286.6255568366
 21
192.1067452623
 31
0.0
  0
LINE
  5
2A9
330
1B
100
AcDbEntity
  8
0
  6
Continuous
 62
     7
100
AcDbLine
 10
286.6255568366
 20
192.1067452623
 30
0.0
 11
286.7358604113
 21
192.409488615
 31
0.0
  0
LINE
  5
2AA
330
1B
100
AcDbEntity
  8
0
  6
Continuous
 62
     7
100
AcDbLine
 10
286.7358604113
 20
192.409488615
 30
0.0
 11
286.8080939435
 21
192.5978752027
 31
0.0
  0
LINE
  5
2AB
330
1B
100
AcDbEntity
  8
0
  6
Continuous
 62
     7
100
AcDbLine
 10
286.8080939435
 20
192.5978752027
 30
0.0
 11
286.83106593
 21
192.6563866574
 31
0.0
  0
LINE
  5
2AC
330
1B
100
AcDbEntity
  8
DEFAULT_2
  6
HIDDEN
 62
     8
100
AcDbLine
 10
286.8080365308
 20
192.5977254691
 30
0.0
 11
286.8078440307
 21
192.5972351270999
 31
0.0
  0
LINE
  5
2AD
330
1B
100
AcDbEntity
  8
DEFAULT_2
  6
HIDDEN
 62
     8
100
AcDbLine
 10
274.4027419681
 20
182.5063866574
 30
0.0
 11
274.08106593
 21
182.6563866574
 31
0.0
  0
LINE
  5
2AE
330
1B
100
AcDbEntity
  8
DEFAULT_2
  6
HIDDEN
 62
     8
100
AcDbLine
 10
275.33106593
 20
142.6563866574
 30
0.0
 11
275.23106593
 21
142.8295917382
 31
0.0
  0
LINE
  5
2AF
330
1B
100
AcDbEntity
  8
DEFAULT_2
  6
HIDDEN
 62
     8
100
AcDbLine
 10
275.366561901
 20
142.2877781867
 30
0.0
 11
275.3346411221
 21
142.3491131339
 31
0.0
  0
LINE
  5
2B0
330
1B
100
AcDbEntity
  8
DEFAULT_2
  6
HIDDEN
 62
     8
100
AcDbLine
 10
275.3318417014
 20
142.3545896998
 30
0.0
 11
275.3346431381
 21
142.349111703
 31
0.0
  0
LINE
  5
2B1
330
1B
100
AcDbEntity
  8
DEFAULT_2
  6
HIDDEN
 62
     8
100
AcDbLine
 10
275.3951521408
 20
142.2318249988
 30
0.0
 11
275.366561901
 21
142.2877781867
 31
0.0
  0
LINE
  5
2B2
330
1B
100
AcDbEntity
  8
DEFAULT_2
  6
HIDDEN
 62
     8
100
AcDbLine
 10
275.3951502038
 20
142.2318284433
 30
0.0
 11
275.4124821912
 21
142.1974107359
 31
0.0
  0
LINE
  5
2B3
330
1B
100
AcDbEntity
  8
DEFAULT_2
  6
HIDDEN
 62
     8
100
AcDbLine
 10
275.4124821912
 20
142.1974107359
 30
0.0
 11
275.4317483065
 21
142.158727652
 31
0.0
  0
LINE
  5
2B4
330
1B
100
AcDbEntity
  8
DEFAULT_2
  6
HIDDEN
 62
     8
100
AcDbLine
 10
275.4317483065
 20
142.158727652
 30
0.0
 11
275.4528798966
 21
142.1158022224
 31
0.0
  0
LINE
  5
2B5
330
1B
100
AcDbEntity
  8
DEFAULT_2
  6
HIDDEN
 62
     8
100
AcDbLine
 10
275.4528798966
 20
142.1158022224
 30
0.0
 11
275.4758083085
 21
142.0686574779
 31
0.0
  0
LINE
  5
2B6
330
1B
100
AcDbEntity
  8
DEFAULT_2
  6
HIDDEN
 62
     8
100
AcDbLine
 10
275.4758083085
 20
142.0686574779
 30
0.0
 11
275.5004479566
 21
142.0173342821
 31
0.0
  0
LINE
  5
2B7
330
1B
100
AcDbEntity
  8
DEFAULT_2
  6
HIDDEN
 62
     8
100
AcDbLine
 10
275.5004479566
 20
142.0173342821
 30
0.0
 11
275.5266455245
 21
141.96194483
 31
0.0
  0
LINE
  5
2B8
330
1B
100
AcDbEntity
  8
DEFAULT_2
  6
HIDDEN
 62
     8
100
AcDbLine
 10
275.5266455245
 20
141.96194483
 30
0.0
 11
275.5542307636
 21
141.9026191494
 31
0.0
  0
LINE
  5
2B9
330
1B
100
AcDbEntity
  8
DEFAULT_2
  6
HIDDEN
 62
     8
100
AcDbLine
 10
275.5542307636
 20
141.9026191494
 30
0.0
 11
275.583033425
 21
141.8394872682
 31
0.0
  0
LINE
  5
2BA
330
1B
100
AcDbEntity
  8
DEFAULT_2
  6
HIDDEN
 62
     8
100
AcDbLine
 10
275.33106593
 20
141.9563866574
 30
0.0
 11
275.3534639333
 21
141.9064699175
 31
0.0
  0
LINE
  5
2BB
330
1B
100
AcDbEntity
  8
DEFAULT_2
  6
HIDDEN
 62
     8
100
AcDbLine
 10
275.583033425
 20
141.8394872682
 30
0.0
 11
275.6128832599
 21
141.7726792142
 31
0.0
  0
LINE
  5
2BC
330
1B
100
AcDbEntity
  8
DEFAULT_2
  6
HIDDEN
 62
     8
100
AcDbLine
 10
275.6128832599
 20
141.7726792142
 30
0.0
 11
275.6436100195
 21
141.7023250153
 31
0.0
  0
LINE
  5
2BD
330
1B
100
AcDbEntity
  8
DEFAULT_2
  6
HIDDEN
 62
     8
100
AcDbLine
 10
275.419386471
 20
141.7547432399
 30
0.0
 11
275.3540384741
 21
141.9051792111
 31
0.0
  0
LINE
  5
2BE
330
1B
100
AcDbEntity
  8
DEFAULT_2
  6
HIDDEN
 62
     8
100
AcDbLine
 10
275.33106593
 20
142.3563866574
 30
0.0
 11
275.3318417014
 21
142.3545896998
 31
0.0
  0
LINE
  5
2BF
330
1B
100
AcDbEntity
  8
DEFAULT_2
  6
HIDDEN
 62
     8
100
AcDbLine
 10
275.6436100195
 20
141.7023250153
 30
0.0
 11
275.6750400034
 21
141.6285547495
 31
0.0
  0
LINE
  5
2C0
330
1B
100
AcDbEntity
  8
DEFAULT_2
  6
HIDDEN
 62
     8
100
AcDbLine
 10
275.6750400034
 20
141.6285547495
 30
0.0
 11
275.7069857052
 21
141.5514986953
 31
0.0
  0
LINE
  5
2C1
330
1B
100
AcDbEntity
  8
DEFAULT_2
  6
HIDDEN
 62
     8
100
AcDbLine
 10
275.5170282246
 20
141.5141669029
 30
0.0
 11
275.4172730601
 21
141.7597280135
 31
0.0
  0
LINE
  5
2C2
330
1B
100
AcDbEntity
  8
DEFAULT_2
  6
HIDDEN
 62
     8
100
AcDbLine
 10
275.7069857052
 20
141.5514986953
 30
0.0
 11
275.7392561666
 21
141.4712871814
 31
0.0
  0
LINE
  5
2C3
330
1B
100
AcDbEntity
  8
DEFAULT_2
  6
HIDDEN
 62
     8
100
AcDbLine
 10
275.7392561666
 20
141.4712871814
 30
0.0
 11
275.7716604296
 21
141.3880505363
 31
0.0
  0
LINE
  5
2C4
330
1B
100
AcDbEntity
  8
DEFAULT_2
  6
HIDDEN
 62
     8
100
AcDbLine
 10
275.7716604296
 20
141.3880505363
 30
0.0
 11
275.8040075361
 21
141.3019190887
 31
0.0
  0
LINE
  5
2C5
330
1B
100
AcDbEntity
  8
DEFAULT_2
  6
HIDDEN
 62
     8
100
AcDbLine
 10
275.633415927
 20
141.1933380874
 30
0.0
 11
275.512922656
 21
141.5247315377
 31
0.0
  0
LINE
  5
2C6
330
1B
100
AcDbEntity
  8
DEFAULT_2
  6
HIDDEN
 62
     8
100
AcDbLine
 10
275.8040075361
 20
141.3019190887
 30
0.0
 11
275.836106528
 21
141.2130231673
 31
0.0
  0
LINE
  5
2C7
330
1B
100
AcDbEntity
  8
0
  6
Continuous
 62
     2
100
AcDbLine
 10
269.98106593
 20
142.3563866574
 30
0.0
 11
269.9817714328
 21
142.3543666739
 31
0.0
  0
LINE
  5
2C8
330
1B
100
AcDbEntity
  8
DEFAULT_2
  6
HIDDEN
 62
     8
100
AcDbLine
 10
269.9817713873
 20
142.3543667102
 30
0.0
 11
269.98106593
 21
142.3563866574
 31
0.0
  0
LINE
  5
2C9
330
1B
100
AcDbEntity
  8
DEFAULT_2
  6
HIDDEN
 62
     8
100
AcDbLine
 10
275.836106528
 20
141.2130231673
 30
0.0
 11
275.8677648124
 21
141.1215097493
 31
0.0
  0
LINE
  5
2CA
330
1B
100
AcDbEntity
  8
DEFAULT_2
  6
HIDDEN
 62
     8
100
AcDbLine
 10
275.8677648124
 20
141.1215097493
 30
0.0
 11
275.8987832579
 21
141.0275924066
 31
0.0
  0
LINE
  5
2CB
330
1B
100
AcDbEntity
  8
0
  6
Continuous
 62
     2
100
AcDbLine
 10
269.9817714328
 20
142.3543666739
 30
0.0
 11
269.9834762909
 21
142.3482925577
 31
0.0
  0
LINE
  5
2CC
330
1B
100
AcDbEntity
  8
0
  6
Continuous
 62
     2
100
AcDbLine
 10
269.9834762909
 20
142.3482925577
 30
0.0
 11
269.9899596209
 21
142.3238969341
 31
0.0
  0
LINE
  5
2CD
330
1B
100
AcDbEntity
  8
0
  6
Continuous
 62
     2
100
AcDbLine
 10
269.9899596209
 20
142.3238969341
 30
0.0
 11
270.0246387884
 21
142.1907667737
 31
0.0
  0
LINE
  5
2CE
330
1B
100
AcDbEntity
  8
0
  6
Continuous
 62
     2
100
AcDbLine
 10
270.0246387884
 20
142.1907667737
 30
0.0
 11
270.0453334409
 21
142.1090428337
 31
0.0
  0
LINE
  5
2CF
330
1B
100
AcDbEntity
  8
0
  6
Continuous
 62
     2
100
AcDbLine
 10
270.0453334409
 20
142.1090428337
 30
0.0
 11
270.0692665482
 21
142.0115654683
 31
0.0
  0
LINE
  5
2D0
330
1B
100
AcDbEntity
  8
0
  6
Continuous
 62
     2
100
AcDbLine
 10
270.0692665482
 20
142.0115654683
 30
0.0
 11
270.0822845202
 21
141.9570791506
 31
0.0
  0
LINE
  5
2D1
330
1B
100
AcDbEntity
  8
0
  6
Continuous
 62
     2
100
AcDbLine
 10
270.0822845202
 20
141.9570791506
 30
0.0
 11
270.0959011663
 21
141.8988822091
 31
0.0
  0
LINE
  5
2D2
330
1B
100
AcDbEntity
  8
0
  6
Continuous
 62
     7
100
AcDbLine
 10
269.9943647828
 20
141.8990117433
 30
0.0
 11
269.98106593
 21
141.9563866574
 31
0.0
  0
LINE
  5
2D3
330
1B
100
AcDbEntity
  8
0
  6
Continuous
 62
     2
100
AcDbLine
 10
270.0959011663
 20
141.8988822091
 30
0.0
 11
270.1100389117
 21
141.8370675306
 31
0.0
  0
LINE
  5
2D4
330
1B
100
AcDbEntity
  8
0
  6
Continuous
 62
     2
100
AcDbLine
 10
270.1100389117
 20
141.8370675306
 30
0.0
 11
270.1246201814
 21
141.7717280019
 31
0.0
  0
LINE
  5
2D5
330
1B
100
AcDbEntity
  8
0
  6
Continuous
 62
     7
100
AcDbLine
 10
270.0320110061
 20
141.7294889965
 30
0.0
 11
269.9943647828
 21
141.8990117433
 31
0.0
  0
LINE
  5
2D6
330
1B
100
AcDbEntity
  8
0
  6
Continuous
 62
     2
100
AcDbLine
 10
270.1246201814
 20
141.7717280019
 30
0.0
 11
270.1395674005
 21
141.7029565098
 31
0.0
  0
LINE
  5
2D7
330
1B
100
AcDbEntity
  8
DEFAULT_2
  6
HIDDEN
 62
     8
100
AcDbLine
 10
270.0309363434
 20
141.7344875554
 30
0.0
 11
270.0320110061
 21
141.7294889965
 31
0.0
  0
LINE
  5
2D8
330
1B
100
AcDbEntity
  8
0
  6
Continuous
 62
     2
100
AcDbLine
 10
270.1395674005
 20
141.7029565098
 30
0.0
 11
270.1548009433
 21
141.6308497267
 31
0.0
  0
LINE
  5
2D9
330
1B
100
AcDbEntity
  8
0
  6
Continuous
 62
     2
100
AcDbLine
 10
270.1548009433
 20
141.6308497267
 30
0.0
 11
270.1702329811
 21
141.5555194686
 31
0.0
  0
LINE
  5
2DA
330
1B
100
AcDbEntity
  8
0
  6
Continuous
 62
     7
100
AcDbLine
 10
270.0875749919
 20
141.4556348580999
 30
0.0
 11
270.0320110061
 21
141.7294889965
 31
0.0
  0
LINE
  5
2DB
330
1B
100
AcDbEntity
  8
0
  6
Continuous
 62
     2
100
AcDbLine
 10
270.1702329811
 20
141.5555194686
 30
0.0
 11
270.1857736346
 21
141.4770813368
 31
0.0
  0
LINE
  5
2DC
330
1B
100
AcDbEntity
  8
DEFAULT_2
  6
HIDDEN
 62
     8
100
AcDbLine
 10
270.08551981
 20
141.4663711311
 30
0.0
 11
270.0875749919
 21
141.4556348580999
 31
0.0
  0
LINE
  5
2DD
330
1B
100
AcDbEntity
  8
0
  6
Continuous
 62
     2
100
AcDbLine
 10
270.1857736346
 20
141.4770813368
 30
0.0
 11
270.2013330242
 21
141.3956509327
 31
0.0
  0
LINE
  5
2DE
330
1B
100
AcDbEntity
  8
0
  6
Continuous
 62
     2
100
AcDbLine
 10
270.2013330242
 20
141.3956509327
 30
0.0
 11
270.2168212705
 21
141.3113438581
 31
0.0
  0
LINE
  5
2DF
330
1B
100
AcDbEntity
  8
0
  6
Continuous
 62
     2
100
AcDbLine
 10
270.2168212705
 20
141.3113438581
 30
0.0
 11
270.2321484943
 21
141.2242757142
 31
0.0
  0
LINE
  5
2E0
330
1B
100
AcDbEntity
  8
0
  6
Continuous
 62
     7
100
AcDbLine
 10
270.1513562761
 20
141.0909047804
 30
0.0
 11
270.0875749919
 21
141.4556348580999
 31
0.0
  0
LINE
  5
2E1
330
1B
100
AcDbEntity
  8
0
  6
Continuous
 62
     2
100
AcDbLine
 10
270.2321484943
 20
141.2242757142
 30
0.0
 11
270.2472258279
 21
141.134569428
 31
0.0
  0
LINE
  5
2E2
330
1B
100
AcDbEntity
  8
0
  6
Continuous
 62
     2
100
AcDbLine
 10
270.2472258279
 20
141.134569428
 30
0.0
 11
270.261968452
 21
141.0423772279
 31
0.0
  0
LINE
  5
2E3
330
1B
100
AcDbEntity
  8
DEFAULT_2
  6
HIDDEN
 62
     8
100
AcDbLine
 10
270.1484135474
 20
141.1093521789999
 30
0.0
 11
270.1513562761
 21
141.0909047804
 31
0.0
  0
LINE
  5
2E4
330
1B
100
AcDbEntity
  8
0
  6
Continuous
 62
     2
100
AcDbLine
 10
270.261968452
 20
141.0423772279
 30
0.0
 11
270.276292559
 21
140.9478586676
 31
0.0
  0
LINE
  5
2E5
330
1B
100
AcDbEntity
  8
0
  6
Continuous
 62
     2
100
AcDbLine
 10
270.276292559
 20
140.9478586676
 30
0.0
 11
270.2901143416
 21
140.851173301
 31
0.0
  0
LINE
  5
2E6
330
1B
100
AcDbEntity
  8
0
  6
Continuous
 62
     7
100
AcDbLine
 10
270.2128200485
 20
140.6481949025
 30
0.0
 11
270.1513562761
 21
141.0909047804
 31
0.0
  0
LINE
  5
2E7
330
1B
100
AcDbEntity
  8
0
  6
Continuous
 62
     2
100
AcDbLine
 10
270.2901143416
 20
140.851173301
 30
0.0
 11
270.3033499921
 21
140.7524806818
 31
0.0
  0
LINE
  5
2E8
330
1B
100
AcDbEntity
  8
0
  6
Continuous
 62
     2
100
AcDbLine
 10
270.3033499921
 20
140.7524806818
 30
0.0
 11
270.3159157032
 21
140.6519403639
 31
0.0
  0
LINE
  5
2E9
330
1B
100
AcDbEntity
  8
DEFAULT_2
  6
HIDDEN
 62
     8
100
AcDbLine
 10
270.2095983303
 20
140.6750252629
 30
0.0
 11
270.2128200485
 21
140.6481949025
 31
0.0
  0
LINE
  5
2EA
330
1B
100
AcDbEntity
  8
0
  6
Continuous
 62
     2
100
AcDbLine
 10
270.3159157032
 20
140.6519403639
 30
0.0
 11
270.3277328319
 21
140.5497106144
 31
0.0
  0
LINE
  5
2EB
330
1B
100
AcDbEntity
  8
DEFAULT_2
  6
HIDDEN
 62
     8
100
AcDbLine
 10
276.1460832305
 20
139.8962757647
 30
0.0
 11
276.1566728351
 21
139.7887354302
 31
0.0
  0
LINE
  5
2EC
330
1B
100
AcDbEntity
  8
DEFAULT_2
  6
HIDDEN
 62
     8
100
AcDbLine
 10
276.1566728351
 20
139.7887354302
 30
0.0
 11
276.1649589742
 21
139.6809038107
 31
0.0
  0
LINE
  5
2ED
330
1B
100
AcDbEntity
  8
DEFAULT_2
  6
HIDDEN
 62
     8
100
AcDbLine
 10
276.1649589742
 20
139.6809038107
 30
0.0
 11
276.1709131592
 21
139.5728543701
 31
0.0
  0
LINE
  5
2EE
330
1B
100
AcDbEntity
  8
DEFAULT_2
  6
HIDDEN
 62
     8
100
AcDbLine
 10
275.9244312253
 20
139.8933982757
 30
0.0
 11
275.9524388847
 21
139.3741453245
 31
0.0
  0
LINE
  5
2EF
330
1B
100
AcDbEntity
  8
DEFAULT_2
  6
HIDDEN
 62
     8
100
AcDbLine
 10
275.952449411
 20
139.3419852877
 30
0.0
 11
275.9277747626
 21
139.8602813458
 31
0.0
  0
LINE
  5
2F0
330
1B
100
AcDbEntity
  8
DEFAULT_2
  6
HIDDEN
 62
     8
100
AcDbLine
 10
276.1709131592
 20
139.5728543701
 30
0.0
 11
276.1745069015
 21
139.4646605725
 31
0.0
  0
LINE
  5
2F1
330
1B
100
AcDbEntity
  8
DEFAULT_2
  6
HIDDEN
 62
     8
100
AcDbLine
 10
276.1745069015
 20
139.4646605725
 30
0.0
 11
276.1757117124
 21
139.3563958819
 31
0.0
  0
LINE
  5
2F2
330
1B
100
AcDbEntity
  8
DEFAULT_2
  6
HIDDEN
 62
     8
100
AcDbLine
 10
275.23106593
 20
142.8295917382
 30
0.0
 11
275.23106593
 21
150.6563866574
 31
0.0
  0
LINE
  5
2F3
330
1B
100
AcDbEntity
  8
0
  6
Continuous
 62
     7
100
AcDbLine
 10
275.33106593
 20
193.6563866574
 30
0.0
 11
275.33106593
 21
184.6563866574
 31
0.0
  0
LINE
  5
2F4
330
1B
100
AcDbEntity
  8
DEFAULT_2
  6
HIDDEN
 62
     8
100
AcDbLine
 10
275.33106593
 20
133.1563866574
 30
0.0
 11
275.33106593
 21
136.7563866574
 31
0.0
  0
LINE
  5
2F5
330
1B
100
AcDbEntity
  8
DEFAULT_2
  6
HIDDEN
 62
     8
100
AcDbLine
 10
275.33106593
 20
141.9563866574
 30
0.0
 11
275.33106593
 21
142.6563866574
 31
0.0
  0
LINE
  5
2F6
330
1B
100
AcDbEntity
  8
DEFAULT_2
  6
HIDDEN
 62
     8
100
AcDbLine
 10
275.58106593
 20
150.6563866574
 30
0.0
 11
275.58106593
 21
177.6563866574
 31
0.0
  0
LINE
  5
2F7
330
1B
100
AcDbEntity
  8
0
  6
Continuous
 62
     7
100
AcDbLine
 10
275.58106593
 20
183.1063866574
 30
0.0
 11
275.58106593
 21
184.2233739556
 31
0.0
  0
LINE
  5
2F8
330
1B
100
AcDbEntity
  8
DEFAULT_2
  6
HIDDEN
 62
     8
100
AcDbLine
 10
279.83106593
 20
190.2834033111999
 30
0.0
 11
279.83106593
 21
180.1101253015
 31
0.0
  0
LINE
  5
2F9
330
1B
100
AcDbEntity
  8
DEFAULT_1
  6
CENTER
 62
     2
100
AcDbLine
 10
281.08106593
 20
126.6563866574
 30
0.0
 11
281.08106593
 21
200.1563866574
 31
0.0
  0
LINE
  5
2FA
330
1B
100
AcDbEntity
  8
DEFAULT_2
  6
HIDDEN
 62
     8
100
AcDbLine
 10
282.33106593
 20
190.2834033111999
 30
0.0
 11
282.33106593
 21
180.1101253015
 31
0.0
  0
LINE
  5
2FB
330
1B
100
AcDbEntity
  8
DEFAULT_2
  6
HIDDEN
 62
     8
100
AcDbLine
 10
284.58106593
 20
190.4061543415
 30
0.0
 11
284.58106593
 21
185.9066189734
 31
0.0
  0
LINE
  5
2FC
330
1B
100
AcDbEntity
  8
DEFAULT_2
  6
HIDDEN
 62
     8
100
AcDbLine
 10
276.1757117124
 20
139.3563958819
 30
0.0
 11
276.1745085832
 21
139.2481334828
 31
0.0
  0
LINE
  5
2FD
330
1B
100
AcDbEntity
  8
0
  6
Continuous
 62
     2
100
AcDbLine
 10
270.3918359705
 20
139.1342925025
 30
0.0
 11
270.3889586017
 21
139.023567033
 31
0.0
  0
LINE
  5
2FE
330
1B
100
AcDbEntity
  8
DEFAULT_2
  6
HIDDEN
 62
     8
100
AcDbLine
 10
276.1745085832
 20
139.2481334828
 30
0.0
 11
276.1709164235
 21
139.1399454418
 31
0.0
  0
LINE
  5
2FF
330
1B
100
AcDbEntity
  8
0
  6
Continuous
 62
     2
100
AcDbLine
 10
270.3889586017
 20
139.023567033
 30
0.0
 11
270.3849596185
 21
138.9132297655
 31
0.0
  0
LINE
  5
300
330
1B
100
AcDbEntity
  8
0
  6
Continuous
 62
     7
100
AcDbLine
 10
286.0220366227
 20
188.9063866574
 30
0.0
 11
286.0461861933
 21
189.5243327752
 31
0.0
  0
LINE
  5
301
330
1B
100
AcDbEntity
  8
0
  6
Continuous
 62
     2
100
AcDbLine
 10
270.3849596185
 20
138.9132297655
 30
0.0
 11
270.3798559741
 21
138.8034098757
 31
0.0
  0
LINE
  5
302
330
1B
100
AcDbEntity
  8
DEFAULT_2
  6
HIDDEN
 62
     8
100
AcDbLine
 10
275.9524388847
 20
139.3741453245
 30
0.0
 11
275.9280486601
 21
138.8553008523
 31
0.0
  0
LINE
  5
303
330
1B
100
AcDbEntity
  8
0
  6
Continuous
 62
     7
100
AcDbLine
 10
270.2580226297
 20
138.5267685033
 30
0.0
 11
270.2858960177
 21
139.0636522442
 31
0.0
  0
LINE
  5
304
330
1B
100
AcDbEntity
  8
0
  6
Continuous
 62
     7
100
AcDbLine
 10
286.4668499322
 20
184.4869530318
 30
0.0
 11
286.4756648879
 21
184.6563866574
 31
0.0
  0
LINE
  5
305
330
1B
100
AcDbEntity
  8
DEFAULT_2
  6
HIDDEN
 62
     8
100
AcDbLine
 10
275.9248317881
 20
138.8232351534
 30
0.0
 11
275.952449411
 21
139.3419852877
 31
0.0
  0
LINE
  5
306
330
1B
100
AcDbEntity
  8
DEFAULT_2
  6
HIDDEN
 62
     8
100
AcDbLine
 10
276.1709164235
 20
139.1399454418
 30
0.0
 11
276.164963623
 21
139.0319035463
 31
0.0
  0
LINE
  5
307
330
1B
100
AcDbEntity
  8
0
  6
Continuous
 62
     2
100
AcDbLine
 10
270.3798559741
 20
138.8034098757
 30
0.0
 11
270.3736646216
 21
138.6942365392
 31
0.0
  0
LINE
  5
308
330
1B
100
AcDbEntity
  8
0
  6
Continuous
 62
     2
100
AcDbLine
 10
270.3736646216
 20
138.6942365392
 30
0.0
 11
270.3664084984
 21
138.5858427836
 31
0.0
  0
LINE
  5
309
330
1B
100
AcDbEntity
  8
DEFAULT_2
  6
HIDDEN
 62
     8
100
AcDbLine
 10
270.2605614265
 20
138.560574047
 30
0.0
 11
270.2580226297
 21
138.5267685033
 31
0.0
  0
LINE
  5
30A
330
1B
100
AcDbEntity
  8
0
  6
Continuous
 62
     2
100
AcDbLine
 10
270.3664084984
 20
138.5858427836
 30
0.0
 11
270.3581344774
 21
138.4783770447
 31
0.0
  0
LINE
  5
30B
330
1B
100
AcDbEntity
  8
DEFAULT_2
  6
HIDDEN
 62
     8
100
AcDbLine
 10
276.164963623
 20
139.0319035463
 30
0.0
 11
276.1566785711
 21
138.9240795835
 31
0.0
  0
LINE
  5
30C
330
1B
100
AcDbEntity
  8
0
  6
Continuous
 62
     2
100
AcDbLine
 10
270.3581344774
 20
138.4783770447
 30
0.0
 11
270.3488954154
 21
138.3719916101
 31
0.0
  0
LINE
  5
30D
330
1B
100
AcDbEntity
  8
0
  6
Continuous
 62
     2
100
AcDbLine
 10
270.3488954154
 20
138.3719916101
 30
0.0
 11
270.3387441694
 21
138.2668387677
 31
0.0
  0
LINE
  5
30E
330
1B
100
AcDbEntity
  8
DEFAULT_2
  6
HIDDEN
 62
     8
100
AcDbLine
 10
276.1566785711
 20
138.9240795835
 30
0.0
 11
276.1460896574
 21
138.8165453406
 31
0.0
  0
LINE
  5
30F
330
1B
100
AcDbEntity
  8
0
  6
Continuous
 62
     7
100
AcDbLine
 10
270.2091699809
 20
138.0342211882
 30
0.0
 11
270.2580226297
 21
138.5267685033
 31
0.0
  0
LINE
  5
310
330
1B
100
AcDbEntity
  8
0
  6
Continuous
 62
     2
100
AcDbLine
 10
270.3387441694
 20
138.2668387677
 30
0.0
 11
270.3277335962
 21
138.163070805
 31
0.0
  0
LINE
  5
311
330
1B
100
AcDbEntity
  8
0
  6
Continuous
 62
     7
100
AcDbLine
 10
286.0461861933
 20
189.5243327752
 30
0.0
 11
286.1170066145
 21
190.1372946221
 31
0.0
  0
LINE
  5
312
330
1B
100
AcDbEntity
  8
0
  6
Continuous
 62
     2
100
AcDbLine
 10
270.3277335962
 20
138.163070805
 30
0.0
 11
270.3159165527
 21
138.0608400098
 31
0.0
  0
LINE
  5
313
330
1B
100
AcDbEntity
  8
DEFAULT_2
  6
HIDDEN
 62
     8
100
AcDbLine
 10
276.133218649
 20
138.7093219647
 30
0.0
 11
276.1460832305
 21
138.8164975502
 31
0.0
  0
LINE
  5
314
330
1B
100
AcDbEntity
  8
DEFAULT_2
  6
HIDDEN
 62
     8
100
AcDbLine
 10
270.2125786152
 20
138.0625487568
 30
0.0
 11
270.2091699809
 21
138.0342211882
 31
0.0
  0
LINE
  5
315
330
1B
100
AcDbEntity
  8
0
  6
Continuous
 62
     2
100
AcDbLine
 10
270.3159165527
 20
138.0608400098
 30
0.0
 11
270.3033510459
 21
137.9602998143
 31
0.0
  0
LINE
  5
316
330
1B
100
AcDbEntity
  8
0
  6
Continuous
 62
     2
100
AcDbLine
 10
270.3033510459
 20
137.9602998143
 30
0.0
 11
270.2901156828
 21
137.8616082277
 31
0.0
  0
LINE
  5
317
330
1B
100
AcDbEntity
  8
0
  6
Continuous
 62
     7
100
AcDbLine
 10
270.148037366
 20
137.6010765473
 30
0.0
 11
270.2091699809
 21
138.0342211882
 31
0.0
  0
LINE
  5
318
330
1B
100
AcDbEntity
  8
DEFAULT_2
  6
HIDDEN
 62
     8
100
AcDbLine
 10
276.118119576
 20
138.6025949762
 30
0.0
 11
276.133218649
 21
138.7093219647
 31
0.0
  0
LINE
  5
319
330
1B
100
AcDbEntity
  8
0
  6
Continuous
 62
     2
100
AcDbLine
 10
270.2901156828
 20
137.8616082277
 30
0.0
 11
270.2762942206
 21
137.7649244039
 31
0.0
  0
LINE
  5
31A
330
1B
100
AcDbEntity
  8
DEFAULT_2
  6
HIDDEN
 62
     8
100
AcDbLine
 10
275.9280486601
 20
138.8553008523
 30
0.0
 11
275.8568252704
 21
138.3613035104
 31
0.0
  0
LINE
  5
31B
330
1B
100
AcDbEntity
  8
DEFAULT_2
  6
HIDDEN
 62
     8
100
AcDbLine
 10
275.850918256
 20
138.3307431073
 30
0.0
 11
275.9248317881
 21
138.8232351534
 31
0.0
  0
LINE
  5
31C
330
1B
100
AcDbEntity
  8
0
  6
Continuous
 62
     2
100
AcDbLine
 10
270.2762942206
 20
137.7649244039
 30
0.0
 11
270.2619704161
 21
137.6704074965
 31
0.0
  0
LINE
  5
31D
330
1B
100
AcDbEntity
  8
DEFAULT_2
  6
HIDDEN
 62
     8
100
AcDbLine
 10
286.1174043303
 20
190.1399000797
 30
0.0
 11
286.1170066145
 21
190.1372946221
 31
0.0
  0
LINE
  5
31E
330
1B
100
AcDbEntity
  8
DEFAULT_2
  6
HIDDEN
 62
     8
100
AcDbLine
 10
270.1511350854
 20
137.6204752919
 30
0.0
 11
270.148037366
 21
137.6010765473
 31
0.0
  0
LINE
  5
31F
330
1B
100
AcDbEntity
  8
0
  6
Continuous
 62
     2
100
AcDbLine
 10
270.2619704161
 20
137.6704074965
 30
0.0
 11
270.2472280267
 21
137.5782166595
 31
0.0
  0
LINE
  5
320
330
1B
100
AcDbEntity
  8
DEFAULT_2
  6
HIDDEN
 62
     8
100
AcDbLine
 10
276.1181258701
 20
138.6026441151
 30
0.0
 11
276.1008801817
 21
138.4964864176
 31
0.0
  0
LINE
  5
321
330
1B
100
AcDbEntity
  8
0
  6
Continuous
 62
     2
100
AcDbLine
 10
270.2472280267
 20
137.5782166595
 30
0.0
 11
270.2321508093
 21
137.4885110465
 31
0.0
  0
LINE
  5
322
330
1B
100
AcDbEntity
  8
0
  6
Continuous
 62
     2
100
AcDbLine
 10
270.2321508093
 20
137.4885110465
 30
0.0
 11
270.216823549
 21
137.4014426011
 31
0.0
  0
LINE
  5
323
330
1B
100
AcDbEntity
  8
0
  6
Continuous
 62
     7
100
AcDbLine
 10
270.0852718221
 20
137.2451102509
 30
0.0
 11
270.148037366
 21
137.6010765473
 31
0.0
  0
LINE
  5
324
330
1B
100
AcDbEntity
  8
DEFAULT_2
  6
HIDDEN
 62
     8
100
AcDbLine
 10
276.1008801817
 20
138.4964864176
 30
0.0
 11
276.0815890018
 21
138.39103701
 31
0.0
  0
LINE
  5
325
330
1B
100
AcDbEntity
  8
0
  6
Continuous
 62
     2
100
AcDbLine
 10
270.216823549
 20
137.4014426011
 30
0.0
 11
270.2013351434
 21
137.3171344266
 31
0.0
  0
LINE
  5
326
330
1B
100
AcDbEntity
  8
0
  6
Continuous
 62
     7
100
AcDbLine
 10
286.1170066145
 20
190.1372946221
 30
0.0
 11
286.2253468053
 21
190.7195683766
 31
0.0
  0
LINE
  5
327
330
1B
100
AcDbEntity
  8
0
  6
Continuous
 62
     2
100
AcDbLine
 10
270.2013351434
 20
137.3171344266
 30
0.0
 11
270.185775518
 21
137.235702416
 31
0.0
  0
LINE
  5
328
330
1B
100
AcDbEntity
  8
DEFAULT_2
  6
HIDDEN
 62
     8
100
AcDbLine
 10
270.0874183026
 20
137.25631805
 30
0.0
 11
270.0852718221
 21
137.2451102509
 31
0.0
  0
LINE
  5
329
330
1B
100
AcDbEntity
  8
0
  6
Continuous
 62
     2
100
AcDbLine
 10
270.185775518
 20
137.235702416
 30
0.0
 11
270.1702345984
 21
137.1572624624
 31
0.0
  0
LINE
  5
32A
330
1B
100
AcDbEntity
  8
DEFAULT_2
  6
HIDDEN
 62
     8
100
AcDbLine
 10
276.0815890018
 20
138.39103701
 30
0.0
 11
276.060353126
 21
138.28643339
 31
0.0
  0
LINE
  5
32B
330
1B
100
AcDbEntity
  8
0
  6
Continuous
 62
     7
100
AcDbLine
 10
270.0308073194
 20
136.9776863059
 30
0.0
 11
270.0852718221
 21
137.2451102509
 31
0.0
  0
LINE
  5
32C
330
1B
100
AcDbEntity
  8
0
  6
Continuous
 62
     2
100
AcDbLine
 10
270.1702345984
 20
137.1572624624
 30
0.0
 11
270.1548023101
 21
137.0819304589
 31
0.0
  0
LINE
  5
32D
330
1B
100
AcDbEntity
  8
0
  6
Continuous
 62
     2
100
AcDbLine
 10
270.1548023101
 20
137.0819304589
 30
0.0
 11
270.1395685786
 21
137.0098222985
 31
0.0
  0
LINE
  5
32E
330
1B
100
AcDbEntity
  8
DEFAULT_2
  6
HIDDEN
 62
     8
100
AcDbLine
 10
270.0319289164
 20
136.9829021415
 30
0.0
 11
270.0308073194
 21
136.9776863059
 31
0.0
  0
LINE
  5
32F
330
1B
100
AcDbEntity
  8
0
  6
Continuous
 62
     2
100
AcDbLine
 10
270.1395685786
 20
137.0098222985
 30
0.0
 11
270.1246212659
 21
136.9410500114
 31
0.0
  0
LINE
  5
330
330
1B
100
AcDbEntity
  8
DEFAULT_2
  6
HIDDEN
 62
     8
100
AcDbLine
 10
286.2264667549
 20
190.7246814623
 30
0.0
 11
286.2253468053
 21
190.7195683766
 31
0.0
  0
LINE
  5
331
330
1B
100
AcDbEntity
  8
0
  6
Continuous
 62
     7
100
AcDbLine
 10
269.9940245485
 20
136.8122784453
 30
0.0
 11
270.0308073194
 21
136.9776863059
 31
0.0
  0
LINE
  5
332
330
1B
100
AcDbEntity
  8
DEFAULT_2
  6
HIDDEN
 62
     8
100
AcDbLine
 10
276.060353126
 20
138.28643339
 30
0.0
 11
276.0372733498
 21
138.1828130554
 31
0.0
  0
LINE
  5
333
330
1B
100
AcDbEntity
  8
0
  6
Continuous
 62
     2
100
AcDbLine
 10
270.1246212659
 20
136.9410500114
 30
0.0
 11
270.1100399791
 21
136.8757101762
 31
0.0
  0
LINE
  5
334
330
1B
100
AcDbEntity
  8
0
  6
Continuous
 62
     2
100
AcDbLine
 10
270.1100399791
 20
136.8757101762
 30
0.0
 11
270.0959022616
 21
136.8138955082
 31
0.0
  0
LINE
  5
335
330
1B
100
AcDbEntity
  8
DEFAULT_2
  6
HIDDEN
 62
     8
100
AcDbLine
 10
275.8568252704
 20
138.3613035104
 30
0.0
 11
275.7529010556
 21
137.9117964286
 31
0.0
  0
LINE
  5
336
330
1B
100
AcDbEntity
  8
0
  6
Continuous
 62
     7
100
AcDbLine
 10
269.98106593
 20
136.7563866574
 30
0.0
 11
269.9940245485
 21
136.8122784453
 31
0.0
  0
LINE
  5
337
330
1B
100
AcDbEntity
  8
0
  6
Continuous
 62
     2
100
AcDbLine
 10
270.0959022616
 20
136.8138955082
 30
0.0
 11
270.0822856571
 21
136.7556987233
 31
0.0
  0
LINE
  5
338
330
1B
100
AcDbEntity
  8
DEFAULT_2
  6
HIDDEN
 62
     8
100
AcDbLine
 10
275.7461459701
 20
137.8870769627
 30
0.0
 11
275.850918256
 21
138.3307431073
 31
0.0
  0
LINE
  5
339
330
1B
100
AcDbEntity
  8
0
  6
Continuous
 62
     2
100
AcDbLine
 10
270.0822856571
 20
136.7556987233
 30
0.0
 11
270.0569259605
 21
136.6505296643
 31
0.0
  0
LINE
  5
33A
330
1B
100
AcDbEntity
  8
DEFAULT_2
  6
HIDDEN
 62
     8
100
AcDbLine
 10
276.0372733498
 20
138.1828130554
 30
0.0
 11
276.0124504689
 21
138.0803135039
 31
0.0
  0
LINE
  5
33B
330
1B
100
AcDbEntity
  8
0
  6
Continuous
 62
     7
100
AcDbLine
 10
286.2253468053
 20
190.7195683766
 30
0.0
 11
286.3562089906
 21
191.249716847
 31
0.0
  0
LINE
  5
33C
330
1B
100
AcDbEntity
  8
0
  6
Continuous
 62
     2
100
AcDbLine
 10
270.0569259605
 20
136.6505296643
 30
0.0
 11
270.0345534242
 21
136.5608799057
 31
0.0
  0
LINE
  5
33D
330
1B
100
AcDbEntity
  8
0
  6
Continuous
 62
     2
100
AcDbLine
 10
270.0345534242
 20
136.5608799057
 30
0.0
 11
270.0156493298
 21
136.4871670808
 31
0.0
  0
LINE
  5
33E
330
1B
100
AcDbEntity
  8
DEFAULT_2
  6
HIDDEN
 62
     8
100
AcDbLine
 10
276.0124504689
 20
138.0803135039
 30
0.0
 11
275.986001858
 21
137.9790873916
 31
0.0
  0
LINE
  5
33F
330
1B
100
AcDbEntity
  8
0
  6
Continuous
 62
     2
100
AcDbLine
 10
270.0156493298
 20
136.4871670808
 30
0.0
 11
269.9861993127
 21
136.3746301074
 31
0.0
  0
LINE
  5
340
330
1B
100
AcDbEntity
  8
0
  6
Continuous
 62
     2
100
AcDbLine
 10
269.9861993127
 20
136.3746301074
 30
0.0
 11
269.9834762167
 21
136.3644806519
 31
0.0
  0
LINE
  5
341
330
1B
100
AcDbEntity
  8
DEFAULT_2
  6
HIDDEN
 62
     8
100
AcDbLine
 10
286.3578409226
 20
191.2556649879
 30
0.0
 11
286.3562089906
 21
191.249716847
 31
0.0
  0
LINE
  5
342
330
1B
100
AcDbEntity
  8
DEFAULT_2
  6
HIDDEN
 62
     8
100
AcDbLine
 10
275.986001858
 20
137.9790873916
 30
0.0
 11
275.9581112084
 21
137.8793480077
 31
0.0
  0
LINE
  5
343
330
1B
100
AcDbEntity
  8
0
  6
Continuous
 62
     2
100
AcDbLine
 10
269.9834762167
 20
136.3644806519
 30
0.0
 11
269.9817713873
 21
136.3584066046999
 31
0.0
  0
LINE
  5
344
330
1B
100
AcDbEntity
  8
0
  6
Continuous
 62
     7
100
AcDbLine
 10
286.3562089906
 20
191.249716847
 30
0.0
 11
286.4944336838
 21
191.7158581129
 31
0.0
  0
LINE
  5
345
330
1B
100
AcDbEntity
  8
DEFAULT_2
  6
HIDDEN
 62
     8
100
AcDbLine
 10
275.9581112084
 20
137.8793480077
 30
0.0
 11
275.9289787903
 21
137.7813237998
 31
0.0
  0
LINE
  5
346
330
1B
100
AcDbEntity
  8
DEFAULT_2
  6
HIDDEN
 62
     8
100
AcDbLine
 10
275.6279676391
 20
137.5033402546
 30
0.0
 11
275.7529010556
 21
137.9117964286
 31
0.0
  0
LINE
  5
347
330
1B
100
AcDbEntity
  8
DEFAULT_2
  6
HIDDEN
 62
     8
100
AcDbLine
 10
275.9289787903
 20
137.7813237998
 30
0.0
 11
275.8988048741
 21
137.6852432154
 31
0.0
  0
LINE
  5
348
330
1B
100
AcDbEntity
  8
DEFAULT_2
  6
HIDDEN
 62
     8
100
AcDbLine
 10
275.8988048741
 20
137.6852432154
 30
0.0
 11
275.86778973
 21
137.5913347021
 31
0.0
  0
LINE
  5
349
330
1B
100
AcDbEntity
  8
DEFAULT_2
  6
HIDDEN
 62
     8
100
AcDbLine
 10
275.86778973
 20
137.5913347021
 30
0.0
 11
275.8361336284
 21
137.4998267073
 31
0.0
  0
LINE
  5
34A
330
1B
100
AcDbEntity
  8
0
  6
Continuous
 62
     2
100
AcDbLine
 10
269.9817713873
 20
136.3584066046999
 30
0.0
 11
269.98106593
 21
136.3563866574
 31
0.0
  0
LINE
  5
34B
330
1B
100
AcDbEntity
  8
DEFAULT_2
  6
HIDDEN
 62
     8
100
AcDbLine
 10
275.8361336284
 20
137.4998267073
 30
0.0
 11
275.804035345
 21
137.4109315217
 31
0.0
  0
LINE
  5
34C
330
1B
100
AcDbEntity
  8
DEFAULT_2
  6
HIDDEN
 62
     8
100
AcDbLine
 10
275.513317805
 20
137.189056691
 30
0.0
 11
275.6338062738
 21
137.5205931608
 31
0.0
  0
LINE
  5
34D
330
1B
100
AcDbEntity
  8
DEFAULT_2
  6
HIDDEN
 62
     8
100
AcDbLine
 10
275.804035345
 20
137.4109315217
 30
0.0
 11
275.7716876771
 21
137.3247968081
 31
0.0
  0
LINE
  5
34E
330
1B
100
AcDbEntity
  8
DEFAULT_2
  6
HIDDEN
 62
     8
100
AcDbLine
 10
275.7716876771
 20
137.3247968081
 30
0.0
 11
275.7392819274
 21
137.2415540724
 31
0.0
  0
LINE
  5
34F
330
1B
100
AcDbEntity
  8
DEFAULT_2
  6
HIDDEN
 62
     8
100
AcDbLine
 10
275.7392819274
 20
137.2415540724
 30
0.0
 11
275.7070093986
 21
137.1613348204
 31
0.0
  0
LINE
  5
350
330
1B
100
AcDbEntity
  8
DEFAULT_2
  6
HIDDEN
 62
     8
100
AcDbLine
 10
275.417476607
 20
136.953525026
 30
0.0
 11
275.5172925139
 21
137.199287998
 31
0.0
  0
LINE
  5
351
330
1B
100
AcDbEntity
  8
DEFAULT_2
  6
HIDDEN
 62
     8
100
AcDbLine
 10
275.7070093986
 20
137.1613348204
 30
0.0
 11
275.6750613934999
 21
137.084270558
 31
0.0
  0
LINE
  5
352
330
1B
100
AcDbEntity
  8
DEFAULT_2
  6
HIDDEN
 62
     8
100
AcDbLine
 10
275.6750613934999
 20
137.084270558
 30
0.0
 11
275.6436292148
 21
137.0104927912
 31
0.0
  0
LINE
  5
353
330
1B
100
AcDbEntity
  8
DEFAULT_2
  6
HIDDEN
 62
     8
100
AcDbLine
 10
275.3318405398
 20
136.3581831859
 30
0.0
 11
275.33106593
 21
136.3563866574
 31
0.0
  0
LINE
  5
354
330
1B
100
AcDbEntity
  8
DEFAULT_2
  6
HIDDEN
 62
     8
100
AcDbLine
 10
275.4195216603
 20
136.958349227
 30
0.0
 11
275.3540755552
 21
136.8076774245
 31
0.0
  0
LINE
  5
355
330
1B
100
AcDbEntity
  8
DEFAULT_2
  6
HIDDEN
 62
     8
100
AcDbLine
 10
275.6436292148
 20
137.0104927912
 30
0.0
 11
275.6129006335
 21
136.9401327023
 31
0.0
  0
LINE
  5
356
330
1B
100
AcDbEntity
  8
DEFAULT_2
  6
HIDDEN
 62
     8
100
AcDbLine
 10
275.6129006335
 20
136.9401327023
 30
0.0
 11
275.5830492933
 21
136.8733201805
 31
0.0
  0
LINE
  5
357
330
1B
100
AcDbEntity
  8
DEFAULT_2
  6
HIDDEN
 62
     8
100
AcDbLine
 10
275.3540755552
 20
136.8076774245
 30
0.0
 11
275.33106593
 21
136.7563866574
 31
0.0
  0
LINE
  5
358
330
1B
100
AcDbEntity
  8
DEFAULT_2
  6
HIDDEN
 62
     8
100
AcDbLine
 10
275.5830492933
 20
136.8733201805
 30
0.0
 11
275.5542453065
 21
136.8101847916
 31
0.0
  0
LINE
  5
359
330
1B
100
AcDbEntity
  8
DEFAULT_2
  6
HIDDEN
 62
     8
100
AcDbLine
 10
275.5542453065
 20
136.8101847916
 30
0.0
 11
275.5266587852
 21
136.7508561014
 31
0.0
  0
LINE
  5
35A
330
1B
100
AcDbEntity
  8
DEFAULT_2
  6
HIDDEN
 62
     8
100
AcDbLine
 10
275.5266587852
 20
136.7508561014
 30
0.0
 11
275.5004598415
 21
136.6954636756
 31
0.0
  0
LINE
  5
35B
330
1B
100
AcDbEntity
  8
DEFAULT_2
  6
HIDDEN
 62
     8
100
AcDbLine
 10
275.5004598415
 20
136.6954636756
 30
0.0
 11
275.4758185875
 21
136.6441370799
 31
0.0
  0
LINE
  5
35C
330
1B
100
AcDbEntity
  8
DEFAULT_2
  6
HIDDEN
 62
     8
100
AcDbLine
 10
275.4758185875
 20
136.6441370799
 30
0.0
 11
275.4528882515
 21
136.5969881928
 31
0.0
  0
LINE
  5
35D
330
1B
100
AcDbEntity
  8
DEFAULT_2
  6
HIDDEN
 62
     8
100
AcDbLine
 10
275.4528882515
 20
136.5969881928
 30
0.0
 11
275.4317545259
 21
136.5540581425
 31
0.0
  0
LINE
  5
35E
330
1B
100
AcDbEntity
  8
DEFAULT_2
  6
HIDDEN
 62
     8
100
AcDbLine
 10
275.4317545259
 20
136.5540581425
 30
0.0
 11
275.4124862195
 21
136.5153703699
 31
0.0
  0
LINE
  5
35F
330
1B
100
AcDbEntity
  8
DEFAULT_2
  6
HIDDEN
 62
     8
100
AcDbLine
 10
275.3798209974
 20
136.4508155714
 30
0.0
 11
275.4124862195
 21
136.5153703699
 31
0.0
  0
LINE
  5
360
330
1B
100
AcDbEntity
  8
DEFAULT_2
  6
HIDDEN
 62
     8
100
AcDbLine
 10
275.3346411221
 20
136.363660181
 30
0.0
 11
275.3318405398
 21
136.3581831859
 31
0.0
  0
LINE
  5
361
330
1B
100
AcDbEntity
  8
DEFAULT_2
  6
HIDDEN
 62
     8
100
AcDbLine
 10
275.3554302836
 20
136.4034886966
 30
0.0
 11
275.3798209974
 21
136.4508155714
 31
0.0
  0
LINE
  5
362
330
1B
100
AcDbEntity
  8
DEFAULT_2
  6
HIDDEN
 62
     8
100
AcDbLine
 10
275.3346431381
 20
136.3636616119
 30
0.0
 11
275.3554302836
 21
136.4034886966
 31
0.0
  0
LINE
  5
363
330
1B
100
AcDbEntity
  8
DEFAULT_2
  6
HIDDEN
 62
     8
100
AcDbLine
 10
286.83106593
 20
142.6563866574
 30
0.0
 11
286.93106593
 21
142.8295917382
 31
0.0
  0
LINE
  5
364
330
1B
100
AcDbEntity
  8
0
  6
Continuous
 62
     7
100
AcDbLine
 10
292.33106593
 20
144.8063866574
 30
0.0
 11
292.18106593
 21
144.6563866574
 31
0.0
  0
LINE
  5
366
330
1B
100
AcDbEntity
  8
DEFAULT_2
  6
HIDDEN
 62
     8
100
AcDbLine
 10
286.58106593
 20
177.6563866574
 30
0.0
 11
282.33106593
 21
180.1101253015
 31
0.0
  0
LINE
  5
367
330
1B
100
AcDbEntity
  8
0
  6
Continuous
 62
     7
100
AcDbLine
 10
292.18106593
 20
152.6563866574
 30
0.0
 11
292.33106593
 21
152.5063866574
 31
0.0
  0
LINE
  5
368
330
1B
100
AcDbEntity
  8
0
  6
Continuous
 62
     7
100
AcDbLine
 10
275.58106593
 20
184.2233739556
 30
0.0
 11
275.33106593
 21
184.6563866574
 31
0.0
  0
LINE
  5
369
330
1B
100
AcDbEntity
  8
DEFAULT_2
  6
HIDDEN
 62
     8
100
AcDbLine
 10
275.8987832579
 20
141.0275924066
 30
0.0
 11
275.9289610979
 21
140.9315013597
 31
0.0
  0
LINE
  5
36A
330
1B
100
AcDbEntity
  8
DEFAULT_2
  6
HIDDEN
 62
     8
100
AcDbLine
 10
275.7524371394
 20
140.8026870371
 30
0.0
 11
275.6273345313
 21
141.2112953262
 31
0.0
  0
LINE
  5
36B
330
1B
100
AcDbEntity
  8
DEFAULT_2
  6
HIDDEN
 62
     8
100
AcDbLine
 10
275.9289610979
 20
140.9315013597
 30
0.0
 11
275.9580975661
 21
140.8334668292
 31
0.0
  0
LINE
  5
36C
330
1B
100
AcDbEntity
  8
DEFAULT_2
  6
HIDDEN
 62
     8
100
AcDbLine
 10
275.9580975661
 20
140.8334668292
 30
0.0
 11
275.9859918962
 21
140.7337190355
 31
0.0
  0
LINE
  5
36D
330
1B
100
AcDbEntity
  8
DEFAULT_2
  6
HIDDEN
 62
     8
100
AcDbLine
 10
275.9859918962
 20
140.7337190355
 30
0.0
 11
276.0124433218
 21
140.6324881991
 31
0.0
  0
LINE
  5
36E
330
1B
100
AcDbEntity
  8
DEFAULT_2
  6
HIDDEN
 62
     8
100
AcDbLine
 10
276.0124433218
 20
140.6324881991
 30
0.0
 11
276.0372677927
 21
140.5299887986
 31
0.0
  0
LINE
  5
36F
330
1B
100
AcDbEntity
  8
DEFAULT_2
  6
HIDDEN
 62
     8
100
AcDbLine
 10
275.7453382957
 20
140.8286262397
 30
0.0
 11
275.8501668171
 21
140.3858552244
 31
0.0
  0
LINE
  5
370
330
1B
100
AcDbEntity
  8
DEFAULT_2
  6
HIDDEN
 62
     8
100
AcDbLine
 10
275.8563879989
 20
140.3537629574
 30
0.0
 11
275.7524371394
 21
140.8026870371
 31
0.0
  0
LINE
  5
371
330
1B
100
AcDbEntity
  8
DEFAULT_2
  6
HIDDEN
 62
     8
100
AcDbLine
 10
276.0372677927
 20
140.5299887986
 30
0.0
 11
276.0603481231
 21
140.426372344
 31
0.0
  0
LINE
  5
372
330
1B
100
AcDbEntity
  8
DEFAULT_2
  6
HIDDEN
 62
     8
100
AcDbLine
 10
276.0603481231
 20
140.426372344
 30
0.0
 11
276.0815838435
 21
140.3217746037999
 31
0.0
  0
LINE
  5
373
330
1B
100
AcDbEntity
  8
DEFAULT_2
  6
HIDDEN
 62
     8
100
AcDbLine
 10
276.0815838435
 20
140.3217746037999
 30
0.0
 11
276.1008744843
 21
140.2163313459
 31
0.0
  0
LINE
  5
374
330
1B
100
AcDbEntity
  8
DEFAULT_2
  6
HIDDEN
 62
     8
100
AcDbLine
 10
276.1008744843
 20
140.2163313459
 30
0.0
 11
276.118119576
 21
140.1101783387
 31
0.0
  0
LINE
  5
375
330
1B
100
AcDbEntity
  8
DEFAULT_2
  6
HIDDEN
 62
     8
100
AcDbLine
 10
275.8501668171
 20
140.3858552244
 30
0.0
 11
275.9244312253
 21
139.8933982757
 31
0.0
  0
LINE
  5
376
330
1B
100
AcDbEntity
  8
DEFAULT_2
  6
HIDDEN
 62
     8
100
AcDbLine
 10
275.9277747626
 20
139.8602813458
 30
0.0
 11
275.8563879989
 21
140.3537629574
 31
0.0
  0
LINE
  5
377
330
1B
100
AcDbEntity
  8
DEFAULT_2
  6
HIDDEN
 62
     8
100
AcDbLine
 10
276.1332252713
 20
140.0034007101
 30
0.0
 11
276.1181258701
 21
140.1101291997
 31
0.0
  0
LINE
  5
378
330
1B
100
AcDbEntity
  8
DEFAULT_2
  6
HIDDEN
 62
     8
100
AcDbLine
 10
276.1460896574
 20
139.8962279743
 30
0.0
 11
276.1332252713
 21
140.0034007101
 31
0.0
  0
LINE
  5
379
330
1B
100
AcDbEntity
  8
0
  6
Continuous
 62
     7
100
AcDbLine
 10
286.0448754194
 20
186.8054945415
 30
0.0
 11
286.0220366227
 21
187.4063866574
 31
0.0
  0
LINE
  5
37A
330
1B
100
AcDbEntity
  8
0
  6
Continuous
 62
     7
100
AcDbLine
 10
286.0220366227
 20
188.9063866574
 30
0.0
 11
286.0220366227
 21
187.4063866574
 31
0.0
  0
LINE
  5
37B
330
1B
100
AcDbEntity
  8
DEFAULT_2
  6
HIDDEN
 62
     8
100
AcDbLine
 10
286.58106593
 20
150.6563866574
 30
0.0
 11
286.58106593
 21
177.6563866574
 31
0.0
  0
LINE
  5
37C
330
1B
100
AcDbEntity
  8
0
  6
Continuous
 62
     7
100
AcDbLine
 10
286.58106593
 20
183.1063866574
 30
0.0
 11
286.58106593
 21
183.9063866574
 31
0.0
  0
LINE
  5
37D
330
1B
100
AcDbEntity
  8
0
  6
Continuous
 62
     7
100
AcDbLine
 10
286.83106593
 20
193.6563866574
 30
0.0
 11
286.83106593
 21
192.6563866574
 31
0.0
  0
LINE
  5
37E
330
1B
100
AcDbEntity
  8
DEFAULT_2
  6
HIDDEN
 62
     8
100
AcDbLine
 10
286.83106593
 20
133.1563866574
 30
0.0
 11
286.83106593
 21
142.6563866574
 31
0.0
  0
LINE
  5
37F
330
1B
100
AcDbEntity
  8
DEFAULT_2
  6
HIDDEN
 62
     8
100
AcDbLine
 10
286.93106593
 20
142.8295917382
 30
0.0
 11
286.93106593
 21
150.6563866574
 31
0.0
  0
LINE
  5
380
330
1B
100
AcDbEntity
  8
0
  6
Continuous
 62
     7
100
AcDbLine
 10
292.18106593
 20
182.1563866574
 30
0.0
 11
292.18106593
 21
152.6563866574
 31
0.0
  0
LINE
  5
381
330
1B
100
AcDbEntity
  8
0
  6
Continuous
 62
     7
100
AcDbLine
 10
292.18106593
 20
144.6563866574
 30
0.0
 11
292.18106593
 21
133.1563866574
 31
0.0
  0
LINE
  5
382
330
1B
100
AcDbEntity
  8
0
  6
Continuous
 62
     7
100
AcDbLine
 10
292.33106593
 20
152.5063866574
 30
0.0
 11
292.33106593
 21
144.8063866574
 31
0.0
  0
LINE
  5
383
330
1B
100
AcDbEntity
  8
0
  6
Continuous
 62
     7
100
AcDbLine
 10
286.4617947427
 20
184.2233739556
 30
0.0
 11
286.4627614818
 21
184.3419300864
 31
0.0
  0
LINE
  5
384
330
1B
100
AcDbEntity
  8
0
  6
Continuous
 62
     7
100
AcDbLine
 10
286.4627614818
 20
184.3419300864
 30
0.0
 11
286.4668499322
 21
184.4869530318
 31
0.0
  0
LINE
  5
387
330
1B
100
AcDbEntity
  8
DEFAULT_2
  6
HIDDEN
 62
     8
100
AcDbLine
 10
284.58106593
 20
185.9063866574
 30
0.0
 11
286.58106593
 21
183.9063866574
 31
0.0
  0
LINE
  5
388
330
1B
100
AcDbEntity
  8
0
  6
Continuous
 62
     7
100
AcDbLine
 10
286.58106593
 20
183.9063866574
 30
0.0
 11
286.5496233228
 21
183.9879059505
 31
0.0
  0
LINE
  5
389
330
1B
100
AcDbEntity
  8
0
  6
Continuous
 62
     7
100
AcDbLine
 10
286.5496233228
 20
183.9879059505
 30
0.0
 11
286.5108316227
 21
184.0904179929
 31
0.0
  0
LINE
  5
38A
330
1B
100
AcDbEntity
  8
0
  6
Continuous
 62
     7
100
AcDbLine
 10
286.5108316227
 20
184.0904179929
 30
0.0
 11
286.4617947427
 21
184.2233739556
 31
0.0
  0
LINE
  5
38B
330
1B
100
AcDbEntity
  8
0
  6
Continuous
 62
     7
100
AcDbLine
 10
286.4756648879
 20
184.6563866574
 30
0.0
 11
286.3412408167
 21
185.1182257954
 31
0.0
  0
LINE
  5
38C
330
1B
100
AcDbEntity
  8
DEFAULT_2
  6
HIDDEN
 62
     8
100
AcDbLine
 10
286.3407469795
 20
185.1200653139
 30
0.0
 11
286.3410391472001
 21
185.1190612075
 31
0.0
  0
LINE
  5
38D
330
1B
100
AcDbEntity
  8
0
  6
Continuous
 62
     7
100
AcDbLine
 10
286.3412408167
 20
185.1182257954
 30
0.0
 11
286.2148156988
 21
185.6419393497
 31
0.0
  0
LINE
  5
38E
330
1B
100
AcDbEntity
  8
DEFAULT_2
  6
HIDDEN
 62
     8
100
AcDbLine
 10
286.214467763
 20
185.643570324
 30
0.0
 11
286.2146780795
 21
185.6426984328
 31
0.0
  0
LINE
  5
38F
330
1B
100
AcDbEntity
  8
0
  6
Continuous
 62
     7
100
AcDbLine
 10
286.2148156988
 20
185.6419393497
 30
0.0
 11
286.1117438353
 21
186.2104649412
 31
0.0
  0
LINE
  5
390
330
1B
100
AcDbEntity
  8
0
  6
Continuous
 62
     7
100
AcDbLine
 10
286.1117438353
 20
186.2104649412
 30
0.0
 11
286.0448754194
 21
186.8054945415
 31
0.0
  0
LINE
  5
396
330
1B
100
AcDbEntity
  8
0
  6
Continuous
 62
     7
100
AcDbLine
 10
432.5
 20
283.9375
 30
0.0
 11
232.5
 21
283.9375
 31
0.0
  0
LINE
  5
4A8
330
1B
100
AcDbEntity
  8
0
  6
Continuous
 62
     7
100
AcDbLine
 10
432.5
 20
-3.0625
 30
0.0
 11
432.5
 21
283.9375
 31
0.0
  0
ARC
  5
4AA
330
1B
100
AcDbEntity
  8
DEFAULT_2
  6
HIDDEN
 62
     8
100
AcDbCircle
 10
288.08106593
 20
188.9566391891
 30
0.0
 40
3.5
100
AcDbArc
 50
114.3209256581
 51
236.3588608635
  0
ARC
  5
4B0
330
1B
100
AcDbEntity
  8
DEFAULT_2
  6
HIDDEN
 62
     8
100
AcDbCircle
 10
274.83106593
 20
133.1563866574
 30
0.0
 40
0.5
100
AcDbArc
 50
270.0000000019
 51
360.0
  0
ARC
  5
4B1
330
1B
100
AcDbEntity
  8
DEFAULT_2
  6
HIDDEN
 62
     8
100
AcDbCircle
 10
287.33106593
 20
133.1563866574
 30
0.0
 40
0.5
100
AcDbArc
 50
180.0
 51
269.9999999948
  0
ARC
  5
4B2
330
1B
100
AcDbEntity
  8
DEFAULT_2
  6
HIDDEN
 62
     8
100
AcDbCircle
 10
271.83106593
 20
190.2834033111999
 30
0.0
 40
8.0
100
AcDbArc
 50
0.0
 51
28.95502437190001
  0
ARC
  5
4B3
330
1B
100
AcDbEntity
  8
DEFAULT_2
  6
HIDDEN
 62
     8
100
AcDbCircle
 10
274.98106593
 20
183.1063866574
 30
0.0
 40
0.6
100
AcDbArc
 50
270.0
 51
310.801778844
  0
ARC
  5
4B4
330
1B
100
AcDbEntity
  8
DEFAULT_2
  6
HIDDEN
 62
     8
100
AcDbCircle
 10
287.18106593
 20
183.1063866574
 30
0.0
 40
0.6
100
AcDbArc
 50
229.198221156
 51
270.0
  0
ARC
  5
4BD
330
1B
100
AcDbEntity
  8
0
  6
Continuous
 62
     7
100
AcDbCircle
 10
286.33106593
 20
193.6563866574
 30
0.0
 40
0.5
100
AcDbArc
 50
0.0
 51
90.0
  0
ARC
  5
4BE
330
1B
100
AcDbEntity
  8
0
  6
Continuous
 62
     7
100
AcDbCircle
 10
275.83106593
 20
193.6563866574
 30
0.0
 40
0.5
100
AcDbArc
 50
90.0
 51
180.0
  0
ARC
  5
4BF
330
1B
100
AcDbEntity
  8
0
  6
Continuous
 62
     7
100
AcDbCircle
 10
291.68106593
 20
182.1563866574
 30
0.0
 40
0.5
100
AcDbArc
 50
0.0
 51
90.0
  0
ARC
  5
4C0
330
1B
100
AcDbEntity
  8
0
  6
Continuous
 62
     7
100
AcDbCircle
 10
270.48106593
 20
182.1563866574
 30
0.0
 40
0.5
100
AcDbArc
 50
90.0
 51
180.0
  0
ARC
  5
4C1
330
1B
100
AcDbEntity
  8
0
  6
Continuous
 62
     7
100
AcDbCircle
 10
291.68106593
 20
133.1563866574
 30
0.0
 40
0.5
100
AcDbArc
 50
270.0
 51
360.0
  0
ARC
  5
4C2
330
1B
100
AcDbEntity
  8
0
  6
Continuous
 62
     7
100
AcDbCircle
 10
270.48106593
 20
133.1563866574
 30
0.0
 40
0.5
100
AcDbArc
 50
180.0
 51
270.0
  0
ARC
  5
4C3
330
1B
100
AcDbEntity
  8
0
  6
Continuous
 62
     7
100
AcDbCircle
 10
274.98106593
 20
183.1063866574
 30
0.0
 40
0.6
100
AcDbArc
 50
310.801778844
 51
360.0
  0
ARC
  5
4C4
330
1B
100
AcDbEntity
  8
0
  6
Continuous
 62
     7
100
AcDbCircle
 10
287.18106593
 20
183.1063866574
 30
0.0
 40
0.6
100
AcDbArc
 50
180.0
 51
229.198221156
  0
ENDSEC
  0
SECTION
  2
OBJECTS
  0
DICTIONARY
  5
4C5
330
0
100
AcDbDictionary
281
     1
  3
ACAD_COLOR
350
4CF
  3
ACAD_GROUP
350
4C6
  3
ACAD_LAYOUT
350
4D2
  3
ACAD_MATERIAL
350
4CE
  3
ACAD_MLINESTYLE
350
4C7
  3
ACAD_PLOTSETTINGS
350
4D3
  3
ACAD_PLOTSTYLENAME
350
4CC
  3
ACAD_TABLESTYLE
350
4D0
  3
AcDbVariableDictionary
350
4D7
  0
DICTIONARY
  5
4CF
102
{ACAD_REACTORS
330
4C5
102
}
330
4C5
100
AcDbDictionary
281
     1
  0
DICTIONARY
  5
4C6
102
{ACAD_REACTORS
330
4C5
102
}
330
4C5
100
AcDbDictionary
281
     1
  0
DICTIONARY
  5
4D2
102
{ACAD_REACTORS
330
4C5
102
}
330
4C5
100
AcDbDictionary
281
     1
  3
Layout1
350
4D5
  3
Model
350
4D4
  0
DICTIONARY
  5
4CE
102
{ACAD_REACTORS
330
4C5
102
}
330
4C5
100
AcDbDictionary
281
     1
  0
DICTIONARY
  5
4C7
102
{ACAD_REACTORS
330
4C5
102
}
330
4C5
100
AcDbDictionary
281
     1
  3
STANDARD
350
4C8
  0
DICTIONARY
  5
4D3
102
{ACAD_REACTORS
330
4C5
102
}
330
4C5
100
AcDbDictionary
281
     1
  0
ACDBDICTIONARYWDFLT
  5
4CC
102
{ACAD_REACTORS
330
4C5
102
}
330
4C5
100
AcDbDictionary
281
     1
  3
Normal
350
4CD
100
AcDbDictionaryWithDefault
340
4CD
  0
DICTIONARY
  5
4D0
102
{ACAD_REACTORS
330
4C5
102
}
330
4C5
100
AcDbDictionary
281
     1
  3
Standard
350
4D1
  0
DICTIONARY
  5
4D7
102
{ACAD_REACTORS
330
4C5
102
}
330
4C5
100
AcDbDictionary
281
     1
  3
CTABLESTYLE
350
4D8
  0
LAYOUT
  5
4D5
102
{ACAD_REACTORS
330
4D2
102
}
330
4D2
100
AcDbPlotSettings
  1

  2
\\29vptc\CadJet 2
  4

  6

 40
0.0
 41
0.0
 42
0.0
 43
0.0
 44
0.0
 45
0.0
 46
0.0
 47
0.0
 48
0.0
 49
0.0
140
0.0
141
0.0
142
1.0
143
1.0
 70
   688
 72
     0
 73
     0
 74
     5
  7

 75
    16
147
1.0
 76
     0
 77
     2
 78
   300
148
0.0
149
0.0
100
AcDbLayout
  1
Layout1
 70
     1
 71
     1
 10
0.0
 20
0.0
 11
12.0
 21
9.0
 12
0.0
 22
0.0
 32
0.0
 14
1.000000000000000E+20
 24
1.000000000000000E+20
 34
1.000000000000000E+20
 15
-1.000000000000000E+20
 25
-1.000000000000000E+20
 35
-1.000000000000000E+20
146
0.0
 13
0.0
 23
0.0
 33
0.0
 16
1.0
 26
0.0
 36
0.0
 17
0.0
 27
1.0
 37
0.0
 76
     0
330
1C
  0
LAYOUT
  5
4D4
102
{ACAD_REACTORS
330
4D2
102
}
330
4D2
100
AcDbPlotSettings
  1

  2
\\29vptc\CadJet 2
  4

  6

 40
0.0
 41
0.0
 42
0.0
 43
0.0
 44
0.0
 45
0.0
 46
0.0
 47
0.0
 48
0.0
 49
0.0
140
0.0
141
0.0
142
1.0
143
1.0
 70
  1712
 72
     0
 73
     0
 74
     0
  7

 75
     0
147
1.0
 76
     0
 77
     2
 78
   300
148
0.0
149
0.0
100
AcDbLayout
  1
Model
 70
     1
 71
     0
 10
0.0
 20
0.0
 11
12.0
 21
9.0
 12
0.0
 22
0.0
 32
0.0
 14
0.0
 24
0.0
 34
0.0
 15
0.0
 25
0.0
 35
0.0
146
0.0
 13
0.0
 23
0.0
 33
0.0
 16
1.0
 26
0.0
 36
0.0
 17
0.0
 27
1.0
 37
0.0
 76
     0
330
1B
  0
MLINESTYLE
  5
4C8
102
{ACAD_REACTORS
330
4C7
102
}
330
4C7
100
AcDbMlineStyle
  2
STANDARD
 70
     0
  3

 62
   256
 51
90.0
 52
90.0
 71
     2
 49
0.5
 62
   256
  6
BYLAYER
 49
-0.5
 62
   256
  6
BYLAYER
  0
ACDBPLACEHOLDER
  5
4CD
102
{ACAD_REACTORS
330
4CC
102
}
330
4CC
  0
TABLESTYLE
  5
4D1
102
{ACAD_REACTORS
330
4D0
102
}
330
4D0
100
AcDbTableStyle
  3
Standard
 70
     0
 71
     0
 40
0.06
 41
0.06
280
     0
281
     0
  7
STANDARD
140
0.18
170
     2
 62
     0
 63
     7
283
     0
274
    -2
284
     1
 64
     0
275
    -2
285
     1
 65
     0
276
    -2
286
     1
 66
     0
277
    -2
287
     1
 67
     0
278
    -2
288
     1
 68
     0
279
    -2
289
     1
 69
     0
  7
STANDARD
140
0.25
170
     5
 62
     0
 63
     7
283
     0
274
    -2
284
     1
 64
     0
275
    -2
285
     1
 65
     0
276
    -2
286
     1
 66
     0
277
    -2
287
     1
 67
     0
278
    -2
288
     1
 68
     0
279
    -2
289
     1
 69
     0
  7
STANDARD
140
0.18
170
     5
 62
     0
 63
     7
283
     0
274
    -2
284
     1
 64
     0
275
    -2
285
     1
 65
     0
276
    -2
286
     1
 66
     0
277
    -2
287
     1
 67
     0
278
    -2
288
     1
 68
     0
279
    -2
289
     1
 69
     0
  0
DICTIONARYVAR
  5
4D8
102
{ACAD_REACTORS
330
4D7
102
}
330
4D7
100
DictionaryVariables
280
     0
  1
STANDARD
  0
ENDSEC
  0
EOF
