  0
SECTION
  2
HEADER
  9
$ACADVER
  1
AC1018
  9
$ACADMAINTVER
 70
    76
  9
$DWGCODEPAGE
  3
ANSI_1252
  9
$INSBASE
 10
0.0
 20
0.0
 30
0.0
  9
$EXTMIN
 10
232.5
 20
-3.0625
 30
0.0
  9
$EXTMAX
 10
432.5
 20
283.9375
 30
0.0
  9
$LIMMIN
 10
0.0
 20
0.0
  9
$LIMMAX
 10
420.0
 20
297.0
  9
$ORTHOMODE
 70
     0
  9
$REGENMODE
 70
     1
  9
$FILLMODE
 70
     1
  9
$QTEXTMODE
 70
     0
  9
$MIRRTEXT
 70
     0
  9
$LTSCALE
 40
23.1
  9
$ATTMODE
 70
     1
  9
$TEXTSIZE
 40
0.2
  9
$TRACEWID
 40
0.05
  9
$TEXTSTYLE
  7
STANDARD
  9
$CLAYER
  8
0
  9
$CELTYPE
  6
BYLAYER
  9
$CECOLOR
 62
   256
  9
$CELTSCALE
 40
1.0
  9
$DISPSILH
 70
     0
  9
$DIMSCALE
 40
1.0
  9
$DIMASZ
 40
4.759999999999999
  9
$DIMEXO
 40
2.625
  9
$DIMDLI
 40
15.96
  9
$DIMRND
 40
0.0
  9
$DIMDLE
 40
0.0
  9
$DIMEXE
 40
7.559999999999999
  9
$DIMTP
 40
0.001
  9
$DIMTM
 40
0.001
  9
$DIMTXT
 40
3.0
  9
$DIMCEN
 40
3.779999999999999
  9
$DIMTSZ
 40
0.0
  9
$DIMTOL
 70
     1
  9
$DIMLIM
 70
     0
  9
$DIMTIH
 70
     1
  9
$DIMTOH
 70
     1
  9
$DIMSE1
 70
     0
  9
$DIMSE2
 70
     0
  9
$DIMTAD
 70
     0
  9
$DIMZIN
 70
     0
  9
$DIMBLK
  1

  9
$DIMASO
 70
     1
  9
$DIMSHO
 70
     1
  9
$DIMPOST
  1

  9
$DIMAPOST
  1

  9
$DIMALT
 70
     0
  9
$DIMALTD
 70
     2
  9
$DIMALTF
 40
25.4
  9
$DIMLFAC
 40
1.0
  9
$DIMTOFL
 70
     0
  9
$DIMTVP
 40
0.0
  9
$DIMTIX
 70
     0
  9
$DIMSOXD
 70
     0
  9
$DIMSAH
 70
     0
  9
$DIMBLK1
  1

  9
$DIMBLK2
  1

  9
$DIMSTYLE
  2
STANDARD
  9
$DIMCLRD
 70
     0
  9
$DIMCLRE
 70
     0
  9
$DIMCLRT
 70
     0
  9
$DIMTFAC
 40
1.0
  9
$DIMGAP
 40
0.09
  9
$DIMJUST
 70
     0
  9
$DIMSD1
 70
     0
  9
$DIMSD2
 70
     0
  9
$DIMTOLJ
 70
     1
  9
$DIMTZIN
 70
     0
  9
$DIMALTZ
 70
     0
  9
$DIMALTTZ
 70
     0
  9
$DIMUPT
 70
     0
  9
$DIMDEC
 70
     4
  9
$DIMTDEC
 70
     4
  9
$DIMALTU
 70
     2
  9
$DIMALTTD
 70
     2
  9
$DIMTXSTY
  7
STANDARD
  9
$DIMAUNIT
 70
     0
  9
$DIMADEC
 70
     0
  9
$DIMALTRND
 40
0.0
  9
$DIMAZIN
 70
     0
  9
$DIMDSEP
 70
    46
  9
$DIMATFIT
 70
     3
  9
$DIMFRAC
 70
     0
  9
$DIMLDRBLK
  1

  9
$DIMLUNIT
 70
     2
  9
$DIMLWD
 70
    -2
  9
$DIMLWE
 70
    -2
  9
$DIMTMOVE
 70
     0
  9
$LUNITS
 70
     2
  9
$LUPREC
 70
     4
  9
$SKETCHINC
 40
0.1
  9
$FILLETRAD
 40
0.0
  9
$AUNITS
 70
     0
  9
$AUPREC
 70
     0
  9
$MENU
  1
.
  9
$ELEVATION
 40
0.0
  9
$PELEVATION
 40
0.0
  9
$THICKNESS
 40
0.0
  9
$LIMCHECK
 70
     0
  9
$CHAMFERA
 40
0.0
  9
$CHAMFERB
 40
0.0
  9
$CHAMFERC
 40
0.0
  9
$CHAMFERD
 40
0.0
  9
$SKPOLY
 70
     0
  9
$TDCREATE
 40
2454382.685458658
  9
$TDUCREATE
 40
2454382.602125324
  9
$TDUPDATE
 40
2454382.693469236
  9
$TDUUPDATE
 40
2454382.610135903
  9
$TDINDWG
 40
0.0080120255
  9
$TDUSRTIMER
 40
0.0080120255
  9
$USRTIMER
 70
     1
  9
$ANGBASE
 50
0.0
  9
$ANGDIR
 70
     0
  9
$PDMODE
 70
     0
  9
$PDSIZE
 40
0.0
  9
$PLINEWID
 40
0.0
  9
$SPLFRAME
 70
     0
  9
$SPLINETYPE
 70
     6
  9
$SPLINESEGS
 70
     8
  9
$HANDSEED
  5
4DA
  9
$SURFTAB1
 70
     6
  9
$SURFTAB2
 70
     6
  9
$SURFTYPE
 70
     6
  9
$SURFU
 70
     6
  9
$SURFV
 70
     6
  9
$UCSBASE
  2

  9
$UCSNAME
  2

  9
$UCSORG
 10
0.0
 20
0.0
 30
0.0
  9
$UCSXDIR
 10
1.0
 20
0.0
 30
0.0
  9
$UCSYDIR
 10
0.0
 20
1.0
 30
0.0
  9
$UCSORTHOREF
  2

  9
$UCSORTHOVIEW
 70
     0
  9
$UCSORGTOP
 10
0.0
 20
0.0
 30
0.0
  9
$UCSORGBOTTOM
 10
0.0
 20
0.0
 30
0.0
  9
$UCSORGLEFT
 10
0.0
 20
0.0
 30
0.0
  9
$UCSORGRIGHT
 10
0.0
 20
0.0
 30
0.0
  9
$UCSORGFRONT
 10
0.0
 20
0.0
 30
0.0
  9
$UCSORGBACK
 10
0.0
 20
0.0
 30
0.0
  9
$PUCSBASE
  2

  9
$PUCSNAME
  2

  9
$PUCSORG
 10
0.0
 20
0.0
 30
0.0
  9
$PUCSXDIR
 10
1.0
 20
0.0
 30
0.0
  9
$PUCSYDIR
 10
0.0
 20
1.0
 30
0.0
  9
$PUCSORTHOREF
  2

  9
$PUCSORTHOVIEW
 70
     0
  9
$PUCSORGTOP
 10
0.0
 20
0.0
 30
0.0
  9
$PUCSORGBOTTOM
 10
0.0
 20
0.0
 30
0.0
  9
$PUCSORGLEFT
 10
0.0
 20
0.0
 30
0.0
  9
$PUCSORGRIGHT
 10
0.0
 20
0.0
 30
0.0
  9
$PUCSORGFRONT
 10
0.0
 20
0.0
 30
0.0
  9
$PUCSORGBACK
 10
0.0
 20
0.0
 30
0.0
  9
$USERI1
 70
     0
  9
$USERI2
 70
     0
  9
$USERI3
 70
     0
  9
$USERI4
 70
     0
  9
$USERI5
 70
     0
  9
$USERR1
 40
0.0
  9
$USERR2
 40
0.0
  9
$USERR3
 40
0.0
  9
$USERR4
 40
0.0
  9
$USERR5
 40
0.0
  9
$WORLDVIEW
 70
     1
  9
$SHADEDGE
 70
     3
  9
$SHADEDIF
 70
    70
  9
$TILEMODE
 70
     1
  9
$MAXACTVP
 70
    64
  9
$PINSBASE
 10
0.0
 20
0.0
 30
0.0
  9
$PLIMCHECK
 70
     0
  9
$PEXTMIN
 10
1.000000000000000E+20
 20
1.000000000000000E+20
 30
1.000000000000000E+20
  9
$PEXTMAX
 10
-1.000000000000000E+20
 20
-1.000000000000000E+20
 30
-1.000000000000000E+20
  9
$PLIMMIN
 10
0.0
 20
0.0
  9
$PLIMMAX
 10
12.0
 20
9.0
  9
$UNITMODE
 70
     0
  9
$VISRETAIN
 70
     1
  9
$PLINEGEN
 70
     0
  9
$PSLTSCALE
 70
     1
  9
$TREEDEPTH
 70
  3020
  9
$CMLSTYLE
  2
STANDARD
  9
$CMLJUST
 70
     0
  9
$CMLSCALE
 40
1.0
  9
$PROXYGRAPHICS
 70
     1
  9
$MEASUREMENT
 70
     0
  9
$CELWEIGHT
370
    -1
  9
$ENDCAPS
280
     0
  9
$JOINSTYLE
280
     0
  9
$LWDISPLAY
290
     0
  9
$INSUNITS
 70
     0
  9
$HYPERLINKBASE
  1

  9
$STYLESHEET
  1

  9
$XEDIT
290
     1
  9
$CEPSNTYPE
380
     0
  9
$PSTYLEMODE
290
     1
  9
$FINGERPRINTGUID
  2
{5CB1B14C-926A-406D-9DC0-C00D6B77FD23}
  9
$VERSIONGUID
  2
{BCF6E87E-7E06-430E-A2B8-53ADA10F6CAD}
  9
$EXTNAMES
290
     1
  9
$PSVPSCALE
 40
0.0
  9
$OLESTARTUP
290
     0
  9
$SORTENTS
280
   127
  9
$INDEXCTL
280
     0
  9
$HIDETEXT
280
     0
  9
$XCLIPFRAME
290
     0
  9
$HALOGAP
280
     0
  9
$OBSCOLOR
 70
   257
  9
$OBSLTYPE
280
     0
  9
$INTERSECTIONDISPLAY
280
     0
  9
$INTERSECTIONCOLOR
 70
   257
  9
$DIMASSOC
280
     1
  9
$PROJECTNAME
  1

  0
ENDSEC
  0
SECTION
  2
CLASSES
  0
CLASS
  1
ACDBDICTIONARYWDFLT
  2
AcDbDictionaryWithDefault
  3
ObjectDBX Classes
 90
        0
 91
        1
280
     0
281
     0
  0
CLASS
  1
TABLESTYLE
  2
AcDbTableStyle
  3
ObjectDBX Classes
 90
     2047
 91
        1
280
     0
281
     0
  0
CLASS
  1
DICTIONARYVAR
  2
AcDbDictionaryVar
  3
ObjectDBX Classes
 90
        0
 91
        1
280
     0
281
     0
  0
ENDSEC
  0
SECTION
  2
TABLES
  0
TABLE
  2
VPORT
  5
8
330
0
100
AcDbSymbolTable
 70
     2
  0
VPORT
  5
4D9
330
8
100
AcDbSymbolTableRecord
100
AcDbViewportTableRecord
  2
*Active
 70
     0
 10
0.0
 20
0.0
 11
1.0
 21
1.0
 12
275.8697991497776
 22
149.4661216560812
 13
0.0
 23
0.0
 14
1.0
 24
1.0
 15
0.0
 25
0.0
 16
0.0
 26
0.0
 36
1.0
 17
0.0
 27
0.0
 37
0.0
 40
230.0686833186674
 41
1.546489563567362
 42
50.0
 43
0.0
 44
0.0
 50
0.0
 51
0.0
 71
     0
 72
   100
 73
     1
 74
     1
 75
     0
 76
     0
 77
     0
 78
     0
281
     0
 65
     1
110
0.0
120
0.0
130
0.0
111
1.0
121
0.0
131
0.0
112
0.0
122
1.0
132
0.0
 79
     0
146
0.0
  0
ENDTAB
  0
TABLE
  2
LTYPE
  5
5
330
0
100
AcDbSymbolTable
 70
     6
  0
LTYPE
  5
14
330
5
100
AcDbSymbolTableRecord
100
AcDbLinetypeTableRecord
  2
BYBLOCK
 70
     0
  3

 72
    65
 73
     0
 40
0.0
  0
LTYPE
  5
15
330
5
100
AcDbSymbolTableRecord
100
AcDbLinetypeTableRecord
  2
BYLAYER
 70
     0
  3

 72
    65
 73
     0
 40
0.0
  0
LTYPE
  5
16
330
5
100
AcDbSymbolTableRecord
100
AcDbLinetypeTableRecord
  2
CONTINUOUS
 70
     0
  3
Solid line
 72
    65
 73
     0
 40
0.0
  0
LTYPE
  5
1F5
330
5
100
AcDbSymbolTableRecord
100
AcDbLinetypeTableRecord
  2
CENTER
 70
     0
  3
____ _ ____ _ ____ _ ____ _ ____ _ ____ _ ____
 72
    65
 73
     4
 40
0.6
 49
0.375
 74
     0
 49
-0.075
 74
     0
 49
0.075
 74
     0
 49
-0.075
 74
     0
  0
LTYPE
  5
1F6
330
5
100
AcDbSymbolTableRecord
100
AcDbLinetypeTableRecord
  2
HIDDEN
 70
     0
  3
- - - - - - - - - - - - - - - - - - - -
 72
    65
 73
     2
 40
0.2
 49
0.1
 74
     0
 49
-0.1
 74
     0
  0
LTYPE
  5
1F7
330
5
100
AcDbSymbolTableRecord
100
AcDbLinetypeTableRecord
  2
PHANTOM
 70
     0
  3
_____ _ _ _____ _ _ _____ _ _ _____
 72
    65
 73
     6
 40
0.8
 49
0.45
 74
     0
 49
-0.05
 74
     0
 49
0.1
 74
     0
 49
-0.05
 74
     0
 49
0.1
 74
     0
 49
-0.05
 74
     0
  0
LTYPE
  5
1F8
330
5
100
AcDbSymbolTableRecord
100
AcDbLinetypeTableRecord
  2
DOT
 70
     0
  3
. . . . . . . . . . . . . . . . . . . .
 72
    65
 73
     2
 40
0.2
 49
0.1
 74
     0
 49
-0.1
 74
     0
  0
LTYPE
  5
1F9
330
5
100
AcDbSymbolTableRecord
100
AcDbLinetypeTableRecord
  2
DASHED
 70
     0
  3
- - - - - - - - - - - - - - - - - - - -
 72
    65
 73
     2
 40
0.2
 49
0.1
 74
     0
 49
-0.1
 74
     0
  0
ENDTAB
  0
TABLE
  2
LAYER
  5
2
330
0
100
AcDbSymbolTable
 70
    18
  0
LAYER
  5
10
330
2
100
AcDbSymbolTableRecord
100
AcDbLayerTableRecord
  2
0
 70
     0
 62
     7
  6
CONTINUOUS
370
    -3
390
4CD
  0
LAYER
  5
1FA
330
2
100
AcDbSymbolTableRecord
100
AcDbLayerTableRecord
  2
DEFAULT_1
 70
     0
 62
     7
  6
CENTER
370
    -3
390
4CD
  0
LAYER
  5
1FB
330
2
100
AcDbSymbolTableRecord
100
AcDbLayerTableRecord
  2
DEFAULT_2
 70
     0
 62
     8
  6
HIDDEN
370
    -3
390
4CD
  0
LAYER
  5
1FC
330
2
100
AcDbSymbolTableRecord
100
AcDbLayerTableRecord
  2
DEFAULT_3
 70
     0
 62
     7
  6
PHANTOM
370
    -3
390
4CD
  0
LAYER
  5
1FD
330
2
100
AcDbSymbolTableRecord
100
AcDbLayerTableRecord
  2
0_COMPONENTS
 70
     0
 62
     7
  6
CONTINUOUS
370
    -3
390
4CD
  0
LAYER
  5
1FE
330
2
100
AcDbSymbolTableRecord
100
AcDbLayerTableRecord
  2
1_ALL_PLANES
 70
     0
 62
     7
  6
CONTINUOUS
370
    -3
390
4CD
  0
LAYER
  5
1FF
330
2
100
AcDbSymbolTableRecord
100
AcDbLayerTableRecord
  2
1__DEF_ASM_PLN
 70
     0
 62
     7
  6
CONTINUOUS
370
    -3
390
4CD
  0
LAYER
  5
200
330
2
100
AcDbSymbolTableRecord
100
AcDbLayerTableRecord
  2
1__DEF_PLANES
 70
     0
 62
     7
  6
CONTINUOUS
370
    -3
390
4CD
  0
LAYER
  5
201
330
2
100
AcDbSymbolTableRecord
100
AcDbLayerTableRecord
  2
2_ALL_CSYS
 70
     0
 62
     7
  6
CONTINUOUS
370
    -3
390
4CD
  0
LAYER
  5
202
330
2
100
AcDbSymbolTableRecord
100
AcDbLayerTableRecord
  2
2__DEF_ASM_CSYS
 70
     0
 62
     7
  6
CONTINUOUS
370
    -3
390
4CD
  0
LAYER
  5
203
330
2
100
AcDbSymbolTableRecord
100
AcDbLayerTableRecord
  2
2__DEF_CSYS
 70
     0
 62
     7
  6
CONTINUOUS
370
    -3
390
4CD
  0
LAYER
  5
204
330
2
100
AcDbSymbolTableRecord
100
AcDbLayerTableRecord
  2
3_ALL_AXES
 70
     0
 62
     7
  6
CONTINUOUS
370
    -3
390
4CD
  0
LAYER
  5
205
330
2
100
AcDbSymbolTableRecord
100
AcDbLayerTableRecord
  2
4_ALL_POINTS
 70
     0
 62
     7
  6
CONTINUOUS
370
    -3
390
4CD
  0
LAYER
  5
206
330
2
100
AcDbSymbolTableRecord
100
AcDbLayerTableRecord
  2
5_ALL_CURVES
 70
     0
 62
     7
  6
CONTINUOUS
370
    -3
390
4CD
  0
LAYER
  5
207
330
2
100
AcDbSymbolTableRecord
100
AcDbLayerTableRecord
  2
5_ALL_GTOLS_FREE_
 70
     0
 62
     7
  6
CONTINUOUS
370
    -3
390
4CD
  0
LAYER
  5
208
330
2
100
AcDbSymbolTableRecord
100
AcDbLayerTableRecord
  2
6_ALL_SURFS
 70
     0
 62
     7
  6
CONTINUOUS
370
    -3
390
4CD
  0
LAYER
  5
209
330
2
100
AcDbSymbolTableRecord
100
AcDbLayerTableRecord
  2
CURVE
 70
     0
 62
     7
  6
CONTINUOUS
370
    -3
390
4CD
  0
LAYER
  5
20A
330
2
100
AcDbSymbolTableRecord
100
AcDbLayerTableRecord
  2
PIANI
 70
     0
 62
     7
  6
CONTINUOUS
370
    -3
390
4CD
  0
ENDTAB
  0
TABLE
  2
STYLE
  5
3
330
0
100
AcDbSymbolTable
 70
     1
  0
STYLE
  5
11
330
3
100
AcDbSymbolTableRecord
100
AcDbTextStyleTableRecord
  2
STANDARD
 70
     0
 40
0.0
 41
1.199999999999999
 50
0.0
 71
     0
 42
0.2
  3
txt
  4

  0
ENDTAB
  0
TABLE
  2
VIEW
  5
6
330
0
100
AcDbSymbolTable
 70
     0
  0
ENDTAB
  0
TABLE
  2
UCS
  5
7
330
0
100
AcDbSymbolTable
 70
     0
  0
ENDTAB
  0
TABLE
  2
APPID
  5
9
330
0
100
AcDbSymbolTable
 70
     1
  0
APPID
  5
20B
330
9
100
AcDbSymbolTableRecord
100
AcDbRegAppTableRecord
  2
ACAD
 70
     0
  0
ENDTAB
  0
TABLE
  2
DIMSTYLE
  5
A
330
0
100
AcDbSymbolTable
 70
     2
100
AcDbDimStyleTable
 71
     0
  0
DIMSTYLE
105
20C
330
A
100
AcDbSymbolTableRecord
100
AcDbDimStyleTableRecord
  2
STANDARD
 70
     0
 41
4.759999999999999
 47
0.001
 48
0.001
 71
     1
 73
     0
 74
     0
 77
     1
 78
     8
140
3.0
178
     5
271
     3
272
     3
284
     8
340
11
  0
DIMSTYLE
105
20D
102
{ACAD_REACTORS
330
250
330
251
330
252
102
}
330
A
100
AcDbSymbolTableRecord
100
AcDbDimStyleTableRecord
  2
DIMSTYLE_1
 70
     0
 41
4.759999999999999
 47
0.001
 48
0.001
 73
     0
 74
     0
 77
     1
 78
     8
140
3.0
178
     5
271
     3
272
     3
284
     8
340
11
  0
ENDTAB
  0
TABLE
  2
BLOCK_RECORD
  5
1
330
0
100
AcDbSymbolTable
 70
     6
  0
BLOCK_RECORD
  5
1B
330
1
100
AcDbSymbolTableRecord
100
AcDbBlockTableRecord
  2
*MODEL_SPACE
340
4D4
  0
BLOCK_RECORD
  5
1C
330
1
100
AcDbSymbolTableRecord
100
AcDbBlockTableRecord
  2
*PAPER_SPACE
340
4D5
  0
BLOCK_RECORD
  5
20E
330
1
100
AcDbSymbolTableRecord
100
AcDbBlockTableRecord
  2
*D0
340
0
  0
BLOCK_RECORD
  5
20F
330
1
100
AcDbSymbolTableRecord
100
AcDbBlockTableRecord
  2
*D1
340
0
  0
BLOCK_RECORD
  5
210
330
1
100
AcDbSymbolTableRecord
100
AcDbBlockTableRecord
  2
*D2
340
0
  0
BLOCK_RECORD
  5
211
330
1
100
AcDbSymbolTableRecord
100
AcDbBlockTableRecord
  2
*D3
340
0
  0
BLOCK_RECORD
  5
212
330
1
100
AcDbSymbolTableRecord
100
AcDbBlockTableRecord
  2
*D4
340
0
  0
BLOCK_RECORD
  5
213
330
1
100
AcDbSymbolTableRecord
100
AcDbBlockTableRecord
  2
*D5
340
0
  0
ENDTAB
  0
ENDSEC
  0
SECTION
  2
BLOCKS
  0
BLOCK
  5
1E
330
1B
100
AcDbEntity
  8
0
100
AcDbBlockBegin
  2
*MODEL_SPACE
 70
     0
 10
0.0
 20
0.0
 30
0.0
  3
*MODEL_SPACE
  1

  0
ENDBLK
  5
1F
330
1B
100
AcDbEntity
  8
0
100
AcDbBlockEnd
  0
BLOCK
  5
20
330
1C
100
AcDbEntity
 67
     1
  8
0
100
AcDbBlockBegin
  2
*PAPER_SPACE
 70
     0
 10
0.0
 20
0.0
 30
0.0
  3
*PAPER_SPACE
  1

  0
ENDBLK
  5
21
330
1C
100
AcDbEntity
 67
     1
  8
0
100
AcDbBlockEnd
  0
BLOCK
  5
214
330
20E
100
AcDbEntity
  8
0
  6
Continuous
 62
     2
100
AcDbBlockBegin
  2
*D0
 70
     1
 10
0.0
 20
0.0
 30
0.0
  3
*D0
  1

  0
TEXT
  5
215
330
20E
100
AcDbEntity
  8
0
  6
Continuous
 62
     5
100
AcDbText
 10
277.9556918096
 20
121.2194071803
 30
0.0
 40
3.0
  1
%%c
 41
1.999999999999999
 72
     5
 11
281.9556918096
 21
121.2194071803
 31
0.0
100
AcDbText
  0
TEXT
  5
216
330
20E
100
AcDbEntity
  8
0
  6
Continuous
 62
     5
100
AcDbText
 10
281.9556918096
 20
121.2194071803
 30
0.0
 40
3.0
  1
11.5
 41
1.040816326528564
 72
     5
 11
289.2414060952999
 21
121.2194071803
 31
0.0
100
AcDbText
  0
LINE
  5
217
330
20E
100
AcDbEntity
  8
0
  6
Continuous
 62
     2
100
AcDbLine
 10
275.33106593
 20
133.0563866574
 30
0.0
 11
275.33106593
 21
119.4694071803
 31
0.0
  0
LINE
  5
218
330
20E
100
AcDbEntity
  8
0
  6
Continuous
 62
     2
100
AcDbLine
 10
286.83106593
 20
133.0563866574
 30
0.0
 11
286.83106593
 21
119.4694071803
 31
0.0
  0
LINE
  5
219
330
20E
100
AcDbEntity
  8
0
  6
Continuous
 62
     2
100
AcDbLine
 10
275.33106593
 20
120.4694071803
 30
0.0
 11
281.08106593
 21
120.4694071803
 31
0.0
  0
LINE
  5
21A
330
20E
100
AcDbEntity
  8
0
  6
Continuous
 62
     2
100
AcDbLine
 10
286.83106593
 20
120.4694071803
 30
0.0
 11
281.08106593
 21
120.4694071803
 31
0.0
  0
SOLID
  5
21B
330
20E
100
AcDbEntity
  8
0
  6
Continuous
 62
     2
100
AcDbTrace
 10
280.09106593
 20
120.9694071803
 30
0.0
 11
275.33106593
 21
120.4694071803
 31
0.0
 12
280.09106593
 22
119.9694071803
 32
0.0
 13
280.09106593
 23
119.9694071803
 33
0.0
  0
SOLID
  5
21C
330
20E
100
AcDbEntity
  8
0
  6
Continuous
 62
     2
100
AcDbTrace
 10
282.07106593
 20
119.9694071803
 30
0.0
 11
286.83106593
 21
120.4694071803
 31
0.0
 12
282.07106593
 22
120.9694071803
 32
0.0
 13
282.07106593
 23
120.9694071803
 33
0.0
  0
ENDBLK
  5
21D
330
20E
100
AcDbEntity
  8
0
100
AcDbBlockEnd
  0
BLOCK
  5
21E
330
20F
100
AcDbEntity
  8
0
  6
Continuous
 62
     2
100
AcDbBlockBegin
  2
*D1
 70
     1
 10
0.0
 20
0.0
 30
0.0
  3
*D1
  1

  0
TEXT
  5
21F
330
20F
100
AcDbEntity
  8
0
  6
Continuous
 62
     5
100
AcDbText
 10
278.000066083
 20
112.7460818013
 30
0.0
 40
3.0
  1
%%c
 41
1.999999999999999
 72
     5
 11
282.000066083
 21
112.7460818013
 31
0.0
100
AcDbText
  0
TEXT
  5
220
330
20F
100
AcDbEntity
  8
0
  6
Continuous
 62
     5
100
AcDbText
 10
282.0000660448
 20
112.7460818013
 30
0.0
 40
3.0
  1
22.2
 41
0.9761904761888898
 72
     5
 11
290.7857803305
 21
112.7460818013
 31
0.0
100
AcDbText
  0
LINE
  5
221
330
20F
100
AcDbEntity
  8
0
  6
Continuous
 62
     2
100
AcDbLine
 10
292.18106593
 20
133.0563866574
 30
0.0
 11
292.18106593
 21
110.9960818013
 31
0.0
  0
LINE
  5
222
330
20F
100
AcDbEntity
  8
0
  6
Continuous
 62
     2
100
AcDbLine
 10
269.98106593
 20
133.0563866574
 30
0.0
 11
269.98106593
 21
110.9960818013
 31
0.0
  0
LINE
  5
223
330
20F
100
AcDbEntity
  8
0
  6
Continuous
 62
     2
100
AcDbLine
 10
292.18106593
 20
111.9960818013
 30
0.0
 11
281.08106593
 21
111.9960818013
 31
0.0
  0
LINE
  5
224
330
20F
100
AcDbEntity
  8
0
  6
Continuous
 62
     2
100
AcDbLine
 10
269.98106593
 20
111.9960818013
 30
0.0
 11
281.08106593
 21
111.9960818013
 31
0.0
  0
SOLID
  5
225
330
20F
100
AcDbEntity
  8
0
  6
Continuous
 62
     2
100
AcDbTrace
 10
287.42106593
 20
111.4960818013
 30
0.0
 11
292.18106593
 21
111.9960818013
 31
0.0
 12
287.42106593
 22
112.4960818013
 32
0.0
 13
287.42106593
 23
112.4960818013
 33
0.0
  0
SOLID
  5
226
330
20F
100
AcDbEntity
  8
0
  6
Continuous
 62
     2
100
AcDbTrace
 10
274.74106593
 20
112.4960818013
 30
0.0
 11
269.98106593
 21
111.9960818013
 31
0.0
 12
274.74106593
 22
111.4960818013
 32
0.0
 13
274.74106593
 23
111.4960818013
 33
0.0
  0
ENDBLK
  5
227
330
20F
100
AcDbEntity
  8
0
100
AcDbBlockEnd
  0
BLOCK
  5
228
330
210
100
AcDbEntity
  8
0
  6
Continuous
 62
     2
100
AcDbBlockBegin
  2
*D2
 70
     1
 10
0.0
 20
0.0
 30
0.0
  3
*D2
  1

  0
TEXT
  5
229
330
210
100
AcDbEntity
  8
0
  6
Continuous
 62
     5
100
AcDbText
 10
379.1060135205
 20
121.4841985984
 30
0.0
 40
3.0
  1
%%c
 41
1.999999999999999
 72
     5
 11
383.1060135205
 21
121.4841985984
 31
0.0
100
AcDbText
  0
TEXT
  5
22A
330
210
100
AcDbEntity
  8
0
  6
Continuous
 62
     5
100
AcDbText
 10
383.1060135205
 20
121.4841985984
 30
0.0
 40
3.0
  1
11.5
 41
1.040816326528572
 72
     5
 11
390.3917278062
 21
121.4841985984
 31
0.0
100
AcDbText
  0
LINE
  5
22B
330
210
100
AcDbEntity
  8
0
  6
Continuous
 62
     2
100
AcDbLine
 10
388.1826836466
 20
134.9881960242
 30
0.0
 11
388.1826836466
 21
119.7341985984
 31
0.0
  0
LINE
  5
22C
330
210
100
AcDbEntity
  8
0
  6
Continuous
 62
     2
100
AcDbLine
 10
376.6826836466
 20
134.9881960242
 30
0.0
 11
376.6826836466
 21
119.7341985984
 31
0.0
  0
LINE
  5
22D
330
210
100
AcDbEntity
  8
0
  6
Continuous
 62
     2
100
AcDbLine
 10
388.1826836466
 20
120.7341985984
 30
0.0
 11
382.4326836466
 21
120.7341985984
 31
0.0
  0
LINE
  5
22E
330
210
100
AcDbEntity
  8
0
  6
Continuous
 62
     2
100
AcDbLine
 10
376.6826836466
 20
120.7341985984
 30
0.0
 11
382.4326836466
 21
120.7341985984
 31
0.0
  0
SOLID
  5
22F
330
210
100
AcDbEntity
  8
0
  6
Continuous
 62
     2
100
AcDbTrace
 10
383.4226836466001
 20
120.2341985984
 30
0.0
 11
388.1826836466
 21
120.7341985984
 31
0.0
 12
383.4226836466001
 22
121.2341985984
 32
0.0
 13
383.4226836466001
 23
121.2341985984
 33
0.0
  0
SOLID
  5
230
330
210
100
AcDbEntity
  8
0
  6
Continuous
 62
     2
100
AcDbTrace
 10
381.4426836466
 20
121.2341985984
 30
0.0
 11
376.6826836466
 21
120.7341985984
 31
0.0
 12
381.4426836466
 22
120.2341985984
 32
0.0
 13
381.4426836466
 23
120.2341985984
 33
0.0
  0
ENDBLK
  5
231
330
210
100
AcDbEntity
  8
0
100
AcDbBlockEnd
  0
BLOCK
  5
232
330
211
100
AcDbEntity
  8
0
  6
Continuous
 62
     2
100
AcDbBlockBegin
  2
*D3
 70
     1
 10
0.0
 20
0.0
 30
0.0
  3
*D3
  1

  0
TEXT
  5
233
330
211
100
AcDbEntity
  8
0
  6
Continuous
 62
     5
100
AcDbText
 10
378.8855963567
 20
113.5404560556
 30
0.0
 40
3.0
  1
%%c
 41
1.999999999999999
 72
     5
 11
382.8855963567
 21
113.5404560556
 31
0.0
100
AcDbText
  0
TEXT
  5
234
330
211
100
AcDbEntity
  8
0
  6
Continuous
 62
     5
100
AcDbText
 10
382.8855963567
 20
113.5404560556
 30
0.0
 40
3.0
  1
22.2
 41
0.9761904761888898
 72
     5
 11
391.6713106424
 21
113.5404560556
 31
0.0
100
AcDbText
  0
LINE
  5
235
330
211
100
AcDbEntity
  8
0
  6
Continuous
 62
     2
100
AcDbLine
 10
393.5326836466001
 20
134.9881960242
 30
0.0
 11
393.5326836466001
 21
111.7904560556
 31
0.0
  0
LINE
  5
236
330
211
100
AcDbEntity
  8
0
  6
Continuous
 62
     2
100
AcDbLine
 10
371.3326836466001
 20
134.9881960242
 30
0.0
 11
371.3326836466001
 21
111.7904560556
 31
0.0
  0
LINE
  5
237
330
211
100
AcDbEntity
  8
0
  6
Continuous
 62
     2
100
AcDbLine
 10
393.5326836466001
 20
112.7904560556
 30
0.0
 11
382.4326836466
 21
112.7904560556
 31
0.0
  0
LINE
  5
238
330
211
100
AcDbEntity
  8
0
  6
Continuous
 62
     2
100
AcDbLine
 10
371.3326836466001
 20
112.7904560556
 30
0.0
 11
382.4326836466
 21
112.7904560556
 31
0.0
  0
SOLID
  5
239
330
211
100
AcDbEntity
  8
0
  6
Continuous
 62
     2
100
AcDbTrace
 10
388.7726836466001
 20
112.2904560556
 30
0.0
 11
393.5326836466001
 21
112.7904560556
 31
0.0
 12
388.7726836466001
 22
113.2904560556
 32
0.0
 13
388.7726836466001
 23
113.2904560556
 33
0.0
  0
SOLID
  5
23A
330
211
100
AcDbEntity
  8
0
  6
Continuous
 62
     2
100
AcDbTrace
 10
376.0926836466
 20
113.2904560556
 30
0.0
 11
371.3326836466001
 21
112.7904560556
 31
0.0
 12
376.0926836466
 22
112.2904560556
 32
0.0
 13
376.0926836466
 23
112.2904560556
 33
0.0
  0
ENDBLK
  5
23B
330
211
100
AcDbEntity
  8
0
100
AcDbBlockEnd
  0
BLOCK
  5
23C
330
212
100
AcDbEntity
  8
0
  6
Continuous
 62
     2
100
AcDbBlockBegin
  2
*D4
 70
     1
 10
0.0
 20
0.0
 30
0.0
  3
*D4
  1

  0
TEXT
  5
23D
330
212
100
AcDbEntity
  8
0
  6
Continuous
 62
     5
100
AcDbText
 10
407.3005154554
 20
144.5661532804
 30
0.0
 40
3.0
  1
25
 50
90.0
 41
0.9
 72
     5
 11
407.3005154554
 21
149.0661532804
 31
0.0
100
AcDbText
  0
LINE
  5
23E
330
212
100
AcDbEntity
  8
0
  6
Continuous
 62
     2
100
AcDbLine
 10
393.1326836466
 20
134.5881960242
 30
0.0
 11
409.0505154554
 21
134.5881960242
 31
0.0
  0
LINE
  5
23F
330
212
100
AcDbEntity
  8
0
  6
Continuous
 62
     2
100
AcDbLine
 10
393.1326836466
 20
159.5881960242
 30
0.0
 11
409.0505154554
 21
159.5881960242
 31
0.0
  0
LINE
  5
240
330
212
100
AcDbEntity
  8
0
  6
Continuous
 62
     2
100
AcDbLine
 10
408.0505154554
 20
134.5881960242
 30
0.0
 11
408.0505154554
 21
147.0881960242
 31
0.0
  0
LINE
  5
241
330
212
100
AcDbEntity
  8
0
  6
Continuous
 62
     2
100
AcDbLine
 10
408.0505154554
 20
159.5881960242
 30
0.0
 11
408.0505154554
 21
147.0881960242
 31
0.0
  0
SOLID
  5
242
330
212
100
AcDbEntity
  8
0
  6
Continuous
 62
     2
100
AcDbTrace
 10
407.5505154553999
 20
139.3481960242
 30
0.0
 11
408.0505154554
 21
134.5881960242
 31
0.0
 12
408.5505154554
 22
139.3481960242
 32
0.0
 13
408.5505154554
 23
139.3481960242
 33
0.0
  0
SOLID
  5
243
330
212
100
AcDbEntity
  8
0
  6
Continuous
 62
     2
100
AcDbTrace
 10
408.5505154554
 20
154.8281960242
 30
0.0
 11
408.0505154554
 21
159.5881960242
 31
0.0
 12
407.5505154553999
 22
154.8281960242
 32
0.0
 13
407.5505154553999
 23
154.8281960242
 33
0.0
  0
ENDBLK
  5
244
330
212
100
AcDbEntity
  8
0
100
AcDbBlockEnd
  0
BLOCK
  5
245
330
213
100
AcDbEntity
  8
0
  6
Continuous
 62
     2
100
AcDbBlockBegin
  2
*D5
 70
     1
 10
0.0
 20
0.0
 30
0.0
  3
*D5
  1

  0
TEXT
  5
246
330
213
100
AcDbEntity
  8
0
  6
Continuous
 62
     5
100
AcDbText
 10
309.3276907616
 20
154.4958314588
 30
0.0
 40
3.0
  1
50
 50
90.0
 72
     5
 11
309.3276907616
 21
158.9958314588
 31
0.0
100
AcDbText
  0
LINE
  5
247
330
213
100
AcDbEntity
  8
0
  6
Continuous
 62
     2
100
AcDbLine
 10
291.78106593
 20
182.6563866574
 30
0.0
 11
311.0776907616
 21
182.6563866574
 31
0.0
  0
LINE
  5
248
330
213
100
AcDbEntity
  8
0
  6
Continuous
 62
     2
100
AcDbLine
 10
291.78106593
 20
132.6563866574
 30
0.0
 11
311.0776907616
 21
132.6563866574
 31
0.0
  0
LINE
  5
249
330
213
100
AcDbEntity
  8
0
  6
Continuous
 62
     2
100
AcDbLine
 10
310.0776907616
 20
182.6563866574
 30
0.0
 11
310.0776907616
 21
157.6563866574
 31
0.0
  0
LINE
  5
24A
330
213
100
AcDbEntity
  8
0
  6
Continuous
 62
     2
100
AcDbLine
 10
310.0776907616
 20
132.6563866574
 30
0.0
 11
310.0776907616
 21
157.6563866574
 31
0.0
  0
SOLID
  5
24B
330
213
100
AcDbEntity
  8
0
  6
Continuous
 62
     2
100
AcDbTrace
 10
310.5776907616
 20
177.8963866574
 30
0.0
 11
310.0776907616
 21
182.6563866574
 31
0.0
 12
309.5776907616
 22
177.8963866574
 32
0.0
 13
309.5776907616
 23
177.8963866574
 33
0.0
  0
SOLID
  5
24C
330
213
100
AcDbEntity
  8
0
  6
Continuous
 62
     2
100
AcDbTrace
 10
309.5776907616
 20
137.4163866574
 30
0.0
 11
310.0776907616
 21
132.6563866574
 31
0.0
 12
310.5776907616
 22
137.4163866574
 32
0.0
 13
310.5776907616
 23
137.4163866574
 33
0.0
  0
ENDBLK
  5
24D
330
213
100
AcDbEntity
  8
0
100
AcDbBlockEnd
  0
ENDSEC
  0
SECTION
  2
ENTITIES
  0
DIMENSION
  5
250
330
1B
100
AcDbEntity
  8
0
  6
Continuous
 62
     2
100
AcDbDimension
  2
*D2
 10
376.6826836466
 20
120.7341985984
 30
0.0
 11
384.7488706633999
 21
122.9841985984
 31
0.0
 70
   160
  1
%%c<>
 71
     5
 42
-1.0
  3
DIMSTYLE_1
100
AcDbAlignedDimension
 13
388.1826836466
 23
134.9881960242
 33
0.0
 14
376.6826836466
 24
134.9881960242
 34
0.0
 50
180.0
100
AcDbRotatedDimension
  0
DIMENSION
  5
251
330
1B
100
AcDbEntity
  8
0
  6
Continuous
 62
     2
100
AcDbDimension
  2
*D3
 10
371.3326836466001
 20
112.7904560556
 30
0.0
 11
385.2784534996
 21
115.0404560556
 31
0.0
 70
   160
  1
%%c<>
 71
     5
 42
-1.0
  3
DIMSTYLE_1
100
AcDbAlignedDimension
 13
393.5326836466001
 23
134.9881960242
 33
0.0
 14
371.3326836466001
 24
134.9881960242
 34
0.0
 50
180.0
100
AcDbRotatedDimension
  0
DIMENSION
  5
252
330
1B
100
AcDbEntity
  8
0
  6
Continuous
 62
     2
100
AcDbDimension
  2
*D4
 10
408.0505154554
 20
159.5881960242
 30
0.0
 11
405.8005154554
 21
146.8161532804
 31
0.0
 70
   160
 71
     5
 42
-1.0
  3
DIMSTYLE_1
100
AcDbAlignedDimension
 13
393.1326836466
 23
134.5881960242
 33
0.0
 14
393.1326836466
 24
159.5881960242
 34
0.0
 50
90.0
100
AcDbRotatedDimension
  0
LINE
  5
254
330
1B
100
AcDbEntity
  8
0
  6
Continuous
 62
     7
100
AcDbLine
 10
432.5
 20
-3.0625
 30
0.0
 11
232.5
 21
-3.0625
 31
0.0
  0
LINE
  5
257
330
1B
100
AcDbEntity
  8
0
  6
Continuous
 62
     7
100
AcDbLine
 10
393.0326836466
 20
134.5881960242
 30
0.0
 11
371.8326836466001
 21
134.5881960242
 31
0.0
  0
LINE
  5
258
330
1B
100
AcDbEntity
  8
0
  6
Continuous
 62
     7
100
AcDbLine
 10
371.3326836466001
 20
135.0881960242
 30
0.0
 11
393.5326836466001
 21
135.0881960242
 31
0.0
  0
LINE
  5
25B
330
1B
100
AcDbEntity
  8
DEFAULT_2
  6
HIDDEN
 62
     8
100
AcDbLine
 10
371.3326836466001
 20
138.2881960242
 30
0.0
 11
376.6826836466
 21
138.2881960242
 31
0.0
  0
LINE
  5
25C
330
1B
100
AcDbEntity
  8
DEFAULT_2
  6
HIDDEN
 62
     8
100
AcDbLine
 10
371.3326836466001
 20
138.6881960242
 30
0.0
 11
376.6826836466
 21
138.6881960242
 31
0.0
  0
LINE
  5
25E
330
1B
100
AcDbEntity
  8
DEFAULT_1
  6
CENTER
 62
     2
100
AcDbLine
 10
388.4326836466
 20
141.2881960242
 30
0.0
 11
365.3326836466001
 21
141.2881960242
 31
0.0
  0
LINE
  5
263
330
1B
100
AcDbEntity
  8
DEFAULT_2
  6
HIDDEN
 62
     8
100
AcDbLine
 10
371.3326836466001
 20
143.8881960242
 30
0.0
 11
376.6826836466
 21
143.8881960242
 31
0.0
  0
LINE
  5
264
330
1B
100
AcDbEntity
  8
DEFAULT_2
  6
HIDDEN
 62
     8
100
AcDbLine
 10
371.3326836466001
 20
144.2881960242
 30
0.0
 11
376.6826836466
 21
144.2881960242
 31
0.0
  0
LINE
  5
265
330
1B
100
AcDbEntity
  8
DEFAULT_2
  6
HIDDEN
 62
     8
100
AcDbLine
 10
388.1826836466
 20
144.5881960242
 30
0.0
 11
376.6826836466
 21
144.5881960242
 31
0.0
  0
LINE
  5
267
330
1B
100
AcDbEntity
  8
DEFAULT_2
  6
HIDDEN
 62
     8
100
AcDbLine
 10
388.2826836466001
 20
144.761401105
 30
0.0
 11
376.5826836466001
 21
144.761401105
 31
0.0
  0
LINE
  5
269
330
1B
100
AcDbEntity
  8
0
  6
Continuous
 62
     7
100
AcDbLine
 10
393.5326836466001
 20
146.5881960242
 30
0.0
 11
371.3326836466001
 21
146.5881960242
 31
0.0
  0
LINE
  5
26A
330
1B
100
AcDbEntity
  8
0
  6
Continuous
 62
     7
100
AcDbLine
 10
393.6826836466
 20
146.7381960242
 30
0.0
 11
371.1826836466
 21
146.7381960242
 31
0.0
  0
LINE
  5
26F
330
1B
100
AcDbEntity
  8
DEFAULT_2
  6
HIDDEN
 62
     8
100
AcDbLine
 10
388.2826836466001
 20
152.5881960242
 30
0.0
 11
376.5826836466001
 21
152.5881960242
 31
0.0
  0
LINE
  5
271
330
1B
100
AcDbEntity
  8
0
  6
Continuous
 62
     7
100
AcDbLine
 10
393.6826836466
 20
154.4381960242
 30
0.0
 11
371.1826836466
 21
154.4381960242
 31
0.0
  0
LINE
  5
272
330
1B
100
AcDbEntity
  8
0
  6
Continuous
 62
     7
100
AcDbLine
 10
393.5326836466001
 20
154.5881960242
 30
0.0
 11
371.3326836466001
 21
154.5881960242
 31
0.0
  0
LINE
  5
273
330
1B
100
AcDbEntity
  8
DEFAULT_2
  6
HIDDEN
 62
     8
100
AcDbLine
 10
383.6826836466
 20
157.0419346683
 30
0.0
 11
381.1826836466
 21
157.0419346683
 31
0.0
  0
LINE
  5
274
330
1B
100
AcDbEntity
  8
0
  6
Continuous
 62
     7
100
AcDbLine
 10
371.3326836466001
 20
159.0881960242
 30
0.0
 11
393.5326836466001
 21
159.0881960242
 31
0.0
  0
LINE
  5
275
330
1B
100
AcDbEntity
  8
DEFAULT_2
  6
HIDDEN
 62
     8
100
AcDbLine
 10
389.1110076084999
 20
159.4381960242
 30
0.0
 11
375.7543596847
 21
159.4381960242
 31
0.0
  0
LINE
  5
276
330
1B
100
AcDbEntity
  8
0
  6
Continuous
 62
     7
100
AcDbLine
 10
393.0326836466
 20
159.5881960242
 30
0.0
 11
371.8326836466001
 21
159.5881960242
 31
0.0
  0
LINE
  5
277
330
1B
100
AcDbEntity
  8
0
  6
Continuous
 62
     7
100
AcDbLine
 10
387.9326836466
 20
160.0381960242
 30
0.0
 11
376.9326836466
 21
160.0381960242
 31
0.0
  0
LINE
  5
278
330
1B
100
AcDbEntity
  8
0
  6
Continuous
 62
     7
100
AcDbLine
 10
387.8134124593
 20
161.1551833223
 30
0.0
 11
376.9326836466
 21
161.1551833223
 31
0.0
  0
LINE
  5
279
330
1B
100
AcDbEntity
  8
0
  6
Continuous
 62
     7
100
AcDbLine
 10
387.8272826044
 20
161.5881960242
 30
0.0
 11
376.6826836466
 21
161.5881960242
 31
0.0
  0
LINE
  5
27A
330
1B
100
AcDbEntity
  8
DEFAULT_2
  6
HIDDEN
 62
     8
100
AcDbLine
 10
387.3736543391999
 20
164.3381960242
 30
0.0
 11
385.9326836466
 21
164.3381960242
 31
0.0
  0
LINE
  5
27B
330
1B
100
AcDbEntity
  8
0
  6
Continuous
 62
     7
100
AcDbLine
 10
232.5
 20
-3.0625
 30
0.0
 11
232.5
 21
283.9375
 31
0.0
  0
LINE
  5
27D
330
1B
100
AcDbEntity
  8
DEFAULT_2
  6
HIDDEN
 62
     8
100
AcDbLine
 10
387.3736543391999
 20
165.8381960242
 30
0.0
 11
385.9326836466
 21
165.8381960242
 31
0.0
  0
LINE
  5
27E
330
1B
100
AcDbEntity
  8
DEFAULT_2
  6
HIDDEN
 62
     8
100
AcDbLine
 10
383.6826836466
 20
167.215212678
 30
0.0
 11
381.1826836466
 21
167.215212678
 31
0.0
  0
LINE
  5
27F
330
1B
100
AcDbEntity
  8
0
  6
Continuous
 62
     7
100
AcDbLine
 10
376.6826836466
 20
170.5881960242
 30
0.0
 11
388.1826836466
 21
170.5881960242
 31
0.0
  0
LINE
  5
280
330
1B
100
AcDbEntity
  8
0
  6
Continuous
 62
     7
100
AcDbLine
 10
377.1826836466
 20
171.0881960242
 30
0.0
 11
387.6826836466
 21
171.0881960242
 31
0.0
  0
LINE
  5
365
330
1B
100
AcDbEntity
  8
DEFAULT_2
  6
HIDDEN
 62
     8
100
AcDbLine
 10
389.1110076084999
 20
159.4381960242
 30
0.0
 11
389.4326836466
 21
159.5881960242
 31
0.0
  0
LINE
  5
385
330
1B
100
AcDbEntity
  8
DEFAULT_2
  6
HIDDEN
 62
     8
100
AcDbLine
 10
376.9326836466
 20
154.5881960242
 30
0.0
 11
381.1826836466
 21
157.0419346683
 31
0.0
  0
LINE
  5
386
330
1B
100
AcDbEntity
  8
DEFAULT_2
  6
HIDDEN
 62
     8
100
AcDbLine
 10
375.7543596847
 20
159.4381960242
 30
0.0
 11
375.4326836466
 21
159.5881960242
 31
0.0
  0
LINE
  5
391
330
1B
100
AcDbEntity
  8
DEFAULT_2
  6
HIDDEN
 62
     8
100
AcDbLine
 10
387.9326836466
 20
154.5881960242
 30
0.0
 11
383.6826836466
 21
157.0419346683
 31
0.0
  0
LINE
  5
392
330
1B
100
AcDbEntity
  8
0
  6
Continuous
 62
     7
100
AcDbLine
 10
371.3326836466001
 20
154.5881960242
 30
0.0
 11
371.1826836466
 21
154.4381960242
 31
0.0
  0
LINE
  5
393
330
1B
100
AcDbEntity
  8
DEFAULT_2
  6
HIDDEN
 62
     8
100
AcDbLine
 10
385.9326836466
 20
167.3381960242
 30
0.0
 11
388.1826836466
 21
169.5881960242
 31
0.0
  0
LINE
  5
394
330
1B
100
AcDbEntity
  8
0
  6
Continuous
 62
     7
100
AcDbLine
 10
371.1826836466
 20
146.7381960242
 30
0.0
 11
371.3326836466001
 21
146.5881960242
 31
0.0
  0
LINE
  5
395
330
1B
100
AcDbEntity
  8
0
  6
Continuous
 62
     7
100
AcDbLine
 10
393.6826836466
 20
146.7381960242
 30
0.0
 11
393.5326836466001
 21
146.5881960242
 31
0.0
  0
LINE
  5
396
330
1B
100
AcDbEntity
  8
0
  6
Continuous
 62
     7
100
AcDbLine
 10
432.5
 20
283.9375
 30
0.0
 11
232.5
 21
283.9375
 31
0.0
  0
LINE
  5
397
330
1B
100
AcDbEntity
  8
0
  6
Continuous
 62
     7
100
AcDbLine
 10
393.5326836466001
 20
154.5881960242
 30
0.0
 11
393.6826836466
 21
154.4381960242
 31
0.0
  0
LINE
  5
398
330
1B
100
AcDbEntity
  8
DEFAULT_2
  6
HIDDEN
 62
     8
100
AcDbLine
 10
385.9326836466
 20
162.8381960242
 30
0.0
 11
387.9326836466
 21
160.8381960242
 31
0.0
  0
LINE
  5
399
330
1B
100
AcDbEntity
  8
DEFAULT_2
  6
HIDDEN
 62
     8
100
AcDbLine
 10
376.6826836466
 20
144.5881960242
 30
0.0
 11
376.5826836466001
 21
144.761401105
 31
0.0
  0
LINE
  5
39A
330
1B
100
AcDbEntity
  8
DEFAULT_2
  6
HIDDEN
 62
     8
100
AcDbLine
 10
376.7096403847
 20
144.2361994465
 30
0.0
 11
376.6852760844999
 21
144.2827137596
 31
0.0
  0
LINE
  5
39B
330
1B
100
AcDbEntity
  8
DEFAULT_2
  6
HIDDEN
 62
     8
100
AcDbLine
 10
376.7315566755
 20
144.1935818162
 30
0.0
 11
376.7096403847
 21
144.2361994465
 31
0.0
  0
LINE
  5
39C
330
1B
100
AcDbEntity
  8
DEFAULT_2
  6
HIDDEN
 62
     8
100
AcDbLine
 10
376.73155646
 20
144.1935818552
 30
0.0
 11
376.7597192761
 21
144.1378690446
 31
0.0
  0
LINE
  5
39D
330
1B
100
AcDbEntity
  8
DEFAULT_2
  6
HIDDEN
 62
     8
100
AcDbLine
 10
376.6831927518
 20
144.2868436387
 30
0.0
 11
376.685277387
 21
144.2827128554
 31
0.0
  0
LINE
  5
39E
330
1B
100
AcDbEntity
  8
DEFAULT_2
  6
HIDDEN
 62
     8
100
AcDbLine
 10
376.7597192761
 20
144.1378690446
 30
0.0
 11
376.7938055871
 21
144.0692831803
 31
0.0
  0
LINE
  5
39F
330
1B
100
AcDbEntity
  8
DEFAULT_2
  6
HIDDEN
 62
     8
100
AcDbLine
 10
376.7938055871
 20
144.0692831803
 30
0.0
 11
376.8169550452
 21
144.022042818
 31
0.0
  0
LINE
  5
3A0
330
1B
100
AcDbEntity
  8
DEFAULT_2
  6
HIDDEN
 62
     8
100
AcDbLine
 10
376.8169550452
 20
144.022042818
 30
0.0
 11
376.8419864342
 21
143.9702781226
 31
0.0
  0
LINE
  5
3A1
330
1B
100
AcDbEntity
  8
0
  6
Continuous
 62
     2
100
AcDbLine
 10
371.6770112794
 20
142.5018395202
 30
0.0
 11
371.6875306922
 21
142.4048693848
 31
0.0
  0
LINE
  5
3A2
330
1B
100
AcDbEntity
  8
0
  6
Continuous
 62
     2
100
AcDbLine
 10
371.6875306922
 20
142.4048693848
 30
0.0
 11
371.6973089897
 21
142.3067797596
 31
0.0
  0
LINE
  5
3A3
330
1B
100
AcDbEntity
  8
DEFAULT_2
  6
HIDDEN
 62
     8
100
AcDbLine
 10
371.5942984848001
 20
142.2984400125
 30
0.0
 11
371.5962411078
 21
142.2773809904
 31
0.0
  0
LINE
  5
3A4
330
1B
100
AcDbEntity
  8
0
  6
Continuous
 62
     2
100
AcDbLine
 10
371.6973089897
 20
142.3067797596
 30
0.0
 11
371.7062830311
 21
142.2077992885
 31
0.0
  0
LINE
  5
3A5
330
1B
100
AcDbEntity
  8
0
  6
Continuous
 62
     2
100
AcDbLine
 10
371.7062830311
 20
142.2077992885
 30
0.0
 11
371.7143967535
 21
142.1081190858
 31
0.0
  0
LINE
  5
3A6
330
1B
100
AcDbEntity
  8
0
  6
Continuous
 62
     2
100
AcDbLine
 10
371.7143967535
 20
142.1081190858
 30
0.0
 11
371.7216224053
 21
142.0077801487
 31
0.0
  0
LINE
  5
3A7
330
1B
100
AcDbEntity
  8
0
  6
Continuous
 62
     7
100
AcDbLine
 10
371.6299695598999
 20
141.7868257855
 30
0.0
 11
371.5962411078
 21
142.2773809904
 31
0.0
  0
LINE
  5
3A8
330
1B
100
AcDbEntity
  8
0
  6
Continuous
 62
     2
100
AcDbLine
 10
371.7216224053
 20
142.0077801487
 30
0.0
 11
371.7279393124
 21
141.9067859447
 31
0.0
  0
LINE
  5
3A9
330
1B
100
AcDbEntity
  8
0
  6
Continuous
 62
     2
100
AcDbLine
 10
371.7279393124
 20
141.9067859447
 30
0.0
 11
371.7333268013
 21
141.8051399416
 31
0.0
  0
LINE
  5
3AA
330
1B
100
AcDbEntity
  8
DEFAULT_2
  6
HIDDEN
 62
     8
100
AcDbLine
 10
371.6288993563
 20
141.8094972727
 30
0.0
 11
371.6299695598999
 21
141.7868257855
 31
0.0
  0
LINE
  5
3AB
330
1B
100
AcDbEntity
  8
0
  6
Continuous
 62
     2
100
AcDbLine
 10
371.7333268013
 20
141.8051399416
 30
0.0
 11
371.7377641979
 21
141.7028456068
 31
0.0
  0
LINE
  5
3AC
330
1B
100
AcDbEntity
  8
0
  6
Continuous
 62
     2
100
AcDbLine
 10
371.7377641979
 20
141.7028456068
 30
0.0
 11
371.7412308284
 21
141.5999064083
 31
0.0
  0
LINE
  5
3AD
330
1B
100
AcDbEntity
  8
0
  6
Continuous
 62
     2
100
AcDbLine
 10
371.7412308284
 20
141.5999064083
 30
0.0
 11
371.743709465
 21
141.4963608699
 31
0.0
  0
LINE
  5
3AE
330
1B
100
AcDbEntity
  8
0
  6
Continuous
 62
     7
100
AcDbLine
 10
371.641476059
 20
141.2754996075
 30
0.0
 11
371.6299695598999
 21
141.7868257855
 31
0.0
  0
LINE
  5
3AF
330
1B
100
AcDbEntity
  8
0
  6
Continuous
 62
     2
100
AcDbLine
 10
371.743709465
 20
141.4963608699
 30
0.0
 11
371.7451966636
 21
141.3923877414999
 31
0.0
  0
LINE
  5
3B0
330
1B
100
AcDbEntity
  8
0
  6
Continuous
 62
     2
100
AcDbLine
 10
371.7451966636
 20
141.3923877414999
 30
0.0
 11
371.745692426
 21
141.2882008295
 31
0.0
  0
LINE
  5
3B1
330
1B
100
AcDbEntity
  8
0
  6
Continuous
 62
     7
100
AcDbLine
 10
371.1826836466
 20
154.4381960242
 30
0.0
 11
371.1826836466
 21
146.7381960242
 31
0.0
  0
LINE
  5
3B2
330
1B
100
AcDbEntity
  8
0
  6
Continuous
 62
     7
100
AcDbLine
 10
371.3326836466001
 20
159.0881960242
 30
0.0
 11
371.3326836466001
 21
154.5881960242
 31
0.0
  0
LINE
  5
3B3
330
1B
100
AcDbEntity
  8
0
  6
Continuous
 62
     7
100
AcDbLine
 10
371.3326836466001
 20
146.5881960242
 30
0.0
 11
371.3326836466001
 21
143.8881960242
 31
0.0
  0
LINE
  5
3B4
330
1B
100
AcDbEntity
  8
0
  6
Continuous
 62
     7
100
AcDbLine
 10
371.3326836466001
 20
138.6881960242
 30
0.0
 11
371.3326836466001
 21
135.0881960242
 31
0.0
  0
LINE
  5
3B5
330
1B
100
AcDbEntity
  8
DEFAULT_2
  6
HIDDEN
 62
     8
100
AcDbLine
 10
371.64147859
 20
141.2985194574
 30
0.0
 11
371.641476059
 21
141.2754996075
 31
0.0
  0
LINE
  5
3B6
330
1B
100
AcDbEntity
  8
0
  6
Continuous
 62
     2
100
AcDbLine
 10
371.745692426
 20
141.2882008295
 30
0.0
 11
371.7451967541001
 21
141.1840139402
 31
0.0
  0
LINE
  5
3B7
330
1B
100
AcDbEntity
  8
0
  6
Continuous
 62
     2
100
AcDbLine
 10
371.7451967541001
 20
141.1840139402
 30
0.0
 11
371.7437096495999
 21
141.0800408798
 31
0.0
  0
LINE
  5
3B8
330
1B
100
AcDbEntity
  8
0
  6
Continuous
 62
     2
100
AcDbLine
 10
371.7437096495999
 20
141.0800408798
 30
0.0
 11
371.7412311144999
 21
140.9764954545
 31
0.0
  0
LINE
  5
3B9
330
1B
100
AcDbEntity
  8
0
  6
Continuous
 62
     7
100
AcDbLine
 10
371.6287671865
 20
140.7641627453
 30
0.0
 11
371.641476059
 21
141.2754996075
 31
0.0
  0
LINE
  5
3BA
330
1B
100
AcDbEntity
  8
0
  6
Continuous
 62
     2
100
AcDbLine
 10
371.7412311144999
 20
140.9764954545
 30
0.0
 11
371.7377645947
 21
140.8735564066
 31
0.0
  0
LINE
  5
3BB
330
1B
100
AcDbEntity
  8
0
  6
Continuous
 62
     2
100
AcDbLine
 10
371.7377645947
 20
140.8735564066
 30
0.0
 11
371.7333273118
 21
140.7712622207
 31
0.0
  0
LINE
  5
3BC
330
1B
100
AcDbEntity
  8
DEFAULT_2
  6
HIDDEN
 62
     8
100
AcDbLine
 10
371.6298772664
 20
140.7875707262
 30
0.0
 11
371.6287671865
 21
140.7641627453
 31
0.0
  0
LINE
  5
3BD
330
1B
100
AcDbEntity
  8
0
  6
Continuous
 62
     2
100
AcDbLine
 10
371.7333273118
 20
140.7712622207
 30
0.0
 11
371.7279399318
 21
140.6696163174
 31
0.0
  0
LINE
  5
3BE
330
1B
100
AcDbEntity
  8
0
  6
Continuous
 62
     2
100
AcDbLine
 10
371.7279399318
 20
140.6696163174
 30
0.0
 11
371.7216231205
 21
140.5686221173
 31
0.0
  0
LINE
  5
3BF
330
1B
100
AcDbEntity
  8
0
  6
Continuous
 62
     7
100
AcDbLine
 10
371.5940431912
 20
140.2752167938
 30
0.0
 11
371.6287671865
 21
140.7641627453
 31
0.0
  0
LINE
  5
3C0
330
1B
100
AcDbEntity
  8
0
  6
Continuous
 62
     2
100
AcDbLine
 10
371.7216231205
 20
140.5686221173
 30
0.0
 11
371.7143975436
 21
140.468283041
 31
0.0
  0
LINE
  5
3C1
330
1B
100
AcDbEntity
  8
0
  6
Continuous
 62
     2
100
AcDbLine
 10
371.7143975436
 20
140.468283041
 30
0.0
 11
371.7062838669
 21
140.3686025091
 31
0.0
  0
LINE
  5
3C2
330
1B
100
AcDbEntity
  8
0
  6
Continuous
 62
     2
100
AcDbLine
 10
371.7062838669
 20
140.3686025091
 30
0.0
 11
371.6973098384
 21
140.2696214977
 31
0.0
  0
LINE
  5
3C3
330
1B
100
AcDbEntity
  8
DEFAULT_2
  6
HIDDEN
 62
     8
100
AcDbLine
 10
371.5960911896
 20
140.2973700665
 30
0.0
 11
371.5940431912
 21
140.2752167938
 31
0.0
  0
LINE
  5
3C4
330
1B
100
AcDbEntity
  8
0
  6
Continuous
 62
     2
100
AcDbLine
 10
371.6973098384
 20
140.2696214977
 30
0.0
 11
371.6875315336
 21
140.1715312061
 31
0.0
  0
LINE
  5
3C5
330
1B
100
AcDbEntity
  8
0
  6
Continuous
 62
     2
100
AcDbLine
 10
371.6875315336
 20
140.1715312061
 30
0.0
 11
371.6770121101999
 21
140.0745603894
 31
0.0
  0
LINE
  5
3C6
330
1B
100
AcDbEntity
  8
0
  6
Continuous
 62
     7
100
AcDbLine
 10
371.5433178651
 20
139.8293310121
 30
0.0
 11
371.5940431912
 21
140.2752167938
 31
0.0
  0
LINE
  5
3C7
330
1B
100
AcDbEntity
  8
0
  6
Continuous
 62
     2
100
AcDbLine
 10
371.6770121101999
 20
140.0745603894
 30
0.0
 11
371.665814726
 21
139.9789378022999
 31
0.0
  0
LINE
  5
3C8
330
1B
100
AcDbEntity
  8
0
  6
Continuous
 62
     2
100
AcDbLine
 10
371.665814726
 20
139.9789378022999
 30
0.0
 11
371.6540025385
 21
139.8848922
 31
0.0
  0
LINE
  5
3C9
330
1B
100
AcDbEntity
  8
DEFAULT_2
  6
HIDDEN
 62
     8
100
AcDbLine
 10
371.5456415841
 20
139.8467783644
 30
0.0
 11
371.5433178651
 21
139.8293310121
 31
0.0
  0
LINE
  5
3CA
330
1B
100
AcDbEntity
  8
0
  6
Continuous
 62
     2
100
AcDbLine
 10
371.6540025385
 20
139.8848922
 30
0.0
 11
371.6416387056
 21
139.7926523372
 31
0.0
  0
LINE
  5
3CB
330
1B
100
AcDbEntity
  8
0
  6
Continuous
 62
     2
100
AcDbLine
 10
371.6416387056
 20
139.7926523372
 30
0.0
 11
371.6287859017
 21
139.7024153043
 31
0.0
  0
LINE
  5
3CC
330
1B
100
AcDbEntity
  8
0
  6
Continuous
 62
     2
100
AcDbLine
 10
371.6287859017
 20
139.7024153043
 30
0.0
 11
371.6155048696
 21
139.6142515324
 31
0.0
  0
LINE
  5
3CD
330
1B
100
AcDbEntity
  8
0
  6
Continuous
 62
     7
100
AcDbLine
 10
371.4844744974
 20
139.4406886291
 30
0.0
 11
371.5433178651
 21
139.8293310121
 31
0.0
  0
LINE
  5
3CE
330
1B
100
AcDbEntity
  8
0
  6
Continuous
 62
     2
100
AcDbLine
 10
371.6155048696
 20
139.6142515324
 30
0.0
 11
371.6018558691001
 21
139.528199788
 31
0.0
  0
LINE
  5
3CF
330
1B
100
AcDbEntity
  8
0
  6
Continuous
 62
     2
100
AcDbLine
 10
371.6018558691001
 20
139.528199788
 30
0.0
 11
371.5878991597
 21
139.4442988375
 31
0.0
  0
LINE
  5
3D0
330
1B
100
AcDbEntity
  8
DEFAULT_2
  6
HIDDEN
 62
     8
100
AcDbLine
 10
371.4864515045
 20
139.4524405645
 30
0.0
 11
371.4844744974
 21
139.4406886291
 31
0.0
  0
LINE
  5
3D1
330
1B
100
AcDbEntity
  8
0
  6
Continuous
 62
     2
100
AcDbLine
 10
371.5878991597
 20
139.4442988375
 30
0.0
 11
371.5736950011
 21
139.3625874473
 31
0.0
  0
LINE
  5
3D2
330
1B
100
AcDbEntity
  8
0
  6
Continuous
 62
     2
100
AcDbLine
 10
371.5736950011
 20
139.3625874473
 30
0.0
 11
371.559303653
 21
139.283104384
 31
0.0
  0
LINE
  5
3D3
330
1B
100
AcDbEntity
  8
0
  6
Continuous
 62
     7
100
AcDbLine
 10
371.4262030542
 20
139.1219515712
 30
0.0
 11
371.4844744974
 21
139.4406886291
 31
0.0
  0
LINE
  5
3D4
330
1B
100
AcDbEntity
  8
0
  6
Continuous
 62
     2
100
AcDbLine
 10
371.559303653
 20
139.283104384
 30
0.0
 11
371.5447890845
 21
139.2059068228
 31
0.0
  0
LINE
  5
3D5
330
1B
100
AcDbEntity
  8
0
  6
Continuous
 62
     2
100
AcDbLine
 10
371.5447890845
 20
139.2059068228
 30
0.0
 11
371.5302301026
 21
139.1311255749
 31
0.0
  0
LINE
  5
3D6
330
1B
100
AcDbEntity
  8
DEFAULT_2
  6
HIDDEN
 62
     8
100
AcDbLine
 10
371.4275301004
 20
139.1287042841
 30
0.0
 11
371.4262030542
 21
139.1219515712
 31
0.0
  0
LINE
  5
3D7
330
1B
100
AcDbEntity
  8
0
  6
Continuous
 62
     2
100
AcDbLine
 10
371.5302301026
 20
139.1311255749
 30
0.0
 11
371.5157092236
 21
139.0589098603
 31
0.0
  0
LINE
  5
3D8
330
1B
100
AcDbEntity
  8
0
  6
Continuous
 62
     7
100
AcDbLine
 10
371.3769956653
 20
138.8843997061
 30
0.0
 11
371.4262030542
 21
139.1219515712
 31
0.0
  0
LINE
  5
3D9
330
1B
100
AcDbEntity
  8
0
  6
Continuous
 62
     2
100
AcDbLine
 10
371.5157092236
 20
139.0589098603
 30
0.0
 11
371.5013089639
 21
138.9894088991
 31
0.0
  0
LINE
  5
3DA
330
1B
100
AcDbEntity
  8
0
  6
Continuous
 62
     2
100
AcDbLine
 10
371.5013089639
 20
138.9894088991
 30
0.0
 11
371.4871118398
 21
138.9227719112
 31
0.0
  0
LINE
  5
3DB
330
1B
100
AcDbEntity
  8
DEFAULT_2
  6
HIDDEN
 62
     8
100
AcDbLine
 10
371.3776850164
 20
138.8875722065
 30
0.0
 11
371.3769956653
 21
138.8843997061
 31
0.0
  0
LINE
  5
3DC
330
1B
100
AcDbEntity
  8
0
  6
Continuous
 62
     2
100
AcDbLine
 10
371.4871118398
 20
138.9227719112
 30
0.0
 11
371.4732003679
 21
138.8591481168
 31
0.0
  0
LINE
  5
3DD
330
1B
100
AcDbEntity
  8
0
  6
Continuous
 62
     7
100
AcDbLine
 10
371.344172693
 20
138.7376911391
 30
0.0
 11
371.3769956653
 21
138.8843997061
 31
0.0
  0
LINE
  5
3DE
330
1B
100
AcDbEntity
  8
0
  6
Continuous
 62
     2
100
AcDbLine
 10
371.4732003679
 20
138.8591481168
 30
0.0
 11
371.4596520898
 21
138.7986672402
 31
0.0
  0
LINE
  5
3DF
330
1B
100
AcDbEntity
  8
0
  6
Continuous
 62
     2
100
AcDbLine
 10
371.4596520898
 20
138.7986672402
 30
0.0
 11
371.4465246497
 21
138.7413810237
 31
0.0
  0
LINE
  5
3E0
330
1B
100
AcDbEntity
  8
0
  6
Continuous
 62
     7
100
AcDbLine
 10
371.3326836466001
 20
138.6881960242
 30
0.0
 11
371.344172693
 21
138.7376911391
 31
0.0
  0
LINE
  5
3E1
330
1B
100
AcDbEntity
  8
0
  6
Continuous
 62
     2
100
AcDbLine
 10
371.4465246497
 20
138.7413810237
 30
0.0
 11
371.4338707168
 21
138.6873217138
 31
0.0
  0
LINE
  5
3E2
330
1B
100
AcDbEntity
  8
0
  6
Continuous
 62
     2
100
AcDbLine
 10
371.4338707168
 20
138.6873217138
 30
0.0
 11
371.4101940507
 21
138.5890128006
 31
0.0
  0
LINE
  5
3E3
330
1B
100
AcDbEntity
  8
0
  6
Continuous
 62
     2
100
AcDbLine
 10
371.4101940507
 20
138.5890128006
 30
0.0
 11
371.3890424149
 21
138.5040016765
 31
0.0
  0
LINE
  5
3E4
330
1B
100
AcDbEntity
  8
0
  6
Continuous
 62
     2
100
AcDbLine
 10
371.3890424149
 20
138.5040016765
 30
0.0
 11
371.3708123978
 21
138.4326231845
 31
0.0
  0
LINE
  5
3E5
330
1B
100
AcDbEntity
  8
0
  6
Continuous
 62
     2
100
AcDbLine
 10
371.3708123978
 20
138.4326231845
 30
0.0
 11
371.3370975944
 21
138.3040155192
 31
0.0
  0
LINE
  5
3E6
330
1B
100
AcDbEntity
  8
0
  6
Continuous
 62
     2
100
AcDbLine
 10
371.3370975944
 20
138.3040155192
 30
0.0
 11
371.3347303619999
 21
138.2952070129
 31
0.0
  0
LINE
  5
3E7
330
1B
100
AcDbEntity
  8
0
  6
Continuous
 62
     2
100
AcDbLine
 10
371.3347303619999
 20
138.2952070129
 30
0.0
 11
371.3332642103
 21
138.2899437969
 31
0.0
  0
LINE
  5
3E8
330
1B
100
AcDbEntity
  8
DEFAULT_2
  6
HIDDEN
 62
     8
100
AcDbLine
 10
377.3194011998
 20
139.8452674017
 30
0.0
 11
377.2891755874
 21
139.7414227585
 31
0.0
  0
LINE
  5
3E9
330
1B
100
AcDbEntity
  8
DEFAULT_2
  6
HIDDEN
 62
     8
100
AcDbLine
 10
376.9810090936
 20
139.4393435607
 30
0.0
 11
377.1039376772
 21
139.8414639806
 31
0.0
  0
LINE
  5
3EA
330
1B
100
AcDbEntity
  8
DEFAULT_2
  6
HIDDEN
 62
     8
100
AcDbLine
 10
377.2891755874
 20
139.7414227585
 30
0.0
 11
377.257814213
 21
139.6399321939
 31
0.0
  0
LINE
  5
3EB
330
1B
100
AcDbEntity
  8
0
  6
Continuous
 62
     7
100
AcDbLine
 10
387.8234494916
 20
168.5759230762
 30
0.0
 11
387.9099986552
 21
168.843225038
 31
0.0
  0
LINE
  5
3EC
330
1B
100
AcDbEntity
  8
DEFAULT_2
  6
HIDDEN
 62
     8
100
AcDbLine
 10
377.257814213
 20
139.6399321939
 30
0.0
 11
377.2255510185
 21
139.5411319159
 31
0.0
  0
LINE
  5
3ED
330
1B
100
AcDbEntity
  8
0
  6
Continuous
 62
     2
100
AcDbLine
 10
371.3332642103
 20
138.2899437969
 30
0.0
 11
371.3326836466001
 21
138.2881960242
 31
0.0
  0
LINE
  5
3EE
330
1B
100
AcDbEntity
  8
DEFAULT_2
  6
HIDDEN
 62
     8
100
AcDbLine
 10
387.9122582758999
 20
168.8499526079
 30
0.0
 11
387.9099986552
 21
168.843225038
 31
0.0
  0
LINE
  5
3EF
330
1B
100
AcDbEntity
  8
DEFAULT_2
  6
HIDDEN
 62
     8
100
AcDbLine
 10
377.2255510185
 20
139.5411319159
 30
0.0
 11
377.1925798154
 21
139.4451266224
 31
0.0
  0
LINE
  5
3F0
330
1B
100
AcDbEntity
  8
0
  6
Continuous
 62
     7
100
AcDbLine
 10
387.9099986552
 20
168.843225038
 30
0.0
 11
387.9914126523999
 21
169.0788009519
 31
0.0
  0
LINE
  5
3F1
330
1B
100
AcDbEntity
  8
DEFAULT_2
  6
HIDDEN
 62
     8
100
AcDbLine
 10
387.9936140599
 20
169.0849902077
 30
0.0
 11
387.9914126523999
 21
169.0788009519
 31
0.0
  0
LINE
  5
3F2
330
1B
100
AcDbEntity
  8
DEFAULT_2
  6
HIDDEN
 62
     8
100
AcDbLine
 10
377.1925798154
 20
139.4451266224
 30
0.0
 11
377.1590843830001
 21
139.3519631334
 31
0.0
  0
LINE
  5
3F3
330
1B
100
AcDbEntity
  8
DEFAULT_2
  6
HIDDEN
 62
     8
100
AcDbLine
 10
376.8659468764
 20
139.1234654941
 30
0.0
 11
376.9850104923
 21
139.4511759384
 31
0.0
  0
LINE
  5
3F4
330
1B
100
AcDbEntity
  8
0
  6
Continuous
 62
     7
100
AcDbLine
 10
387.9914126523999
 20
169.0788009519
 30
0.0
 11
388.0631627438999
 21
169.276243921
 31
0.0
  0
LINE
  5
3F5
330
1B
100
AcDbEntity
  8
DEFAULT_2
  6
HIDDEN
 62
     8
100
AcDbLine
 10
388.0648623493
 20
169.2808198881
 30
0.0
 11
388.0631627438999
 21
169.276243921
 31
0.0
  0
LINE
  5
3F6
330
1B
100
AcDbEntity
  8
DEFAULT_2
  6
HIDDEN
 62
     8
100
AcDbLine
 10
377.1590843830001
 20
139.3519631334
 30
0.0
 11
377.1252485002
 21
139.2616882692
 31
0.0
  0
LINE
  5
3F7
330
1B
100
AcDbEntity
  8
DEFAULT_2
  6
HIDDEN
 62
     8
100
AcDbLine
 10
376.6831920064
 20
138.2895481446
 30
0.0
 11
376.6826836466
 21
138.2881960242
 31
0.0
  0
LINE
  5
3F8
330
1B
100
AcDbEntity
  8
0
  6
Continuous
 62
     7
100
AcDbLine
 10
388.0631627438999
 20
169.276243921
 30
0.0
 11
388.1231292819001
 21
169.435147583
 31
0.0
  0
LINE
  5
3F9
330
1B
100
AcDbEntity
  8
0
  6
Continuous
 62
     7
100
AcDbLine
 10
388.1231292819001
 20
169.435147583
 30
0.0
 11
388.1659512783
 21
169.5456405548
 31
0.0
  0
LINE
  5
3FA
330
1B
100
AcDbEntity
  8
DEFAULT_2
  6
HIDDEN
 62
     8
100
AcDbLine
 10
377.1252485002
 20
139.2616882692
 30
0.0
 11
377.0912559464
 21
139.17434885
 31
0.0
  0
LINE
  5
3FB
330
1B
100
AcDbEntity
  8
0
  6
Continuous
 62
     7
100
AcDbLine
 10
388.1659512783
 20
169.5456405548
 30
0.0
 11
388.1826836466
 21
169.5881960242
 31
0.0
  0
LINE
  5
3FC
330
1B
100
AcDbEntity
  8
DEFAULT_2
  6
HIDDEN
 62
     8
100
AcDbLine
 10
377.0912559464
 20
139.17434885
 30
0.0
 11
377.0573038843
 21
139.0900314548
 31
0.0
  0
LINE
  5
3FD
330
1B
100
AcDbEntity
  8
DEFAULT_2
  6
HIDDEN
 62
     8
100
AcDbLine
 10
376.7696294205001
 20
138.8865958978
 30
0.0
 11
376.8686757035
 21
139.1304925249
 31
0.0
  0
LINE
  5
3FE
330
1B
100
AcDbEntity
  8
DEFAULT_2
  6
HIDDEN
 62
     8
100
AcDbLine
 10
377.0573038843
 20
139.0900314548
 30
0.0
 11
377.0236430115001
 21
139.0089816987
 31
0.0
  0
LINE
  5
3FF
330
1B
100
AcDbEntity
  8
DEFAULT_2
  6
HIDDEN
 62
     8
100
AcDbLine
 10
377.0236430115001
 20
139.0089816987
 30
0.0
 11
376.9905374092
 21
138.9314849554
 31
0.0
  0
LINE
  5
400
330
1B
100
AcDbEntity
  8
DEFAULT_2
  6
HIDDEN
 62
     8
100
AcDbLine
 10
376.7710346821
 20
138.8899114294
 30
0.0
 11
376.7056715788
 21
138.7394380473
 31
0.0
  0
LINE
  5
401
330
1B
100
AcDbEntity
  8
DEFAULT_2
  6
HIDDEN
 62
     8
100
AcDbLine
 10
376.9905374092
 20
138.9314849554
 30
0.0
 11
376.9582511586
 21
138.8578265986
 31
0.0
  0
LINE
  5
402
330
1B
100
AcDbEntity
  8
DEFAULT_2
  6
HIDDEN
 62
     8
100
AcDbLine
 10
376.7056715788
 20
138.7394380473
 30
0.0
 11
376.6826836466
 21
138.6881960242
 31
0.0
  0
LINE
  5
403
330
1B
100
AcDbEntity
  8
DEFAULT_2
  6
HIDDEN
 62
     8
100
AcDbLine
 10
376.9582511586
 20
138.8578265986
 30
0.0
 11
376.9270483409
 21
138.7882920023
 31
0.0
  0
LINE
  5
404
330
1B
100
AcDbEntity
  8
DEFAULT_2
  6
HIDDEN
 62
     8
100
AcDbLine
 10
376.9270483409
 20
138.7882920023
 30
0.0
 11
376.8971712922
 21
138.7231237816
 31
0.0
  0
LINE
  5
405
330
1B
100
AcDbEntity
  8
DEFAULT_2
  6
HIDDEN
 62
     8
100
AcDbLine
 10
376.8971712922
 20
138.7231237816
 30
0.0
 11
376.8687753672
 21
138.6623935176
 31
0.0
  0
LINE
  5
406
330
1B
100
AcDbEntity
  8
DEFAULT_2
  6
HIDDEN
 62
     8
100
AcDbLine
 10
376.8687753672
 20
138.6623935176
 30
0.0
 11
376.8419941757
 21
138.6061300327
 31
0.0
  0
LINE
  5
407
330
1B
100
AcDbEntity
  8
DEFAULT_2
  6
HIDDEN
 62
     8
100
AcDbLine
 10
376.8419941757
 20
138.6061300327
 30
0.0
 11
376.8169613272001
 21
138.5543621494
 31
0.0
  0
LINE
  5
408
330
1B
100
AcDbEntity
  8
DEFAULT_2
  6
HIDDEN
 62
     8
100
AcDbLine
 10
376.8169613272001
 20
138.5543621494
 30
0.0
 11
376.776045897
 21
138.4712280183
 31
0.0
  0
LINE
  5
409
330
1B
100
AcDbEntity
  8
DEFAULT_2
  6
HIDDEN
 62
     8
100
AcDbLine
 10
376.776045897
 20
138.4712280183
 30
0.0
 11
376.7448783984999
 21
138.4090455525
 31
0.0
  0
LINE
  5
40A
330
1B
100
AcDbEntity
  8
DEFAULT_2
  6
HIDDEN
 62
     8
100
AcDbLine
 10
376.6852760844999
 20
138.2936782888
 30
0.0
 11
376.6831920064
 21
138.2895481446
 31
0.0
  0
LINE
  5
40B
330
1B
100
AcDbEntity
  8
DEFAULT_2
  6
HIDDEN
 62
     8
100
AcDbLine
 10
376.7197977799
 20
138.3598513924
 30
0.0
 11
376.7448783984999
 21
138.4090455525
 31
0.0
  0
LINE
  5
40C
330
1B
100
AcDbEntity
  8
DEFAULT_2
  6
HIDDEN
 62
     8
100
AcDbLine
 10
376.7096416746
 20
138.3401951061
 30
0.0
 11
376.7197977799
 21
138.3598513924
 31
0.0
  0
LINE
  5
40D
330
1B
100
AcDbEntity
  8
DEFAULT_2
  6
HIDDEN
 62
     8
100
AcDbLine
 10
376.685277387
 20
138.2936791931
 30
0.0
 11
376.7096416746
 21
138.3401951061
 31
0.0
  0
LINE
  5
40E
330
1B
100
AcDbEntity
  8
DEFAULT_2
  6
HIDDEN
 62
     8
100
AcDbLine
 10
388.1826836466
 20
144.5881960242
 30
0.0
 11
388.2826836466001
 21
144.761401105
 31
0.0
  0
LINE
  5
40F
330
1B
100
AcDbEntity
  8
0
  6
Continuous
 62
     7
100
AcDbLine
 10
376.9326836466
 20
161.1551833223
 30
0.0
 11
376.6826836466
 21
161.5881960242
 31
0.0
  0
LINE
  5
410
330
1B
100
AcDbEntity
  8
DEFAULT_2
  6
HIDDEN
 62
     8
100
AcDbLine
 10
376.8419864342
 20
143.9702781226
 30
0.0
 11
376.8687660598
 21
143.9140181795
 31
0.0
  0
LINE
  5
411
330
1B
100
AcDbEntity
  8
DEFAULT_2
  6
HIDDEN
 62
     8
100
AcDbLine
 10
376.8687660598
 20
143.9140181795
 30
0.0
 11
376.8971602276999
 21
143.8532920739
 31
0.0
  0
LINE
  5
412
330
1B
100
AcDbEntity
  8
DEFAULT_2
  6
HIDDEN
 62
     8
100
AcDbLine
 10
376.8971602276999
 20
143.8532920739
 30
0.0
 11
376.9270352435
 21
143.788128891
 31
0.0
  0
LINE
  5
413
330
1B
100
AcDbEntity
  8
DEFAULT_2
  6
HIDDEN
 62
     8
100
AcDbLine
 10
376.9270352435
 20
143.788128891
 30
0.0
 11
376.9582357299
 21
143.71860032
 31
0.0
  0
LINE
  5
414
330
1B
100
AcDbEntity
  8
DEFAULT_2
  6
HIDDEN
 62
     8
100
AcDbLine
 10
376.6826836466
 20
143.8881960242
 30
0.0
 11
376.705254125
 21
143.8378918737
 31
0.0
  0
LINE
  5
415
330
1B
100
AcDbEntity
  8
DEFAULT_2
  6
HIDDEN
 62
     8
100
AcDbLine
 10
376.9582357299
 20
143.71860032
 30
0.0
 11
376.9905195767
 21
143.6449484661
 31
0.0
  0
LINE
  5
416
330
1B
100
AcDbEntity
  8
DEFAULT_2
  6
HIDDEN
 62
     8
100
AcDbLine
 10
376.7709439869999
 20
143.6866947158
 30
0.0
 11
376.7056467304
 21
143.8370098346
 31
0.0
  0
LINE
  5
417
330
1B
100
AcDbEntity
  8
DEFAULT_2
  6
HIDDEN
 62
     8
100
AcDbLine
 10
376.9905195767
 20
143.6449484661
 30
0.0
 11
377.0236229908
 21
143.5674580387
 31
0.0
  0
LINE
  5
418
330
1B
100
AcDbEntity
  8
DEFAULT_2
  6
HIDDEN
 62
     8
100
AcDbLine
 10
377.0236229908
 20
143.5674580387
 30
0.0
 11
377.0572821792
 21
143.4864137469
 31
0.0
  0
LINE
  5
419
330
1B
100
AcDbEntity
  8
DEFAULT_2
  6
HIDDEN
 62
     8
100
AcDbLine
 10
376.8684986351999
 20
143.4463560835
 30
0.0
 11
376.7694937353
 21
143.6901160837
 31
0.0
  0
LINE
  5
41A
330
1B
100
AcDbEntity
  8
DEFAULT_2
  6
HIDDEN
 62
     8
100
AcDbLine
 10
377.0572821792
 20
143.4864137469
 30
0.0
 11
377.0912333485
 21
143.4021003001
 31
0.0
  0
LINE
  5
41B
330
1B
100
AcDbEntity
  8
DEFAULT_2
  6
HIDDEN
 62
     8
100
AcDbLine
 10
377.0912333485
 20
143.4021003001
 30
0.0
 11
377.1252260076999
 21
143.3147627862999
 31
0.0
  0
LINE
  5
41C
330
1B
100
AcDbEntity
  8
DEFAULT_2
  6
HIDDEN
 62
     8
100
AcDbLine
 10
376.6826836466
 20
144.2881960242
 30
0.0
 11
376.6831927518
 21
144.2868436387
 31
0.0
  0
LINE
  5
41D
330
1B
100
AcDbEntity
  8
DEFAULT_2
  6
HIDDEN
 62
     8
100
AcDbLine
 10
377.1252260076999
 20
143.3147627862999
 30
0.0
 11
377.1590628736
 21
143.2244878094
 31
0.0
  0
LINE
  5
41E
330
1B
100
AcDbEntity
  8
DEFAULT_2
  6
HIDDEN
 62
     8
100
AcDbLine
 10
376.9847488594
 20
143.125991836
 30
0.0
 11
376.8656842888
 21
143.4536017252
 31
0.0
  0
LINE
  5
41F
330
1B
100
AcDbEntity
  8
DEFAULT_2
  6
HIDDEN
 62
     8
100
AcDbLine
 10
377.1590628736
 20
143.2244878094
 30
0.0
 11
377.1925599652
 21
143.131322352
 31
0.0
  0
LINE
  5
420
330
1B
100
AcDbEntity
  8
DEFAULT_2
  6
HIDDEN
 62
     8
100
AcDbLine
 10
377.1925599652
 20
143.131322352
 30
0.0
 11
377.2255333014
 21
143.035313397
 31
0.0
  0
LINE
  5
421
330
1B
100
AcDbEntity
  8
0
  6
Continuous
 62
     2
100
AcDbLine
 10
371.3326836466001
 20
144.2881960242
 30
0.0
 11
371.3332642443
 21
144.2864482272
 31
0.0
  0
LINE
  5
422
330
1B
100
AcDbEntity
  8
DEFAULT_2
  6
HIDDEN
 62
     8
100
AcDbLine
 10
377.2255333014
 20
143.035313397
 30
0.0
 11
377.2577989012
 21
142.9365079269
 31
0.0
  0
LINE
  5
423
330
1B
100
AcDbEntity
  8
DEFAULT_2
  6
HIDDEN
 62
     8
100
AcDbLine
 10
377.2577989012
 20
142.9365079269
 30
0.0
 11
377.2891627594999
 21
142.8350109496
 31
0.0
  0
LINE
  5
424
330
1B
100
AcDbEntity
  8
DEFAULT_2
  6
HIDDEN
 62
     8
100
AcDbLine
 10
377.1036266963
 20
142.7360730839
 30
0.0
 11
376.9805881107
 21
143.1382894632
 31
0.0
  0
LINE
  5
425
330
1B
100
AcDbEntity
  8
DEFAULT_2
  6
HIDDEN
 62
     8
100
AcDbLine
 10
377.2891627594999
 20
142.8350109496
 30
0.0
 11
377.3193907764
 21
142.7311595726
 31
0.0
  0
LINE
  5
426
330
1B
100
AcDbEntity
  8
0
  6
Continuous
 62
     2
100
AcDbLine
 10
371.3332642443
 20
144.2864482272
 30
0.0
 11
371.3347304171
 21
144.281184965
 31
0.0
  0
LINE
  5
427
330
1B
100
AcDbEntity
  8
DEFAULT_2
  6
HIDDEN
 62
     8
100
AcDbLine
 10
377.3193907764
 20
142.7311595726
 30
0.0
 11
377.3482388279
 21
142.6253489285
 31
0.0
  0
LINE
  5
428
330
1B
100
AcDbEntity
  8
0
  6
Continuous
 62
     2
100
AcDbLine
 10
371.3347304171
 20
144.281184965
 30
0.0
 11
371.3403814383
 21
144.2599928201
 31
0.0
  0
LINE
  5
429
330
1B
100
AcDbEntity
  8
0
  6
Continuous
 62
     2
100
AcDbLine
 10
371.3403814383
 20
144.2599928201
 30
0.0
 11
371.3708119082
 21
144.1437707879
 31
0.0
  0
LINE
  5
42A
330
1B
100
AcDbEntity
  8
0
  6
Continuous
 62
     2
100
AcDbLine
 10
371.3708119082
 20
144.1437707879
 30
0.0
 11
371.3890416688
 21
144.0723933619
 31
0.0
  0
LINE
  5
42B
330
1B
100
AcDbEntity
  8
DEFAULT_2
  6
HIDDEN
 62
     8
100
AcDbLine
 10
377.3482388279
 20
142.6253489285
 30
0.0
 11
377.3754627902
 21
142.5179741499
 31
0.0
  0
LINE
  5
42C
330
1B
100
AcDbEntity
  8
0
  6
Continuous
 62
     2
100
AcDbLine
 10
371.3890416688
 20
144.0723933619
 30
0.0
 11
371.4101931898
 21
143.9873827115
 31
0.0
  0
LINE
  5
42D
330
1B
100
AcDbEntity
  8
0
  6
Continuous
 62
     2
100
AcDbLine
 10
371.4101931898
 20
143.9873827115
 30
0.0
 11
371.4338698631
 21
143.8890738062
 31
0.0
  0
LINE
  5
42E
330
1B
100
AcDbEntity
  8
0
  6
Continuous
 62
     2
100
AcDbLine
 10
371.4338698631
 20
143.8890738062
 30
0.0
 11
371.4465237980001
 21
143.8350145624
 31
0.0
  0
LINE
  5
42F
330
1B
100
AcDbEntity
  8
DEFAULT_2
  6
HIDDEN
 62
     8
100
AcDbLine
 10
377.3754627902
 20
142.5179741499
 30
0.0
 11
377.4008185394
 21
142.4094303696
 31
0.0
  0
LINE
  5
430
330
1B
100
AcDbEntity
  8
DEFAULT_2
  6
HIDDEN
 62
     8
100
AcDbLine
 10
377.2075253813
 20
142.2880854668
 30
0.0
 11
377.0987887646
 21
142.7537793937
 31
0.0
  0
LINE
  5
431
330
1B
100
AcDbEntity
  8
0
  6
Continuous
 62
     7
100
AcDbLine
 10
371.3443786211
 20
143.8378054725
 30
0.0
 11
371.3326836466001
 21
143.8881960242
 31
0.0
  0
LINE
  5
432
330
1B
100
AcDbEntity
  8
0
  6
Continuous
 62
     2
100
AcDbLine
 10
371.4465237980001
 20
143.8350145624
 30
0.0
 11
371.4596512126
 21
143.7777285849
 31
0.0
  0
LINE
  5
433
330
1B
100
AcDbEntity
  8
0
  6
Continuous
 62
     2
100
AcDbLine
 10
371.4596512126
 20
143.7777285849
 30
0.0
 11
371.4731994176
 21
143.7172482193
 31
0.0
  0
LINE
  5
434
330
1B
100
AcDbEntity
  8
0
  6
Continuous
 62
     7
100
AcDbLine
 10
371.3777344567
 20
143.6885921562
 30
0.0
 11
371.3443786211
 21
143.8378054725
 31
0.0
  0
LINE
  5
435
330
1B
100
AcDbEntity
  8
0
  6
Continuous
 62
     2
100
AcDbLine
 10
371.4731994176
 20
143.7172482193
 30
0.0
 11
371.4871107572
 21
143.6536252649
 31
0.0
  0
LINE
  5
436
330
1B
100
AcDbEntity
  8
DEFAULT_2
  6
HIDDEN
 62
     8
100
AcDbLine
 10
371.3770737745
 20
143.6916330722
 30
0.0
 11
371.3777344567
 21
143.6885921562
 31
0.0
  0
LINE
  5
437
330
1B
100
AcDbEntity
  8
0
  6
Continuous
 62
     2
100
AcDbLine
 10
371.4871107572
 20
143.6536252649
 30
0.0
 11
371.5013077098
 21
143.5869893367
 31
0.0
  0
LINE
  5
438
330
1B
100
AcDbEntity
  8
DEFAULT_2
  6
HIDDEN
 62
     8
100
AcDbLine
 10
377.4008185394
 20
142.4094303696
 30
0.0
 11
377.42409081
 21
142.3000524623
 31
0.0
  0
LINE
  5
439
330
1B
100
AcDbEntity
  8
0
  6
Continuous
 62
     2
100
AcDbLine
 10
371.5013077098
 20
143.5869893367
 30
0.0
 11
371.515707787
 21
143.5174895035
 31
0.0
  0
LINE
  5
43A
330
1B
100
AcDbEntity
  8
0
  6
Continuous
 62
     7
100
AcDbLine
 10
371.4276264194
 20
143.4471968519
 30
0.0
 11
371.3777344567
 21
143.6885921562
 31
0.0
  0
LINE
  5
43B
330
1B
100
AcDbEntity
  8
0
  6
Continuous
 62
     2
100
AcDbLine
 10
371.515707787
 20
143.5174895035
 30
0.0
 11
371.5302285004
 21
143.4452748342
 31
0.0
  0
LINE
  5
43C
330
1B
100
AcDbEntity
  8
DEFAULT_2
  6
HIDDEN
 62
     8
100
AcDbLine
 10
371.4263542818
 20
143.4536719736
 30
0.0
 11
371.4276264194
 21
143.4471968519
 31
0.0
  0
LINE
  5
43D
330
1B
100
AcDbEntity
  8
0
  6
Continuous
 62
     2
100
AcDbLine
 10
371.5302285004
 20
143.4452748342
 30
0.0
 11
371.5447873619
 21
143.3704943976
 31
0.0
  0
LINE
  5
43E
330
1B
100
AcDbEntity
  8
0
  6
Continuous
 62
     2
100
AcDbLine
 10
371.5447873619
 20
143.3704943976
 30
0.0
 11
371.559301883
 21
143.2932972626
 31
0.0
  0
LINE
  5
43F
330
1B
100
AcDbEntity
  8
0
  6
Continuous
 62
     7
100
AcDbLine
 10
371.4865918462
 20
143.1231144703
 30
0.0
 11
371.4276264194
 21
143.4471968519
 31
0.0
  0
LINE
  5
440
330
1B
100
AcDbEntity
  8
0
  6
Continuous
 62
     2
100
AcDbLine
 10
371.559301883
 20
143.2932972626
 30
0.0
 11
371.5736932758
 21
143.2138141411
 31
0.0
  0
LINE
  5
441
330
1B
100
AcDbEntity
  8
0
  6
Continuous
 62
     2
100
AcDbLine
 10
371.5736932758
 20
143.2138141411
 30
0.0
 11
371.5878975528
 21
143.1321023174
 31
0.0
  0
LINE
  5
442
330
1B
100
AcDbEntity
  8
DEFAULT_2
  6
HIDDEN
 62
     8
100
AcDbLine
 10
371.4847089431
 20
143.1343136012
 30
0.0
 11
371.4865918462
 21
143.1231144703
 31
0.0
  0
LINE
  5
443
330
1B
100
AcDbEntity
  8
0
  6
Continuous
 62
     2
100
AcDbLine
 10
371.5878975528
 20
143.1321023174
 30
0.0
 11
371.6018544266999
 21
143.048200719
 31
0.0
  0
LINE
  5
444
330
1B
100
AcDbEntity
  8
0
  6
Continuous
 62
     2
100
AcDbLine
 10
371.6018544266999
 20
143.048200719
 30
0.0
 11
371.6155036104
 21
142.9621482734
 31
0.0
  0
LINE
  5
445
330
1B
100
AcDbEntity
  8
0
  6
Continuous
 62
     2
100
AcDbLine
 10
371.6155036104
 20
142.9621482734
 30
0.0
 11
371.6287848165
 21
142.8739839079
 31
0.0
  0
LINE
  5
446
330
1B
100
AcDbEntity
  8
0
  6
Continuous
 62
     7
100
AcDbLine
 10
371.5458048148999
 20
142.7283802817
 30
0.0
 11
371.4865918462
 21
143.1231144703
 31
0.0
  0
LINE
  5
447
330
1B
100
AcDbEntity
  8
0
  6
Continuous
 62
     2
100
AcDbLine
 10
371.6287848165
 20
142.8739839079
 30
0.0
 11
371.6416377577
 21
142.7837465501
 31
0.0
  0
LINE
  5
448
330
1B
100
AcDbEntity
  8
0
  6
Continuous
 62
     2
100
AcDbLine
 10
371.6416377577
 20
142.7837465501
 30
0.0
 11
371.6540016714
 21
142.6915067467
 31
0.0
  0
LINE
  5
449
330
1B
100
AcDbEntity
  8
DEFAULT_2
  6
HIDDEN
 62
     8
100
AcDbLine
 10
371.5436043178
 20
142.7449213344
 30
0.0
 11
371.5458048148999
 21
142.7283802817
 31
0.0
  0
LINE
  5
44A
330
1B
100
AcDbEntity
  8
0
  6
Continuous
 62
     2
100
AcDbLine
 10
371.6540016714
 20
142.6915067467
 30
0.0
 11
371.6658138922
 21
142.5974615221
 31
0.0
  0
LINE
  5
44B
330
1B
100
AcDbEntity
  8
0
  6
Continuous
 62
     2
100
AcDbLine
 10
371.6658138922
 20
142.5974615221
 30
0.0
 11
371.6770112794
 21
142.5018395202
 31
0.0
  0
LINE
  5
44C
330
1B
100
AcDbEntity
  8
0
  6
Continuous
 62
     7
100
AcDbLine
 10
371.5962411078
 20
142.2773809904
 30
0.0
 11
371.5458048148999
 21
142.7283802817
 31
0.0
  0
LINE
  5
44D
330
1B
100
AcDbEntity
  8
DEFAULT_2
  6
HIDDEN
 62
     8
100
AcDbLine
 10
377.494637053
 20
141.8554738753
 30
0.0
 11
377.5062874683
 21
141.7427451043
 31
0.0
  0
LINE
  5
44E
330
1B
100
AcDbEntity
  8
DEFAULT_2
  6
HIDDEN
 62
     8
100
AcDbLine
 10
377.5062874683
 20
141.7427451043
 30
0.0
 11
377.5154262964
 21
141.6295320749
 31
0.0
  0
LINE
  5
44F
330
1B
100
AcDbEntity
  8
DEFAULT_2
  6
HIDDEN
 62
     8
100
AcDbLine
 10
377.5154262964
 20
141.6295320749
 30
0.0
 11
377.5220091545
 21
141.5159564644
 31
0.0
  0
LINE
  5
450
330
1B
100
AcDbEntity
  8
DEFAULT_2
  6
HIDDEN
 62
     8
100
AcDbLine
 10
377.3040780095
 20
141.2784092573
 30
0.0
 11
377.2767891238
 21
141.81805292
 31
0.0
  0
LINE
  5
451
330
1B
100
AcDbEntity
  8
DEFAULT_2
  6
HIDDEN
 62
     8
100
AcDbLine
 10
377.5220091545
 20
141.5159564644
 30
0.0
 11
377.5259916596
 21
141.4021399501
 31
0.0
  0
LINE
  5
452
330
1B
100
AcDbEntity
  8
0
  6
Continuous
 62
     7
100
AcDbLine
 10
387.3817057987
 20
163.9817525996
 30
0.0
 11
387.3736543391999
 21
164.3381960242
 31
0.0
  0
LINE
  5
453
330
1B
100
AcDbEntity
  8
DEFAULT_2
  6
HIDDEN
 62
     8
100
AcDbLine
 10
377.5259916596
 20
141.4021399501
 30
0.0
 11
377.527329429
 21
141.2882042093
 31
0.0
  0
LINE
  5
454
330
1B
100
AcDbEntity
  8
DEFAULT_2
  6
HIDDEN
 62
     8
100
AcDbLine
 10
376.5826836466001
 20
144.761401105
 30
0.0
 11
376.5826836466001
 21
152.5881960242
 31
0.0
  0
LINE
  5
455
330
1B
100
AcDbEntity
  8
0
  6
Continuous
 62
     7
100
AcDbLine
 10
376.6826836466
 20
170.5881960242
 30
0.0
 11
376.6826836466
 21
161.5881960242
 31
0.0
  0
LINE
  5
456
330
1B
100
AcDbEntity
  8
DEFAULT_2
  6
HIDDEN
 62
     8
100
AcDbLine
 10
376.6826836466
 20
135.0881960242
 30
0.0
 11
376.6826836466
 21
138.6881960242
 31
0.0
  0
LINE
  5
457
330
1B
100
AcDbEntity
  8
DEFAULT_2
  6
HIDDEN
 62
     8
100
AcDbLine
 10
376.6826836466
 20
143.8881960242
 30
0.0
 11
376.6826836466
 21
144.5881960242
 31
0.0
  0
LINE
  5
458
330
1B
100
AcDbEntity
  8
DEFAULT_2
  6
HIDDEN
 62
     8
100
AcDbLine
 10
376.9326836466
 20
152.5881960242
 30
0.0
 11
376.9326836466
 21
154.5881960242
 31
0.0
  0
LINE
  5
459
330
1B
100
AcDbEntity
  8
0
  6
Continuous
 62
     7
100
AcDbLine
 10
376.9326836466
 20
160.0381960242
 30
0.0
 11
376.9326836466
 21
161.1551833223
 31
0.0
  0
LINE
  5
45A
330
1B
100
AcDbEntity
  8
DEFAULT_2
  6
HIDDEN
 62
     8
100
AcDbLine
 10
381.1826836466
 20
167.215212678
 30
0.0
 11
381.1826836466
 21
157.0419346683
 31
0.0
  0
LINE
  5
45B
330
1B
100
AcDbEntity
  8
DEFAULT_1
  6
CENTER
 62
     2
100
AcDbLine
 10
382.4326836466
 20
128.5881960242
 30
0.0
 11
382.4326836466
 21
177.0881960242
 31
0.0
  0
LINE
  5
45C
330
1B
100
AcDbEntity
  8
DEFAULT_2
  6
HIDDEN
 62
     8
100
AcDbLine
 10
383.6826836466
 20
167.215212678
 30
0.0
 11
383.6826836466
 21
157.0419346683
 31
0.0
  0
LINE
  5
45D
330
1B
100
AcDbEntity
  8
DEFAULT_2
  6
HIDDEN
 62
     8
100
AcDbLine
 10
385.9326836466
 20
167.3381960242
 30
0.0
 11
385.9326836466
 21
162.8381960242
 31
0.0
  0
LINE
  5
45E
330
1B
100
AcDbEntity
  8
0
  6
Continuous
 62
     7
100
AcDbLine
 10
387.3736543391999
 20
165.8381960242
 30
0.0
 11
387.3736543391999
 21
164.3381960242
 31
0.0
  0
LINE
  5
45F
330
1B
100
AcDbEntity
  8
0
  6
Continuous
 62
     7
100
AcDbLine
 10
387.8134124593
 20
161.1551833223
 30
0.0
 11
387.814378939
 21
161.2737243493
 31
0.0
  0
LINE
  5
460
330
1B
100
AcDbEntity
  8
DEFAULT_2
  6
HIDDEN
 62
     8
100
AcDbLine
 10
377.527329429
 20
141.2882042093
 30
0.0
 11
377.525992861
 21
141.1742706076
 31
0.0
  0
LINE
  5
461
330
1B
100
AcDbEntity
  8
0
  6
Continuous
 62
     7
100
AcDbLine
 10
387.814378939
 20
161.2737243493
 30
0.0
 11
387.8184646587
 21
161.418686112
 31
0.0
  0
LINE
  5
462
330
1B
100
AcDbEntity
  8
DEFAULT_2
  6
HIDDEN
 62
     8
100
AcDbLine
 10
377.525992861
 20
141.1742706076
 30
0.0
 11
377.522011479
 21
141.060459263
 31
0.0
  0
LINE
  5
463
330
1B
100
AcDbEntity
  8
0
  6
Continuous
 62
     7
100
AcDbLine
 10
387.3736543391999
 20
165.8381960242
 30
0.0
 11
387.3930785241
 21
166.3922313764
 31
0.0
  0
LINE
  5
464
330
1B
100
AcDbEntity
  8
DEFAULT_2
  6
HIDDEN
 62
     8
100
AcDbLine
 10
377.277054311
 20
140.7609258412
 30
0.0
 11
377.3040732209
 21
141.3002334089
 31
0.0
  0
LINE
  5
465
330
1B
100
AcDbEntity
  8
0
  6
Continuous
 62
     7
100
AcDbLine
 10
387.8184646587
 20
161.418686112
 30
0.0
 11
387.8272826044
 21
161.5881960242
 31
0.0
  0
LINE
  5
466
330
1B
100
AcDbEntity
  8
DEFAULT_2
  6
HIDDEN
 62
     8
100
AcDbLine
 10
377.522011479
 20
141.060459263
 30
0.0
 11
377.5154295876
 21
140.9468899818
 31
0.0
  0
LINE
  5
467
330
1B
100
AcDbEntity
  8
DEFAULT_2
  6
HIDDEN
 62
     8
100
AcDbLine
 10
387.3933174524
 20
166.3956368618
 30
0.0
 11
387.3930785241
 21
166.3922313764
 31
0.0
  0
LINE
  5
468
330
1B
100
AcDbEntity
  8
DEFAULT_2
  6
HIDDEN
 62
     8
100
AcDbLine
 10
377.5154295876
 20
140.9468899818
 30
0.0
 11
377.5062914911
 21
140.8336825704
 31
0.0
  0
LINE
  5
469
330
1B
100
AcDbEntity
  8
0
  6
Continuous
 62
     7
100
AcDbLine
 10
387.3930785241
 20
166.3922313764
 30
0.0
 11
387.4404241991001
 21
166.868472042
 31
0.0
  0
LINE
  5
46A
330
1B
100
AcDbEntity
  8
DEFAULT_2
  6
HIDDEN
 62
     8
100
AcDbLine
 10
377.5062914911
 20
140.8336825704
 30
0.0
 11
377.4946414943
 21
140.7209568351
 31
0.0
  0
LINE
  5
46B
330
1B
100
AcDbEntity
  8
DEFAULT_2
  6
HIDDEN
 62
     8
100
AcDbLine
 10
377.4946414943
 20
140.7209568351
 30
0.0
 11
377.4805283822
 21
140.6088184896
 31
0.0
  0
LINE
  5
46C
330
1B
100
AcDbEntity
  8
DEFAULT_2
  6
HIDDEN
 62
     8
100
AcDbLine
 10
387.4412281178
 20
166.8747082316
 30
0.0
 11
387.4404241991001
 21
166.868472042
 31
0.0
  0
LINE
  5
46D
330
1B
100
AcDbEntity
  8
DEFAULT_2
  6
HIDDEN
 62
     8
100
AcDbLine
 10
377.20379689
 20
140.2690018754999
 30
0.0
 11
377.2792371055
 21
140.7827148158
 31
0.0
  0
LINE
  5
46E
330
1B
100
AcDbEntity
  8
DEFAULT_2
  6
HIDDEN
 62
     8
100
AcDbLine
 10
377.4805283822
 20
140.6088184896
 30
0.0
 11
377.4640188616
 21
140.4973168773
 31
0.0
  0
LINE
  5
46F
330
1B
100
AcDbEntity
  8
0
  6
Continuous
 62
     7
100
AcDbLine
 10
387.4404241991001
 20
166.868472042
 30
0.0
 11
387.5033087837
 21
167.2795419275
 31
0.0
  0
LINE
  5
470
330
1B
100
AcDbEntity
  8
DEFAULT_2
  6
HIDDEN
 62
     8
100
AcDbLine
 10
377.4640188616
 20
140.4973168773
 30
0.0
 11
377.4451841201
 21
140.3864872489
 31
0.0
  0
LINE
  5
471
330
1B
100
AcDbEntity
  8
DEFAULT_2
  6
HIDDEN
 62
     8
100
AcDbLine
 10
387.504732372
 20
167.2875619695
 30
0.0
 11
387.5033087837
 21
167.2795419275
 31
0.0
  0
LINE
  5
472
330
1B
100
AcDbEntity
  8
DEFAULT_2
  6
HIDDEN
 62
     8
100
AcDbLine
 10
377.4451841201
 20
140.3864872489
 30
0.0
 11
377.4240953452
 21
140.2763648554
 31
0.0
  0
LINE
  5
473
330
1B
100
AcDbEntity
  8
0
  6
Continuous
 62
     7
100
AcDbLine
 10
387.5033087837
 20
167.2795419275
 30
0.0
 11
387.5753150174
 21
167.6438231589
 31
0.0
  0
LINE
  5
474
330
1B
100
AcDbEntity
  8
DEFAULT_2
  6
HIDDEN
 62
     8
100
AcDbLine
 10
377.4240953452
 20
140.2763648554
 30
0.0
 11
377.4008237242
 21
140.1669849475
 31
0.0
  0
LINE
  5
475
330
1B
100
AcDbEntity
  8
DEFAULT_2
  6
HIDDEN
 62
     8
100
AcDbLine
 10
387.5772452667
 20
167.6526606964
 30
0.0
 11
387.5753150174
 21
167.6438231589
 31
0.0
  0
LINE
  5
476
330
1B
100
AcDbEntity
  8
DEFAULT_2
  6
HIDDEN
 62
     8
100
AcDbLine
 10
377.0993259722
 20
139.8245689943
 30
0.0
 11
377.20781924
 21
140.2898433472
 31
0.0
  0
LINE
  5
477
330
1B
100
AcDbEntity
  8
DEFAULT_2
  6
HIDDEN
 62
     8
100
AcDbLine
 10
377.4008237242
 20
140.1669849475
 30
0.0
 11
377.3754692424
 21
140.0584425817
 31
0.0
  0
LINE
  5
478
330
1B
100
AcDbEntity
  8
0
  6
Continuous
 62
     7
100
AcDbLine
 10
387.5753150174
 20
167.6438231589
 30
0.0
 11
387.6533533166
 21
167.9749236451
 31
0.0
  0
LINE
  5
479
330
1B
100
AcDbEntity
  8
DEFAULT_2
  6
HIDDEN
 62
     8
100
AcDbLine
 10
377.3754692424
 20
140.0584425817
 30
0.0
 11
377.3482470762
 21
139.9510720379
 31
0.0
  0
LINE
  5
47A
330
1B
100
AcDbEntity
  8
DEFAULT_2
  6
HIDDEN
 62
     8
100
AcDbLine
 10
387.6555807565
 20
167.9837076186
 30
0.0
 11
387.6533533166
 21
167.9749236451
 31
0.0
  0
LINE
  5
47B
330
1B
100
AcDbEntity
  8
0
  6
Continuous
 62
     7
100
AcDbLine
 10
387.6533533166
 20
167.9749236451
 30
0.0
 11
387.7365932251
 21
168.2845760681
 31
0.0
  0
LINE
  5
47C
330
1B
100
AcDbEntity
  8
DEFAULT_2
  6
HIDDEN
 62
     8
100
AcDbLine
 10
377.3482470762
 20
139.9510720379
 30
0.0
 11
377.3194011998
 21
139.8452674017
 31
0.0
  0
LINE
  5
47D
330
1B
100
AcDbEntity
  8
DEFAULT_2
  6
HIDDEN
 62
     8
100
AcDbLine
 10
387.7388717433
 20
168.2925822709
 30
0.0
 11
387.7365932251
 21
168.2845760681
 31
0.0
  0
LINE
  5
47E
330
1B
100
AcDbEntity
  8
0
  6
Continuous
 62
     7
100
AcDbLine
 10
387.7365932251
 20
168.2845760681
 30
0.0
 11
387.8234494916
 21
168.5759230762
 31
0.0
  0
LINE
  5
47F
330
1B
100
AcDbEntity
  8
DEFAULT_2
  6
HIDDEN
 62
     8
100
AcDbLine
 10
387.825731703
 20
168.5832356328
 30
0.0
 11
387.8234494916
 21
168.5759230762
 31
0.0
  0
LINE
  5
480
330
1B
100
AcDbEntity
  8
0
  6
Continuous
 62
     7
100
AcDbLine
 10
387.9326836466
 20
160.8381960242
 30
0.0
 11
387.9011381784
 21
160.9199842394
 31
0.0
  0
LINE
  5
481
330
1B
100
AcDbEntity
  8
0
  6
Continuous
 62
     7
100
AcDbLine
 10
387.9011381784
 20
160.9199842394
 30
0.0
 11
387.8621383515
 21
161.0230583248
 31
0.0
  0
LINE
  5
482
330
1B
100
AcDbEntity
  8
0
  6
Continuous
 62
     7
100
AcDbLine
 10
387.8621383515
 20
161.0230583248
 30
0.0
 11
387.8134124593
 21
161.1551833223
 31
0.0
  0
LINE
  5
483
330
1B
100
AcDbEntity
  8
0
  6
Continuous
 62
     7
100
AcDbLine
 10
387.8272826044
 20
161.5881960242
 30
0.0
 11
387.78644997
 21
161.7213157447
 31
0.0
  0
LINE
  5
484
330
1B
100
AcDbEntity
  8
DEFAULT_2
  6
HIDDEN
 62
     8
100
AcDbLine
 10
387.7856420931
 20
161.7240050454999
 30
0.0
 11
387.7860624887
 21
161.7226339405
 31
0.0
  0
LINE
  5
485
330
1B
100
AcDbEntity
  8
0
  6
Continuous
 62
     7
100
AcDbLine
 10
387.78644997
 20
161.7213157447
 30
0.0
 11
387.7457143134
 21
161.859896796
 31
0.0
  0
LINE
  5
486
330
1B
100
AcDbEntity
  8
DEFAULT_2
  6
HIDDEN
 62
     8
100
AcDbLine
 10
387.7440764604
 20
161.8656030553
 30
0.0
 11
387.7457143134
 21
161.859896796
 31
0.0
  0
LINE
  5
487
330
1B
100
AcDbEntity
  8
0
  6
Continuous
 62
     7
100
AcDbLine
 10
387.7457143134
 20
161.859896796
 30
0.0
 11
387.7057310384
 21
162.0025230966
 31
0.0
  0
LINE
  5
488
330
1B
100
AcDbEntity
  8
DEFAULT_2
  6
HIDDEN
 62
     8
100
AcDbLine
 10
387.703286676
 20
162.0114815017
 30
0.0
 11
387.7057310384
 21
162.0025230966
 31
0.0
  0
LINE
  5
489
330
1B
100
AcDbEntity
  8
0
  6
Continuous
 62
     7
100
AcDbLine
 10
387.7057310384
 20
162.0025230966
 30
0.0
 11
387.6668736017
 21
162.1486232003
 31
0.0
  0
LINE
  5
48A
330
1B
100
AcDbEntity
  8
DEFAULT_2
  6
HIDDEN
 62
     8
100
AcDbLine
 10
387.6637673812
 20
162.1606655105
 30
0.0
 11
387.6668736017
 21
162.1486232003
 31
0.0
  0
LINE
  5
48B
330
1B
100
AcDbEntity
  8
0
  6
Continuous
 62
     7
100
AcDbLine
 10
387.6668736017
 20
162.1486232003
 30
0.0
 11
387.6287113066
 21
162.3008457237
 31
0.0
  0
LINE
  5
48C
330
1B
100
AcDbEntity
  8
DEFAULT_2
  6
HIDDEN
 62
     8
100
AcDbLine
 10
387.6252940814
 20
162.3149648174
 30
0.0
 11
387.6637673812
 21
162.1606655105
 31
0.0
  0
LINE
  5
48D
330
1B
100
AcDbEntity
  8
0
  6
Continuous
 62
     7
100
AcDbLine
 10
387.6287113066
 20
162.3008457237
 30
0.0
 11
387.5901801992
 21
162.4654827068
 31
0.0
  0
LINE
  5
48E
330
1B
100
AcDbEntity
  8
DEFAULT_2
  6
HIDDEN
 62
     8
100
AcDbLine
 10
387.5868094219
 20
162.4805033927
 30
0.0
 11
387.5901801992
 21
162.4654827068
 31
0.0
  0
LINE
  5
48F
330
1B
100
AcDbEntity
  8
0
  6
Continuous
 62
     7
100
AcDbLine
 10
387.5901801992
 20
162.4654827068
 30
0.0
 11
387.5506381499
 21
162.6492322643
 31
0.0
  0
LINE
  5
490
330
1B
100
AcDbEntity
  8
DEFAULT_2
  6
HIDDEN
 62
     8
100
AcDbLine
 10
387.5476060430001
 20
162.6640775528
 30
0.0
 11
387.5506381499
 21
162.6492322643
 31
0.0
  0
LINE
  5
491
330
1B
100
AcDbEntity
  8
0
  6
Continuous
 62
     7
100
AcDbLine
 10
387.5506381499
 20
162.6492322643
 30
0.0
 11
387.5102692786
 21
162.8580240163
 31
0.0
  0
LINE
  5
492
330
1B
100
AcDbEntity
  8
DEFAULT_2
  6
HIDDEN
 62
     8
100
AcDbLine
 10
377.42409081
 20
142.3000524623
 30
0.0
 11
377.4451797701
 21
142.1899342726
 31
0.0
  0
LINE
  5
493
330
1B
100
AcDbEntity
  8
DEFAULT_2
  6
HIDDEN
 62
     8
100
AcDbLine
 10
387.5077411506
 20
162.8720148206
 30
0.0
 11
387.5102692786
 21
162.8580240163
 31
0.0
  0
LINE
  5
494
330
1B
100
AcDbEntity
  8
DEFAULT_2
  6
HIDDEN
 62
     8
100
AcDbLine
 10
377.4451797701
 20
142.1899342726
 30
0.0
 11
377.4640144463
 21
142.079109387
 31
0.0
  0
LINE
  5
495
330
1B
100
AcDbEntity
  8
0
  6
Continuous
 62
     7
100
AcDbLine
 10
387.5102692786
 20
162.8580240163
 30
0.0
 11
387.4706486282
 21
163.0940809229999
 31
0.0
  0
LINE
  5
496
330
1B
100
AcDbEntity
  8
DEFAULT_2
  6
HIDDEN
 62
     8
100
AcDbLine
 10
387.4687111930001
 20
163.1067185742
 30
0.0
 11
387.4706486282
 21
163.0940809229999
 31
0.0
  0
LINE
  5
497
330
1B
100
AcDbEntity
  8
DEFAULT_2
  6
HIDDEN
 62
     8
100
AcDbLine
 10
377.4640144463
 20
142.079109387
 30
0.0
 11
377.4805238651
 21
141.9676113923
 31
0.0
  0
LINE
  5
498
330
1B
100
AcDbEntity
  8
DEFAULT_2
  6
HIDDEN
 62
     8
100
AcDbLine
 10
377.2790522426
 20
141.7955584671
 30
0.0
 11
377.2032967587001
 21
142.3099529537
 31
0.0
  0
LINE
  5
499
330
1B
100
AcDbEntity
  8
0
  6
Continuous
 62
     7
100
AcDbLine
 10
387.4706486282
 20
163.0940809229999
 30
0.0
 11
387.4340280111
 21
163.3589037052
 31
0.0
  0
LINE
  5
49A
330
1B
100
AcDbEntity
  8
DEFAULT_2
  6
HIDDEN
 62
     8
100
AcDbLine
 10
377.4805238651
 20
141.9676113923
 30
0.0
 11
377.494637053
 21
141.8554738753
 31
0.0
  0
LINE
  5
49B
330
1B
100
AcDbEntity
  8
0
  6
Continuous
 62
     7
100
AcDbLine
 10
387.4340280111
 20
163.3589037052
 30
0.0
 11
387.4031715576001
 21
163.6547865547
 31
0.0
  0
LINE
  5
49C
330
1B
100
AcDbEntity
  8
DEFAULT_2
  6
HIDDEN
 62
     8
100
AcDbLine
 10
387.4025023359
 20
163.6626067613
 30
0.0
 11
387.4031715576001
 21
163.6547865547
 31
0.0
  0
LINE
  5
49D
330
1B
100
AcDbEntity
  8
0
  6
Continuous
 62
     7
100
AcDbLine
 10
387.4031715576001
 20
163.6547865547
 30
0.0
 11
387.3817057987
 21
163.9817525996
 31
0.0
  0
LINE
  5
49E
330
1B
100
AcDbEntity
  8
DEFAULT_2
  6
HIDDEN
 62
     8
100
AcDbLine
 10
387.3815129559
 20
163.9860514119
 30
0.0
 11
387.3817057987
 21
163.9817525996
 31
0.0
  0
LINE
  5
49F
330
1B
100
AcDbEntity
  8
DEFAULT_2
  6
HIDDEN
 62
     8
100
AcDbLine
 10
387.9326836466
 20
152.5881960242
 30
0.0
 11
387.9326836466
 21
154.5881960242
 31
0.0
  0
LINE
  5
4A0
330
1B
100
AcDbEntity
  8
0
  6
Continuous
 62
     7
100
AcDbLine
 10
387.9326836466
 20
160.0381960242
 30
0.0
 11
387.9326836466
 21
160.8381960242
 31
0.0
  0
LINE
  5
4A1
330
1B
100
AcDbEntity
  8
0
  6
Continuous
 62
     7
100
AcDbLine
 10
388.1826836466
 20
170.5881960242
 30
0.0
 11
388.1826836466
 21
169.5881960242
 31
0.0
  0
LINE
  5
4A2
330
1B
100
AcDbEntity
  8
DEFAULT_2
  6
HIDDEN
 62
     8
100
AcDbLine
 10
388.1826836466
 20
135.0881960242
 30
0.0
 11
388.1826836466
 21
144.5881960242
 31
0.0
  0
LINE
  5
4A3
330
1B
100
AcDbEntity
  8
DEFAULT_2
  6
HIDDEN
 62
     8
100
AcDbLine
 10
388.2826836466001
 20
144.761401105
 30
0.0
 11
388.2826836466001
 21
152.5881960242
 31
0.0
  0
LINE
  5
4A4
330
1B
100
AcDbEntity
  8
0
  6
Continuous
 62
     7
100
AcDbLine
 10
393.5326836466001
 20
159.0881960242
 30
0.0
 11
393.5326836466001
 21
154.5881960242
 31
0.0
  0
LINE
  5
4A5
330
1B
100
AcDbEntity
  8
0
  6
Continuous
 62
     7
100
AcDbLine
 10
393.5326836466001
 20
146.5881960242
 30
0.0
 11
393.5326836466001
 21
135.0881960242
 31
0.0
  0
LINE
  5
4A6
330
1B
100
AcDbEntity
  8
0
  6
Continuous
 62
     7
100
AcDbLine
 10
393.6826836466
 20
154.4381960242
 30
0.0
 11
393.6826836466
 21
146.7381960242
 31
0.0
  0
LINE
  5
4A7
330
1B
100
AcDbEntity
  8
DEFAULT_2
  6
HIDDEN
 62
     8
100
AcDbLine
 10
387.4327360992
 20
163.3695168994
 30
0.0
 11
387.4340280111
 21
163.3589037052
 31
0.0
  0
LINE
  5
4A8
330
1B
100
AcDbEntity
  8
0
  6
Continuous
 62
     7
100
AcDbLine
 10
432.5
 20
-3.0625
 30
0.0
 11
432.5
 21
283.9375
 31
0.0
  0
ARC
  5
4A9
330
1B
100
AcDbEntity
  8
DEFAULT_2
  6
HIDDEN
 62
     8
100
AcDbCircle
 10
389.4326836466
 20
165.8884485559
 30
0.0
 40
3.5
100
AcDbArc
 50
114.3295974387
 51
236.2898676787
  0
ARC
  5
4AB
330
1B
100
AcDbEntity
  8
DEFAULT_2
  6
HIDDEN
 62
     8
100
AcDbCircle
 10
376.1826836466
 20
135.0881960242
 30
0.0
 40
0.5
100
AcDbArc
 50
270.0
 51
360.0
  0
ARC
  5
4AC
330
1B
100
AcDbEntity
  8
DEFAULT_2
  6
HIDDEN
 62
     8
100
AcDbCircle
 10
388.6826836466
 20
135.0881960242
 30
0.0
 40
0.5
100
AcDbArc
 50
180.0
 51
270.0
  0
ARC
  5
4AD
330
1B
100
AcDbEntity
  8
DEFAULT_2
  6
HIDDEN
 62
     8
100
AcDbCircle
 10
373.1826836466
 20
167.215212678
 30
0.0
 40
8.0
100
AcDbArc
 50
0.0
 51
28.95502437190001
  0
ARC
  5
4AE
330
1B
100
AcDbEntity
  8
DEFAULT_2
  6
HIDDEN
 62
     8
100
AcDbCircle
 10
376.3326836466001
 20
160.0381960242
 30
0.0
 40
0.6
100
AcDbArc
 50
270.0
 51
310.801778844
  0
ARC
  5
4AF
330
1B
100
AcDbEntity
  8
DEFAULT_2
  6
HIDDEN
 62
     8
100
AcDbCircle
 10
388.5326836466001
 20
160.0381960242
 30
0.0
 40
0.6
100
AcDbArc
 50
229.198221156
 51
270.0
  0
ARC
  5
4B5
330
1B
100
AcDbEntity
  8
0
  6
Continuous
 62
     7
100
AcDbCircle
 10
387.6826836466
 20
170.5881960242
 30
0.0
 40
0.5
100
AcDbArc
 50
0.0
 51
90.0
  0
ARC
  5
4B6
330
1B
100
AcDbEntity
  8
0
  6
Continuous
 62
     7
100
AcDbCircle
 10
377.1826836466
 20
170.5881960242
 30
0.0
 40
0.5
100
AcDbArc
 50
90.0
 51
180.0
  0
ARC
  5
4B7
330
1B
100
AcDbEntity
  8
0
  6
Continuous
 62
     7
100
AcDbCircle
 10
393.0326836466
 20
159.0881960242
 30
0.0
 40
0.5
100
AcDbArc
 50
0.0
 51
90.0
  0
ARC
  5
4B8
330
1B
100
AcDbEntity
  8
0
  6
Continuous
 62
     7
100
AcDbCircle
 10
371.8326836466001
 20
159.0881960242
 30
0.0
 40
0.5
100
AcDbArc
 50
90.0
 51
180.0
  0
ARC
  5
4B9
330
1B
100
AcDbEntity
  8
0
  6
Continuous
 62
     7
100
AcDbCircle
 10
393.0326836466
 20
135.0881960242
 30
0.0
 40
0.5
100
AcDbArc
 50
270.0
 51
360.0
  0
ARC
  5
4BA
330
1B
100
AcDbEntity
  8
0
  6
Continuous
 62
     7
100
AcDbCircle
 10
371.8326836466001
 20
135.0881960242
 30
0.0
 40
0.5
100
AcDbArc
 50
180.0
 51
270.0
  0
ARC
  5
4BB
330
1B
100
AcDbEntity
  8
0
  6
Continuous
 62
     7
100
AcDbCircle
 10
376.3326836466001
 20
160.0381960242
 30
0.0
 40
0.6
100
AcDbArc
 50
310.801778844
 51
360.0
  0
ARC
  5
4BC
330
1B
100
AcDbEntity
  8
0
  6
Continuous
 62
     7
100
AcDbCircle
 10
388.5326836466001
 20
160.0381960242
 30
0.0
 40
0.6
100
AcDbArc
 50
180.0
 51
229.198221156
  0
ENDSEC
  0
SECTION
  2
OBJECTS
  0
DICTIONARY
  5
4C5
330
0
100
AcDbDictionary
281
     1
  3
ACAD_COLOR
350
4CF
  3
ACAD_GROUP
350
4C6
  3
ACAD_LAYOUT
350
4D2
  3
ACAD_MATERIAL
350
4CE
  3
ACAD_MLINESTYLE
350
4C7
  3
ACAD_PLOTSETTINGS
350
4D3
  3
ACAD_PLOTSTYLENAME
350
4CC
  3
ACAD_TABLESTYLE
350
4D0
  3
AcDbVariableDictionary
350
4D7
  0
DICTIONARY
  5
4CF
102
{ACAD_REACTORS
330
4C5
102
}
330
4C5
100
AcDbDictionary
281
     1
  0
DICTIONARY
  5
4C6
102
{ACAD_REACTORS
330
4C5
102
}
330
4C5
100
AcDbDictionary
281
     1
  0
DICTIONARY
  5
4D2
102
{ACAD_REACTORS
330
4C5
102
}
330
4C5
100
AcDbDictionary
281
     1
  3
Layout1
350
4D5
  3
Model
350
4D4
  0
DICTIONARY
  5
4CE
102
{ACAD_REACTORS
330
4C5
102
}
330
4C5
100
AcDbDictionary
281
     1
  0
DICTIONARY
  5
4C7
102
{ACAD_REACTORS
330
4C5
102
}
330
4C5
100
AcDbDictionary
281
     1
  3
STANDARD
350
4C8
  0
DICTIONARY
  5
4D3
102
{ACAD_REACTORS
330
4C5
102
}
330
4C5
100
AcDbDictionary
281
     1
  0
ACDBDICTIONARYWDFLT
  5
4CC
102
{ACAD_REACTORS
330
4C5
102
}
330
4C5
100
AcDbDictionary
281
     1
  3
Normal
350
4CD
100
AcDbDictionaryWithDefault
340
4CD
  0
DICTIONARY
  5
4D0
102
{ACAD_REACTORS
330
4C5
102
}
330
4C5
100
AcDbDictionary
281
     1
  3
Standard
350
4D1
  0
DICTIONARY
  5
4D7
102
{ACAD_REACTORS
330
4C5
102
}
330
4C5
100
AcDbDictionary
281
     1
  3
CTABLESTYLE
350
4D8
  0
LAYOUT
  5
4D5
102
{ACAD_REACTORS
330
4D2
102
}
330
4D2
100
AcDbPlotSettings
  1

  2
\\08XMETODO8\HP LaserJet 1200 Series PCL
  4

  6

 40
0.0
 41
0.0
 42
0.0
 43
0.0
 44
0.0
 45
0.0
 46
0.0
 47
0.0
 48
0.0
 49
0.0
140
0.0
141
0.0
142
1.0
143
1.0
 70
   688
 72
     0
 73
     0
 74
     5
  7

 75
    16
147
1.0
 76
     0
 77
     2
 78
   300
148
0.0
149
0.0
100
AcDbLayout
  1
Layout1
 70
     1
 71
     1
 10
0.0
 20
0.0
 11
12.0
 21
9.0
 12
0.0
 22
0.0
 32
0.0
 14
1.000000000000000E+20
 24
1.000000000000000E+20
 34
1.000000000000000E+20
 15
-1.000000000000000E+20
 25
-1.000000000000000E+20
 35
-1.000000000000000E+20
146
0.0
 13
0.0
 23
0.0
 33
0.0
 16
1.0
 26
0.0
 36
0.0
 17
0.0
 27
1.0
 37
0.0
 76
     0
330
1C
  0
LAYOUT
  5
4D4
102
{ACAD_REACTORS
330
4D2
102
}
330
4D2
100
AcDbPlotSettings
  1

  2
\\08XMETODO8\HP LaserJet 1200 Series PCL
  4

  6

 40
0.0
 41
0.0
 42
0.0
 43
0.0
 44
0.0
 45
0.0
 46
0.0
 47
0.0
 48
0.0
 49
0.0
140
0.0
141
0.0
142
1.0
143
1.0
 70
  1712
 72
     0
 73
     0
 74
     0
  7

 75
     0
147
1.0
 76
     0
 77
     2
 78
   300
148
0.0
149
0.0
100
AcDbLayout
  1
Model
 70
     1
 71
     0
 10
0.0
 20
0.0
 11
12.0
 21
9.0
 12
0.0
 22
0.0
 32
0.0
 14
0.0
 24
0.0
 34
0.0
 15
0.0
 25
0.0
 35
0.0
146
0.0
 13
0.0
 23
0.0
 33
0.0
 16
1.0
 26
0.0
 36
0.0
 17
0.0
 27
1.0
 37
0.0
 76
     0
330
1B
  0
MLINESTYLE
  5
4C8
102
{ACAD_REACTORS
330
4C7
102
}
330
4C7
100
AcDbMlineStyle
  2
STANDARD
 70
     0
  3

 62
   256
 51
90.0
 52
90.0
 71
     2
 49
0.5
 62
   256
  6
BYLAYER
 49
-0.5
 62
   256
  6
BYLAYER
  0
ACDBPLACEHOLDER
  5
4CD
102
{ACAD_REACTORS
330
4CC
102
}
330
4CC
  0
TABLESTYLE
  5
4D1
102
{ACAD_REACTORS
330
4D0
102
}
330
4D0
100
AcDbTableStyle
  3
Standard
 70
     0
 71
     0
 40
0.06
 41
0.06
280
     0
281
     0
  7
STANDARD
140
0.18
170
     2
 62
     0
 63
     7
283
     0
274
    -2
284
     1
 64
     0
275
    -2
285
     1
 65
     0
276
    -2
286
     1
 66
     0
277
    -2
287
     1
 67
     0
278
    -2
288
     1
 68
     0
279
    -2
289
     1
 69
     0
  7
STANDARD
140
0.25
170
     5
 62
     0
 63
     7
283
     0
274
    -2
284
     1
 64
     0
275
    -2
285
     1
 65
     0
276
    -2
286
     1
 66
     0
277
    -2
287
     1
 67
     0
278
    -2
288
     1
 68
     0
279
    -2
289
     1
 69
     0
  7
STANDARD
140
0.18
170
     5
 62
     0
 63
     7
283
     0
274
    -2
284
     1
 64
     0
275
    -2
285
     1
 65
     0
276
    -2
286
     1
 66
     0
277
    -2
287
     1
 67
     0
278
    -2
288
     1
 68
     0
279
    -2
289
     1
 69
     0
  0
DICTIONARYVAR
  5
4D8
102
{ACAD_REACTORS
330
4D7
102
}
330
4D7
100
DictionaryVariables
280
     0
  1
STANDARD
  0
ENDSEC
  0
EOF
