999
DXF file: 42147-er16.dxf
999
Pro/ENGINEER 2009300 by Parametric Technology Corporation
  0
SECTION
  2
HEADER
  9
$ACADVER
  1
AC1018
  9
$DWGCODEPAGE
  3
ANSI_1252
  9
$EXTMAX
 10
420.0
 20
297.0
 30
0.0
  9
$EXTMIN
 10
0.0
 20
0.0
 30
0.0
  9
$LIMMIN
 10
0.0
 20
0.0
  9
$LIMMAX
 10
420.0
 20
297.0
  9
$VIEWCTR
 10
210.0
 20
148.5
  9
$VIEWSIZE
 40
297.0
  9
$CLAYER
  8
0
  9
$LTSCALE
 40
23.1
  9
$CELTYPE
  6
BYLAYER
  9
$DIMSCALE
 40
1.0
  9
$DIMASZ
 40
4.76
  9
$DIMEXO
 40
2.625
  9
$DIMDLI
 40
15.96
  9
$DIMEXE
 40
7.56
  9
$DIMCEN
 40
3.78
  9
$DIMLFAC
 40
1.0
  9
$DIMBLK
  1
_FILLED
  9
$DIMTXT
 40
1.5
  9
$DIMTOL
 70
1
  9
$DIMLIM
 70
0
  9
$DIMTFAC
 40
1.0
  9
$DIMTP
 40
0.001
  9
$DIMTM
 40
0.001
  9
$PDMODE
 70
3
  9
$PDSIZE
 40
0.3125
  9
$HANDSEED
  5
344
  9
$TILEMODE
 70
1
  9
$MEASUREMENT
 70
1
  9
$INSUNITS
 70
4
  0
ENDSEC
  0
SECTION
  2
CLASSES
  0
CLASS
  1
ACDBDICTIONARYWDFLT
  2
AcDbDictionaryWithDefault
  3
AutoCAD 2000
 90
0
 91
1
280
0
281
0
  0
CLASS
  1
ACDBPLACEHOLDER
  2
AcDbPlaceHolder
  3
AutoCAD 2000
 90
0
 91
1
280
0
281
0
  0
CLASS
  1
LAYOUT
  2
AcDbLayout
  3
AutoCAD 2000
 90
0
 91
0
280
0
281
0
  0
ENDSEC
  0
SECTION
  2
TABLES
  0
TABLE
  2
VPORT
  5
8
100
AcDbSymbolTable
 70
2
  0
VPORT
  5
1F4
100
AcDbSymbolTableRecord
100
AcDbViewportTableRecord
  2
*ACTIVE
 70
0
 10
0.0
 20
0.0
 11
1.0
 21
1.0
 12
210.0
 22
148.5
 13
0.0
 23
0.0
 14
1.0
 24
1.0
 15
0.0
 25
0.0
 16
0.0
 26
0.0
 36
1.0
 17
0.0
 27
0.0
 37
0.0
 40
297.0
 41
1.4141414141
 42
50.0
 43
0.0
 44
0.0
 50
0.0
 51
0.0
 71
0
 72
100
 73
1
 74
1
 75
0
 76
0
 77
0
 78
0
  0
ENDTAB
  0
TABLE
  2
LTYPE
  5
5
100
AcDbSymbolTable
 70
6
  0
LTYPE
  5
14
100
AcDbSymbolTableRecord
100
AcDbLinetypeTableRecord
  2
BYBLOCK
 70
0
  3

 72
65
 73
0
 40
0.0
  0
LTYPE
  5
15
100
AcDbSymbolTableRecord
100
AcDbLinetypeTableRecord
  2
BYLAYER
 70
0
  3

 72
65
 73
0
 40
0.0
  0
LTYPE
  5
16
100
AcDbSymbolTableRecord
100
AcDbLinetypeTableRecord
  2
CONTINUOUS
 70
64
  3
Solid line
 72
65
 73
0
 40
0.0
  0
LTYPE
  5
1F5
100
AcDbSymbolTableRecord
100
AcDbLinetypeTableRecord
  2
CENTER
 70
64
  3
____ _ ____ _ ____ _ ____ _ ____ _ ____ _ ____
 72
65
 73
4
 40
0.6
 49
0.375
 74
0
 49
-0.075
 74
0
 49
0.075
 74
0
 49
-0.075
 74
0
  0
LTYPE
  5
1F6
100
AcDbSymbolTableRecord
100
AcDbLinetypeTableRecord
  2
HIDDEN
 70
64
  3
- - - - - - - - - - - - - - - - - - - -
 72
65
 73
2
 40
0.2
 49
0.1
 74
0
 49
-0.1
 74
0
  0
LTYPE
  5
1F7
100
AcDbSymbolTableRecord
100
AcDbLinetypeTableRecord
  2
PHANTOM
 70
64
  3
_____ _ _ _____ _ _ _____ _ _ _____
 72
65
 73
6
 40
0.8
 49
0.45
 74
0
 49
-0.05
 74
0
 49
0.1
 74
0
 49
-0.05
 74
0
 49
0.1
 74
0
 49
-0.05
 74
0
  0
LTYPE
  5
1F8
100
AcDbSymbolTableRecord
100
AcDbLinetypeTableRecord
  2
DOT
 70
64
  3
. . . . . . . . . . . . . . . . . . . .
 72
65
 73
2
 40
0.2
 49
0.1
 74
0
 49
-0.1
 74
0
  0
LTYPE
  5
1F9
100
AcDbSymbolTableRecord
100
AcDbLinetypeTableRecord
  2
DASHED
 70
64
  3
- - - - - - - - - - - - - - - - - - - -
 72
65
 73
2
 40
0.2
 49
0.1
 74
0
 49
-0.1
 74
0
  0
ENDTAB
  0
TABLE
  2
LAYER
  5
2
100
AcDbSymbolTable
 70
36
  0
LAYER
  5
10
100
AcDbSymbolTableRecord
100
AcDbLayerTableRecord
  2
0
 70
0
 62
7
  6
CONTINUOUS
370
-3
390
F
  0
LAYER
  5
1FA
100
AcDbSymbolTableRecord
100
AcDbLayerTableRecord
  2
DEFAULT_1
 70
0
 62
7
  6
CENTER
370
-3
390
F
  0
LAYER
  5
1FB
100
AcDbSymbolTableRecord
100
AcDbLayerTableRecord
  2
DEFAULT_2
 70
0
 62
8
  6
HIDDEN
370
-3
390
F
  0
LAYER
  5
1FC
100
AcDbSymbolTableRecord
100
AcDbLayerTableRecord
  2
DEFAULT_3
 70
0
 62
7
  6
PHANTOM
370
-3
390
F
  0
LAYER
  5
1FD
100
AcDbSymbolTableRecord
100
AcDbLayerTableRecord
  2
0_COMPONENTS
 70
0
 62
7
  6
CONTINUOUS
370
-3
390
F
  0
LAYER
  5
1FE
100
AcDbSymbolTableRecord
100
AcDbLayerTableRecord
  2
1_ALL_PLANES
 70
0
 62
7
  6
CONTINUOUS
370
-3
390
F
  0
LAYER
  5
1FF
100
AcDbSymbolTableRecord
100
AcDbLayerTableRecord
  2
1__DEF_ASM_PLN
 70
0
 62
7
  6
CONTINUOUS
370
-3
390
F
  0
LAYER
  5
200
100
AcDbSymbolTableRecord
100
AcDbLayerTableRecord
  2
1__DEF_PLANES
 70
0
 62
7
  6
CONTINUOUS
370
-3
390
F
  0
LAYER
  5
201
100
AcDbSymbolTableRecord
100
AcDbLayerTableRecord
  2
2_ALL_CSYS
 70
0
 62
7
  6
CONTINUOUS
370
-3
390
F
  0
LAYER
  5
202
100
AcDbSymbolTableRecord
100
AcDbLayerTableRecord
  2
2__DEF_ASM_CSYS
 70
0
 62
7
  6
CONTINUOUS
370
-3
390
F
  0
LAYER
  5
203
100
AcDbSymbolTableRecord
100
AcDbLayerTableRecord
  2
2__DEF_CSYS
 70
0
 62
7
  6
CONTINUOUS
370
-3
390
F
  0
LAYER
  5
204
100
AcDbSymbolTableRecord
100
AcDbLayerTableRecord
  2
3_ALL_AXES
 70
0
 62
7
  6
CONTINUOUS
370
-3
390
F
  0
LAYER
  5
205
100
AcDbSymbolTableRecord
100
AcDbLayerTableRecord
  2
4_ALL_POINTS
 70
0
 62
7
  6
CONTINUOUS
370
-3
390
F
  0
LAYER
  5
206
100
AcDbSymbolTableRecord
100
AcDbLayerTableRecord
  2
5_ALL_CURVES
 70
0
 62
7
  6
CONTINUOUS
370
-3
390
F
  0
LAYER
  5
207
100
AcDbSymbolTableRecord
100
AcDbLayerTableRecord
  2
6_ALL_SURFS
 70
0
 62
7
  6
CONTINUOUS
370
-3
390
F
  0
LAYER
  5
208
100
AcDbSymbolTableRecord
100
AcDbLayerTableRecord
  2
CURVE
 70
0
 62
7
  6
CONTINUOUS
370
-3
390
F
  0
LAYER
  5
209
100
AcDbSymbolTableRecord
100
AcDbLayerTableRecord
  2
GIANNI_ASSI
 70
0
 62
7
  6
CONTINUOUS
370
-3
390
F
  0
LAYER
  5
20A
100
AcDbSymbolTableRecord
100
AcDbLayerTableRecord
  2
GIANNI_CURVE
 70
0
 62
7
  6
CONTINUOUS
370
-3
390
F
  0
LAYER
  5
20B
100
AcDbSymbolTableRecord
100
AcDbLayerTableRecord
  2
PIANI
 70
0
 62
7
  6
CONTINUOUS
370
-3
390
F
  0
LAYER
  5
20C
100
AcDbSymbolTableRecord
100
AcDbLayerTableRecord
  2
SKETCH_ASSI
 70
0
 62
7
  6
CONTINUOUS
370
-3
390
F
  0
LAYER
  5
20D
100
AcDbSymbolTableRecord
100
AcDbLayerTableRecord
  2
XSEC_DATUMS
 70
0
 62
7
  6
CONTINUOUS
370
-3
390
F
  0
ENDTAB
  0
TABLE
  2
STYLE
  5
3
100
AcDbSymbolTable
 70
1
  0
STYLE
  5
11
100
AcDbSymbolTableRecord
100
AcDbTextStyleTableRecord
  2
STANDARD
 70
0
 40
0.0
 41
1.2
 50
0.0
 71
0
 42
0.2
  3
txt
  4

  0
STYLE
  5
20E
100
AcDbSymbolTableRecord
100
AcDbTextStyleTableRecord
  2
TEXTSTYLE_1
 70
0
 40
0.0
 41
0.8
 50
0.0
 71
0
 42
0.2
  3
gdt
  4

  0
STYLE
  5
20F
100
AcDbSymbolTableRecord
100
AcDbTextStyleTableRecord
  2
TEXTSTYLE_2
 70
0
 40
0.0
 41
1.2
 50
0.0
 71
0
 42
0.2
  3
gdt
  4

  0
ENDTAB
  0
TABLE
  2
VIEW
  5
6
100
AcDbSymbolTable
 70
0
  0
ENDTAB
  0
TABLE
  2
UCS
  5
7
100
AcDbSymbolTable
 70
0
  0
ENDTAB
  0
TABLE
  2
APPID
  5
9
100
AcDbSymbolTable
 70
1
  0
APPID
  5
210
100
AcDbSymbolTableRecord
100
AcDbRegAppTableRecord
  2
ACAD
 70
0
  0
ENDTAB
  0
TABLE
  2
BLOCK_RECORD
  5
1
100
AcDbSymbolTable
 70
0
  0
BLOCK_RECORD
  5
211
100
AcDbSymbolTableRecord
100
AcDbBlockTableRecord
  2
*Model_Space
  0
BLOCK_RECORD
  5
212
100
AcDbSymbolTableRecord
100
AcDbBlockTableRecord
  2
*Paper_Space
  0
BLOCK_RECORD
  5
213
100
AcDbSymbolTableRecord
100
AcDbBlockTableRecord
  2
_FILLED
  0
BLOCK_RECORD
  5
214
100
AcDbSymbolTableRecord
100
AcDbBlockTableRecord
  2
*D0
  0
BLOCK_RECORD
  5
215
100
AcDbSymbolTableRecord
100
AcDbBlockTableRecord
  2
*D1
  0
BLOCK_RECORD
  5
216
100
AcDbSymbolTableRecord
100
AcDbBlockTableRecord
  2
*D2
  0
ENDTAB
  0
TABLE
  2
DIMSTYLE
  5
A
100
AcDbSymbolTable
 70
1
100
AcDbDimStyleTable
 71
0
  0
DIMSTYLE
105
217
100
AcDbSymbolTableRecord
100
AcDbDimStyleTableRecord
  2
STANDARD
 70
0
  3

  4

 40
1.0
 41
4.76
 42
0.0625
 43
0.38
 44
0.18
 45
0.0
 46
0.0
 47
0.001
 48
0.001
140
1.5
141
0.09
142
0.0
143
25.4
144
1.0
145
0.0
146
1.0
147
0.09
 71
1.0
 72
0.0
 73
0
 74
0
 75
0
 76
0
 77
1
 78
8
170
0
171
2
172
0
173
0
174
0
175
0
176
0
177
0
178
5
270
2
271
3
272
3
273
2
274
2
275
0
280
0
281
0
282
0
283
1
284
8
285
0
286
0
287
3
288
0
340
11
341
213
342
213
343
213
344
213
  0
DIMSTYLE
105
218
100
AcDbSymbolTableRecord
100
AcDbDimStyleTableRecord
  2
DIMSTYLE_1
 70
0
  3

  4

 40
1.0
 41
4.76
 42
0.0625
 43
0.38
 44
0.18
 45
0.0
 46
0.0
 47
0.01
 48
0.01
140
1.5
141
0.09
142
0.0
143
25.4
144
1.0
145
0.0
146
1.0
147
0.09
 71
0.0
 72
0.0
 73
0
 74
0
 75
0
 76
0
 77
1
 78
8
170
0
171
2
172
0
173
0
174
0
175
0
176
0
177
0
178
5
270
2
271
3
272
3
273
2
274
2
275
0
280
0
281
0
282
0
283
1
284
8
285
0
286
0
287
3
288
0
340
11
341
213
342
213
343
213
344
213
  0
ENDTAB
  0
ENDSEC
  0
SECTION
  2
BLOCKS
  0
BLOCK
  5
20
100
AcDbEntity
  8
0
100
AcDbBlockBegin
  2
*Model_Space
 70
0
 10
0.0
 20
0.0
 30
0.0
  3
*Model_Space
  1

  0
ENDBLK
  5
21
100
AcDbEntity
  8
0
100
AcDbBlockEnd
  0
BLOCK
  5
1C
100
AcDbEntity
  8
0
100
AcDbBlockBegin
  2
*Paper_Space
 70
0
 10
0.0
 20
0.0
 30
0.0
  3
*Paper_Space
  1

  0
ENDBLK
  5
1D
100
AcDbEntity
  8
0
100
AcDbBlockEnd
  0
BLOCK
  5
219
100
AcDbEntity
  8
0
100
AcDbBlockBegin
  2
_FILLED
 70
64
 10
0.0
 20
0.0
  3
_FILLED
  1

  0
SOLID
  5
21A
100
AcDbEntity
  8
0
  6
BYBLOCK
 62
0
100
AcDbTrace
 10
0.0
 20
0.0
 11
-1.0
 21
0.1050420168
 12
-1.0
 22
-0.1050420168
 13
-1.0
 23
-0.1050420168
  0
ENDBLK
  5
21B
100
AcDbEntity
  8
0
  6
BYBLOCK
 62
0
100
AcDbBlockEnd
  0
BLOCK
  5
21C
100
AcDbEntity
  8
0
100
AcDbBlockBegin
 62
2
  6
CONTINUOUS
  2
*D0
 70
65
 10
0.0
 20
0.0
  3
*D0
  1

  0
MTEXT
  5
21D
100
AcDbEntity
  8
0
100
AcDbMText
 62
5
  6
CONTINUOUS
  7
TEXTSTYLE_2
 71
2
 72
1
 10
295.86316604
 20
142.7199180804
 30
0.0
 11
1.0
 21
0.0
 31
0.0
 44
0.9
  1
{\Fgdt;n}\Ftxt;22.5
 40
1.5
 41
11.2571428571
  0
LINE
  5
21E
100
AcDbEntity
  8
0
100
AcDbLine
 62
2
  6
CONTINUOUS
 10
307.11316604
 20
127.5442770264
 11
307.11316604
 21
141.5770609375
  0
LINE
  5
21F
100
AcDbEntity
  8
0
100
AcDbLine
 62
2
  6
CONTINUOUS
 10
284.61316604
 20
127.5442770264
 11
284.61316604
 21
141.5770609375
  0
LINE
  5
220
100
AcDbEntity
  8
0
100
AcDbLine
 62
2
  6
CONTINUOUS
 10
307.11316604
 20
140.5770609375
 11
295.86316604
 21
140.5770609375
  0
LINE
  5
221
100
AcDbEntity
  8
0
100
AcDbLine
 62
2
  6
CONTINUOUS
 10
284.61316604
 20
140.5770609375
 11
295.86316604
 21
140.5770609375
  0
INSERT
  5
222
100
AcDbEntity
  8
0
100
AcDbBlockReference
 62
2
  6
CONTINUOUS
  2
_FILLED
 10
307.11316604
 20
140.5770609375
 41
4.76
 42
4.76
 43
4.76
  0
INSERT
  5
223
100
AcDbEntity
  8
0
100
AcDbBlockReference
 62
2
  6
CONTINUOUS
  2
_FILLED
 10
284.61316604
 20
140.5770609375
 41
4.76
 42
4.76
 43
4.76
 50
180.0
  0
ENDBLK
  5
224
100
AcDbEntity
  8
0
  6
BYBLOCK
 62
0
100
AcDbBlockEnd
  0
BLOCK
  5
225
100
AcDbEntity
  8
0
100
AcDbBlockBegin
 62
2
  6
CONTINUOUS
  2
*D1
 70
65
 10
0.0
 20
0.0
  3
*D1
  1

  0
MTEXT
  5
226
100
AcDbEntity
  8
0
100
AcDbMText
 62
5
  6
CONTINUOUS
  7
STANDARD
 71
2
 72
1
 10
323.1448074387
 20
102.9442770264
 30
0.0
 11
0.0
 21
1.0
 31
0.0
 44
0.9
  1
50
 40
1.5
 41
4.6285714286
  0
LINE
  5
227
100
AcDbEntity
  8
0
100
AcDbLine
 62
2
  6
CONTINUOUS
 10
306.7131655631
 20
127.9442770264
 11
326.2876645815
 21
127.9442770264
  0
LINE
  5
228
100
AcDbEntity
  8
0
100
AcDbLine
 62
2
  6
CONTINUOUS
 10
306.8291914629
 20
77.9442770264
 11
326.2876645815
 21
77.9442770264
  0
LINE
  5
229
100
AcDbEntity
  8
0
100
AcDbLine
 62
2
  6
CONTINUOUS
 10
325.2876645815
 20
127.9442770264
 11
325.2876645815
 21
102.9442770264
  0
LINE
  5
22A
100
AcDbEntity
  8
0
100
AcDbLine
 62
2
  6
CONTINUOUS
 10
325.2876645815
 20
77.9442770264
 11
325.2876645815
 21
102.9442770264
  0
INSERT
  5
22B
100
AcDbEntity
  8
0
100
AcDbBlockReference
 62
2
  6
CONTINUOUS
  2
_FILLED
 10
325.2876645815
 20
127.9442770264
 41
4.76
 42
4.76
 43
4.76
 50
90.0
  0
INSERT
  5
22C
100
AcDbEntity
  8
0
100
AcDbBlockReference
 62
2
  6
CONTINUOUS
  2
_FILLED
 10
325.2876645815
 20
77.9442770264
 41
4.76
 42
4.76
 43
4.76
 50
270.0
  0
ENDBLK
  5
22D
100
AcDbEntity
  8
0
  6
BYBLOCK
 62
0
100
AcDbBlockEnd
  0
BLOCK
  5
22E
100
AcDbEntity
  8
0
100
AcDbBlockBegin
 62
2
  6
CONTINUOUS
  2
*D2
 70
65
 10
0.0
 20
0.0
  3
*D2
  1

  0
MTEXT
  5
22F
100
AcDbEntity
  8
0
100
AcDbMText
 62
5
  6
CONTINUOUS
  7
TEXTSTYLE_2
 71
2
 72
1
 10
295.86316604
 20
62.8386701945
 30
0.0
 11
1.0
 21
0.0
 31
0.0
 44
0.9
  1
{\Fgdt;n}\Ftxt;27.8
 40
1.5
 41
11.2571428571
  0
LINE
  5
230
100
AcDbEntity
  8
0
100
AcDbLine
 62
2
  6
CONTINUOUS
 10
309.76316604
 20
79.8072679416
 11
309.76316604
 21
59.6958130517
  0
LINE
  5
231
100
AcDbEntity
  8
0
100
AcDbLine
 62
2
  6
CONTINUOUS
 10
281.96316604
 20
79.8072679416
 11
281.96316604
 21
59.6958130517
  0
LINE
  5
232
100
AcDbEntity
  8
0
100
AcDbLine
 62
2
  6
CONTINUOUS
 10
309.76316604
 20
60.6958130517
 11
295.86316604
 21
60.6958130517
  0
LINE
  5
233
100
AcDbEntity
  8
0
100
AcDbLine
 62
2
  6
CONTINUOUS
 10
281.96316604
 20
60.6958130517
 11
295.86316604
 21
60.6958130517
  0
INSERT
  5
234
100
AcDbEntity
  8
0
100
AcDbBlockReference
 62
2
  6
CONTINUOUS
  2
_FILLED
 10
309.76316604
 20
60.6958130517
 41
4.76
 42
4.76
 43
4.76
  0
INSERT
  5
235
100
AcDbEntity
  8
0
100
AcDbBlockReference
 62
2
  6
CONTINUOUS
  2
_FILLED
 10
281.96316604
 20
60.6958130517
 41
4.76
 42
4.76
 43
4.76
 50
180.0
  0
ENDBLK
  5
236
100
AcDbEntity
  8
0
  6
BYBLOCK
 62
0
100
AcDbBlockEnd
  0
ENDSEC
  0
SECTION
  2
ENTITIES
  0
DIMENSION
  5
237
100
AcDbEntity
  8
0
100
AcDbDimension
 62
2
  6
CONTINUOUS
  2
*D0
 10
284.61316604
 20
140.5770609375
 11
292.2345946115
 21
141.9699180804
 70
160
 71
2
 42
22.5
  1
%%c<>
  3
DIMSTYLE_1
100
AcDbAlignedDimension
 13
307.11316604
 23
127.5442770264
 14
284.61316604
 24
127.5442770264
 50
180.0
100
AcDbRotatedDimension
  0
DIMENSION
  5
238
100
AcDbEntity
  8
0
100
AcDbDimension
 62
2
  6
CONTINUOUS
  2
*D1
 10
325.2876645815
 20
77.9442770264
 11
324.9317778074
 21
100.8753133192
 70
160
 71
2
 42
50.0
  3
DIMSTYLE_1
100
AcDbAlignedDimension
 13
306.7131655631
 23
127.9442770264
 14
306.8291914629
 24
77.9442770264
 50
270.0
100
AcDbRotatedDimension
  0
DIMENSION
  5
239
100
AcDbEntity
  8
0
100
AcDbDimension
 62
2
  6
CONTINUOUS
  2
*D2
 10
281.96316604
 20
60.6958130517
 11
292.2345946115
 21
62.0886701945
 70
160
 71
2
 42
27.8
  1
%%c<>
  3
DIMSTYLE_1
100
AcDbAlignedDimension
 13
309.76316604
 23
79.8072679416
 14
281.96316604
 24
79.8072679416
 50
180.0
100
AcDbRotatedDimension
  0
LINE
  5
23A
100
AcDbEntity
  8
3_ALL_AXES
100
AcDbLine
 62
7
  6
CONTINUOUS
 10
282.21316604
 20
79.4742552397
 11
284.7471406363
 21
78.0112643245
  0
LINE
  5
23B
100
AcDbEntity
  8
0
100
AcDbLine
 62
7
  6
CONTINUOUS
 10
284.9971406363
 20
77.9442770264
 11
306.7291914438
 21
77.9442770264
  0
LINE
  5
23C
100
AcDbEntity
  8
0
100
AcDbLine
 62
7
  6
CONTINUOUS
 10
284.7471406363
 20
78.0112643245
 11
306.9791914438
 21
78.0112643245
  0
LINE
  5
23D
100
AcDbEntity
  8
DEFAULT_2
100
AcDbLine
 62
8
  6
HIDDEN
 10
302.11316604
 20
78.1442770264
 11
289.61316604
 21
78.1442770264
  0
LINE
  5
23E
100
AcDbEntity
  8
3_ALL_AXES
100
AcDbLine
 62
8
  6
HIDDEN
 10
302.11316604
 20
78.5677398459
 11
289.61316604
 21
78.5677398459
  0
LINE
  5
23F
100
AcDbEntity
  8
0
100
AcDbLine
 62
7
  6
CONTINUOUS
 10
282.21316604
 20
79.4742552397
 11
282.295928545
 21
79.4742552397
  0
LINE
  5
240
100
AcDbEntity
  8
0
100
AcDbLine
 62
7
  6
CONTINUOUS
 10
287.7797684405
 20
79.4742552397
 11
290.3793261445
 21
79.4742552397
  0
LINE
  5
241
100
AcDbEntity
  8
0
100
AcDbLine
 62
7
  6
CONTINUOUS
 10
301.3470059356
 20
79.4742552397
 11
303.9465636396
 21
79.4742552397
  0
LINE
  5
242
100
AcDbEntity
  8
0
100
AcDbLine
 62
7
  6
CONTINUOUS
 10
309.4304035351
 20
79.4742552397
 11
309.51316604
 21
79.4742552397
  0
LINE
  5
243
100
AcDbEntity
  8
0
100
AcDbLine
 62
7
  6
CONTINUOUS
 10
284.36316604
 20
123.7442770264
 11
284.6433623758
 21
124.0244733621
  0
LINE
  5
244
100
AcDbEntity
  8
DEFAULT_2
100
AcDbLine
 62
8
  6
HIDDEN
 10
284.6433623758
 20
124.0244733621
 11
284.86316604
 21
124.2442770264
  0
LINE
  5
245
100
AcDbEntity
  8
GIANNI_CURVE
100
AcDbLine
 62
8
  6
PHANTOM
 10
302.86316604
 20
79.8667779516
 11
288.86316604
 21
79.8667779516
  0
LINE
  5
246
100
AcDbEntity
  8
0
100
AcDbLine
 62
7
  6
CONTINUOUS
 10
281.96316604
 20
79.9072679416
 11
281.998111662
 21
79.9072679416
  0
LINE
  5
247
100
AcDbEntity
  8
0
100
AcDbLine
 62
7
  6
CONTINUOUS
 10
288.0775853234
 20
79.9072679416
 11
289.7836923786
 21
79.9072679416
  0
LINE
  5
248
100
AcDbEntity
  8
0
100
AcDbLine
 62
7
  6
CONTINUOUS
 10
301.9426397015
 20
79.9072679416
 11
303.6487467566
 21
79.9072679416
  0
LINE
  5
249
100
AcDbEntity
  8
0
100
AcDbLine
 62
7
  6
CONTINUOUS
 10
309.7282204181
 20
79.9072679416
 11
309.76316604
 21
79.9072679416
  0
LINE
  5
24A
100
AcDbEntity
  8
3_ALL_AXES
100
AcDbLine
 62
8
  6
HIDDEN
 10
284.6311152325
 20
119.5122262188
 11
284.36316604
 21
119.2442770264
  0
LINE
  5
24B
100
AcDbEntity
  8
3_ALL_AXES
100
AcDbLine
 62
8
  6
HIDDEN
 10
304.86316604
 20
82.0442770264
 11
286.86316604
 21
82.0442770264
  0
LINE
  5
24C
100
AcDbEntity
  8
3_ALL_AXES
100
AcDbLine
 62
8
  6
HIDDEN
 10
304.86316604
 20
83.2442770264
 11
286.86316604
 21
83.2442770264
  0
LINE
  5
24D
100
AcDbEntity
  8
DEFAULT_2
100
AcDbLine
 62
8
  6
HIDDEN
 10
304.4631155733
 20
83.2442770264
 11
287.2632165068
 21
83.2442770264
  0
LINE
  5
24E
100
AcDbEntity
  8
DEFAULT_2
100
AcDbLine
 62
8
  6
HIDDEN
 10
284.6131660431
 20
118.344277028
 11
284.9131660427
 21
118.6442770278
  0
LINE
  5
24F
100
AcDbEntity
  8
3_ALL_AXES
100
AcDbLine
 62
8
  6
HIDDEN
 10
307.01316604
 20
84.4442770264
 11
284.71316604
 21
84.4442770264
  0
LINE
  5
250
100
AcDbEntity
  8
GIANNI_CURVE
100
AcDbLine
 62
8
  6
HIDDEN
 10
290.4539814128
 20
84.4442770264
 11
301.2723507514
 21
84.4442770264
  0
LINE
  5
251
100
AcDbEntity
  8
DEFAULT_2
100
AcDbLine
 62
8
  6
HIDDEN
 10
287.2632165068
 20
84.4442770264
 11
304.4631155733
 21
84.4442770264
  0
LINE
  5
252
100
AcDbEntity
  8
DEFAULT_2
100
AcDbLine
 62
8
  6
HIDDEN
 10
284.96316604
 20
88.4442770264
 11
285.46316604
 21
87.9442770264
  0
LINE
  5
253
100
AcDbEntity
  8
3_ALL_AXES
100
AcDbLine
 62
8
  6
HIDDEN
 10
289.61316604
 20
78.5677398459
 11
287.6059863631
 21
82.0442770264
  0
LINE
  5
254
100
AcDbEntity
  8
GIANNI_CURVE
100
AcDbLine
 62
8
  6
PHANTOM
 10
306.06316604
 20
85.8667779516
 11
302.86316604
 21
85.8667779516
  0
LINE
  5
255
100
AcDbEntity
  8
GIANNI_CURVE
100
AcDbLine
 62
8
  6
PHANTOM
 10
288.86316604
 20
85.8667779516
 11
285.66316604
 21
85.8667779516
  0
LINE
  5
256
100
AcDbEntity
  8
3_ALL_AXES
100
AcDbLine
 62
8
  6
HIDDEN
 10
307.01316604
 20
86.8854312996
 11
284.71316604
 21
86.8854312996
  0
LINE
  5
257
100
AcDbEntity
  8
DEFAULT_2
100
AcDbLine
 62
8
  6
HIDDEN
 10
306.86316604
 20
87.1452389207
 11
284.86316604
 21
87.1452389207
  0
LINE
  5
258
100
AcDbEntity
  8
0
100
AcDbLine
 62
7
  6
CONTINUOUS
 10
281.86316604
 20
96.7442770264
 11
281.86316604
 21
91.8442770264
  0
LINE
  5
259
100
AcDbEntity
  8
3_ALL_AXES
100
AcDbLine
 62
7
  6
CONTINUOUS
 10
281.96316604
 20
91.8442770264
 11
281.96316604
 21
79.9072679416
  0
LINE
  5
25A
100
AcDbEntity
  8
0
100
AcDbLine
 62
7
  6
CONTINUOUS
 10
281.998111662
 20
87.9442770264
 11
281.998111662
 21
79.9072679416
  0
LINE
  5
25B
100
AcDbEntity
  8
3_ALL_AXES
100
AcDbLine
 62
8
  6
HIDDEN
 10
289.7291914438
 20
121.2442770264
 11
288.86316604
 21
119.7442770264
  0
LINE
  5
25C
100
AcDbEntity
  8
DEFAULT_2
100
AcDbLine
 62
8
  6
HIDDEN
 10
290.11316604
 20
118.4442770264
 11
289.86316604
 21
118.1109449336
  0
LINE
  5
25D
100
AcDbEntity
  8
DEFAULT_2
100
AcDbLine
 62
8
  6
HIDDEN
 10
289.86316604
 20
118.2442770264
 11
290.36316604
 21
118.7442770264
  0
LINE
  5
25E
100
AcDbEntity
  8
0
100
AcDbLine
 62
7
  6
CONTINUOUS
 10
309.7282204181
 20
87.9442770264
 11
303.6487467566
 21
87.9442770264
  0
LINE
  5
25F
100
AcDbEntity
  8
0
100
AcDbLine
 62
7
  6
CONTINUOUS
 10
301.9426397015
 20
87.9442770264
 11
289.7836923786
 21
87.9442770264
  0
LINE
  5
260
100
AcDbEntity
  8
DEFAULT_2
100
AcDbLine
 62
8
  6
HIDDEN
 10
303.6487467566
 20
87.9442770264
 11
301.9426397015
 21
87.9442770264
  0
LINE
  5
261
100
AcDbEntity
  8
0
100
AcDbLine
 62
7
  6
CONTINUOUS
 10
288.0775853234
 20
87.9442770264
 11
281.998111662
 21
87.9442770264
  0
LINE
  5
262
100
AcDbEntity
  8
DEFAULT_2
100
AcDbLine
 62
8
  6
HIDDEN
 10
288.0775853234
 20
87.9442770264
 11
289.7836923786
 21
87.9442770264
  0
LINE
  5
263
100
AcDbEntity
  8
3_ALL_AXES
100
AcDbLine
 62
8
  6
HIDDEN
 10
306.11316604
 20
88.4442770264
 11
285.61316604
 21
88.4442770264
  0
LINE
  5
264
100
AcDbEntity
  8
DEFAULT_2
100
AcDbLine
 62
8
  6
HIDDEN
 10
306.76316604
 20
88.4442770264
 11
284.96316604
 21
88.4442770264
  0
LINE
  5
265
100
AcDbEntity
  8
DEFAULT_2
100
AcDbLine
 62
8
  6
HIDDEN
 10
303.7663809753
 20
88.6329385456
 11
287.9599511048
 21
88.6329385456
  0
LINE
  5
266
100
AcDbEntity
  8
DEFAULT_2
100
AcDbLine
 62
8
  6
HIDDEN
 10
282.56316604
 20
95.9442770264
 11
282.56316604
 21
93.2244676428
  0
LINE
  5
267
100
AcDbEntity
  8
DEFAULT_2
100
AcDbLine
 62
8
  6
HIDDEN
 10
282.61316604
 20
93.480144881
 11
282.61316604
 21
94.7506278591
  0
LINE
  5
268
100
AcDbEntity
  8
DEFAULT_2
100
AcDbLine
 62
8
  6
HIDDEN
 10
282.61316604
 20
95.1379261937
 11
282.61316604
 21
95.6442770264
  0
LINE
  5
269
100
AcDbEntity
  8
0
100
AcDbLine
 62
7
  6
CONTINUOUS
 10
284.36316604
 20
123.8442770264
 11
284.36316604
 21
118.6442770264
  0
LINE
  5
26A
100
AcDbEntity
  8
3_ALL_AXES
100
AcDbLine
 62
8
  6
HIDDEN
 10
284.36316604
 20
123.2442770264
 11
284.36316604
 21
119.2442770264
  0
LINE
  5
26B
100
AcDbEntity
  8
DEFAULT_2
100
AcDbLine
 62
8
  6
HIDDEN
 10
285.61316604
 20
94.9442770264
 11
284.61316604
 21
95.9442770264
  0
LINE
  5
26C
100
AcDbEntity
  8
DEFAULT_2
100
AcDbLine
 62
8
  6
HIDDEN
 10
284.76316604
 20
96.9442770264
 11
284.86316604
 21
96.8442770264
  0
LINE
  5
26D
100
AcDbEntity
  8
0
100
AcDbLine
 62
7
  6
CONTINUOUS
 10
284.61316604
 20
127.4442770264
 11
284.61316604
 21
124.1442770264
  0
LINE
  5
26E
100
AcDbEntity
  8
0
100
AcDbLine
 62
7
  6
CONTINUOUS
 10
284.61316604
 20
118.3442770264
 11
284.61316604
 21
101.7442770264
  0
LINE
  5
26F
100
AcDbEntity
  8
3_ALL_AXES
100
AcDbLine
 62
8
  6
HIDDEN
 10
284.71316604
 20
84.4442770264
 11
284.71316604
 21
86.8854312996
  0
LINE
  5
270
100
AcDbEntity
  8
0
100
AcDbLine
 62
7
  6
CONTINUOUS
 10
284.86316604
 20
122.9229162126
 11
284.86316604
 21
119.5656420895
  0
LINE
  5
271
100
AcDbEntity
  8
DEFAULT_2
100
AcDbLine
 62
8
  6
HIDDEN
 10
284.86316604
 20
119.5656420895
 11
284.86316604
 21
118.2442770264
  0
LINE
  5
272
100
AcDbEntity
  8
DEFAULT_2
100
AcDbLine
 62
8
  6
HIDDEN
 10
284.86316604
 20
96.8442770264
 11
284.86316604
 21
96.0442770264
  0
LINE
  5
273
100
AcDbEntity
  8
DEFAULT_2
100
AcDbLine
 62
8
  6
HIDDEN
 10
284.86316604
 20
95.9442770264
 11
284.86316604
 21
87.1452389207
  0
LINE
  5
274
100
AcDbEntity
  8
DEFAULT_2
100
AcDbLine
 62
8
  6
HIDDEN
 10
284.86316604
 20
122.9229162126
 11
284.86316604
 21
124.2442770264
  0
LINE
  5
275
100
AcDbEntity
  8
0
100
AcDbLine
 62
7
  6
CONTINUOUS
 10
284.96316604
 20
98.4442770264
 11
284.96316604
 21
96.9442770264
  0
LINE
  5
276
100
AcDbEntity
  8
DEFAULT_2
100
AcDbLine
 62
8
  6
HIDDEN
 10
284.96316604
 20
96.9442770264
 11
284.96316604
 21
88.4442770264
  0
LINE
  5
277
100
AcDbEntity
  8
3_ALL_AXES
100
AcDbLine
 62
8
  6
HIDDEN
 10
285.61316604
 20
88.4442770264
 11
285.61316604
 21
94.9442770264
  0
LINE
  5
278
100
AcDbEntity
  8
GIANNI_CURVE
100
AcDbLine
 62
8
  6
PHANTOM
 10
285.66316604
 20
85.8667779516
 11
285.66316604
 21
96.8667779516
  0
LINE
  5
279
100
AcDbEntity
  8
DEFAULT_2
100
AcDbLine
 62
8
  6
HIDDEN
 10
285.76316604
 20
87.9442770264
 11
285.76316604
 21
96.9442770264
  0
LINE
  5
27A
100
AcDbEntity
  8
0
100
AcDbLine
 62
2
  6
CONTINUOUS
 10
285.76316604
 20
96.9442770264
 11
285.76316604
 21
99.2442770264
  0
LINE
  5
27B
100
AcDbEntity
  8
0
100
AcDbLine
 62
7
  6
CONTINUOUS
 10
285.86316604
 20
101.4442770264
 11
285.86316604
 21
99.3442770264
  0
LINE
  5
27C
100
AcDbEntity
  8
0
100
AcDbLine
 62
7
  6
CONTINUOUS
 10
309.86316604
 20
91.8442770264
 11
281.86316604
 21
91.8442770264
  0
LINE
  5
27D
100
AcDbEntity
  8
DEFAULT_2
100
AcDbLine
 62
8
  6
HIDDEN
 10
309.2389019713
 20
92.4685410951
 11
282.4874301088
 21
92.4685410951
  0
LINE
  5
27E
100
AcDbEntity
  8
DEFAULT_2
100
AcDbLine
 62
8
  6
HIDDEN
 10
282.6874301088
 20
92.5685410951
 11
309.0389019713
 21
92.5685410951
  0
LINE
  5
27F
100
AcDbEntity
  8
DEFAULT_2
100
AcDbLine
 62
8
  6
HIDDEN
 10
309.16316604
 20
93.2244676428
 11
282.56316604
 21
93.2244676428
  0
LINE
  5
280
100
AcDbEntity
  8
3_ALL_AXES
100
AcDbLine
 62
8
  6
HIDDEN
 10
286.86316604
 20
82.0442770264
 11
286.86316604
 21
83.2442770264
  0
LINE
  5
281
100
AcDbEntity
  8
DEFAULT_2
100
AcDbLine
 62
8
  6
HIDDEN
 10
287.26316604
 20
83.2442770264
 11
287.26316604
 21
84.4442770264
  0
LINE
  5
282
100
AcDbEntity
  8
DEFAULT_2
100
AcDbLine
 62
8
  6
HIDDEN
 10
287.556203934
 20
84.4442770264
 11
287.556203934
 21
83.2442770264
  0
LINE
  5
283
100
AcDbEntity
  8
0
100
AcDbLine
 62
7
  6
CONTINUOUS
 10
288.0775853234
 20
87.9442770264
 11
288.0775853234
 21
79.9072679416
  0
LINE
  5
284
100
AcDbEntity
  8
DEFAULT_2
100
AcDbLine
 62
8
  6
HIDDEN
 10
282.61316604
 20
93.480144881
 11
309.11316604
 21
93.480144881
  0
LINE
  5
285
100
AcDbEntity
  8
DEFAULT_2
100
AcDbLine
 62
8
  6
HIDDEN
 10
309.11316604
 20
94.7506278591
 11
282.61316604
 21
94.7506278591
  0
LINE
  5
286
100
AcDbEntity
  8
DEFAULT_2
100
AcDbLine
 62
8
  6
HIDDEN
 10
306.11316604
 20
94.9442770264
 11
285.61316604
 21
94.9442770264
  0
LINE
  5
287
100
AcDbEntity
  8
DEFAULT_2
100
AcDbLine
 62
8
  6
HIDDEN
 10
309.11316604
 20
95.1379261937
 11
282.61316604
 21
95.1379261937
  0
LINE
  5
288
100
AcDbEntity
  8
0
100
AcDbLine
 62
7
  6
CONTINUOUS
 10
284.61316604
 20
101.7442770264
 11
284.91316604
 21
101.4442770264
  0
LINE
  5
289
100
AcDbEntity
  8
3_ALL_AXES
100
AcDbLine
 62
8
  6
HIDDEN
 10
288.36316604
 20
119.5122262188
 11
288.36316604
 21
122.9763278339
  0
LINE
  5
28A
100
AcDbEntity
  8
3_ALL_AXES
100
AcDbLine
 62
8
  6
HIDDEN
 10
288.86316604
 20
122.7442770264
 11
288.86316604
 21
119.7442770264
  0
LINE
  5
28B
100
AcDbEntity
  8
GIANNI_CURVE
100
AcDbLine
 62
8
  6
PHANTOM
 10
288.86316604
 20
79.8667779516
 11
288.86316604
 21
85.8667779516
  0
LINE
  5
28C
100
AcDbEntity
  8
3_ALL_AXES
100
AcDbLine
 62
8
  6
HIDDEN
 10
289.61316604
 20
78.1442770264
 11
289.61316604
 21
78.5677398459
  0
LINE
  5
28D
100
AcDbEntity
  8
0
100
AcDbLine
 62
7
  6
CONTINUOUS
 10
289.7836923786
 20
87.9442770264
 11
289.7836923786
 21
79.9072679416
  0
LINE
  5
28E
100
AcDbEntity
  8
DEFAULT_2
100
AcDbLine
 62
8
  6
HIDDEN
 10
289.86316604
 20
124.2442770264
 11
289.86316604
 21
118.2442770264
  0
LINE
  5
28F
100
AcDbEntity
  8
DEFAULT_2
100
AcDbLine
 62
8
  6
HIDDEN
 10
289.86316604
 20
118.1109449336
 11
289.86316604
 21
114.4442770264
  0
LINE
  5
290
100
AcDbEntity
  8
DEFAULT_2
100
AcDbLine
 62
8
  6
HIDDEN
 10
290.0696842483
 20
84.4442770264
 11
290.0696842483
 21
83.2442770264
  0
LINE
  5
291
100
AcDbEntity
  8
DEFAULT_2
100
AcDbLine
 62
8
  6
HIDDEN
 10
290.11316604
 20
127.4442770264
 11
290.11316604
 21
123.8442770264
  0
LINE
  5
292
100
AcDbEntity
  8
DEFAULT_2
100
AcDbLine
 62
8
  6
HIDDEN
 10
290.11316604
 20
118.6442770264
 11
290.11316604
 21
118.4442770264
  0
LINE
  5
293
100
AcDbEntity
  8
DEFAULT_2
100
AcDbLine
 62
8
  6
HIDDEN
 10
290.26316604
 20
123.8442770264
 11
290.26316604
 21
118.6442770264
  0
LINE
  5
294
100
AcDbEntity
  8
DEFAULT_2
100
AcDbLine
 62
8
  6
HIDDEN
 10
290.61316604
 20
107.5115437629
 11
287.9599511048
 21
88.6329385456
  0
LINE
  5
295
100
AcDbEntity
  8
3_ALL_AXES
100
AcDbLine
 62
7
  6
CONTINUOUS
 10
294.1311152325
 20
111.9442770264
 11
294.9971406363
 21
113.4442770264
  0
LINE
  5
296
100
AcDbEntity
  8
DEFAULT_2
100
AcDbLine
 62
8
  6
HIDDEN
 10
309.11316604
 20
95.6442770264
 11
282.61316604
 21
95.6442770264
  0
LINE
  5
297
100
AcDbEntity
  8
GIANNI_ASSI
100
AcDbLine
 62
8
  6
HIDDEN
 10
298.1792171132
 20
95.8442770264
 11
293.5471149669
 21
95.8442770264
  0
LINE
  5
298
100
AcDbEntity
  8
GIANNI_ASSI
100
AcDbLine
 62
8
  6
HIDDEN
 10
307.11316604
 20
95.9442770264
 11
284.61316604
 21
95.9442770264
  0
LINE
  5
299
100
AcDbEntity
  8
DEFAULT_2
100
AcDbLine
 62
8
  6
HIDDEN
 10
309.16316604
 20
95.9442770264
 11
282.56316604
 21
95.9442770264
  0
LINE
  5
29A
100
AcDbEntity
  8
SKETCH_ASSI
100
AcDbLine
 62
2
  6
PHANTOM
 10
281.86316604
 20
95.9442770264
 11
280.6562255558
 21
95.9442770264
  0
LINE
  5
29B
100
AcDbEntity
  8
SKETCH_ASSI
100
AcDbLine
 62
8
  6
PHANTOM
 10
281.86316604
 20
95.9442770264
 11
309.86316604
 21
95.9442770264
  0
LINE
  5
29C
100
AcDbEntity
  8
SKETCH_ASSI
100
AcDbLine
 62
2
  6
PHANTOM
 10
309.86316604
 20
95.9442770264
 11
311.0701065243
 21
95.9442770264
  0
LINE
  5
29D
100
AcDbEntity
  8
DEFAULT_2
100
AcDbLine
 62
8
  6
HIDDEN
 10
306.86316604
 20
96.0442770264
 11
284.86316604
 21
96.0442770264
  0
LINE
  5
29E
100
AcDbEntity
  8
0
100
AcDbLine
 62
7
  6
CONTINUOUS
 10
281.86316604
 20
96.7442770264
 11
309.86316604
 21
96.7442770264
  0
LINE
  5
29F
100
AcDbEntity
  8
DEFAULT_2
100
AcDbLine
 62
8
  6
HIDDEN
 10
306.86316604
 20
96.8442770264
 11
284.86316604
 21
96.8442770264
  0
LINE
  5
2A0
100
AcDbEntity
  8
GIANNI_CURVE
100
AcDbLine
 62
8
  6
PHANTOM
 10
285.66316604
 20
96.8667779516
 11
306.06316604
 21
96.8667779516
  0
LINE
  5
2A1
100
AcDbEntity
  8
0
100
AcDbLine
 62
7
  6
CONTINUOUS
 10
282.0631660401
 20
96.9442770264
 11
309.66316604
 21
96.9442770264
  0
LINE
  5
2A2
100
AcDbEntity
  8
DEFAULT_2
100
AcDbLine
 62
8
  6
HIDDEN
 10
290.36316604
 20
123.7442770264
 11
290.36316604
 21
118.7442770264
  0
LINE
  5
2A3
100
AcDbEntity
  8
DEFAULT_2
100
AcDbLine
 62
8
  6
HIDDEN
 10
290.3884799052
 20
84.4442770264
 11
290.3884799052
 21
83.2442770264
  0
LINE
  5
2A4
100
AcDbEntity
  8
DEFAULT_2
100
AcDbLine
 62
8
  6
HIDDEN
 10
290.61316604
 20
114.4442770264
 11
290.61316604
 21
107.5115437629
  0
LINE
  5
2A5
100
AcDbEntity
  8
DEFAULT_2
100
AcDbLine
 62
8
  6
HIDDEN
 10
291.4250169264
 20
83.2442770264
 11
291.4250169264
 21
84.4442770264
  0
LINE
  5
2A6
100
AcDbEntity
  8
DEFAULT_2
100
AcDbLine
 62
8
  6
HIDDEN
 10
291.9782070255
 20
83.2442770264
 11
291.9782070255
 21
84.4442770264
  0
LINE
  5
2A7
100
AcDbEntity
  8
0
100
AcDbLine
 62
7
  6
CONTINUOUS
 10
282.0631660401
 20
96.9442770265
 11
281.8631660401
 21
96.7442770265
  0
LINE
  5
2A8
100
AcDbEntity
  8
0
100
AcDbLine
 62
7
  6
CONTINUOUS
 10
285.86316604
 20
99.3442770264
 11
284.96316604
 21
98.4442770264
  0
LINE
  5
2A9
100
AcDbEntity
  8
DEFAULT_2
100
AcDbLine
 62
8
  6
HIDDEN
 10
282.9131660402
 20
95.9442770265
 11
282.6131660402
 21
95.6442770265
  0
LINE
  5
2AA
100
AcDbEntity
  8
0
100
AcDbLine
 62
7
  6
CONTINUOUS
 10
306.76316604
 20
98.4442770264
 11
284.96316604
 21
98.4442770264
  0
LINE
  5
2AB
100
AcDbEntity
  8
0
100
AcDbLine
 62
7
  6
CONTINUOUS
 10
285.76316604
 20
99.2442770264
 11
305.96316604
 21
99.2442770264
  0
LINE
  5
2AC
100
AcDbEntity
  8
DEFAULT_2
100
AcDbLine
 62
8
  6
HIDDEN
 10
292.9217928074
 20
84.4442770264
 11
292.9217928074
 21
83.2442770264
  0
LINE
  5
2AD
100
AcDbEntity
  8
3_ALL_AXES
100
AcDbLine
 62
7
  6
CONTINUOUS
 10
297.5952168476
 20
111.9442770264
 11
296.7291914438
 21
110.4442770264
  0
LINE
  5
2AE
100
AcDbEntity
  8
DEFAULT_2
100
AcDbLine
 62
8
  6
HIDDEN
 10
284.86316604
 20
96.0442770264
 11
284.76316604
 21
95.9442770264
  0
LINE
  5
2AF
100
AcDbEntity
  8
DEFAULT_2
100
AcDbLine
 62
8
  6
HIDDEN
 10
282.4874301088
 20
92.4685410951
 11
281.86316604
 21
91.8442770264
  0
LINE
  5
2B0
100
AcDbEntity
  8
DEFAULT_2
100
AcDbLine
 62
8
  6
HIDDEN
 10
281.96316604
 20
91.8442770264
 11
282.6874301088
 21
92.5685410951
  0
LINE
  5
2B1
100
AcDbEntity
  8
0
100
AcDbLine
 62
7
  6
CONTINUOUS
 10
305.86316604
 20
99.3442770264
 11
285.86316604
 21
99.3442770264
  0
LINE
  5
2B2
100
AcDbEntity
  8
DEFAULT_2
100
AcDbLine
 62
8
  6
HIDDEN
 10
294.5033194576
 20
84.4442770264
 11
294.5033194576
 21
83.2442770264
  0
LINE
  5
2B3
100
AcDbEntity
  8
DEFAULT_2
100
AcDbLine
 62
8
  6
HIDDEN
 10
294.6971822658
 20
84.4442770264
 11
294.6971822658
 21
83.2442770264
  0
LINE
  5
2B4
100
AcDbEntity
  8
3_ALL_AXES
100
AcDbLine
 62
8
  6
HIDDEN
 10
284.71316604
 20
86.8854312996
 11
285.61316604
 21
88.4442770264
  0
LINE
  5
2B5
100
AcDbEntity
  8
0
100
AcDbLine
 62
7
  6
CONTINUOUS
 10
306.81316604
 20
101.4442770264
 11
284.91316604
 21
101.4442770264
  0
LINE
  5
2B6
100
AcDbEntity
  8
0
100
AcDbLine
 62
7
  6
CONTINUOUS
 10
307.11316604
 20
101.7442770264
 11
284.61316604
 21
101.7442770264
  0
LINE
  5
2B7
100
AcDbEntity
  8
DEFAULT_2
100
AcDbLine
 62
8
  6
HIDDEN
 10
297.0291498143
 20
84.4442770264
 11
297.0291498143
 21
83.2442770264
  0
LINE
  5
2B8
100
AcDbEntity
  8
DEFAULT_2
100
AcDbLine
 62
8
  6
HIDDEN
 10
297.2230126224
 20
84.4442770264
 11
297.2230126224
 21
83.2442770264
  0
LINE
  5
2B9
100
AcDbEntity
  8
DEFAULT_2
100
AcDbLine
 62
8
  6
HIDDEN
 10
309.76316604
 20
91.8442770264
 11
309.0389019713
 21
92.5685410951
  0
LINE
  5
2BA
100
AcDbEntity
  8
DEFAULT_2
100
AcDbLine
 62
8
  6
HIDDEN
 10
309.2389019713
 20
92.4685410951
 11
309.86316604
 21
91.8442770264
  0
LINE
  5
2BB
100
AcDbEntity
  8
3_ALL_AXES
100
AcDbLine
 62
8
  6
HIDDEN
 10
307.01316604
 20
86.8854312996
 11
306.11316604
 21
88.4442770264
  0
LINE
  5
2BC
100
AcDbEntity
  8
DEFAULT_2
100
AcDbLine
 62
8
  6
HIDDEN
 10
298.8045392726
 20
84.4442770264
 11
298.8045392726
 21
83.2442770264
  0
LINE
  5
2BD
100
AcDbEntity
  8
DEFAULT_2
100
AcDbLine
 62
8
  6
HIDDEN
 10
299.7481250546
 20
84.4442770264
 11
299.7481250546
 21
83.2442770264
  0
LINE
  5
2BE
100
AcDbEntity
  8
DEFAULT_2
100
AcDbLine
 62
8
  6
HIDDEN
 10
306.86316604
 20
96.0442770264
 11
306.96316604
 21
95.9442770264
  0
LINE
  5
2BF
100
AcDbEntity
  8
0
100
AcDbLine
 62
7
  6
CONTINUOUS
 10
284.36316604
 20
118.7442770264
 11
284.6433601486
 21
118.4640829178
  0
LINE
  5
2C0
100
AcDbEntity
  8
DEFAULT_2
100
AcDbLine
 62
8
  6
HIDDEN
 10
284.6433601486
 20
118.4640829178
 11
284.86316604
 21
118.2442770264
  0
LINE
  5
2C1
100
AcDbEntity
  8
3_ALL_AXES
100
AcDbLine
 62
7
  6
CONTINUOUS
 10
294.9971406363
 20
110.4442770264
 11
294.1311152325
 21
111.9442770264
  0
LINE
  5
2C2
100
AcDbEntity
  8
3_ALL_AXES
100
AcDbLine
 62
8
  6
HIDDEN
 10
289.7291914438
 20
121.2442770264
 11
288.86316604
 21
122.7442770264
  0
LINE
  5
2C3
100
AcDbEntity
  8
DEFAULT_2
100
AcDbLine
 62
8
  6
HIDDEN
 10
300.3013151537
 20
84.4442770264
 11
300.3013151537
 21
83.2442770264
  0
LINE
  5
2C4
100
AcDbEntity
  8
DEFAULT_2
100
AcDbLine
 62
8
  6
HIDDEN
 10
301.11316604
 20
114.4442770264
 11
301.11316604
 21
107.5115437629
  0
LINE
  5
2C5
100
AcDbEntity
  8
DEFAULT_2
100
AcDbLine
 62
8
  6
HIDDEN
 10
301.3378521749
 20
83.2442770264
 11
301.3378521749
 21
84.4442770264
  0
LINE
  5
2C6
100
AcDbEntity
  8
DEFAULT_2
100
AcDbLine
 62
8
  6
HIDDEN
 10
301.61316604
 20
127.4442770264
 11
301.61316604
 21
118.4442770264
  0
LINE
  5
2C7
100
AcDbEntity
  8
DEFAULT_2
100
AcDbLine
 62
8
  6
HIDDEN
 10
301.6566478317
 20
83.2442770264
 11
301.6566478317
 21
84.4442770264
  0
LINE
  5
2C8
100
AcDbEntity
  8
DEFAULT_2
100
AcDbLine
 62
8
  6
HIDDEN
 10
301.86316604
 20
118.1109449336
 11
301.86316604
 21
114.4442770264
  0
LINE
  5
2C9
100
AcDbEntity
  8
0
100
AcDbLine
 62
7
  6
CONTINUOUS
 10
301.9426397015
 20
87.9442770264
 11
301.9426397015
 21
79.9072679416
  0
LINE
  5
2CA
100
AcDbEntity
  8
DEFAULT_2
100
AcDbLine
 62
8
  6
HIDDEN
 10
301.11316604
 20
107.5115437629
 11
290.61316604
 21
107.5115437629
  0
LINE
  5
2CB
100
AcDbEntity
  8
DEFAULT_2
100
AcDbLine
 62
8
  6
HIDDEN
 10
308.81316604
 20
95.9442770264
 11
309.11316604
 21
95.6442770264
  0
LINE
  5
2CC
100
AcDbEntity
  8
0
100
AcDbLine
 62
7
  6
CONTINUOUS
 10
305.86316604
 20
99.3442770264
 11
306.76316604
 21
98.4442770264
  0
LINE
  5
2CD
100
AcDbEntity
  8
0
100
AcDbLine
 62
7
  6
CONTINUOUS
 10
309.66316604
 20
96.9442770264
 11
309.86316604
 21
96.7442770264
  0
LINE
  5
2CE
100
AcDbEntity
  8
3_ALL_AXES
100
AcDbLine
 62
7
  6
CONTINUOUS
 10
296.7291914438
 20
113.4442770264
 11
297.5952168476
 21
111.9442770264
  0
LINE
  5
2CF
100
AcDbEntity
  8
DEFAULT_2
100
AcDbLine
 62
8
  6
HIDDEN
 10
301.11316604
 20
107.5115437629
 11
303.7663809753
 21
88.6329385456
  0
LINE
  5
2D0
100
AcDbEntity
  8
3_ALL_AXES
100
AcDbLine
 62
8
  6
HIDDEN
 10
302.11316604
 20
78.1442770264
 11
302.11316604
 21
78.5677398459
  0
LINE
  5
2D1
100
AcDbEntity
  8
GIANNI_CURVE
100
AcDbLine
 62
8
  6
PHANTOM
 10
302.86316604
 20
85.8667779516
 11
302.86316604
 21
79.8667779516
  0
LINE
  5
2D2
100
AcDbEntity
  8
0
100
AcDbLine
 62
7
  6
CONTINUOUS
 10
303.6487467566
 20
87.9442770264
 11
303.6487467566
 21
79.9072679416
  0
LINE
  5
2D3
100
AcDbEntity
  8
3_ALL_AXES
100
AcDbLine
 62
7
  6
CONTINUOUS
 10
296.7291914438
 20
110.4442770264
 11
294.9971406363
 21
110.4442770264
  0
LINE
  5
2D4
100
AcDbEntity
  8
3_ALL_AXES
100
AcDbLine
 62
8
  6
HIDDEN
 10
284.6311152325
 20
122.9763278339
 11
284.36316604
 21
123.2442770264
  0
LINE
  5
2D5
100
AcDbEntity
  8
DEFAULT_2
100
AcDbLine
 62
8
  6
HIDDEN
 10
284.9131660437
 20
123.8442770244
 11
284.6131660442
 21
124.1442770241
  0
LINE
  5
2D6
100
AcDbEntity
  8
DEFAULT_2
100
AcDbLine
 62
8
  6
HIDDEN
 10
304.1701281461
 20
84.4442770264
 11
304.1701281461
 21
83.2442770264
  0
LINE
  5
2D7
100
AcDbEntity
  8
DEFAULT_2
100
AcDbLine
 62
8
  6
HIDDEN
 10
304.46316604
 20
83.2442770264
 11
304.46316604
 21
84.4442770264
  0
LINE
  5
2D8
100
AcDbEntity
  8
3_ALL_AXES
100
AcDbLine
 62
8
  6
HIDDEN
 10
304.86316604
 20
82.0442770264
 11
304.86316604
 21
83.2442770264
  0
LINE
  5
2D9
100
AcDbEntity
  8
0
100
AcDbLine
 62
7
  6
CONTINUOUS
 10
305.86316604
 20
101.4442770264
 11
305.86316604
 21
99.3442770264
  0
LINE
  5
2DA
100
AcDbEntity
  8
0
100
AcDbLine
 62
7
  6
CONTINUOUS
 10
307.11316604
 20
101.7442770264
 11
306.81316604
 21
101.4442770264
  0
LINE
  5
2DB
100
AcDbEntity
  8
DEFAULT_2
100
AcDbLine
 62
8
  6
HIDDEN
 10
305.96316604
 20
87.9442770264
 11
305.96316604
 21
96.9442770264
  0
LINE
  5
2DC
100
AcDbEntity
  8
0
100
AcDbLine
 62
2
  6
CONTINUOUS
 10
305.96316604
 20
96.9442770264
 11
305.96316604
 21
99.2442770264
  0
LINE
  5
2DD
100
AcDbEntity
  8
GIANNI_CURVE
100
AcDbLine
 62
8
  6
PHANTOM
 10
306.06316604
 20
96.8667779516
 11
306.06316604
 21
85.8667779516
  0
LINE
  5
2DE
100
AcDbEntity
  8
3_ALL_AXES
100
AcDbLine
 62
8
  6
HIDDEN
 10
306.11316604
 20
88.4442770264
 11
306.11316604
 21
94.9442770264
  0
LINE
  5
2DF
100
AcDbEntity
  8
0
100
AcDbLine
 62
7
  6
CONTINUOUS
 10
306.76316604
 20
98.4442770264
 11
306.76316604
 21
96.9442770264
  0
LINE
  5
2E0
100
AcDbEntity
  8
DEFAULT_2
100
AcDbLine
 62
8
  6
HIDDEN
 10
306.76316604
 20
96.9442770264
 11
306.76316604
 21
88.4442770264
  0
LINE
  5
2E1
100
AcDbEntity
  8
DEFAULT_2
100
AcDbLine
 62
8
  6
HIDDEN
 10
306.86316604
 20
96.8442770264
 11
306.86316604
 21
96.0442770264
  0
LINE
  5
2E2
100
AcDbEntity
  8
DEFAULT_2
100
AcDbLine
 62
8
  6
HIDDEN
 10
306.86316604
 20
95.9442770264
 11
306.86316604
 21
87.1452389207
  0
LINE
  5
2E3
100
AcDbEntity
  8
3_ALL_AXES
100
AcDbLine
 62
8
  6
HIDDEN
 10
307.01316604
 20
84.4442770264
 11
307.01316604
 21
86.8854312996
  0
LINE
  5
2E4
100
AcDbEntity
  8
0
100
AcDbLine
 62
7
  6
CONTINUOUS
 10
307.11316604
 20
127.4442770264
 11
307.11316604
 21
101.7442770264
  0
LINE
  5
2E5
100
AcDbEntity
  8
3_ALL_AXES
100
AcDbLine
 62
7
  6
CONTINUOUS
 10
294.9971406363
 20
113.4442770264
 11
296.7291914438
 21
113.4442770264
  0
LINE
  5
2E6
100
AcDbEntity
  8
DEFAULT_2
100
AcDbLine
 62
8
  6
HIDDEN
 10
301.86316604
 20
114.4442770264
 11
289.86316604
 21
114.4442770264
  0
LINE
  5
2E7
100
AcDbEntity
  8
DEFAULT_2
100
AcDbLine
 62
8
  6
HIDDEN
 10
289.86316604
 20
124.2442770264
 11
290.36316604
 21
123.7442770264
  0
LINE
  5
2E8
100
AcDbEntity
  8
DEFAULT_2
100
AcDbLine
 62
8
  6
HIDDEN
 10
309.11316604
 20
93.480144881
 11
309.11316604
 21
94.7506278591
  0
LINE
  5
2E9
100
AcDbEntity
  8
DEFAULT_2
100
AcDbLine
 62
8
  6
HIDDEN
 10
309.11316604
 20
95.1379261937
 11
309.11316604
 21
95.6442770264
  0
LINE
  5
2EA
100
AcDbEntity
  8
DEFAULT_2
100
AcDbLine
 62
8
  6
HIDDEN
 10
309.16316604
 20
95.9442770264
 11
309.16316604
 21
93.2244676428
  0
LINE
  5
2EB
100
AcDbEntity
  8
0
100
AcDbLine
 62
7
  6
CONTINUOUS
 10
309.7282204181
 20
87.9442770264
 11
309.7282204181
 21
79.9072679416
  0
LINE
  5
2EC
100
AcDbEntity
  8
3_ALL_AXES
100
AcDbLine
 62
7
  6
CONTINUOUS
 10
309.76316604
 20
91.8442770264
 11
309.76316604
 21
79.9072679416
  0
LINE
  5
2ED
100
AcDbEntity
  8
DEFAULT_2
100
AcDbLine
 62
8
  6
HIDDEN
 10
306.96316604
 20
96.9442770264
 11
306.86316604
 21
96.8442770264
  0
LINE
  5
2EE
100
AcDbEntity
  8
DEFAULT_2
100
AcDbLine
 62
8
  6
HIDDEN
 10
306.11316604
 20
94.9442770264
 11
307.11316604
 21
95.9442770264
  0
LINE
  5
2EF
100
AcDbEntity
  8
DEFAULT_2
100
AcDbLine
 62
8
  6
HIDDEN
 10
301.61316604
 20
118.4442770264
 11
301.86316604
 21
118.1109449336
  0
LINE
  5
2F0
100
AcDbEntity
  8
0
100
AcDbLine
 62
7
  6
CONTINUOUS
 10
309.86316604
 20
96.7442770264
 11
309.86316604
 21
91.8442770264
  0
LINE
  5
2F1
100
AcDbEntity
  8
DEFAULT_2
100
AcDbLine
 62
8
  6
HIDDEN
 10
301.86316604
 20
118.1109449336
 11
289.86316604
 21
118.1109449336
  0
LINE
  5
2F2
100
AcDbEntity
  8
DEFAULT_2
100
AcDbLine
 62
8
  6
HIDDEN
 10
284.61316604
 20
118.2442770264
 11
290.11316604
 21
118.2442770264
  0
LINE
  5
2F3
100
AcDbEntity
  8
3_ALL_AXES
100
AcDbLine
 62
8
  6
HIDDEN
 10
284.86316604
 20
118.2442770264
 11
289.86316604
 21
118.2442770264
  0
LINE
  5
2F4
100
AcDbEntity
  8
DEFAULT_2
100
AcDbLine
 62
8
  6
HIDDEN
 10
301.61316604
 20
118.4442770264
 11
290.11316604
 21
118.4442770264
  0
LINE
  5
2F5
100
AcDbEntity
  8
DEFAULT_2
100
AcDbLine
 62
8
  6
HIDDEN
 10
284.46316604
 20
118.6442770264
 11
290.26316604
 21
118.6442770264
  0
LINE
  5
2F6
100
AcDbEntity
  8
0
100
AcDbLine
 62
2
  6
CONTINUOUS
 10
284.36316604
 20
118.6442770264
 11
284.46316604
 21
118.6442770264
  0
LINE
  5
2F7
100
AcDbEntity
  8
3_ALL_AXES
100
AcDbLine
 62
8
  6
HIDDEN
 10
302.11316604
 20
78.5677398459
 11
304.120345717
 21
82.0442770264
  0
LINE
  5
2F8
100
AcDbEntity
  8
3_ALL_AXES
100
AcDbLine
 62
8
  6
HIDDEN
 10
284.6311152325
 20
119.5122262188
 11
288.36316604
 21
119.5122262188
  0
LINE
  5
2F9
100
AcDbEntity
  8
3_ALL_AXES
100
AcDbLine
 62
8
  6
HIDDEN
 10
288.86316604
 20
119.7442770264
 11
288.36316604
 21
119.7442770264
  0
LINE
  5
2FA
100
AcDbEntity
  8
3_ALL_AXES
100
AcDbLine
 62
8
  6
HIDDEN
 10
284.6311152325
 20
120.3782516226
 11
288.36316604
 21
120.3782516226
  0
LINE
  5
2FB
100
AcDbEntity
  8
DEFAULT_2
100
AcDbLine
 62
8
  6
HIDDEN
 10
306.76316604
 20
88.4442770264
 11
306.26316604
 21
87.9442770264
  0
LINE
  5
2FC
100
AcDbEntity
  8
3_ALL_AXES
100
AcDbLine
 62
8
  6
HIDDEN
 10
284.6311152325
 20
122.1103024302
 11
288.36316604
 21
122.1103024302
  0
LINE
  5
2FD
100
AcDbEntity
  8
3_ALL_AXES
100
AcDbLine
 62
8
  6
HIDDEN
 10
288.86316604
 20
122.7442770264
 11
288.36316604
 21
122.7442770264
  0
LINE
  5
2FE
100
AcDbEntity
  8
3_ALL_AXES
100
AcDbLine
 62
8
  6
HIDDEN
 10
284.6311152325
 20
122.9763278339
 11
288.36316604
 21
122.9763278339
  0
LINE
  5
2FF
100
AcDbEntity
  8
DEFAULT_2
100
AcDbLine
 62
8
  6
HIDDEN
 10
284.46316604
 20
123.8442770264
 11
290.26316604
 21
123.8442770264
  0
LINE
  5
300
100
AcDbEntity
  8
0
100
AcDbLine
 62
2
  6
CONTINUOUS
 10
284.36316604
 20
123.8442770264
 11
284.46316604
 21
123.8442770264
  0
LINE
  5
301
100
AcDbEntity
  8
DEFAULT_2
100
AcDbLine
 62
8
  6
HIDDEN
 10
284.61316604
 20
124.2442770264
 11
290.11316604
 21
124.2442770264
  0
LINE
  5
302
100
AcDbEntity
  8
3_ALL_AXES
100
AcDbLine
 62
8
  6
HIDDEN
 10
284.86316604
 20
124.2442770264
 11
289.86316604
 21
124.2442770264
  0
LINE
  5
303
100
AcDbEntity
  8
0
100
AcDbLine
 62
7
  6
CONTINUOUS
 10
284.61316604
 20
127.4442770264
 11
307.11316604
 21
127.4442770264
  0
LINE
  5
304
100
AcDbEntity
  8
0
100
AcDbLine
 62
7
  6
CONTINUOUS
 10
306.61316604
 20
127.9442770264
 11
285.11316604
 21
127.9442770264
  0
LINE
  5
305
100
AcDbEntity
  8
3_ALL_AXES
100
AcDbLine
 62
7
  6
CONTINUOUS
 10
309.51316604
 20
79.4742552397
 11
306.9791914438
 21
78.0112643245
  0
ARC
  5
306
100
AcDbEntity
  8
DEFAULT_2
100
AcDbCircle
 62
8
  6
HIDDEN
 10
287.1677366498
 20
88.7442770264
 40
0.8
100
AcDbArc
 50
270.0000000003
 51
351.9999999998
  0
ARC
  5
307
100
AcDbEntity
  8
DEFAULT_2
100
AcDbCircle
 62
8
  6
HIDDEN
 10
282.06316604
 20
92.8928051638
 40
0.6
100
AcDbArc
 50
315.0
 51
33.5573097619
  0
ARC
  5
308
100
AcDbEntity
  8
DEFAULT_2
100
AcDbCircle
 62
8
  6
HIDDEN
 10
282.26316604
 20
92.9928051638
 40
0.6
100
AcDbArc
 50
315.0
 51
54.3146652873
  0
ARC
  5
309
100
AcDbEntity
  8
0
100
AcDbCircle
 62
7
  6
CONTINUOUS
 10
282.46316604
 20
79.9072679416
 40
0.5
100
AcDbArc
 50
180.0
 51
240.0000000002
  0
ARC
  5
30A
100
AcDbEntity
  8
0
100
AcDbCircle
 62
7
  6
CONTINUOUS
 10
284.9971406363
 20
78.4442770264
 40
0.5
100
AcDbArc
 50
240.0000000002
 51
270.0
  0
ARC
  5
30B
100
AcDbEntity
  8
DEFAULT_2
100
AcDbCircle
 62
8
  6
HIDDEN
 10
282.26316604
 20
94.9442770264
 40
0.4
100
AcDbArc
 50
331.0449756281
 51
28.9550243719
  0
ARC
  5
30C
100
AcDbEntity
  8
DEFAULT_2
100
AcDbCircle
 62
8
  6
HIDDEN
 10
289.41316604
 20
78.1442770264
 40
0.2
100
AcDbArc
 50
270.0000000003
 51
360.0
  0
ARC
  5
30D
100
AcDbEntity
  8
DEFAULT_2
100
AcDbCircle
 62
8
  6
HIDDEN
 10
273.8204821326
 20
121.2454347026
 40
11.1702054715
100
AcDbArc
 50
359.0085434873
 51
359.9940618854
  0
ARC
  5
30E
100
AcDbEntity
  8
DEFAULT_2
100
AcDbCircle
 62
8
  6
HIDDEN
 10
273.9034575461
 20
121.2438413207
 40
11.0872300066
100
AcDbArc
 50
0.002251608
 51
0.9951655034
  0
ARC
  5
30F
100
AcDbEntity
  8
DEFAULT_2
100
AcDbCircle
 62
8
  6
HIDDEN
 10
289.61316604
 20
127.4442770264
 40
0.5
100
AcDbArc
 50
0.0
 51
90.0
  0
ARC
  5
310
100
AcDbEntity
  8
0
100
AcDbCircle
 62
7
  6
CONTINUOUS
 10
285.11316604
 20
127.4442770264
 40
0.5
100
AcDbArc
 50
90.0
 51
180.0
  0
ARC
  5
311
100
AcDbEntity
  8
GIANNI_ASSI
100
AcDbCircle
 62
8
  6
HIDDEN
 10
295.2780068137
 20
94.0778461309
 40
2.4731083061
100
AcDbArc
 50
131.0016821533
 51
134.4177925346
  0
ARC
  5
312
100
AcDbEntity
  8
GIANNI_ASSI
100
AcDbCircle
 62
8
  6
HIDDEN
 10
296.4585302405
 20
94.0889013852
 40
2.4580697621
100
AcDbArc
 50
45.5717544076
 51
49.0087709045
  0
ARC
  5
313
100
AcDbEntity
  8
DEFAULT_2
100
AcDbCircle
 62
8
  6
HIDDEN
 10
304.5585954303
 20
88.7442770264
 40
0.8
100
AcDbArc
 50
188.0000000002
 51
269.9999999999
  0
ARC
  5
314
100
AcDbEntity
  8
DEFAULT_2
100
AcDbCircle
 62
8
  6
HIDDEN
 10
309.66316604
 20
92.8928051638
 40
0.6
100
AcDbArc
 50
146.4426902381
 51
225.0
  0
ARC
  5
315
100
AcDbEntity
  8
DEFAULT_2
100
AcDbCircle
 62
8
  6
HIDDEN
 10
309.46316604
 20
92.9928051638
 40
0.6
100
AcDbArc
 50
125.6853347127
 51
225.0
  0
ARC
  5
316
100
AcDbEntity
  8
0
100
AcDbCircle
 62
7
  6
CONTINUOUS
 10
309.26316604
 20
79.9072679416
 40
0.5
100
AcDbArc
 50
299.9999999998
 51
360.0
  0
ARC
  5
317
100
AcDbEntity
  8
0
100
AcDbCircle
 62
7
  6
CONTINUOUS
 10
306.7291914438
 20
78.4442770264
 40
0.5
100
AcDbArc
 50
270.0
 51
299.9999999998
  0
ARC
  5
318
100
AcDbEntity
  8
DEFAULT_2
100
AcDbCircle
 62
8
  6
HIDDEN
 10
309.46316604
 20
94.9442770264
 40
0.4
100
AcDbArc
 50
151.0449756281
 51
208.9550243719
  0
ARC
  5
319
100
AcDbEntity
  8
DEFAULT_2
100
AcDbCircle
 62
8
  6
HIDDEN
 10
302.31316604
 20
78.1442770264
 40
0.2
100
AcDbArc
 50
180.0
 51
269.9999999999
  0
CIRCLE
  5
31A
100
AcDbEntity
  8
0
100
AcDbCircle
 62
7
  6
CONTINUOUS
 10
295.86316604
 20
111.9442770264
 40
3.0
  0
ARC
  5
31B
100
AcDbEntity
  8
0
100
AcDbCircle
 62
2
  6
CONTINUOUS
 10
295.86316604
 20
111.9442770264
 40
2.6
100
AcDbArc
 50
255.0
 51
195.0
  0
CIRCLE
  5
31C
100
AcDbEntity
  8
0
100
AcDbCircle
 62
7
  6
CONTINUOUS
 10
295.86316604
 20
111.9442770264
 40
2.5
  0
ARC
  5
31D
100
AcDbEntity
  8
DEFAULT_2
100
AcDbCircle
 62
8
  6
HIDDEN
 10
295.8591296884
 20
111.9438263724
 40
2.4959636891
100
AcDbArc
 50
179.989655069
 51
194.8926419616
  0
ARC
  5
31E
100
AcDbEntity
  8
DEFAULT_2
100
AcDbCircle
 62
8
  6
HIDDEN
 10
295.8672023916
 20
111.9438263724
 40
2.4959636891
100
AcDbArc
 50
345.1073580384
 51
0.010344931
  0
ARC
  5
31F
100
AcDbEntity
  8
DEFAULT_2
100
AcDbCircle
 62
8
  6
HIDDEN
 10
295.8848994384
 20
111.942110898
 40
2.4782675483
100
AcDbArc
 50
345.5822318681
 51
0.0500793506
  0
ARC
  5
320
100
AcDbEntity
  8
DEFAULT_2
100
AcDbCircle
 62
8
  6
HIDDEN
 10
295.8414326417
 20
111.942110898
 40
2.4782675483
100
AcDbArc
 50
179.9499206494
 51
194.4177681319
  0
CIRCLE
  5
321
100
AcDbEntity
  8
DEFAULT_2
100
AcDbCircle
 62
8
  6
HIDDEN
 10
295.86316604
 20
111.9442770264
 40
2.15
  0
CIRCLE
  5
322
100
AcDbEntity
  8
3_ALL_AXES
100
AcDbCircle
 62
7
  6
CONTINUOUS
 10
295.86316604
 20
111.9442770264
 40
2.0
  0
CIRCLE
  5
323
100
AcDbEntity
  8
3_ALL_AXES
100
AcDbCircle
 62
7
  6
CONTINUOUS
 10
295.86316604
 20
111.9442770264
 40
1.5
  0
ARC
  5
324
100
AcDbEntity
  8
DEFAULT_2
100
AcDbCircle
 62
8
  6
HIDDEN
 10
302.11316604
 20
127.4442770264
 40
0.5
100
AcDbArc
 50
90.0
 51
180.0
  0
ARC
  5
325
100
AcDbEntity
  8
0
100
AcDbCircle
 62
7
  6
CONTINUOUS
 10
306.61316604
 20
127.4442770264
 40
0.5
100
AcDbArc
 50
0.0
 51
90.0
  0
SPLINE
  5
326
100
AcDbEntity
  8
3_ALL_AXES
100
AcDbSpline
 62
8
  6
HIDDEN
 70
0
 71
3
 72
17
 73
13
 74
11
 42
0.0000001
 43
0.0000001
 44
0.0000000001
 12
0.7121389147
 22
0.7121389147
 32
0.0
 13
-0.7121389147
 23
0.7121389147
 33
0.0
 40
0.0
 40
0.0
 40
0.0
 40
0.0
 40
0.1379636694
 40
0.266914072
 40
0.3865442285
 40
0.4437301111
 40
0.4999999999
 40
0.5562698886
 40
0.6134557712
 40
0.7330859282
 40
0.8620363309
 40
1.0
 40
1.0
 40
1.0
 40
1.0
 10
284.6311152325
 20
122.1103024302
 30
0.0
 10
284.6638649984
 20
122.1430521961
 30
0.0
 10
284.7246595546
 20
122.2091341964
 30
0.0
 10
284.8000278757
 20
122.3153214877
 30
0.0
 10
284.8428738637
 20
122.4097337104
 30
0.0
 10
284.8602575917
 20
122.4862843157
 30
0.0
 10
284.864598359
 20
122.5433151319
 30
0.0
 10
284.8602575917
 20
122.6003459482
 30
0.0
 10
284.8428738638
 20
122.6768965536
 30
0.0
 10
284.8000278756
 20
122.7713087764
 30
0.0
 10
284.7246595545
 20
122.8774960678
 30
0.0
 10
284.6638649983
 20
122.9435780681
 30
0.0
 10
284.6311152325
 20
122.9763278339
 30
0.0
 11
284.6311152325
 21
122.1103024302
 31
0.0
 11
284.7243743052
 21
122.2133004612
 31
0.0
 11
284.7981758549
 21
122.3201604133
 31
0.0
 11
284.8463187324
 21
122.4306052258
 31
0.0
 11
284.8589133809
 21
122.4868040764
 31
0.0
 11
284.8631592455
 21
122.543315132
 31
0.0
 11
284.858913381
 21
122.5998261875
 31
0.0
 11
284.8463187325
 21
122.6560250381
 31
0.0
 11
284.7981758548
 21
122.7664698509
 31
0.0
 11
284.724374305
 21
122.8733298031
 31
0.0
 11
284.6311152325
 21
122.9763278339
 31
0.0
  0
SPLINE
  5
327
100
AcDbEntity
  8
3_ALL_AXES
100
AcDbSpline
 62
8
  6
HIDDEN
 70
0
 71
3
 72
15
 73
11
 74
9
 42
0.0000001
 43
0.0000001
 44
0.0000000001
 12
0.8088750767
 22
1.6177501535
 32
0.0
 13
-0.8088750767
 23
1.6177501535
 33
0.0
 40
0.0
 40
0.0
 40
0.0
 40
0.0
 40
0.1250196774
 40
0.2500286374
 40
0.3750218203
 40
0.5
 40
0.6249781796
 40
0.7499713626
 40
0.8749803228
 40
1.0
 40
1.0
 40
1.0
 40
1.0
 10
284.6311152325
 20
120.3782516226
 30
0.0
 10
284.6648236662
 20
120.44566849
 30
0.0
 10
284.7275818801
 20
120.5829261553
 30
0.0
 10
284.8024550445
 20
120.7966938091
 30
0.0
 10
284.8516307007
 20
121.0180251156
 30
0.0
 10
284.8689231721
 20
121.2442770263
 30
0.0
 10
284.8516307008
 20
121.470528937
 30
0.0
 10
284.8024550444
 20
121.6918602437
 30
0.0
 10
284.7275818801
 20
121.9056278976
 30
0.0
 10
284.6648236661
 20
122.0428855628
 30
0.0
 10
284.6311152325
 20
122.1103024302
 30
0.0
 11
284.6311152325
 21
120.3782516226
 31
0.0
 11
284.7243743056
 21
120.5842476855
 31
0.0
 11
284.7981758554
 21
120.7979675903
 31
0.0
 11
284.8463187328
 21
121.0188572152
 31
0.0
 11
284.8631592456
 21
121.2442770263
 31
0.0
 11
284.8463187328
 21
121.4696968374
 31
0.0
 11
284.7981758553
 21
121.6905864625
 31
0.0
 11
284.7243743054
 21
121.9043063675
 31
0.0
 11
284.6311152325
 21
122.1103024302
 31
0.0
  0
SPLINE
  5
328
100
AcDbEntity
  8
3_ALL_AXES
100
AcDbSpline
 62
8
  6
HIDDEN
 70
0
 71
3
 72
17
 73
13
 74
11
 42
0.0000001
 43
0.0000001
 44
0.0000000001
 12
0.7121389148
 22
0.7121389148
 32
0.0
 13
-0.7121389148
 23
0.7121389148
 33
0.0
 40
0.0
 40
0.0
 40
0.0
 40
0.0
 40
0.1379636695
 40
0.2669140724
 40
0.3865442291
 40
0.4437301116
 40
0.5000000001
 40
0.5562698886
 40
0.6134557709
 40
0.7330859274
 40
0.8620363303
 40
1.0
 40
1.0
 40
1.0
 40
1.0
 10
284.6311152325
 20
119.5122262188
 30
0.0
 10
284.6638649984
 20
119.5449759847
 30
0.0
 10
284.7246595547
 20
119.6110579851
 30
0.0
 10
284.8000278758
 20
119.7172452767
 30
0.0
 10
284.8428738642
 20
119.8116574995
 30
0.0
 10
284.8602575915
 20
119.8882081048
 30
0.0
 10
284.8645983592
 20
119.9452389208
 30
0.0
 10
284.8602575915
 20
120.0022697368
 30
0.0
 10
284.8428738642
 20
120.0788203419
 30
0.0
 10
284.8000278759
 20
120.1732325646
 30
0.0
 10
284.7246595549
 20
120.2794198561
 30
0.0
 10
284.6638649985
 20
120.3455018566
 30
0.0
 10
284.6311152325
 20
120.3782516226
 30
0.0
 11
284.6311152325
 21
119.5122262188
 31
0.0
 11
284.7243743052
 21
119.6152242499
 31
0.0
 11
284.7981758551
 21
119.7220842023
 31
0.0
 11
284.8463187327
 21
119.832529015
 31
0.0
 11
284.858913381
 21
119.8887278655
 31
0.0
 11
284.8631592456
 21
119.9452389208
 31
0.0
 11
284.858913381
 21
120.001749976
 31
0.0
 11
284.8463187327
 21
120.0579488265
 31
0.0
 11
284.7981758552
 21
120.1683936389
 31
0.0
 11
284.7243743054
 21
120.2752535913
 31
0.0
 11
284.6311152325
 21
120.3782516226
 31
0.0
  0
SPLINE
  5
329
100
AcDbEntity
  8
DEFAULT_2
100
AcDbSpline
 62
8
  6
HIDDEN
 70
0
 71
3
 72
22
 73
18
 74
16
 42
0.0000001
 43
0.0000001
 44
0.0000000001
 12
0.0129338581
 22
0.0
 32
0.0
 13
-0.0129305375
 23
-0.0
 33
0.0
 40
0.0
 40
0.0
 40
0.0
 40
0.0
 40
0.0666666667
 40
0.1333333333
 40
0.2
 40
0.2666666667
 40
0.3333333333
 40
0.4
 40
0.4666666667
 40
0.5333333333
 40
0.6
 40
0.6666666667
 40
0.7333333333
 40
0.8
 40
0.8666666667
 40
0.9333333333
 40
1.0
 40
1.0
 40
1.0
 40
1.0
 10
284.61316604
 20
118.2442770264
 30
0.0
 10
284.6134534591
 20
118.2442770264
 30
0.0
 10
284.6243256264
 20
118.2861553759
 30
0.0
 10
284.674839383
 20
118.48085786
 30
0.0
 10
284.7496180903
 20
118.7962970849
 30
0.0
 10
284.837444083
 20
119.2255197692
 30
0.0
 10
284.9207544043
 20
119.7363637098
 30
0.0
 10
284.9867290613
 20
120.3205004092
 30
0.0
 10
285.021925999
 20
120.9286285797
 30
0.0
 10
285.0219262095
 20
121.5599161841
 30
0.0
 10
284.9867300781
 20
122.1680427488
 30
0.0
 10
284.9207549465
 20
122.7521861871
 30
0.0
 10
284.837446353
 20
123.2630218771
 30
0.0
 10
284.7496186076
 20
123.6922549917
 30
0.0
 10
284.6748404732
 20
124.0076916677
 30
0.0
 10
284.6243254959
 20
124.2023993983
 30
0.0
 10
284.6134533853
 20
124.2442770264
 30
0.0
 10
284.61316604
 20
124.2442770264
 30
0.0
 11
284.61316604
 21
118.2442770264
 31
0.0
 11
284.630026544
 21
118.3081362025
 31
0.0
 11
284.6788835415
 21
118.5009806502
 31
0.0
 11
284.7517926379
 21
118.8152609948
 31
0.0
 11
284.8366914711
 21
119.2391233119
 31
0.0
 11
284.9178651269
 21
119.7485791696
 31
0.0
 11
284.9815994414
 21
120.3244989877
 31
0.0
 11
285.0160598778
 21
120.9324884853
 31
0.0
 11
285.0160601525
 21
121.5560560108
 31
0.0
 11
284.9816002447
 21
122.1640455611
 31
0.0
 11
284.9178660362
 21
122.7399682291
 31
0.0
 11
284.8366931611
 21
123.2494214478
 31
0.0
 11
284.7517935428
 21
123.6732889186
 31
0.0
 11
284.6788843327
 21
123.9875701768
 31
0.0
 11
284.6300266311
 21
124.1804175169
 31
0.0
 11
284.61316604
 21
124.2442770264
 31
0.0
  0
SPLINE
  5
32A
100
AcDbEntity
  8
DEFAULT_2
100
AcDbSpline
 62
8
  6
HIDDEN
 70
0
 71
3
 72
23
 73
19
 74
17
 42
0.0000001
 43
0.0000001
 44
0.0000000001
 12
-0.0263186292
 22
0.0
 32
0.0
 13
0.0263986596
 23
0.0
 33
0.0
 40
0.0
 40
0.0
 40
0.0
 40
0.0
 40
0.0625
 40
0.125
 40
0.1875
 40
0.25
 40
0.3125
 40
0.375
 40
0.4375
 40
0.5
 40
0.5625
 40
0.625
 40
0.6875
 40
0.75
 40
0.8125
 40
0.875
 40
0.9375
 40
1.0
 40
1.0
 40
1.0
 40
1.0
 10
290.11316604
 20
124.2442770264
 30
0.0
 10
290.1126177353
 20
124.2442770264
 30
0.0
 10
290.130265218
 20
124.2122615341
 30
0.0
 10
290.2158895422
 20
124.0443367584
 30
0.0
 10
290.3519044968
 20
123.7625765268
 30
0.0
 10
290.5215982926
 20
123.3706164932
 30
0.0
 10
290.6919967845
 20
122.9040453136
 30
0.0
 10
290.8401023369
 20
122.3687358268
 30
0.0
 10
290.9353994647
 20
121.8140796095
 30
0.0
 10
290.9690164832
 20
121.2442749997
 30
0.0
 10
290.9354055371
 20
120.6745316606
 30
0.0
 10
290.8401046951
 20
120.1198253812
 30
0.0
 10
290.6920123885
 20
119.5845625119
 30
0.0
 10
290.5216253897
 20
119.1180037472
 30
0.0
 10
290.351916092
 20
118.7260016119
 30
0.0
 10
290.2158946486
 20
118.4442278317
 30
0.0
 10
290.1302622623
 20
118.2762852152
 30
0.0
 10
290.112616068
 20
118.2442770264
 30
0.0
 10
290.11316604
 20
118.2442770264
 30
0.0
 11
290.11316604
 21
124.2442770264
 31
0.0
 11
290.140124068
 21
124.1922779445
 31
0.0
 11
290.2242879806
 21
124.0253641824
 31
0.0
 11
290.357517637
 21
123.7442098931
 31
0.0
 11
290.5217157419
 21
123.3581813022
 31
0.0
 11
290.6882812946
 21
122.8925889291
 31
0.0
 11
290.8313009328
 21
122.3655113717
 31
0.0
 11
290.9251194465
 21
121.8115548774
 31
0.0
 11
290.9578118224
 21
121.2442852115
 31
0.0
 11
290.9251238878
 21
120.6770378372
 31
0.0
 11
290.8313061176
 21
120.1230659496
 31
0.0
 11
290.6882966065
 21
119.596013196
 31
0.0
 11
290.5217383399
 21
119.1304298521
 31
0.0
 11
290.3575307344
 21
118.7443730044
 31
0.0
 11
290.2242928248
 21
118.4631996923
 31
0.0
 11
290.1401227781
 21
118.2962736041
 31
0.0
 11
290.11316604
 21
118.2442770264
 31
0.0
  0
LINE
  5
32B
100
AcDbEntity
  8
DEFAULT_2
100
AcDbLine
 62
8
  6
HIDDEN
 10
284.61316604
 20
118.3442770264
 11
284.6266581203
 21
118.3970427418
  0
SPLINE
  5
32C
100
AcDbEntity
  8
DEFAULT_2
100
AcDbSpline
 62
8
  6
HIDDEN
 70
0
 71
3
 72
9
 73
5
 74
3
 42
0.0000001
 43
0.0000001
 44
0.0000000001
 12
0.6593523163
 22
2.6015250232
 32
0.0
 13
0.0464766455
 23
2.683378066
 33
0.0
 40
0.0
 40
0.0
 40
0.0
 40
0.0
 40
0.3536779712
 40
1.0
 40
1.0
 40
1.0
 40
1.0
 10
284.6266581203
 20
118.3970427418
 30
0.0
 10
284.7043909168
 20
118.7037434392
 30
0.0
 10
284.8920416797
 20
119.5791012695
 30
0.0
 10
284.9790023126
 20
120.4740443114
 30
0.0
 10
284.9890152725
 20
121.0521530966
 30
0.0
 11
284.6266581203
 21
118.3970427418
 31
0.0
 11
284.8245316612
 21
119.3253828792
 31
0.0
 11
284.9890152725
 21
121.0521530966
 31
0.0
  0
SPLINE
  5
32D
100
AcDbEntity
  8
DEFAULT_2
100
AcDbSpline
 62
8
  6
HIDDEN
 70
0
 71
3
 72
9
 73
5
 74
3
 42
0.0000001
 43
0.0000001
 44
0.0000000001
 12
-0.0000197285
 22
-2.9292661432
 32
0.0
 13
-0.7284567289
 23
-2.8372435448
 33
0.0
 40
0.0
 40
0.0
 40
0.0
 40
0.0
 40
0.704582759
 40
1.0
 40
1.0
 40
1.0
 40
1.0
 10
284.9906875442
 20
121.2442770264
 30
0.0
 10
284.9906829107
 20
120.556306886
 30
0.0
 10
284.8978186593
 20
119.5769470267
 30
0.0
 10
284.6848989324
 20
118.6236672463
 30
0.0
 10
284.61316604
 20
118.3442770264
 30
0.0
 11
284.9906875442
 21
121.2442770264
 31
0.0
 11
284.8002218459
 21
119.1891738551
 31
0.0
 11
284.61316604
 21
118.3442770264
 31
0.0
  0
SPLINE
  5
32E
100
AcDbEntity
  8
DEFAULT_2
100
AcDbSpline
 62
8
  6
HIDDEN
 70
0
 71
3
 72
17
 73
13
 74
11
 42
0.0000001
 43
0.0000001
 44
0.0000000001
 12
-0.7303262662
 22
2.8397211483
 32
0.0
 13
-0.0000197496
 23
-2.9321310774
 33
0.0
 40
0.0
 40
0.0
 40
0.0
 40
0.0
 40
0.0188228241
 40
0.0771552373
 40
0.1199105942
 40
0.1708701994
 40
0.2295183447
 40
0.2953117444
 40
0.4461075122
 40
0.6185032806
 40
0.8058015348
 40
1.0
 40
1.0
 40
1.0
 40
1.0
 10
284.61316604
 20
124.1442770264
 30
0.0
 10
284.6085837724
 20
124.1620942169
 30
0.0
 10
284.6502495804
 20
123.9997924729
 30
0.0
 10
284.6607806636
 20
123.9538991677
 30
0.0
 10
284.6993440514
 20
123.7908679647
 30
0.0
 10
284.7302506898
 20
123.650864579
 30
0.0
 10
284.7657059271
 20
123.4812677512
 30
0.0
 10
284.8164516171
 20
123.2178311424
 30
0.0
 10
284.8786056776
 20
122.8422320959
 30
0.0
 10
284.9397859224
 20
122.3470532551
 30
0.0
 10
284.9810564872
 20
121.8070088671
 30
0.0
 10
284.9906888226
 20
121.4340821447
 30
0.0
 10
284.9906875442
 20
121.2442770264
 30
0.0
 11
284.61316604
 21
124.1442770264
 31
0.0
 11
284.6268368696
 21
124.0908059733
 31
0.0
 11
284.6677297307
 21
123.9247280767
 31
0.0
 11
284.6962727271
 21
123.8026563448
 31
0.0
 11
284.7286742452
 21
123.6567915089
 31
0.0
 11
284.7637705052
 21
123.488446961
 31
0.0
 11
284.8002883065
 21
123.2990199353
 31
0.0
 11
284.8723442496
 21
122.8627778252
 31
0.0
 11
284.9342539477
 21
122.361096366
 31
0.0
 11
284.9760125192
 21
121.8135032469
 31
0.0
 11
284.9906875442
 21
121.2442770264
 31
0.0
  0
SPLINE
  5
32F
100
AcDbEntity
  8
DEFAULT_2
100
AcDbSpline
 62
8
  6
HIDDEN
 70
0
 71
3
 72
9
 73
5
 74
3
 42
0.0000001
 43
0.0000001
 44
0.0000000001
 12
-0.0473578266
 22
2.7313597464
 32
0.0
 13
-0.6814992194
 23
2.645397445
 33
0.0
 40
0.0
 40
0.0
 40
0.0
 40
0.0
 40
0.6854751974
 40
1.0
 40
1.0
 40
1.0
 40
1.0
 10
284.9890152015
 20
121.4364047898
 30
0.0
 10
284.9781943296
 20
122.0604979103
 30
0.0
 10
284.8836885075
 20
122.9716908282
 30
0.0
 10
284.6861393012
 20
123.8610164551
 30
0.0
 10
284.614689832
 20
124.1383641582
 30
0.0
 11
284.9890152015
 21
121.4364047898
 31
0.0
 11
284.8002138969
 21
123.2994232802
 31
0.0
 11
284.614689832
 21
124.1383641582
 31
0.0
  0
LINE
  5
330
100
AcDbEntity
  8
DEFAULT_2
100
AcDbLine
 62
8
  6
HIDDEN
 10
284.614689832
 20
124.1383641582
 11
284.6131660394
 21
124.144277029
  0
SPLINE
  5
331
100
AcDbEntity
  8
DEFAULT_2
100
AcDbSpline
 62
8
  6
HIDDEN
 70
0
 71
3
 72
29
 73
25
 74
23
 42
0.0000001
 43
0.0000001
 44
0.0000000001
 12
2.6230004217
 22
0.0
 32
0.0
 13
0.0020720206
 23
2.6229996031
 33
0.0
 40
0.0
 40
0.0
 40
0.0
 40
0.0
 40
0.0003083764
 40
0.0012338724
 40
0.0027774316
 40
0.0049375401
 40
0.0077100316
 40
0.0110908841
 40
0.0196658719
 40
0.0306410221
 40
0.0439938297
 40
0.0596846939
 40
0.0776580496
 40
0.0978513486
 40
0.1202047591
 40
0.1711465746
 40
0.2299561007
 40
0.2960291148
 40
0.368717733
 40
0.4473395907
 40
0.5311707127
 40
0.6194417094
 40
0.8059957395
 40
1.0
 40
1.0
 40
1.0
 40
1.0
 10
284.91316604
 20
118.6442770264
 30
0.0
 10
284.9134356638
 20
118.6442770264
 30
0.0
 10
284.9131664262
 20
118.6459687473
 30
0.0
 10
284.9142117481
 20
118.647714789
 30
0.0
 10
284.9148731106
 20
118.6520039124
 30
0.0
 10
284.9163219942
 20
118.657353177
 30
0.0
 10
284.9179484471
 20
118.6644867133
 30
0.0
 10
284.9208729027
 20
118.6770044381
 30
0.0
 10
284.9252582851
 20
118.6965837492
 30
0.0
 10
284.9314924033
 20
118.7246616015
 30
0.0
 10
284.9391454337
 20
118.7588066296
 30
0.0
 10
284.948167402
 20
118.798912129
 30
0.0
 10
284.9583614238
 20
118.8448853799
 30
0.0
 10
284.9694818107
 20
118.8966187487
 30
0.0
 10
284.9861191919
 20
118.9766484304
 30
0.0
 10
285.0084910322
 20
119.0899676476
 30
0.0
 10
285.0366424749
 20
119.2411007194
 30
0.0
 10
285.065884027
 20
119.4113579919
 30
0.0
 10
285.094970957
 20
119.5991942606
 30
0.0
 10
285.1228686912
 20
119.8028956748
 30
0.0
 10
285.1486070055
 20
120.0206105549
 30
0.0
 10
285.1791121734
 20
120.3327260105
 30
0.0
 10
285.2062999942
 20
120.7418703099
 30
0.0
 10
285.213488677
 20
121.0746526603
 30
0.0
 10
285.2136226706
 20
121.2442770264
 30
0.0
 11
284.91316604
 21
118.6442770264
 31
0.0
 11
284.9133469091
 21
118.6450654167
 31
0.0
 11
284.9138981304
 21
118.6474295831
 31
0.0
 11
284.9148370405
 21
118.6513679681
 31
0.0
 11
284.9161584213
 21
118.6568776975
 31
0.0
 11
284.9178330728
 21
118.6639544982
 31
0.0
 11
284.9198345604
 21
118.6725936574
 31
0.0
 11
284.9247926045
 21
118.6945325888
 31
0.0
 11
284.931050652
 21
118.7226319773
 31
0.0
 11
284.938702313
 21
118.7568103634
 31
0.0
 11
284.9477103353
 21
118.7969696213
 31
0.0
 11
284.9578944283
 21
118.8430006135
 31
0.0
 11
284.9690294494
 21
118.8947839869
 31
0.0
 11
284.9809728355
 21
118.9521876873
 31
0.0
 11
285.0069402071
 21
119.0832605979
 31
0.0
 11
285.0351442397
 21
119.2349177165
 31
0.0
 11
285.0644581156
 21
119.405730171
 31
0.0
 11
285.093647603
 21
119.5941448134
 31
0.0
 11
285.1216423676
 21
119.7984610197
 31
0.0
 11
285.147432466
 21
120.0168324309
 31
0.0
 11
285.1699855117
 21
120.2472662657
 31
0.0
 11
285.2022921225
 21
120.7355299276
 31
0.0
 11
285.2136226706
 21
121.2442770264
 31
0.0
  0
SPLINE
  5
332
100
AcDbEntity
  8
DEFAULT_2
100
AcDbSpline
 62
8
  6
HIDDEN
 70
0
 71
3
 72
11
 73
7
 74
5
 42
0.0000001
 43
0.0000001
 44
0.0000000001
 12
0.0
 22
-2.6916186689
 32
0.0
 13
-1.1087657119
 23
-2.4522934742
 33
0.0
 40
0.0
 40
0.0
 40
0.0
 40
0.0
 40
0.3743822116
 40
0.6952172641
 40
0.9182207609
 40
1.0
 40
1.0
 40
1.0
 40
1.0
 10
290.7345697409
 20
121.2442770264
 30
0.0
 10
290.7345697409
 20
120.9083789764
 30
0.0
 10
290.6716559799
 20
120.2831290007
 30
0.0
 10
290.4546675964
 20
119.4860425651
 30
0.0
 10
290.2531997396
 20
118.9616029163
 30
0.0
 10
290.1433907121
 20
118.7111259245
 30
0.0
 10
290.11316604
 20
118.6442770264
 30
0.0
 11
290.7345697409
 21
121.2442770264
 31
0.0
 11
290.6374118347
 21
120.2412776041
 31
0.0
 11
290.4153246679
 21
119.4067580624
 31
0.0
 11
290.2014791313
 21
118.8459028274
 31
0.0
 11
290.11316604
 21
118.6442770264
 31
0.0
  0
SPLINE
  5
333
100
AcDbEntity
  8
DEFAULT_2
100
AcDbSpline
 62
8
  6
HIDDEN
 70
0
 71
3
 72
28
 73
24
 74
22
 42
0.0000001
 43
0.0000001
 44
0.0000000001
 12
-0.000070444
 22
2.6230000427
 32
0.0
 13
2.623000044
 23
0.0
 33
0.0
 40
0.0
 40
0.0
 40
0.0
 40
0.0
 40
0.1940043121
 40
0.3805584874
 40
0.4688293888
 40
0.5526606112
 40
0.6312828133
 40
0.7039711677
 40
0.7700435469
 40
0.8288535216
 40
0.879795388
 40
0.9223418892
 40
0.9403157037
 40
0.9560069073
 40
0.9693595756
 40
0.9803341613
 40
0.9889086111
 40
0.9922894058
 40
0.9950620616
 40
0.9972224427
 40
0.9987662301
 40
0.9996917964
 40
1.0
 40
1.0
 40
1.0
 40
1.0
 10
285.2136226706
 20
121.2442770264
 30
0.0
 10
285.2136181151
 20
121.413901466
 30
0.0
 10
285.2062479975
 20
121.7466844502
 30
0.0
 10
285.1791035243
 20
122.1558267722
 30
0.0
 10
285.148623741
 20
122.4679455369
 30
0.0
 10
285.1228750016
 20
122.6856595839
 30
0.0
 10
285.0949499325
 20
122.8893573158
 30
0.0
 10
285.0658771345
 20
123.0771949801
 30
0.0
 10
285.0366641366
 20
123.2474568802
 30
0.0
 10
285.0084889218
 20
123.3985855874
 30
0.0
 10
284.982701199
 20
123.5292270634
 30
0.0
 10
284.9625978362
 20
123.6245893335
 30
0.0
 10
284.9481606671
 20
123.689641608
 30
0.0
 10
284.9391355956
 20
123.7297465429
 30
0.0
 10
284.9314781583
 20
123.7638915984
 30
0.0
 10
284.92526835
 20
123.7919700286
 30
0.0
 10
284.9208520106
 20
123.8115499597
 30
0.0
 10
284.9179877436
 20
123.8240676334
 30
0.0
 10
284.9162361459
 20
123.8312011773
 30
0.0
 10
284.9151030357
 20
123.836549994
 30
0.0
 10
284.9137169965
 20
123.840839628
 30
0.0
 10
284.9139357965
 20
123.8425844092
 30
0.0
 10
284.9128965673
 20
123.8442770264
 30
0.0
 10
284.91316604
 20
123.8442770264
 30
0.0
 11
285.2136226706
 21
121.2442770264
 31
0.0
 11
285.2022928723
 21
121.7530242038
 31
0.0
 11
285.1699831895
 21
122.2412879737
 31
0.0
 11
285.1474444522
 21
122.4717229237
 31
0.0
 11
285.121645255
 21
122.6900934933
 31
0.0
 11
285.0936331992
 21
122.8944082116
 31
0.0
 11
285.0644546297
 21
123.082823817
 31
0.0
 11
285.0351573452
 21
123.2536374032
 31
0.0
 11
285.006942034
 21
123.4052935979
 31
0.0
 11
284.9809733059
 21
123.5363663563
 31
0.0
 11
284.9578944533
 21
123.6455533944
 31
0.0
 11
284.9477041246
 21
123.6915842321
 31
0.0
 11
284.9386918237
 21
123.7317434362
 31
0.0
 11
284.9310422423
 21
123.7659219084
 31
0.0
 11
284.9247915456
 21
123.7940214118
 31
0.0
 11
284.9198401597
 21
123.8159603969
 31
0.0
 11
284.9178393718
 21
123.8245995612
 31
0.0
 11
284.9161628403
 21
123.8316763587
 31
0.0
 11
284.914838383
 21
123.8371860838
 31
0.0
 11
284.9138968856
 21
123.8411244659
 31
0.0
 11
284.9133448633
 21
123.8434886343
 31
0.0
 11
284.91316604
 21
123.8442770264
 31
0.0
  0
SPLINE
  5
334
100
AcDbEntity
  8
DEFAULT_2
100
AcDbSpline
 62
8
  6
HIDDEN
 70
0
 71
3
 72
11
 73
7
 74
5
 42
0.0000001
 43
0.0000001
 44
0.0000000001
 12
1.1087654851
 22
-2.4522935374
 32
0.0
 13
-0.0
 23
-2.6916186283
 33
0.0
 40
0.0
 40
0.0
 40
0.0
 40
0.0
 40
0.0817786527
 40
0.3047796025
 40
0.625614983
 40
1.0
 40
1.0
 40
1.0
 40
1.0
 10
290.11316604
 20
123.8442770264
 30
0.0
 10
290.1433904892
 20
123.7774286059
 30
0.0
 10
290.253198393
 20
123.5269541966
 30
0.0
 10
290.4546656546
 20
123.0025170407
 30
0.0
 10
290.6716550878
 20
122.205430377
 30
0.0
 10
290.7345697409
 20
121.5801775883
 30
0.0
 10
290.7345697409
 20
121.2442770264
 30
0.0
 11
290.11316604
 21
123.8442770264
 31
0.0
 11
290.2014785026
 21
123.6426526766
 31
0.0
 11
290.4153219448
 21
123.0818039899
 31
0.0
 11
290.6374103398
 21
122.2472838751
 31
0.0
 11
290.7345697409
 21
121.2442770264
 31
0.0
  0
SPLINE
  5
335
100
AcDbEntity
  8
0
100
AcDbSpline
 62
2
  6
CONTINUOUS
 70
0
 71
3
 72
22
 73
18
 74
16
 42
0.0000001
 43
0.0000001
 44
0.0000000001
 12
0.0129338581
 22
0.0
 32
0.0
 13
-0.0129305375
 23
0.0
 33
0.0
 40
0.0
 40
0.0
 40
0.0
 40
0.0
 40
0.0666666667
 40
0.1333333333
 40
0.2
 40
0.2666666667
 40
0.3333333333
 40
0.4
 40
0.4666666667
 40
0.5333333333
 40
0.6
 40
0.6666666667
 40
0.7333333333
 40
0.8
 40
0.8666666667
 40
0.9333333333
 40
1.0
 40
1.0
 40
1.0
 40
1.0
 10
284.61316604
 20
124.2442770264
 30
0.0
 10
284.6134534591
 20
124.2442770264
 30
0.0
 10
284.6243256264
 20
124.2023986769
 30
0.0
 10
284.674839383
 20
124.0076961927
 30
0.0
 10
284.7496180903
 20
123.6922569678
 30
0.0
 10
284.837444083
 20
123.2630342836
 30
0.0
 10
284.9207544043
 20
122.7521903429
 30
0.0
 10
284.9867290613
 20
122.1680536435
 30
0.0
 10
285.021925999
 20
121.5599254731
 30
0.0
 10
285.0219262095
 20
120.9286378686
 30
0.0
 10
284.9867300781
 20
120.320511304
 30
0.0
 10
284.9207549465
 20
119.7363678656
 30
0.0
 10
284.837446353
 20
119.2255321757
 30
0.0
 10
284.7496186076
 20
118.7962990611
 30
0.0
 10
284.6748404732
 20
118.480862385
 30
0.0
 10
284.6243254959
 20
118.2861546544
 30
0.0
 10
284.6134533853
 20
118.2442770264
 30
0.0
 10
284.61316604
 20
118.2442770264
 30
0.0
 11
284.61316604
 21
124.2442770264
 31
0.0
 11
284.630026544
 21
124.1804178502
 31
0.0
 11
284.6788835415
 21
123.9875734026
 31
0.0
 11
284.7517926379
 21
123.6732930579
 31
0.0
 11
284.8366914711
 21
123.2494307408
 31
0.0
 11
284.9178651269
 21
122.7399748831
 31
0.0
 11
284.9815994414
 21
122.164055065
 31
0.0
 11
285.0160598778
 21
121.5560655674
 31
0.0
 11
285.0160601525
 21
120.9324980419
 31
0.0
 11
284.9816002447
 21
120.3245084917
 31
0.0
 11
284.9178660362
 21
119.7485858237
 31
0.0
 11
284.8366931611
 21
119.2391326049
 31
0.0
 11
284.7517935428
 21
118.8152651342
 31
0.0
 11
284.6788843327
 21
118.5009838759
 31
0.0
 11
284.6300266311
 21
118.3081365358
 31
0.0
 11
284.61316604
 21
118.2442770264
 31
0.0
  0
SPLINE
  5
336
100
AcDbEntity
  8
0
100
AcDbSpline
 62
7
  6
CONTINUOUS
 70
0
 71
3
 72
13
 73
9
 74
7
 42
0.0000001
 43
0.0000001
 44
0.0000000001
 12
-10.7825250671
 22
-2.5009900533
 32
0.0
 13
-10.7825250671
 23
2.5009900533
 33
0.0
 40
0.0
 40
0.0
 40
0.0
 40
0.0
 40
0.2499578913
 40
0.3749786574
 40
0.5000000084
 40
0.6250213595
 40
0.7500421234
 40
1.0
 40
1.0
 40
1.0
 40
1.0
 10
301.3470059356
 20
79.4742552397
 30
0.0
 10
300.4486135259
 20
79.2658745064
 30
0.0
 10
299.0847243651
 20
79.0144304334
 30
0.0
 10
297.2472551338
 20
78.8399609651
 30
0.0
 10
295.8631659448
 20
78.7955049908
 30
0.0
 10
294.4790767638
 20
78.8399609594
 30
0.0
 10
292.6416075947
 20
79.0144304303
 30
0.0
 10
291.2777185011
 20
79.2658745187
 30
0.0
 10
290.3793261445
 20
79.4742552397
 30
0.0
 11
301.3470059356
 21
79.4742552397
 31
0.0
 11
298.6240169467
 21
78.9842409207
 31
0.0
 11
297.2462982806
 21
78.8543641358
 31
0.0
 11
295.8631659452
 21
78.8103236711
 31
0.0
 11
294.4800336085
 21
78.8543641325
 31
0.0
 11
293.1023149676
 21
78.9842409223
 31
0.0
 11
290.3793261445
 21
79.4742552397
 31
0.0
  0
SPLINE
  5
337
100
AcDbEntity
  8
0
100
AcDbSpline
 62
7
  6
CONTINUOUS
 70
0
 71
3
 72
13
 73
9
 74
7
 42
0.0000001
 43
0.0000001
 44
0.0000000001
 12
-5.1543053349
 22
-2.3910663401
 32
0.0
 13
-5.1543053349
 23
2.3910663401
 33
0.0
 40
0.0
 40
0.0
 40
0.0
 40
0.0
 40
0.2546663553
 40
0.378039704
 40
0.5000000079
 40
0.6219603118
 40
0.7453336585
 40
1.0
 40
1.0
 40
1.0
 40
1.0
 10
287.7797684405
 20
79.4742552397
 30
0.0
 10
287.3422257225
 20
79.271280523
 30
0.0
 10
286.6660735404
 20
79.0183782923
 30
0.0
 10
285.7339785721
 20
78.8403821323
 30
0.0
 10
285.0378484453
 20
78.7953810055
 30
0.0
 10
284.3417183217
 20
78.8403821266
 30
0.0
 10
283.4096233832
 20
79.0183782901
 30
0.0
 10
282.7334712392
 20
79.271280534
 30
0.0
 10
282.295928545
 20
79.4742552397
 30
0.0
 11
287.7797684405
 21
79.4742552397
 31
0.0
 11
286.4182739461
 21
78.9842409207
 31
0.0
 11
285.729414613
 21
78.8543641358
 31
0.0
 11
285.0378484453
 21
78.8103236711
 31
0.0
 11
284.346282277
 21
78.8543641325
 31
0.0
 11
283.6574229565
 21
78.9842409223
 31
0.0
 11
282.295928545
 21
79.4742552397
 31
0.0
  0
SPLINE
  5
338
100
AcDbEntity
  8
0
100
AcDbSpline
 62
7
  6
CONTINUOUS
 70
0
 71
3
 72
10
 73
6
 74
4
 42
0.0000001
 43
0.0000001
 44
0.0000000001
 12
0.0
 22
-0.5521524288
 32
0.0
 13
-0.5008815612
 23
-0.2323574106
 33
0.0
 40
0.0
 40
0.0
 40
0.0
 40
0.0
 40
0.328607802
 40
0.5875050077
 40
1.0
 40
1.0
 40
1.0
 40
1.0
 10
288.0775853234
 20
79.9072679416
 30
0.0
 10
288.0775853234
 20
79.8467874096
 30
0.0
 10
288.0541779317
 20
79.7372415725
 30
0.0
 10
287.9531409312
 20
79.5806310561
 30
0.0
 10
287.8486388191
 20
79.5062039958
 30
0.0
 10
287.7797684405
 20
79.4742552397
 30
0.0
 11
288.0775853234
 21
79.9072679416
 31
0.0
 11
288.0401529191
 21
79.7297295856
 31
0.0
 11
287.9632077695
 21
79.6092540587
 31
0.0
 11
287.7797684405
 21
79.4742552397
 31
0.0
  0
SPLINE
  5
339
100
AcDbEntity
  8
0
100
AcDbSpline
 62
7
  6
CONTINUOUS
 70
0
 71
3
 72
13
 73
9
 74
7
 42
0.0000001
 43
0.0000001
 44
0.0000000001
 12
-0.7636308943
 22
0.1771230078
 32
0.0
 13
0.0
 23
0.7839035034
 33
0.0
 40
0.0
 40
0.0
 40
0.0
 40
0.0
 40
0.2500404608
 40
0.4999443508
 40
0.6250192827
 40
0.7500913339
 40
0.8751210364
 40
1.0
 40
1.0
 40
1.0
 40
1.0
 10
290.3793261445
 20
79.4742552397
 30
0.0
 10
290.3156799376
 20
79.4890178792
 30
0.0
 10
290.1897445703
 20
79.5246033803
 30
0.0
 10
290.0390167117
 20
79.5898911775
 30
0.0
 10
289.9290370191
 20
79.6611113455
 30
0.0
 10
289.8557716744
 20
79.7270969588
 30
0.0
 10
289.7992939425
 20
79.8087866283
 30
0.0
 10
289.7836923786
 20
79.8746369226
 30
0.0
 10
289.7836923786
 20
79.9072679416
 30
0.0
 11
290.3793261445
 21
79.4742552397
 31
0.0
 11
290.1910534571
 21
79.5287747021
 31
0.0
 11
290.0124474865
 21
79.6092540587
 31
0.0
 11
289.9305782497
 21
79.663203841
 31
0.0
 11
289.8585571874
 21
79.7297295856
 31
0.0
 11
289.8047874968
 21
79.811674811
 31
0.0
 11
289.7836923786
 21
79.9072679416
 31
0.0
  0
SPLINE
  5
33A
100
AcDbEntity
  8
0
100
AcDbSpline
 62
7
  6
CONTINUOUS
 70
0
 71
3
 72
13
 73
9
 74
7
 42
0.0000001
 43
0.0000001
 44
0.0000000001
 12
-5.1543053349
 22
-2.3910663401
 32
0.0
 13
-5.1543053349
 23
2.3910663401
 33
0.0
 40
0.0
 40
0.0
 40
0.0
 40
0.0
 40
0.2546663553
 40
0.378039704
 40
0.5000000079
 40
0.6219603118
 40
0.7453336585
 40
1.0
 40
1.0
 40
1.0
 40
1.0
 10
309.4304035351
 20
79.4742552397
 30
0.0
 10
308.9928608171
 20
79.271280523
 30
0.0
 10
308.3167086351
 20
79.0183782923
 30
0.0
 10
307.3846136667
 20
78.8403821323
 30
0.0
 10
306.6884835399
 20
78.7953810055
 30
0.0
 10
305.9923534163
 20
78.8403821266
 30
0.0
 10
305.0602584779
 20
79.0183782901
 30
0.0
 10
304.3841063338
 20
79.271280534
 30
0.0
 10
303.9465636396
 20
79.4742552397
 30
0.0
 11
309.4304035351
 21
79.4742552397
 31
0.0
 11
308.0689090407
 21
78.9842409207
 31
0.0
 11
307.3800497076
 21
78.8543641358
 31
0.0
 11
306.6884835399
 21
78.8103236711
 31
0.0
 11
305.9969173716
 21
78.8543641325
 31
0.0
 11
305.3080580511
 21
78.9842409223
 31
0.0
 11
303.9465636396
 21
79.4742552397
 31
0.0
  0
SPLINE
  5
33B
100
AcDbEntity
  8
0
100
AcDbSpline
 62
7
  6
CONTINUOUS
 70
0
 71
3
 72
10
 73
6
 74
4
 42
0.0000001
 43
0.0000001
 44
0.0000000001
 12
-0.5008815612
 22
0.2323574106
 32
0.0
 13
0.0
 23
0.5521524288
 33
0.0
 40
0.0
 40
0.0
 40
0.0
 40
0.0
 40
0.4124949923
 40
0.671392198
 40
1.0
 40
1.0
 40
1.0
 40
1.0
 10
282.295928545
 20
79.4742552397
 30
0.0
 10
282.2270581664
 20
79.5062039958
 30
0.0
 10
282.1225560543
 20
79.5806310561
 30
0.0
 10
282.0215190537
 20
79.7372415725
 30
0.0
 10
281.998111662
 20
79.8467874096
 30
0.0
 10
281.998111662
 20
79.9072679416
 30
0.0
 11
282.295928545
 21
79.4742552397
 31
0.0
 11
282.112489216
 21
79.6092540587
 31
0.0
 11
282.0355440664
 21
79.7297295856
 31
0.0
 11
281.998111662
 21
79.9072679416
 31
0.0
  0
SPLINE
  5
33C
100
AcDbEntity
  8
0
100
AcDbSpline
 62
7
  6
CONTINUOUS
 70
0
 71
3
 72
10
 73
6
 74
4
 42
0.0000001
 43
0.0000001
 44
0.0000000001
 12
-0.5008814945
 22
0.2323573797
 32
0.0
 13
0.0
 23
0.5521523553
 33
0.0
 40
0.0
 40
0.0
 40
0.0
 40
0.0
 40
0.4124912137
 40
0.6713848882
 40
1.0
 40
1.0
 40
1.0
 40
1.0
 10
303.9465636396
 20
79.4742552397
 30
0.0
 10
303.877693901
 20
79.5062036989
 30
0.0
 10
303.773192666
 20
79.5806295499
 30
0.0
 10
303.6721552853
 20
79.737239613
 30
0.0
 10
303.6487467566
 20
79.8467860723
 30
0.0
 10
303.6487467566
 20
79.9072679416
 30
0.0
 11
303.9465636396
 21
79.4742552397
 31
0.0
 11
303.7631257057
 21
79.6092523834
 31
0.0
 11
303.6861810363
 21
79.7297258808
 31
0.0
 11
303.6487467566
 21
79.9072679416
 31
0.0
  0
SPLINE
  5
33D
100
AcDbEntity
  8
0
100
AcDbSpline
 62
7
  6
CONTINUOUS
 70
0
 71
3
 72
13
 73
9
 74
7
 42
0.0000001
 43
0.0000001
 44
0.0000000001
 12
0.0
 22
-0.7839035034
 32
0.0
 13
-0.7636308943
 23
-0.1771230078
 33
0.0
 40
0.0
 40
0.0
 40
0.0
 40
0.0
 40
0.1248789636
 40
0.2499086661
 40
0.3749807173
 40
0.5000556492
 40
0.7499595392
 40
1.0
 40
1.0
 40
1.0
 40
1.0
 10
301.9426397015
 20
79.9072679416
 30
0.0
 10
301.9426397015
 20
79.8746369226
 30
0.0
 10
301.9270381376
 20
79.8087866283
 30
0.0
 10
301.8705604057
 20
79.7270969588
 30
0.0
 10
301.797295061
 20
79.6611113455
 30
0.0
 10
301.6873153683
 20
79.5898911775
 30
0.0
 10
301.5365875097
 20
79.5246033803
 30
0.0
 10
301.4106521425
 20
79.4890178792
 30
0.0
 10
301.3470059356
 20
79.4742552397
 30
0.0
 11
301.9426397015
 21
79.9072679416
 31
0.0
 11
301.9215445833
 21
79.811674811
 31
0.0
 11
301.8677748927
 21
79.7297295856
 31
0.0
 11
301.7957538303
 21
79.663203841
 31
0.0
 11
301.7138845936
 21
79.6092540587
 31
0.0
 11
301.535278623
 21
79.5287747021
 31
0.0
 11
301.3470059356
 21
79.4742552397
 31
0.0
  0
SPLINE
  5
33E
100
AcDbEntity
  8
0
100
AcDbSpline
 62
7
  6
CONTINUOUS
 70
0
 71
3
 72
10
 73
6
 74
4
 42
0.0000001
 43
0.0000001
 44
0.0000000001
 12
0.0
 22
-0.5521523553
 32
0.0
 13
-0.5008814945
 23
-0.2323573797
 33
0.0
 40
0.0
 40
0.0
 40
0.0
 40
0.0
 40
0.3286151118
 40
0.5875087863
 40
1.0
 40
1.0
 40
1.0
 40
1.0
 10
309.7282204181
 20
79.9072679416
 30
0.0
 10
309.7282204181
 20
79.8467860723
 30
0.0
 10
309.7048118894
 20
79.737239613
 30
0.0
 10
309.6037745087
 20
79.5806295499
 30
0.0
 10
309.4992732737
 20
79.5062036989
 30
0.0
 10
309.4304035351
 20
79.4742552397
 30
0.0
 11
309.7282204181
 21
79.9072679416
 31
0.0
 11
309.6907861384
 21
79.7297258808
 31
0.0
 11
309.613841469
 21
79.6092523834
 31
0.0
 11
309.4304035351
 21
79.4742552397
 31
0.0
  0
ELLIPSE
  5
33F
100
AcDbEntity
  8
0
100
AcDbEllipse
 62
7
  6
CONTINUOUS
 10
295.86316604
 20
75.4442770264
 30
0.0
 11
-13.4263689854
 21
13.4263689854
 31
0.0
 40
0.2679491924
 41
-0.7144738705
 42
0.1908750949
  0
ELLIPSE
  5
340
100
AcDbEntity
  8
0
100
AcDbEllipse
 62
7
  6
CONTINUOUS
 10
295.86316604
 20
75.4442770264
 30
0.0
 11
13.4263689854
 21
13.4263689854
 31
0.0
 40
0.2679491924
 41
-0.1908750949
 42
0.7144738705
  0
ELLIPSE
  5
341
100
AcDbEntity
  8
0
100
AcDbEllipse
 62
7
  6
CONTINUOUS
 10
295.86316604
 20
75.4442770264
 30
0.0
 11
-0.0
 21
13.9
 31
0.0
 40
1.0
 41
-0.4526744827
 42
0.4526744827
  0
ENDSEC
  0
SECTION
  2
OBJECTS
  0
DICTIONARY
  5
C
100
AcDbDictionary
280
0
281
1
  3
ACAD_GROUP
350
D
  3
ACAD_MLINESTYLE
350
17
  3
ACAD_LAYOUT
350
1A
  3
ACAD_PLOTSETTINGS
350
19
  3
ACAD_PLOTSTYLENAME
350
E
  0
DICTIONARY
  5
D
102
{ACAD_REACTORS
330
C
102
}
100
AcDbDictionary
280
0
281
1
  0
ACDBDICTIONARYWDFLT
  5
E
102
{ACAD_REACTORS
330
C
102
}
100
AcDbDictionary
281
1
  3
Normal
350
F
100
AcDbDictionaryWithDefault
340
F
  0
DICTIONARY
  5
17
102
{ACAD_REACTORS
330
C
102
}
100
AcDbDictionary
280
0
281
1
  3
Standard
350
18
  0
DICTIONARY
  5
19
102
{ACAD_REACTORS
330
C
102
}
100
AcDbDictionary
281
1
  0
DICTIONARY
  5
1A
102
{ACAD_REACTORS
330
C
102
}
100
AcDbDictionary
281
1
  3
Model
350
342
  3
Layout1
350
343
  0
ACDBPLACEHOLDER
  5
F
102
{ACAD_REACTORS
330
E
102
}
  0
MLINESTYLE
  5
18
102
{ACAD_REACTORS
330
17
102
}
100
AcDbMlineStyle
  2
STANDARD
 70
0
  3

 62
256
 51
90.0
 52
90.0
 71
2
 49
0.5
 62
256
  6
BYLAYER
 49
-0.5
 62
256
  6
BYLAYER
  0
LAYOUT
  5
342
102
{ACAD_REACTORS
330
1A
102
}
100
AcDbPlotSettings
  1

  2
none_device
  4
ISO_A3_(420.00_x_297.00_MM)
  6

 40
0.0
 41
0.0
 42
0.0
 43
0.0
 44
420.0
 45
297.0
 46
0.0
 47
0.0
 48
0.0
 49
0.0
140
0.0
141
0.0
142
1.0
143
1.0
 70
1024
 72
1
 73
0
 74
0
  7

 75
0
147
1.0
148
0.0
149
0.0
100
AcDbLayout
  1
Model
 70
0
 71
0
 10
0.0
 20
0.0
 11
420.0
 21
297.0
 12
0.0
 22
0.0
 32
0.0
 14
0.0
 24
0.0
 34
0.0
 15
0.0
 25
0.0
 35
0.0
146
0.0
 13
0.0
 23
0.0
 33
0.0
 16
1.0
 26
0.0
 36
0.0
 17
0.0
 27
1.0
 37
0.0
 76
0
330
211
345
0
346
0
  0
LAYOUT
  5
343
102
{ACAD_REACTORS
330
1A
102
}
100
AcDbPlotSettings
  1

  2
none_device
  4
ISO_A3_(420.00_x_297.00_MM)
  6

 40
0.0
 41
0.0
 42
0.0
 43
0.0
 44
420.0
 45
297.0
 46
0.0
 47
0.0
 48
0.0
 49
0.0
140
0.0
141
0.0
142
1.0
143
1.0
 70
0
 72
1
 73
0
 74
0
  7

 75
0
147
1.0
148
0.0
149
0.0
100
AcDbLayout
  1
Layout1
 70
0
 71
1
 10
0.0
 20
0.0
 11
420.0
 21
297.0
 12
0.0
 22
0.0
 32
0.0
 14
0.0
 24
0.0
 34
0.0
 15
0.0
 25
0.0
 35
0.0
146
0.0
 13
0.0
 23
0.0
 33
0.0
 16
1.0
 26
0.0
 36
0.0
 17
0.0
 27
1.0
 37
0.0
 76
0
330
212
345
0
346
0
  0
ENDSEC
  0
EOF
