999
DXF file: 34600-h50a.dxf
999
Pro/ENGINEER 2019352 by Parametric Technology Corporation
  0
SECTION
  2
HEADER
  9
$ACADVER
  1
AC1027
  9
$DWGCODEPAGE
  3
ANSI_1252
  9
$EXTMAX
 10
210.0
 20
297.0
 30
0.0
  9
$EXTMIN
 10
0.0
 20
0.0
 30
0.0
  9
$LIMMIN
 10
0.0
 20
0.0
  9
$LIMMAX
 10
210.0
 20
297.0
  9
$VIEWCTR
 10
105.0
 20
148.5
  9
$VIEWSIZE
 40
297.0
  9
$CLAYER
  8
0
  9
$LTSCALE
 40
19.36
  9
$CELTYPE
  6
BYLAYER
  9
$DIMSCALE
 40
1.0
  9
$DIMASZ
 40
4.76
  9
$DIMEXO
 40
0.1
  9
$DIMDLI
 40
13.376
  9
$DIMEXE
 40
1.0
  9
$DIMCEN
 40
3.168
  9
$DIMLFAC
 40
1.0
  9
$DIMBLK
  1
_FILLED
  9
$DIMALT
 70
0
  9
$DIMALTF
 40
0.0393700787
  9
$DIMTXT
 40
1.5
  9
$DIMTOL
 70
1
  9
$DIMLIM
 70
0
  9
$DIMTFAC
 40
1.0
  9
$DIMTP
 40
0.001
  9
$DIMTM
 40
0.001
  9
$DIMGAP
 40
0.625
  9
$DIMDSEP
 70
46
  9
$AUNITS
 70
0
  9
$PDMODE
 70
3
  9
$PDSIZE
 40
0.3125
  9
$HANDSEED
  5
366
  9
$TILEMODE
 70
1
  9
$MEASUREMENT
 70
1
  9
$INSUNITS
 70
4
  0
ENDSEC
  0
SECTION
  2
CLASSES
  0
CLASS
  1
ACDBDICTIONARYWDFLT
  2
AcDbDictionaryWithDefault
  3
AutoCAD 2000
 90
0
 91
1
280
0
281
0
  0
CLASS
  1
ACDBPLACEHOLDER
  2
AcDbPlaceHolder
  3
AutoCAD 2000
 90
0
 91
1
280
0
281
0
  0
CLASS
  1
LAYOUT
  2
AcDbLayout
  3
AutoCAD 2000
 90
0
 91
0
280
0
281
0
  0
CLASS
  1
TABLESTYLE
  2
AcDbTableStyle
  3
ObjectDBX Classes
 90
2047
 91
1
280
0
281
0
  0
CLASS
  1
ACAD_TABLE
  2
AcDbTable
  3
ObjectDBX Classes
 90
1025
 91
1
280
0
281
1
  0
ENDSEC
  0
SECTION
  2
TABLES
  0
TABLE
  2
VPORT
  5
8
100
AcDbSymbolTable
 70
2
  0
VPORT
  5
1F4
100
AcDbSymbolTableRecord
100
AcDbViewportTableRecord
  2
*ACTIVE
 70
0
 10
0.0
 20
0.0
 11
1.0
 21
1.0
 12
105.0
 22
148.5
 13
0.0
 23
0.0
 14
1.0
 24
1.0
 15
0.0
 25
0.0
 16
0.0
 26
0.0
 36
1.0
 17
0.0
 27
0.0
 37
0.0
 40
297.0
 41
0.7070707071
 42
50.0
 43
0.0
 44
0.0
 50
0.0
 51
0.0
 71
0
 72
100
 73
1
 74
1
 75
0
 76
0
 77
0
 78
0
  0
ENDTAB
  0
TABLE
  2
LTYPE
  5
5
100
AcDbSymbolTable
 70
6
  0
LTYPE
  5
14
100
AcDbSymbolTableRecord
100
AcDbLinetypeTableRecord
  2
BYBLOCK
 70
0
  3

 72
65
 73
0
 40
0.0
  0
LTYPE
  5
15
100
AcDbSymbolTableRecord
100
AcDbLinetypeTableRecord
  2
BYLAYER
 70
0
  3

 72
65
 73
0
 40
0.0
  0
LTYPE
  5
16
100
AcDbSymbolTableRecord
100
AcDbLinetypeTableRecord
  2
CONTINUOUS
 70
64
  3
Solid line
 72
65
 73
0
 40
0.0
  0
LTYPE
  5
1F5
100
AcDbSymbolTableRecord
100
AcDbLinetypeTableRecord
  2
CENTER
 70
64
  3
____ _ ____ _ ____ _ ____ _ ____ _ ____ _ ____
 72
65
 73
4
 40
0.6
 49
0.375
 74
0
 49
-0.075
 74
0
 49
0.075
 74
0
 49
-0.075
 74
0
  0
LTYPE
  5
1F6
100
AcDbSymbolTableRecord
100
AcDbLinetypeTableRecord
  2
HIDDEN
 70
64
  3
- - - - - - - - - - - - - - - - - - - -
 72
65
 73
2
 40
0.2
 49
0.1
 74
0
 49
-0.1
 74
0
  0
LTYPE
  5
1F7
100
AcDbSymbolTableRecord
100
AcDbLinetypeTableRecord
  2
PHANTOM
 70
64
  3
_____ _ _ _____ _ _ _____ _ _ _____
 72
65
 73
6
 40
0.8
 49
0.45
 74
0
 49
-0.05
 74
0
 49
0.1
 74
0
 49
-0.05
 74
0
 49
0.1
 74
0
 49
-0.05
 74
0
  0
LTYPE
  5
1F8
100
AcDbSymbolTableRecord
100
AcDbLinetypeTableRecord
  2
DOT
 70
64
  3
. . . . . . . . . . . . . . . . . . . .
 72
65
 73
2
 40
0.2
 49
0.1
 74
0
 49
-0.1
 74
0
  0
LTYPE
  5
1F9
100
AcDbSymbolTableRecord
100
AcDbLinetypeTableRecord
  2
DASHED
 70
64
  3
- - - - - - - - - - - - - - - - - - - -
 72
65
 73
2
 40
0.2
 49
0.1
 74
0
 49
-0.1
 74
0
  0
ENDTAB
  0
TABLE
  2
LAYER
  5
2
100
AcDbSymbolTable
 70
36
  0
LAYER
  5
10
100
AcDbSymbolTableRecord
100
AcDbLayerTableRecord
  2
0
 70
0
 62
7
  6
CONTINUOUS
370
-3
390
F
  0
LAYER
  5
1FA
100
AcDbSymbolTableRecord
100
AcDbLayerTableRecord
  2
DEFAULT_1
 70
0
 62
7
  6
CENTER
370
-3
390
F
  0
LAYER
  5
1FB
100
AcDbSymbolTableRecord
100
AcDbLayerTableRecord
  2
DEFAULT_2
 70
0
 62
8
  6
HIDDEN
370
-3
390
F
  0
LAYER
  5
1FC
100
AcDbSymbolTableRecord
100
AcDbLayerTableRecord
  2
DEFAULT_3
 70
0
 62
7
  6
PHANTOM
370
-3
390
F
  0
LAYER
  5
1FD
100
AcDbSymbolTableRecord
100
AcDbLayerTableRecord
  2
0_COMPONENTS
 70
0
 62
7
  6
CONTINUOUS
370
-3
390
F
  0
LAYER
  5
1FE
100
AcDbSymbolTableRecord
100
AcDbLayerTableRecord
  2
1_ALL_PLANES
 70
0
 62
7
  6
CONTINUOUS
370
-3
390
F
  0
LAYER
  5
1FF
100
AcDbSymbolTableRecord
100
AcDbLayerTableRecord
  2
1__DEF_ASM_PLN
 70
0
 62
7
  6
CONTINUOUS
370
-3
390
F
  0
LAYER
  5
200
100
AcDbSymbolTableRecord
100
AcDbLayerTableRecord
  2
1__DEF_PLANES
 70
0
 62
7
  6
CONTINUOUS
370
-3
390
F
  0
LAYER
  5
201
100
AcDbSymbolTableRecord
100
AcDbLayerTableRecord
  2
2_ALL_CSYS
 70
0
 62
7
  6
CONTINUOUS
370
-3
390
F
  0
LAYER
  5
202
100
AcDbSymbolTableRecord
100
AcDbLayerTableRecord
  2
2_ALL_NOTES
 70
0
 62
7
  6
CONTINUOUS
370
-3
390
F
  0
LAYER
  5
203
100
AcDbSymbolTableRecord
100
AcDbLayerTableRecord
  2
2__DEF_ASM_CSYS
 70
0
 62
7
  6
CONTINUOUS
370
-3
390
F
  0
LAYER
  5
204
100
AcDbSymbolTableRecord
100
AcDbLayerTableRecord
  2
2__DEF_CSYS
 70
0
 62
7
  6
CONTINUOUS
370
-3
390
F
  0
LAYER
  5
205
100
AcDbSymbolTableRecord
100
AcDbLayerTableRecord
  2
3_ALL_AXES
 70
0
 62
7
  6
CONTINUOUS
370
-3
390
F
  0
LAYER
  5
206
100
AcDbSymbolTableRecord
100
AcDbLayerTableRecord
  2
4_ALL_POINTS
 70
0
 62
7
  6
CONTINUOUS
370
-3
390
F
  0
LAYER
  5
207
100
AcDbSymbolTableRecord
100
AcDbLayerTableRecord
  2
5_ALL_CURVES
 70
0
 62
7
  6
CONTINUOUS
370
-3
390
F
  0
LAYER
  5
208
100
AcDbSymbolTableRecord
100
AcDbLayerTableRecord
  2
5_ALL_GTOLS(FREE)
 70
0
 62
7
  6
CONTINUOUS
370
-3
390
F
  0
LAYER
  5
209
100
AcDbSymbolTableRecord
100
AcDbLayerTableRecord
  2
6_ALL_SURFS
 70
0
 62
7
  6
CONTINUOUS
370
-3
390
F
  0
LAYER
  5
20A
100
AcDbSymbolTableRecord
100
AcDbLayerTableRecord
  2
CURVE
 70
0
 62
7
  6
CONTINUOUS
370
-3
390
F
  0
LAYER
  5
20B
100
AcDbSymbolTableRecord
100
AcDbLayerTableRecord
  2
GIANNI_ASSI
 70
0
 62
7
  6
CONTINUOUS
370
-3
390
F
  0
LAYER
  5
20C
100
AcDbSymbolTableRecord
100
AcDbLayerTableRecord
  2
LAY0001
 70
0
 62
7
  6
CONTINUOUS
370
-3
390
F
  0
LAYER
  5
20D
100
AcDbSymbolTableRecord
100
AcDbLayerTableRecord
  2
XSEC_DATUMS
 70
0
 62
7
  6
CONTINUOUS
370
-3
390
F
  0
ENDTAB
  0
TABLE
  2
STYLE
  5
3
100
AcDbSymbolTable
 70
1
  0
STYLE
  5
11
100
AcDbSymbolTableRecord
100
AcDbTextStyleTableRecord
  2
STANDARD
 70
0
 40
0.0
 41
1.2
 50
0.0
 71
0
 42
0.2
  3
txt
  4

  0
STYLE
  5
20E
100
AcDbSymbolTableRecord
100
AcDbTextStyleTableRecord
  2
TEXTSTYLE_1
 70
0
 40
0.0
 41
0.8
 50
0.0
 71
0
 42
0.2
  3
gdt
  4

  0
STYLE
  5
20F
100
AcDbSymbolTableRecord
100
AcDbTextStyleTableRecord
  2
TEXTSTYLE_2
 70
0
 40
0.0
 41
1.2
 50
0.0
 71
0
 42
0.2
  3
gdt
  4

  0
STYLE
  5
210
100
AcDbSymbolTableRecord
100
AcDbTextStyleTableRecord
  2
TEXTSTYLE_3
 70
0
 40
0.0
 41
1.0
 50
0.0
 71
0
 42
0.2
  3
trium.ttf
  4

  0
STYLE
  5
211
100
AcDbSymbolTableRecord
100
AcDbTextStyleTableRecord
  2
TEXTSTYLE_4
 70
0
 40
0.0
 41
1.0
 50
0.0
 71
0
 42
0.2
  3
txt
  4

  0
STYLE
  5
212
100
AcDbSymbolTableRecord
100
AcDbTextStyleTableRecord
  2
TEXTSTYLE_5
 70
0
 40
0.0
 41
1.0
 50
0.0
 71
0
 42
0.2
  3
trium.ttf
  4

  0
STYLE
  5
213
100
AcDbSymbolTableRecord
100
AcDbTextStyleTableRecord
  2
TEXTSTYLE_6
 70
0
 40
0.0
 41
1.2
 50
0.0
 71
0
 42
0.2
  3
txt
  4

  0
STYLE
  5
214
100
AcDbSymbolTableRecord
100
AcDbTextStyleTableRecord
  2
TEXTSTYLE_7
 70
0
 40
0.0
 41
1.0
 50
0.0
 71
0
 42
0.2
  3
txt
  4

  0
STYLE
  5
215
100
AcDbSymbolTableRecord
100
AcDbTextStyleTableRecord
  2
TEXTSTYLE_8
 70
0
 40
0.0
 41
1.0
 50
0.0
 71
0
 42
0.2
  3
bluprntb.ttf
  4

  0
STYLE
  5
216
100
AcDbSymbolTableRecord
100
AcDbTextStyleTableRecord
  2
TEXTSTYLE_9
 70
0
 40
0.0
 41
1.0
 50
0.0
 71
0
 42
0.2
  3
gdt
  4

  0
ENDTAB
  0
TABLE
  2
VIEW
  5
6
100
AcDbSymbolTable
 70
0
  0
ENDTAB
  0
TABLE
  2
UCS
  5
7
100
AcDbSymbolTable
 70
0
  0
ENDTAB
  0
TABLE
  2
APPID
  5
9
100
AcDbSymbolTable
 70
1
  0
APPID
  5
217
100
AcDbSymbolTableRecord
100
AcDbRegAppTableRecord
  2
ACAD
 70
0
  0
ENDTAB
  0
TABLE
  2
BLOCK_RECORD
  5
1
100
AcDbSymbolTable
 70
0
  0
BLOCK_RECORD
  5
218
100
AcDbSymbolTableRecord
100
AcDbBlockTableRecord
  2
*Model_Space
  0
BLOCK_RECORD
  5
219
100
AcDbSymbolTableRecord
100
AcDbBlockTableRecord
  2
*Paper_Space
  0
BLOCK_RECORD
  5
21A
100
AcDbSymbolTableRecord
100
AcDbBlockTableRecord
  2
_FILLED
  0
BLOCK_RECORD
  5
21B
100
AcDbSymbolTableRecord
100
AcDbBlockTableRecord
  2
*D0
  0
BLOCK_RECORD
  5
21C
100
AcDbSymbolTableRecord
100
AcDbBlockTableRecord
  2
*D1
  0
BLOCK_RECORD
  5
21D
100
AcDbSymbolTableRecord
100
AcDbBlockTableRecord
  2
*D2
  0
BLOCK_RECORD
  5
21E
100
AcDbSymbolTableRecord
100
AcDbBlockTableRecord
  2
*D3
  0
BLOCK_RECORD
  5
21F
100
AcDbSymbolTableRecord
100
AcDbBlockTableRecord
  2
*T1
  0
ENDTAB
  0
TABLE
  2
DIMSTYLE
  5
A
100
AcDbSymbolTable
 70
1
100
AcDbDimStyleTable
 71
0
  0
DIMSTYLE
105
220
100
AcDbSymbolTableRecord
100
AcDbDimStyleTableRecord
  2
STANDARD
 70
0
  3

  4

 40
1.0
 41
4.76
 42
0.1
 43
0.38
 44
1.0
 45
0.0
 46
0.0
 47
0.001
 48
0.001
140
1.5
141
0.09
142
0.0
143
25.4
144
1.0
145
0.0
146
1.0
147
0.625
 71
1.0
 72
0.0
 73
0
 74
0
 75
0
 76
0
 77
1
 78
8
 79
2
170
0
171
2
172
0
173
0
174
0
175
0
176
0
177
0
178
5
270
2
179
3
271
3
272
3
273
2
274
2
275
0
280
0
281
0
282
0
283
1
284
8
285
0
286
0
287
3
288
0
340
11
278
46
341
21A
342
21A
343
21A
344
21A
  0
DIMSTYLE
105
221
100
AcDbSymbolTableRecord
100
AcDbDimStyleTableRecord
  2
DIMSTYLE_1
 70
0
  3

  4

 40
1.0
 41
4.76
 42
0.1
 43
0.38
 44
1.0
 45
0.0
 46
0.0
 47
0.03
 48
0.03
140
1.5
141
0.09
142
0.0
143
25.4
144
1.0
145
0.0
146
1.0
147
0.375
 71
0.0
 72
0.0
 73
0
 74
0
 75
0
 76
0
 77
1
 78
8
 79
2
170
0
171
2
172
0
173
0
174
0
175
0
176
0
177
0
178
5
270
2
179
3
271
2
272
2
273
2
274
2
275
0
280
0
281
0
282
0
283
1
284
8
285
0
286
0
287
3
288
0
340
11
278
46
341
21A
342
21A
343
21A
344
21A
  0
DIMSTYLE
105
222
100
AcDbSymbolTableRecord
100
AcDbDimStyleTableRecord
  2
DIMSTYLE_2
 70
0
  3

  4

 40
1.0
 41
4.76
 42
0.1
 43
0.38
 44
1.0
 45
0.0
 46
0.0
 47
0.01
 48
0.01
140
1.5
141
0.09
142
0.0
143
25.4
144
1.0
145
0.0
146
1.0
147
0.375
 71
0.0
 72
0.0
 73
0
 74
0
 75
0
 76
0
 77
1
 78
8
 79
2
170
0
171
2
172
0
173
0
174
0
175
0
176
0
177
0
178
5
270
2
179
3
271
3
272
3
273
2
274
2
275
0
280
0
281
0
282
0
283
1
284
8
285
0
286
0
287
3
288
0
340
11
278
46
341
21A
342
21A
343
21A
344
21A
  0
ENDTAB
  0
ENDSEC
  0
SECTION
  2
BLOCKS
  0
BLOCK
  5
20
100
AcDbEntity
  8
0
100
AcDbBlockBegin
  2
*Model_Space
 70
0
 10
0.0
 20
0.0
 30
0.0
  3
*Model_Space
  1

  0
ENDBLK
  5
21
100
AcDbEntity
  8
0
100
AcDbBlockEnd
  0
BLOCK
  5
1C
100
AcDbEntity
  8
0
100
AcDbBlockBegin
  2
*Paper_Space
 70
0
 10
0.0
 20
0.0
 30
0.0
  3
*Paper_Space
  1

  0
ENDBLK
  5
1D
100
AcDbEntity
  8
0
100
AcDbBlockEnd
  0
BLOCK
  5
223
100
AcDbEntity
  8
0
100
AcDbBlockBegin
  2
_FILLED
 70
64
 10
0.0
 20
0.0
  3
_FILLED
  1

  0
SOLID
  5
224
100
AcDbEntity
  8
0
  6
BYBLOCK
 62
0
100
AcDbTrace
 10
0.0
 20
0.0
 11
-1.0
 21
0.1050420168
 12
-1.0
 22
-0.1050420168
 13
-1.0
 23
-0.1050420168
  0
ENDBLK
  5
225
100
AcDbEntity
  8
0
  6
BYBLOCK
 62
0
100
AcDbBlockEnd
  0
BLOCK
  5
226
100
AcDbEntity
  8
0
100
AcDbBlockBegin
 62
2
  6
CONTINUOUS
  2
*D0
 70
65
 10
0.0
 20
0.0
  3
*D0
  1

  0
MTEXT
  5
227
100
AcDbEntity
  8
0
100
AcDbMText
 62
5
  6
CONTINUOUS
  7
TEXTSTYLE_2
 71
2
 72
1
 10
107.51417107
 20
94.3501857627
 30
0.0
 11
1.0
 21
0.0
 31
0.0
 73
2
 44
0.9
  1
{\fgdt;n}\ftxt;{\W1.2;31}
 40
1.5
 41
9.9428571429
  0
LINE
  5
228
100
AcDbEntity
  8
0
100
AcDbLine
 62
2
  6
CONTINUOUS
 10
123.01417107
 20
115.8678117019
 11
123.01417107
 21
91.2073286198
  0
LINE
  5
229
100
AcDbEntity
  8
0
100
AcDbLine
 62
2
  6
CONTINUOUS
 10
92.01417107
 20
115.8678117019
 11
92.01417107
 21
91.2073286198
  0
LINE
  5
22A
100
AcDbEntity
  8
0
100
AcDbLine
 62
2
  6
CONTINUOUS
 10
123.01417107
 20
92.2073286198
 11
107.51417107
 21
92.2073286198
  0
LINE
  5
22B
100
AcDbEntity
  8
0
100
AcDbLine
 62
2
  6
CONTINUOUS
 10
92.01417107
 20
92.2073286198
 11
107.51417107
 21
92.2073286198
  0
INSERT
  5
22C
100
AcDbEntity
  8
0
100
AcDbBlockReference
 62
2
  6
CONTINUOUS
  2
_FILLED
 10
123.01417107
 20
92.2073286198
 41
4.76
 42
4.76
 43
4.76
  0
INSERT
  5
22D
100
AcDbEntity
  8
0
100
AcDbBlockReference
 62
2
  6
CONTINUOUS
  2
_FILLED
 10
92.01417107
 20
92.2073286198
 41
4.76
 42
4.76
 43
4.76
 50
180.0
  0
ENDBLK
  5
22E
100
AcDbEntity
  8
0
  6
BYBLOCK
 62
0
100
AcDbBlockEnd
  0
BLOCK
  5
22F
100
AcDbEntity
  8
0
100
AcDbBlockBegin
 62
2
  6
CONTINUOUS
  2
*D1
 70
65
 10
0.0
 20
0.0
  3
*D1
  1

  0
MTEXT
  5
230
100
AcDbEntity
  8
0
100
AcDbMText
 62
5
  6
CONTINUOUS
  7
TEXTSTYLE_2
 71
2
 72
1
 10
107.51417107
 20
83.7822395374
 30
0.0
 11
1.0
 21
0.0
 31
0.0
 73
2
 44
0.9
  1
{\fgdt;n}\ftxt;{\W1.2;60}
 40
1.5
 41
9.9428571429
  0
LINE
  5
231
100
AcDbEntity
  8
0
100
AcDbLine
 62
2
  6
CONTINUOUS
 10
137.51417107
 20
117.7553761366
 11
137.51417107
 21
80.6393823946
  0
LINE
  5
232
100
AcDbEntity
  8
0
100
AcDbLine
 62
2
  6
CONTINUOUS
 10
77.51417107
 20
117.7553761366
 11
77.51417107
 21
80.6393823946
  0
LINE
  5
233
100
AcDbEntity
  8
0
100
AcDbLine
 62
2
  6
CONTINUOUS
 10
137.51417107
 20
81.6393823946
 11
107.51417107
 21
81.6393823946
  0
LINE
  5
234
100
AcDbEntity
  8
0
100
AcDbLine
 62
2
  6
CONTINUOUS
 10
77.51417107
 20
81.6393823946
 11
107.51417107
 21
81.6393823946
  0
INSERT
  5
235
100
AcDbEntity
  8
0
100
AcDbBlockReference
 62
2
  6
CONTINUOUS
  2
_FILLED
 10
137.51417107
 20
81.6393823946
 41
4.76
 42
4.76
 43
4.76
  0
INSERT
  5
236
100
AcDbEntity
  8
0
100
AcDbBlockReference
 62
2
  6
CONTINUOUS
  2
_FILLED
 10
77.51417107
 20
81.6393823946
 41
4.76
 42
4.76
 43
4.76
 50
180.0
  0
ENDBLK
  5
237
100
AcDbEntity
  8
0
  6
BYBLOCK
 62
0
100
AcDbBlockEnd
  0
BLOCK
  5
238
100
AcDbEntity
  8
0
100
AcDbBlockBegin
 62
2
  6
CONTINUOUS
  2
*D2
 70
65
 10
0.0
 20
0.0
  3
*D2
  1

  0
MTEXT
  5
239
100
AcDbEntity
  8
0
100
AcDbMText
 62
5
  6
CONTINUOUS
  7
STANDARD
 71
2
 72
1
 10
162.3755621732
 20
165.1678117019
 30
0.0
 11
0.0
 21
1.0
 31
0.0
 73
2
 44
0.9
  1
110
 40
1.5
 41
10.4142857143
  0
LINE
  5
23A
100
AcDbEntity
  8
0
100
AcDbLine
 62
2
  6
CONTINUOUS
 10
133.2246955003
 20
220.1678117019
 11
165.5184193161
 21
220.1678117019
  0
LINE
  5
23B
100
AcDbEntity
  8
0
100
AcDbLine
 62
2
  6
CONTINUOUS
 10
135.3934114649
 20
110.1678117019
 11
165.5184193161
 21
110.1678117019
  0
LINE
  5
23C
100
AcDbEntity
  8
0
100
AcDbLine
 62
2
  6
CONTINUOUS
 10
164.5184193161
 20
220.1678117019
 11
164.5184193161
 21
165.1678117019
  0
LINE
  5
23D
100
AcDbEntity
  8
0
100
AcDbLine
 62
2
  6
CONTINUOUS
 10
164.5184193161
 20
110.1678117019
 11
164.5184193161
 21
165.1678117019
  0
INSERT
  5
23E
100
AcDbEntity
  8
0
100
AcDbBlockReference
 62
2
  6
CONTINUOUS
  2
_FILLED
 10
164.5184193161
 20
220.1678117019
 41
4.76
 42
4.76
 43
4.76
 50
90.0
  0
INSERT
  5
23F
100
AcDbEntity
  8
0
100
AcDbBlockReference
 62
2
  6
CONTINUOUS
  2
_FILLED
 10
164.5184193161
 20
110.1678117019
 41
4.76
 42
4.76
 43
4.76
 50
270.0
  0
ENDBLK
  5
240
100
AcDbEntity
  8
0
  6
BYBLOCK
 62
0
100
AcDbBlockEnd
  0
BLOCK
  5
241
100
AcDbEntity
  8
0
100
AcDbBlockBegin
 62
2
  6
CONTINUOUS
  2
*D3
 70
65
 10
0.0
 20
0.0
  3
*D3
  1

  0
MTEXT
  5
242
100
AcDbEntity
  8
0
100
AcDbMText
 62
5
  6
CONTINUOUS
  7
TEXTSTYLE_2
 71
2
 72
1
 10
109.685357776
 20
258.4593398581
 30
0.0
 11
1.0
 21
0.0
 31
0.0
 73
2
 44
0.9
  1
{\fgdt;n}\ftxt;{\W1.2;50}
 40
1.5
 41
9.9428571429
  0
LINE
  5
243
100
AcDbEntity
  8
0
100
AcDbLine
 62
2
  6
CONTINUOUS
 10
82.51417107
 20
222.2235036273
 11
82.51417107
 21
257.3164827153
  0
LINE
  5
244
100
AcDbEntity
  8
0
100
AcDbLine
 62
2
  6
CONTINUOUS
 10
132.51417107
 20
220.6891361458
 11
132.51417107
 21
257.3164827153
  0
LINE
  5
245
100
AcDbEntity
  8
0
100
AcDbLine
 62
2
  6
CONTINUOUS
 10
82.51417107
 20
256.3164827153
 11
107.51417107
 21
256.3164827153
  0
LINE
  5
246
100
AcDbEntity
  8
0
100
AcDbLine
 62
2
  6
CONTINUOUS
 10
132.51417107
 20
256.3164827153
 11
107.51417107
 21
256.3164827153
  0
INSERT
  5
247
100
AcDbEntity
  8
0
100
AcDbBlockReference
 62
2
  6
CONTINUOUS
  2
_FILLED
 10
82.51417107
 20
256.3164827153
 41
4.76
 42
4.76
 43
4.76
 50
180.0
  0
INSERT
  5
248
100
AcDbEntity
  8
0
100
AcDbBlockReference
 62
2
  6
CONTINUOUS
  2
_FILLED
 10
132.51417107
 20
256.3164827153
 41
4.76
 42
4.76
 43
4.76
  0
ENDBLK
  5
249
100
AcDbEntity
  8
0
  6
BYBLOCK
 62
0
100
AcDbBlockEnd
  0
BLOCK
  5
24A
100
AcDbEntity
  8
0
100
AcDbBlockBegin
  2
*T1
 70
1
 10
0.0
 20
0.0
  3
*T1
  1

  0
LINE
  5
24B
100
AcDbEntity
  8
0
100
AcDbLine
 62
2
  6
CONTINUOUS
 10
199.4
 20
0.0
 11
0.0
 21
0.0
  0
LINE
  5
24C
100
AcDbEntity
  8
0
100
AcDbLine
 62
2
  6
CONTINUOUS
 10
199.4
 20
0.0
 11
199.4
 21
40.0
  0
LINE
  5
24D
100
AcDbEntity
  8
0
100
AcDbLine
 62
2
  6
CONTINUOUS
 10
109.9
 20
5.0
 11
0.0
 21
5.0
  0
LINE
  5
24E
100
AcDbEntity
  8
0
100
AcDbLine
 62
2
  6
CONTINUOUS
 10
199.4
 20
10.0
 11
0.0
 21
10.0
  0
LINE
  5
24F
100
AcDbEntity
  8
0
100
AcDbLine
 62
2
  6
CONTINUOUS
 10
27.9
 20
15.0
 11
0.0
 21
15.0
  0
LINE
  5
250
100
AcDbEntity
  8
0
100
AcDbLine
 62
2
  6
CONTINUOUS
 10
161.9
 20
20.0
 11
0.0
 21
20.0
  0
LINE
  5
251
100
AcDbEntity
  8
0
100
AcDbLine
 62
2
  6
CONTINUOUS
 10
27.9
 20
25.0
 11
0.0
 21
25.0
  0
LINE
  5
252
100
AcDbEntity
  8
0
100
AcDbLine
 62
2
  6
CONTINUOUS
 10
161.9
 20
30.0
 11
0.0
 21
30.0
  0
LINE
  5
253
100
AcDbEntity
  8
0
100
AcDbLine
 62
2
  6
CONTINUOUS
 10
199.4
 20
35.0
 11
161.9
 21
35.0
  0
LINE
  5
254
100
AcDbEntity
  8
0
100
AcDbLine
 62
2
  6
CONTINUOUS
 10
127.9
 20
35.0
 11
0.0
 21
35.0
  0
LINE
  5
255
100
AcDbEntity
  8
0
100
AcDbLine
 62
2
  6
CONTINUOUS
 10
199.4
 20
40.0
 11
0.0
 21
40.0
  0
LINE
  5
256
100
AcDbEntity
  8
0
100
AcDbLine
 62
2
  6
CONTINUOUS
 10
190.9
 20
0.0
 11
190.9
 21
10.0
  0
LINE
  5
257
100
AcDbEntity
  8
0
100
AcDbLine
 62
2
  6
CONTINUOUS
 10
179.9
 20
10.0
 11
179.9
 21
35.0
  0
LINE
  5
258
100
AcDbEntity
  8
0
100
AcDbLine
 62
2
  6
CONTINUOUS
 10
161.9
 20
10.0
 11
161.9
 21
40.0
  0
LINE
  5
259
100
AcDbEntity
  8
0
100
AcDbLine
 62
2
  6
CONTINUOUS
 10
144.9
 20
0.0
 11
144.9
 21
40.0
  0
LINE
  5
25A
100
AcDbEntity
  8
0
100
AcDbLine
 62
2
  6
CONTINUOUS
 10
127.9
 20
0.0
 11
127.9
 21
10.0
  0
LINE
  5
25B
100
AcDbEntity
  8
0
100
AcDbLine
 62
2
  6
CONTINUOUS
 10
127.9
 20
20.0
 11
127.9
 21
40.0
  0
LINE
  5
25C
100
AcDbEntity
  8
0
100
AcDbLine
 62
2
  6
CONTINUOUS
 10
109.9
 20
0.0
 11
109.9
 21
10.0
  0
LINE
  5
25D
100
AcDbEntity
  8
0
100
AcDbLine
 62
2
  6
CONTINUOUS
 10
107.9
 20
10.0
 11
107.9
 21
20.0
  0
LINE
  5
25E
100
AcDbEntity
  8
0
100
AcDbLine
 62
2
  6
CONTINUOUS
 10
99.9
 20
10.0
 11
99.9
 21
20.0
  0
LINE
  5
25F
100
AcDbEntity
  8
0
100
AcDbLine
 62
2
  6
CONTINUOUS
 10
55.9
 20
10.0
 11
55.9
 21
20.0
  0
LINE
  5
260
100
AcDbEntity
  8
0
100
AcDbLine
 62
2
  6
CONTINUOUS
 10
27.9
 20
0.0
 11
27.9
 21
40.0
  0
LINE
  5
261
100
AcDbEntity
  8
0
100
AcDbLine
 62
2
  6
CONTINUOUS
 10
22.9
 20
5.0
 11
22.9
 21
40.0
  0
LINE
  5
262
100
AcDbEntity
  8
0
100
AcDbLine
 62
2
  6
CONTINUOUS
 10
7.9
 20
5.0
 11
7.9
 21
40.0
  0
LINE
  5
263
100
AcDbEntity
  8
0
100
AcDbLine
 62
2
  6
CONTINUOUS
 10
0.0
 20
0.0
 11
0.0
 21
40.0
  0
MTEXT
  5
264
100
AcDbEntity
  8
0
100
AcDbMText
 62
5
  6
CONTINUOUS
  7
TEXTSTYLE_3
 71
3
 72
1
 10
189.4
 20
4.5
 30
0.0
 11
1.0
 21
0.0
 31
0.0
 73
2
 44
0.9
  1
34600/H50A 
 40
3.0
 41
48.8222222222
  0
MTEXT
  5
265
100
AcDbEntity
  8
0
100
AcDbMText
 62
5
  6
CONTINUOUS
  7
TEXTSTYLE_4
 71
1
 72
1
 10
129.4
 20
6.8125
 30
0.0
 11
1.0
 21
0.0
 31
0.0
 73
2
 44
0.9
  1
Peso finito \P1.355
 40
1.3
 41
30.4
  0
MTEXT
  5
266
100
AcDbEntity
  8
0
100
AcDbMText
 62
1
  6
CONTINUOUS
  7
TEXTSTYLE_5
 71
1
 72
1
 10
111.4
 20
6.5
 30
0.0
 11
1.0
 21
0.0
 31
0.0
 73
2
 44
0.9
  1
11_A4V
 40
3.0
 41
29.0222222222
  0
MTEXT
  5
267
100
AcDbEntity
  8
0
100
AcDbMText
 62
5
  6
CONTINUOUS
  7
TEXTSTYLE_4
 71
1
 72
1
 10
29.4
 20
2.8076923077
 30
0.0
 11
1.0
 21
0.0
 31
0.0
 73
2
 44
0.9
  1
La ditta tutela i propri disegni a norma di legge
 40
1.2
 41
113.9076923077
  0
MTEXT
  5
268
100
AcDbEntity
  8
0
100
AcDbMText
 62
5
  6
CONTINUOUS
  7
TEXTSTYLE_4
 71
2
 72
1
 10
13.95
 20
2.9230769231
 30
0.0
 11
1.0
 21
0.0
 31
0.0
 73
2
 44
0.9
  1
Modifica
 40
2.0
 41
31.3846153846
  0
MTEXT
  5
269
100
AcDbEntity
  8
0
100
AcDbMText
 62
5
  6
CONTINUOUS
  7
TEXTSTYLE_4
 71
2
 72
1
 10
195.15
 20
7.75
 30
0.0
 11
1.0
 21
0.0
 31
0.0
 73
2
 44
0.9
  1
esp.
 40
1.3
 41
11.4
  0
MTEXT
  5
26A
100
AcDbEntity
  8
0
100
AcDbMText
 62
5
  6
CONTINUOUS
  7
TEXTSTYLE_4
 71
2
 72
1
 10
167.9
 20
7.75
 30
0.0
 11
1.0
 21
0.0
 31
0.0
 73
2
 44
0.9
  1
cod.disegno
 40
1.3
 41
29.2
  0
MTEXT
  5
26B
100
AcDbEntity
  8
0
100
AcDbMText
 62
5
  6
CONTINUOUS
  7
TEXTSTYLE_4
 71
1
 72
1
 10
29.4
 20
7.5769230769
 30
0.0
 11
1.0
 21
0.0
 31
0.0
 73
2
 44
0.9
  1
Cod.Cad 34600-H50A
 40
1.6
 41
72.1230769231
  0
MTEXT
  5
26C
100
AcDbEntity
  8
0
100
AcDbMText
 62
5
  6
CONTINUOUS
  7
TEXTSTYLE_4
 71
2
 72
1
 10
25.4
 20
7.75
 30
0.0
 11
1.0
 21
0.0
 31
0.0
 73
2
 44
0.9
  1
Esp
 40
1.3
 41
9.4
  0
MTEXT
  5
26D
100
AcDbEntity
  8
0
100
AcDbMText
 62
5
  6
CONTINUOUS
  7
TEXTSTYLE_4
 71
2
 72
1
 10
15.4
 20
7.75
 30
0.0
 11
1.0
 21
0.0
 31
0.0
 73
2
 44
0.9
  1
DATA
 40
1.3
 41
14.8
  0
MTEXT
  5
26E
100
AcDbEntity
  8
0
100
AcDbMText
 62
5
  6
CONTINUOUS
  7
TEXTSTYLE_4
 71
2
 72
1
 10
3.95
 20
7.75
 30
0.0
 11
1.0
 21
0.0
 31
0.0
 73
2
 44
0.9
  1
N°
 40
1.3
 41
6.6
  0
MTEXT
  5
26F
100
AcDbEntity
  8
0
100
AcDbMText
 62
5
  6
CONTINUOUS
  7
TEXTSTYLE_4
 71
1
 72
1
 10
109.4
 20
12.8384615385
 30
0.0
 11
1.0
 21
0.0
 31
0.0
 73
2
 44
0.9
  1
  x  
 40
1.6
 41
19.9384615385
  0
MTEXT
  5
270
100
AcDbEntity
  8
0
100
AcDbMText
 62
5
  6
CONTINUOUS
  7
TEXTSTYLE_4
 71
1
 72
1
 10
146.4
 20
17.7115384615
 30
0.0
 11
1.0
 21
0.0
 31
0.0
 73
2
 44
0.9
  1
Peso grezzo Kg. 
 40
1.0
 41
35.2307692308
  0
MTEXT
  5
271
100
AcDbEntity
  8
0
100
AcDbMText
 62
5
  6
CONTINUOUS
  7
TEXTSTYLE_4
 71
1
 72
1
 10
109.4
 20
17.775
 30
0.0
 11
1.0
 21
0.0
 31
0.0
 73
2
 44
0.9
  1
Dimens.grezze 
 40
1.3
 41
38.6
  0
MTEXT
  5
272
100
AcDbEntity
  8
0
100
AcDbMText
 62
5
  6
CONTINUOUS
  7
TEXTSTYLE_4
 71
1
 72
1
 10
57.4
 20
17.8173076923
 30
0.0
 11
1.0
 21
0.0
 31
0.0
 73
2
 44
0.9
  1
Tratt.termici
 40
1.5
 41
36.0
  0
MTEXT
  5
273
100
AcDbEntity
  8
0
100
AcDbMText
 62
5
  6
CONTINUOUS
  7
TEXTSTYLE_4
 71
1
 72
1
 10
29.4
 20
17.775
 30
0.0
 11
1.0
 21
0.0
 31
0.0
 73
2
 44
0.9
  1
Materiale 
 40
1.3
 41
25.2
  0
MTEXT
  5
274
100
AcDbEntity
  8
0
100
AcDbMText
 62
5
  6
CONTINUOUS
  7
TEXTSTYLE_4
 71
1
 72
1
 10
146.4
 20
27.75
 30
0.0
 11
1.0
 21
0.0
 31
0.0
 73
2
 44
1.2
  1
Scala\P1:1
 40
1.3
 41
13.6
  0
MTEXT
  5
275
100
AcDbEntity
  8
0
100
AcDbMText
 62
5
  6
CONTINUOUS
  7
TEXTSTYLE_4
 71
1
 72
1
 10
129.4
 20
27.75
 30
0.0
 11
1.0
 21
0.0
 31
0.0
 73
2
 44
1.2
  1
Visto
 40
1.3
 41
12.8
  0
MTEXT
  5
276
100
AcDbEntity
  8
0
100
AcDbMText
 62
5
  6
CONTINUOUS
  7
TEXTSTYLE_4
 71
1
 72
1
 10
29.4
 20
23.0
 30
0.0
 11
1.0
 21
0.0
 31
0.0
 73
2
 44
0.9
  1
MANDRINO ATTACCO H50A DIN 69893
 40
1.5
 41
120.2307692308
  0
MTEXT
  5
277
100
AcDbEntity
  8
0
100
AcDbMText
 62
5
  6
CONTINUOUS
  7
TEXTSTYLE_4
 71
1
 72
1
 10
29.4
 20
27.8076923077
 30
0.0
 11
1.0
 21
0.0
 31
0.0
 73
2
 44
0.9
  1
Descrizione
 40
1.2
 41
25.2923076923
  0
MTEXT
  5
278
100
AcDbEntity
  8
0
100
AcDbMText
 62
5
  6
CONTINUOUS
  7
TEXTSTYLE_4
 71
1
 72
1
 10
146.4
 20
37.75
 30
0.0
 11
1.0
 21
0.0
 31
0.0
 73
2
 44
1.2
  1
Data\PJun-24-21
 40
1.3
 41
24.4
  0
MTEXT
  5
279
100
AcDbEntity
  8
0
100
AcDbMText
 62
5
  6
CONTINUOUS
  7
TEXTSTYLE_4
 71
1
 72
1
 10
129.4
 20
37.75
 30
0.0
 11
1.0
 21
0.0
 31
0.0
 73
2
 44
1.2
  1
Firma\Pcalvo
 40
1.3
 41
14.2
  0
MTEXT
  5
27A
100
AcDbEntity
  8
0
100
AcDbMText
 62
5
  6
CONTINUOUS
  7
TEXTSTYLE_4
 71
1
 72
1
 10
29.4
 20
32.775
 30
0.0
 11
1.0
 21
0.0
 31
0.0
 73
2
 44
0.9
  1
Macchina o codice prenotante  
 40
1.3
 41
81.0
  0
MTEXT
  5
27B
100
AcDbEntity
  8
0
100
AcDbMText
 62
5
  6
CONTINUOUS
  7
TEXTSTYLE_4
 71
1
 72
1
 10
163.4
 20
37.75
 30
0.0
 11
1.0
 21
0.0
 31
0.0
 73
2
 44
0.9
  1
Rugosita' \fgdt;{\fgdt;a}\ftxt;0.8=rettifica
 40
1.3
 41
61.375
  0
MTEXT
  5
27C
100
AcDbEntity
  8
0
100
AcDbMText
 62
5
  6
CONTINUOUS
  7
TEXTSTYLE_4
 71
1
 72
1
 10
29.4
 20
37.75
 30
0.0
 11
1.0
 21
0.0
 31
0.0
 73
2
 44
0.9
  1
Tolleranze generali per quote senza valori:\fgdt;{\fgdt;n}\ftxt;=H11-h11 - lineari\fgdt;{\fgdt;`}\ftxt;0.2
 40
1.3
 41
163.0
  0
ENDBLK
  5
27D
100
AcDbEntity
  8
0
  6
BYBLOCK
 62
0
100
AcDbBlockEnd
  0
ENDSEC
  0
SECTION
  2
ENTITIES
  0
DIMENSION
  5
27E
100
AcDbEntity
  8
0
100
AcDbDimension
 62
2
  6
CONTINUOUS
  2
*D0
 10
92.01417107
 20
92.2073286198
 11
107.51417107
 21
92.2073286198
 70
160
 71
2
 72
2
 41
0.9
 42
31.0
  1
%%c<>
  3
DIMSTYLE_1
100
AcDbAlignedDimension
 13
123.01417107
 23
115.9678117019
 14
92.01417107
 24
115.9678117019
 50
180.0
100
AcDbRotatedDimension
  0
DIMENSION
  5
27F
100
AcDbEntity
  8
0
100
AcDbDimension
 62
2
  6
CONTINUOUS
  2
*D1
 10
77.51417107
 20
81.6393823946
 11
107.51417107
 21
81.6393823946
 70
160
 71
2
 72
2
 41
0.9
 42
60.0
  1
%%c<>
  3
DIMSTYLE_1
100
AcDbAlignedDimension
 13
137.51417107
 23
117.8553761366
 14
77.51417107
 24
117.8553761366
 50
180.0
100
AcDbRotatedDimension
  0
DIMENSION
  5
280
100
AcDbEntity
  8
0
100
AcDbDimension
 62
2
  6
CONTINUOUS
  2
*D2
 10
164.5184193161
 20
110.1678117019
 11
164.5184193161
 21
165.0713893166
 70
160
 71
2
 72
2
 41
0.9
 42
110.0
  3
DIMSTYLE_2
100
AcDbAlignedDimension
 13
133.1246955003
 23
220.1678117019
 14
135.2934114649
 24
110.1678117019
 50
270.0
100
AcDbRotatedDimension
  0
DIMENSION
  5
281
100
AcDbEntity
  8
0
100
AcDbDimension
 62
2
  6
CONTINUOUS
  2
*D3
 10
132.51417107
 20
256.3164827153
 11
109.685357776
 21
256.3164827153
 70
160
 71
2
 72
2
 41
0.9
 42
50.0
  1
%%c<>
  3
DIMSTYLE_2
100
AcDbAlignedDimension
 13
82.51417107
 23
222.1235036273
 14
132.51417107
 24
220.5891361458
100
AcDbRotatedDimension
  0
ACAD_TABLE
  5
282
100
AcDbEntity
  8
0
 62
2
  6
CONTINUOUS
100
AcDbBlockReference
  2
*T1
 10
6.0999978936
 20
6.4999868163
 30
0.0
100
AcDbTable
342
       365
343
21F
 11
1.0
 21
0.0
 31
0.0
 90
6
 91
8
 92
15
 93
4
 94
0
 95
0
 96
0
 70
1
141
5.0
141
5.0
141
5.0
141
5.0
141
5.0
141
5.0
141
5.0
141
5.0
142
7.9
142
15.0
142
5.0
142
28.0
142
44.0
142
8.0
142
2.0
142
18.0
142
8.5
142
8.5
142
17.0
142
9.0
142
9.0
142
11.0
142
8.5
171
1
172
0
173
0
174
0
175
3
176
1
 91
49
178
0
145
0.0
  7
TEXTSTYLE_4
301
CELL_VALUE
 90
4
  1
Modifica
304
ACVALUE_END
170
5
140
2.0
171
1
172
0
173
1
174
0
175
1
176
1
 91
1
178
0
145
0.0
170
1
171
1
172
0
173
1
174
0
175
1
176
1
 91
1
178
0
145
0.0
170
5
171
1
172
0
173
0
174
0
175
4
176
1
 91
49
178
0
145
0.0
  7
TEXTSTYLE_4
301
CELL_VALUE
 90
4
  1
La ditta tutela i propri disegni a norma di legge
304
ACVALUE_END
170
1
140
1.2
171
1
172
0
173
1
174
0
175
1
176
1
 91
1
178
0
145
0.0
170
1
171
1
172
0
173
1
174
0
175
1
176
1
 91
1
178
0
145
0.0
170
1
171
1
172
0
173
1
174
0
175
1
176
1
 91
1
178
0
145
0.0
170
1
171
1
172
0
173
0
174
0
175
1
176
2
 91
57
178
0
145
0.0
  7
TEXTSTYLE_5
301
CELL_VALUE
 90
4
  1
11_A4V
304
ACVALUE_END
170
4
140
3.0
 64
1
171
1
172
0
173
0
174
0
175
2
176
2
 91
49
178
0
145
0.0
  7
TEXTSTYLE_4
301
CELL_VALUE
 90
4
  1
Peso finito \P1.355
304
ACVALUE_END
170
4
140
1.3
171
1
172
0
173
1
174
0
175
1
176
1
 91
1
178
0
145
0.0
170
4
171
1
172
0
173
0
174
0
175
4
176
1
 91
49
178
0
145
0.0
  7
TEXTSTYLE_3
301
CELL_VALUE
 90
4
  1
34600/H50A 
304
ACVALUE_END
170
9
140
3.0
171
1
172
0
173
1
174
0
175
1
176
1
 91
1
178
0
145
0.0
170
1
171
1
172
0
173
1
174
0
175
1
176
1
 91
1
178
0
145
0.0
170
1
171
1
172
0
173
1
174
0
175
1
176
1
 91
1
178
0
145
0.0
170
9
171
1
172
0
173
0
174
0
175
1
176
1
 91
33
178
0
145
0.0
301
CELL_VALUE
 90
4
  1
 
304
ACVALUE_END
170
1
140
3.0
171
1
172
0
173
0
174
0
175
1
176
1
 91
57
178
0
145
0.0
  7
TEXTSTYLE_4
301
CELL_VALUE
 90
4
  1
N°
304
ACVALUE_END
170
2
140
1.3
 64
5
171
1
172
0
173
0
174
0
175
1
176
1
 91
57
178
0
145
0.0
  7
TEXTSTYLE_4
301
CELL_VALUE
 90
4
  1
DATA
304
ACVALUE_END
170
2
140
1.3
 64
5
171
1
172
0
173
0
174
0
175
1
176
1
 91
57
178
0
145
0.0
  7
TEXTSTYLE_4
301
CELL_VALUE
 90
4
  1
Esp
304
ACVALUE_END
170
2
140
1.3
 64
5
171
1
172
0
173
0
174
0
175
4
176
1
 91
49
178
0
145
0.0
  7
TEXTSTYLE_4
301
CELL_VALUE
 90
4
  1
Cod.Cad 34600-H50A
304
ACVALUE_END
170
1
140
1.6
171
1
172
0
173
1
174
0
175
1
176
1
 91
1
178
0
145
0.0
170
1
171
1
172
0
173
1
174
0
175
1
176
1
 91
1
178
0
145
0.0
170
1
171
1
172
0
173
1
174
0
175
1
176
1
 91
1
178
0
145
0.0
170
1
171
1
172
0
173
1
174
0
175
1
176
1
 91
1
178
0
145
0.0
170
1
171
1
172
0
173
1
174
0
175
1
176
1
 91
1
178
0
145
0.0
170
1
171
1
172
0
173
1
174
0
175
1
176
1
 91
1
178
0
145
0.0
170
1
171
1
172
0
173
0
174
0
175
4
176
1
 91
49
178
0
145
0.0
  7
TEXTSTYLE_4
301
CELL_VALUE
 90
4
  1
cod.disegno
304
ACVALUE_END
170
2
140
1.3
171
1
172
0
173
1
174
0
175
1
176
1
 91
1
178
0
145
0.0
170
1
171
1
172
0
173
1
174
0
175
1
176
1
 91
1
178
0
145
0.0
170
1
171
1
172
0
173
1
174
0
175
1
176
1
 91
1
178
0
145
0.0
170
2
171
1
172
0
173
0
174
0
175
1
176
1
 91
57
178
0
145
0.0
  7
TEXTSTYLE_4
301
CELL_VALUE
 90
4
  1
esp.
304
ACVALUE_END
170
2
140
1.3
 64
5
171
1
172
0
173
0
174
0
175
1
176
1
 91
41
178
0
145
0.0
301
CELL_VALUE
 90
4
  1
 
304
ACVALUE_END
170
5
140
3.0
 64
5
171
1
172
0
173
0
174
0
175
1
176
1
 91
41
178
0
145
0.0
301
CELL_VALUE
 90
4
  1
 
304
ACVALUE_END
170
4
140
3.0
 64
5
171
1
172
0
173
0
174
0
175
1
176
1
 91
33
178
0
145
0.0
301
CELL_VALUE
 90
4
  1
 
304
ACVALUE_END
170
1
140
3.0
171
1
172
0
173
0
174
0
175
1
176
1
 91
41
178
0
145
0.0
301
CELL_VALUE
 90
4
  1
 
304
ACVALUE_END
170
4
140
3.0
 64
5
171
1
172
0
173
0
174
0
175
1
176
1
 91
41
178
0
145
0.0
301
CELL_VALUE
 90
4
  1
 
304
ACVALUE_END
170
4
140
3.0
 64
5
171
1
172
0
173
0
174
0
175
1
176
2
 91
41
178
0
145
0.0
301
CELL_VALUE
 90
4
  1
 
304
ACVALUE_END
170
5
140
3.0
 64
5
171
1
172
0
173
0
174
0
175
4
176
1
 91
49
178
0
145
0.0
  7
TEXTSTYLE_4
301
CELL_VALUE
 90
4
  1
  x  
304
ACVALUE_END
170
4
140
1.6
171
1
172
0
173
1
174
0
175
1
176
1
 91
1
178
0
145
0.0
170
1
171
1
172
0
173
1
174
0
175
1
176
1
 91
1
178
0
145
0.0
170
1
171
1
172
0
173
1
174
0
175
1
176
1
 91
1
178
0
145
0.0
170
4
171
1
172
0
173
0
174
0
175
1
176
1
 91
41
178
0
145
0.0
301
CELL_VALUE
 90
4
  1
 
304
ACVALUE_END
170
4
140
3.0
 64
5
171
1
172
0
173
0
174
0
175
2
176
5
 91
33
178
0
145
0.0
301
CELL_VALUE
 90
4
  1
 
304
ACVALUE_END
170
1
140
3.0
171
1
172
0
173
1
174
0
175
1
176
1
 91
1
178
0
145
0.0
170
1
171
1
172
0
173
0
174
0
175
2
176
3
 91
33
178
0
145
0.0
301
CELL_VALUE
 90
4
  1
 
304
ACVALUE_END
170
1
140
3.0
171
1
172
0
173
1
174
0
175
1
176
1
 91
1
178
0
145
0.0
170
1
171
1
172
0
173
0
174
0
175
1
176
1
 91
41
178
0
145
0.0
301
CELL_VALUE
 90
4
  1
 
304
ACVALUE_END
170
5
140
3.0
 64
5
171
1
172
0
173
0
174
0
175
1
176
1
 91
41
178
0
145
0.0
301
CELL_VALUE
 90
4
  1
 
304
ACVALUE_END
170
4
140
3.0
 64
5
171
1
172
0
173
0
174
0
175
1
176
1
 91
33
178
0
145
0.0
301
CELL_VALUE
 90
4
  1
 
304
ACVALUE_END
170
1
140
3.0
171
1
172
0
173
0
174
0
175
1
176
1
 91
57
178
0
145
0.0
  7
TEXTSTYLE_4
301
CELL_VALUE
 90
4
  1
Materiale 
304
ACVALUE_END
170
4
140
1.3
 64
5
171
1
172
0
173
0
174
0
175
1
176
1
 91
57
178
0
145
0.0
  7
TEXTSTYLE_4
301
CELL_VALUE
 90
4
  1
Tratt.termici
304
ACVALUE_END
170
4
140
1.5
 64
5
171
1
172
0
173
1
174
0
175
1
176
1
 91
1
178
0
145
0.0
170
1
171
1
172
0
173
0
174
0
175
4
176
1
 91
49
178
0
145
0.0
  7
TEXTSTYLE_4
301
CELL_VALUE
 90
4
  1
Dimens.grezze 
304
ACVALUE_END
170
4
140
1.3
171
1
172
0
173
1
174
0
175
1
176
1
 91
1
178
0
145
0.0
170
1
171
1
172
0
173
1
174
0
175
1
176
1
 91
1
178
0
145
0.0
170
1
171
1
172
0
173
1
174
0
175
1
176
1
 91
1
178
0
145
0.0
170
4
171
1
172
0
173
0
174
0
175
1
176
1
 91
57
178
0
145
0.0
  7
TEXTSTYLE_4
301
CELL_VALUE
 90
4
  1
Peso grezzo Kg. 
304
ACVALUE_END
170
4
140
1.0
 64
5
171
1
172
0
173
1
174
0
175
1
176
1
 91
1
178
0
145
0.0
170
1
171
1
172
0
173
1
174
0
175
1
176
1
 91
1
178
0
145
0.0
170
1
171
1
172
0
173
1
174
0
175
1
176
1
 91
1
178
0
145
0.0
170
1
171
1
172
0
173
1
174
0
175
1
176
1
 91
1
178
0
145
0.0
170
1
171
1
172
0
173
0
174
0
175
1
176
1
 91
41
178
0
145
0.0
301
CELL_VALUE
 90
4
  1
 
304
ACVALUE_END
170
5
140
3.0
 64
5
171
1
172
0
173
0
174
0
175
1
176
1
 91
41
178
0
145
0.0
301
CELL_VALUE
 90
4
  1
 
304
ACVALUE_END
170
4
140
3.0
 64
5
171
1
172
0
173
0
174
0
175
1
176
1
 91
33
178
0
145
0.0
301
CELL_VALUE
 90
4
  1
 
304
ACVALUE_END
170
1
140
3.0
171
1
172
0
173
0
174
0
175
1
176
1
 91
57
178
0
145
0.0
  7
TEXTSTYLE_4
301
CELL_VALUE
 90
4
  1
MANDRINO ATTACCO H50A DIN 69893
304
ACVALUE_END
170
7
140
1.5
 64
5
171
1
172
0
173
0
174
0
175
4
176
1
 91
33
178
0
145
0.0
301
CELL_VALUE
 90
4
  1
 
304
ACVALUE_END
170
1
140
3.0
171
1
172
0
173
1
174
0
175
1
176
1
 91
1
178
0
145
0.0
170
1
171
1
172
0
173
1
174
0
175
1
176
1
 91
1
178
0
145
0.0
170
1
171
1
172
0
173
1
174
0
175
1
176
1
 91
1
178
0
145
0.0
170
1
171
1
172
0
173
0
174
0
175
2
176
2
 91
49
178
0
145
0.0
  7
TEXTSTYLE_4
301
CELL_VALUE
 90
4
  1
Visto
304
ACVALUE_END
170
1
140
1.3
171
1
172
0
173
1
174
0
175
1
176
1
 91
1
178
0
145
0.0
170
1
171
1
172
0
173
0
174
0
175
1
176
2
 91
57
178
0
145
0.0
  7
TEXTSTYLE_4
301
CELL_VALUE
 90
4
  1
Scala\P1:1
304
ACVALUE_END
170
1
140
1.3
 64
5
171
1
172
0
173
1
174
0
175
1
176
1
 91
1
178
0
145
0.0
170
1
171
1
172
0
173
1
174
0
175
1
176
1
 91
1
178
0
145
0.0
170
1
171
1
172
0
173
1
174
0
175
1
176
1
 91
1
178
0
145
0.0
170
1
171
1
172
0
173
1
174
0
175
1
176
1
 91
1
178
0
145
0.0
170
1
171
1
172
0
173
0
174
0
175
1
176
1
 91
41
178
0
145
0.0
301
CELL_VALUE
 90
4
  1
 
304
ACVALUE_END
170
5
140
3.0
 64
5
171
1
172
0
173
0
174
0
175
1
176
1
 91
41
178
0
145
0.0
301
CELL_VALUE
 90
4
  1
 
304
ACVALUE_END
170
4
140
3.0
 64
5
171
1
172
0
173
0
174
0
175
1
176
1
 91
33
178
0
145
0.0
301
CELL_VALUE
 90
4
  1
 
304
ACVALUE_END
170
1
140
3.0
171
1
172
0
173
0
174
0
175
1
176
1
 91
57
178
0
145
0.0
  7
TEXTSTYLE_4
301
CELL_VALUE
 90
4
  1
Descrizione
304
ACVALUE_END
170
1
140
1.2
 64
5
171
1
172
0
173
0
174
0
175
1
176
1
 91
33
178
0
145
0.0
301
CELL_VALUE
 90
4
  1
 
304
ACVALUE_END
170
1
140
3.0
171
1
172
0
173
0
174
0
175
1
176
1
 91
33
178
0
145
0.0
301
CELL_VALUE
 90
4
  1
 
304
ACVALUE_END
170
1
140
3.0
171
1
172
0
173
0
174
0
175
1
176
1
 91
33
178
0
145
0.0
301
CELL_VALUE
 90
4
  1
 
304
ACVALUE_END
170
1
140
3.0
171
1
172
0
173
0
174
0
175
1
176
1
 91
33
178
0
145
0.0
301
CELL_VALUE
 90
4
  1
 
304
ACVALUE_END
170
1
140
3.0
171
1
172
0
173
1
174
0
175
1
176
1
 91
1
178
0
145
0.0
170
1
171
1
172
0
173
1
174
0
175
1
176
1
 91
1
178
0
145
0.0
170
1
171
1
172
0
173
1
174
0
175
1
176
1
 91
1
178
0
145
0.0
170
1
171
1
172
0
173
1
174
0
175
1
176
1
 91
1
178
0
145
0.0
170
1
171
1
172
0
173
1
174
0
175
1
176
1
 91
1
178
0
145
0.0
170
1
171
1
172
0
173
0
174
0
175
2
176
2
 91
33
178
0
145
0.0
301
CELL_VALUE
 90
4
  1
 
304
ACVALUE_END
170
5
140
3.0
171
1
172
0
173
1
174
0
175
1
176
1
 91
1
178
0
145
0.0
170
5
171
1
172
0
173
0
174
0
175
1
176
1
 91
41
178
0
145
0.0
301
CELL_VALUE
 90
4
  1
 
304
ACVALUE_END
170
5
140
3.0
 64
5
171
1
172
0
173
0
174
0
175
1
176
1
 91
41
178
0
145
0.0
301
CELL_VALUE
 90
4
  1
 
304
ACVALUE_END
170
4
140
3.0
 64
5
171
1
172
0
173
0
174
0
175
1
176
1
 91
33
178
0
145
0.0
301
CELL_VALUE
 90
4
  1
 
304
ACVALUE_END
170
1
140
3.0
171
1
172
0
173
0
174
0
175
5
176
1
 91
49
178
0
145
0.0
  7
TEXTSTYLE_4
301
CELL_VALUE
 90
4
  1
Macchina o codice prenotante  
304
ACVALUE_END
170
4
140
1.3
171
1
172
0
173
1
174
0
175
1
176
1
 91
1
178
0
145
0.0
170
1
171
1
172
0
173
1
174
0
175
1
176
1
 91
1
178
0
145
0.0
170
1
171
1
172
0
173
1
174
0
175
1
176
1
 91
1
178
0
145
0.0
170
1
171
1
172
0
173
1
174
0
175
1
176
1
 91
1
178
0
145
0.0
170
4
171
1
172
0
173
0
174
0
175
2
176
2
 91
49
178
0
145
0.0
  7
TEXTSTYLE_4
301
CELL_VALUE
 90
4
  1
Firma\Pcalvo
304
ACVALUE_END
170
1
140
1.3
171
1
172
0
173
1
174
0
175
1
176
1
 91
1
178
0
145
0.0
170
1
171
1
172
0
173
0
174
0
175
1
176
2
 91
57
178
0
145
0.0
  7
TEXTSTYLE_4
301
CELL_VALUE
 90
4
  1
Data\PJun-24-21
304
ACVALUE_END
170
1
140
1.3
 64
5
171
1
172
0
173
1
174
0
175
1
176
1
 91
1
178
0
145
0.0
170
1
171
1
172
0
173
1
174
0
175
1
176
1
 91
1
178
0
145
0.0
170
1
171
1
172
0
173
1
174
0
175
1
176
1
 91
1
178
0
145
0.0
170
1
171
1
172
0
173
1
174
0
175
1
176
1
 91
1
178
0
145
0.0
170
1
171
1
172
0
173
0
174
0
175
1
176
1
 91
41
178
0
145
0.0
301
CELL_VALUE
 90
4
  1
 
304
ACVALUE_END
170
5
140
3.0
 64
5
171
1
172
0
173
0
174
0
175
1
176
1
 91
41
178
0
145
0.0
301
CELL_VALUE
 90
4
  1
 
304
ACVALUE_END
170
4
140
3.0
 64
5
171
1
172
0
173
0
174
0
175
1
176
1
 91
33
178
0
145
0.0
301
CELL_VALUE
 90
4
  1
 
304
ACVALUE_END
170
1
140
3.0
171
1
172
0
173
0
174
0
175
5
176
1
 91
49
178
0
145
0.0
  7
TEXTSTYLE_4
301
CELL_VALUE
 90
4
  1
Tolleranze generali per quote senza valori:\fgdt;{\fgdt;n}\ftxt;=H11-h11 - lineari\fgdt;{\fgdt;`}\ftxt;0.2
304
ACVALUE_END
170
1
140
1.3
171
1
172
0
173
1
174
0
175
1
176
1
 91
1
178
0
145
0.0
170
1
171
1
172
0
173
1
174
0
175
1
176
1
 91
1
178
0
145
0.0
170
1
171
1
172
0
173
1
174
0
175
1
176
1
 91
1
178
0
145
0.0
170
1
171
1
172
0
173
1
174
0
175
1
176
1
 91
1
178
0
145
0.0
170
1
171
1
172
0
173
1
174
0
175
1
176
1
 91
1
178
0
145
0.0
170
1
171
1
172
0
173
1
174
0
175
1
176
1
 91
1
178
0
145
0.0
170
1
171
1
172
0
173
1
174
0
175
1
176
1
 91
1
178
0
145
0.0
170
1
171
1
172
0
173
0
174
0
175
4
176
1
 91
49
178
0
145
0.0
  7
TEXTSTYLE_4
301
CELL_VALUE
 90
4
  1
Rugosita' \fgdt;{\fgdt;a}\ftxt;0.8=rettifica
304
ACVALUE_END
170
1
140
1.3
171
1
172
0
173
1
174
0
175
1
176
1
 91
1
178
0
145
0.0
170
1
171
1
172
0
173
1
174
0
175
1
176
1
 91
1
178
0
145
0.0
170
1
171
1
172
0
173
1
174
0
175
1
176
1
 91
1
178
0
145
0.0
170
1
  0
LINE
  5
283
100
AcDbEntity
  8
0
100
AcDbLine
 62
7
  6
CONTINUOUS
 10
0.0
 20
0.0
 11
210.0
 21
0.0
  0
LINE
  5
284
100
AcDbEntity
  8
0
100
AcDbLine
 62
7
  6
CONTINUOUS
 10
0.0
 20
0.0
 11
0.0
 21
297.0
  0
LINE
  5
285
100
AcDbEntity
  8
0
100
AcDbLine
 62
7
  6
CONTINUOUS
 10
210.0
 20
0.0
 11
210.0
 21
297.0
  0
LINE
  5
286
100
AcDbEntity
  8
0
100
AcDbLine
 62
7
  6
CONTINUOUS
 10
0.0
 20
297.0
 11
210.0
 21
297.0
  0
LINE
  5
287
100
AcDbEntity
  8
0
100
AcDbLine
 62
7
  6
CONTINUOUS
 10
135.2934118499
 20
110.1678117019
 11
79.73493029
 21
110.1678117019
  0
LINE
  5
288
100
AcDbEntity
  8
0
100
AcDbLine
 62
7
  6
CONTINUOUS
 10
78.786246992
 20
110.8515839358
 11
136.242095148
 21
110.8515839358
  0
LINE
  5
289
100
AcDbEntity
  8
0
100
AcDbLine
 62
7
  6
CONTINUOUS
 10
77.5654877719
 20
114.513861596
 11
137.462854368
 21
114.513861596
  0
LINE
  5
28A
100
AcDbEntity
  8
0
100
AcDbLine
 62
7
  6
CONTINUOUS
 10
77.51417107
 20
114.830089362
 11
137.51417107
 21
114.830089362
  0
LINE
  5
28B
100
AcDbEntity
  8
0
100
AcDbLine
 62
7
  6
CONTINUOUS
 10
137.51417107
 20
115.6931322674
 11
77.51417107
 21
115.6931322674
  0
LINE
  5
28C
100
AcDbEntity
  8
0
100
AcDbLine
 62
7
  6
CONTINUOUS
 10
137.1749405854
 20
117.2678117019
 11
77.8534015545
 21
117.2678117019
  0
LINE
  5
28D
100
AcDbEntity
  8
0
100
AcDbLine
 62
7
  6
CONTINUOUS
 10
137.51417107
 20
117.8553761366
 11
77.51417107
 21
117.8553761366
  0
LINE
  5
28E
100
AcDbEntity
  8
0
100
AcDbLine
 62
7
  6
CONTINUOUS
 10
77.36417107
 20
122.3178117019
 11
77.51417107
 21
122.1678117019
  0
LINE
  5
28F
100
AcDbEntity
  8
0
100
AcDbLine
 62
7
  6
CONTINUOUS
 10
137.51417107
 20
122.1678117019
 11
77.51417107
 21
122.1678117019
  0
LINE
  5
290
100
AcDbEntity
  8
0
100
AcDbLine
 62
7
  6
CONTINUOUS
 10
137.66417107
 20
122.3178117019
 11
77.36417107
 21
122.3178117019
  0
LINE
  5
291
100
AcDbEntity
  8
0
100
AcDbLine
 62
7
  6
CONTINUOUS
 10
77.8534015545
 20
117.2678117019
 11
77.51417107
 21
117.8553761366
  0
LINE
  5
292
100
AcDbEntity
  8
0
100
AcDbLine
 62
7
  6
CONTINUOUS
 10
83.01417107
 20
220.1678117019
 11
82.51417107
 21
219.6678117019
  0
LINE
  5
293
100
AcDbEntity
  8
0
100
AcDbLine
 62
7
  6
CONTINUOUS
 10
77.5654877719
 20
114.513861596
 11
78.786246992
 21
110.8515839358
  0
LINE
  5
294
100
AcDbEntity
  8
0
100
AcDbLine
 62
7
  6
CONTINUOUS
 10
96.6457566151
 20
244.8762721362
 11
96.5346418717
 21
244.6460749023
  0
LINE
  5
295
100
AcDbEntity
  8
0
100
AcDbLine
 62
7
  6
CONTINUOUS
 10
113.78417107
 20
245.0678117019
 11
112.78417107
 21
244.0678117019
  0
LINE
  5
296
100
AcDbEntity
  8
0
100
AcDbLine
 62
7
  6
CONTINUOUS
 10
137.66417107
 20
137.0178117019
 11
77.36417107
 21
137.0178117019
  0
LINE
  5
297
100
AcDbEntity
  8
0
100
AcDbLine
 62
7
  6
CONTINUOUS
 10
137.51417107
 20
137.1678117019
 11
77.51417107
 21
137.1678117019
  0
LINE
  5
298
100
AcDbEntity
  8
0
100
AcDbLine
 62
7
  6
CONTINUOUS
 10
77.51417107
 20
114.830089362
 11
77.5654877719
 21
114.513861596
  0
LINE
  5
299
100
AcDbEntity
  8
0
100
AcDbLine
 62
7
  6
CONTINUOUS
 10
99.1892322197
 20
245.0495359055
 11
98.8072212172
 21
244.2581208926
  0
LINE
  5
29A
100
AcDbEntity
  8
0
100
AcDbLine
 62
7
  6
CONTINUOUS
 10
77.36417107
 20
149.1178117019
 11
77.51417107
 21
148.6678117019
  0
LINE
  5
29B
100
AcDbEntity
  8
0
100
AcDbLine
 62
7
  6
CONTINUOUS
 10
77.36417107
 20
158.3678117019
 11
77.36417107
 21
149.1178117019
  0
LINE
  5
29C
100
AcDbEntity
  8
0
100
AcDbLine
 62
7
  6
CONTINUOUS
 10
77.36417107
 20
137.0178117019
 11
77.36417107
 21
122.3178117019
  0
LINE
  5
29D
100
AcDbEntity
  8
0
100
AcDbLine
 62
7
  6
CONTINUOUS
 10
77.51417107
 20
148.6678117019
 11
77.51417107
 21
137.1678117019
  0
LINE
  5
29E
100
AcDbEntity
  8
0
100
AcDbLine
 62
7
  6
CONTINUOUS
 10
77.51417107
 20
122.1678117019
 11
77.51417107
 21
117.8553761366
  0
LINE
  5
29F
100
AcDbEntity
  8
0
100
AcDbLine
 62
7
  6
CONTINUOUS
 10
77.51417107
 20
115.6931322674
 11
77.51417107
 21
114.830089362
  0
LINE
  5
2A0
100
AcDbEntity
  8
0
100
AcDbLine
 62
7
  6
CONTINUOUS
 10
82.51417107
 20
198.7903126271
 11
85.1165758058
 21
200.2928117019
  0
LINE
  5
2A1
100
AcDbEntity
  8
0
100
AcDbLine
 62
7
  6
CONTINUOUS
 10
137.51417107
 20
148.6678117019
 11
77.51417107
 21
148.6678117019
  0
LINE
  5
2A2
100
AcDbEntity
  8
0_COMPONENTS
100
AcDbLine
 62
7
  6
CONTINUOUS
 10
79.66417107
 20
160.9678117019
 11
79.66417107
 21
158.6678117019
  0
LINE
  5
2A3
100
AcDbEntity
  8
GIANNI_ASSI
100
AcDbLine
 62
7
  6
CONTINUOUS
 10
82.01417107
 20
177.6678117019
 11
82.01417107
 21
165.8178117019
  0
LINE
  5
2A4
100
AcDbEntity
  8
0
100
AcDbLine
 62
7
  6
CONTINUOUS
 10
82.51417107
 20
219.6678117019
 11
82.51417107
 21
205.5453107766
  0
LINE
  5
2A5
100
AcDbEntity
  8
0
100
AcDbLine
 62
7
  6
CONTINUOUS
 10
82.51417107
 20
198.7903126271
 11
82.51417107
 21
194.7178117019
  0
LINE
  5
2A6
100
AcDbEntity
  8
0
100
AcDbLine
 62
7
  6
CONTINUOUS
 10
137.66417107
 20
149.1178117019
 11
77.36417107
 21
149.1178117019
  0
LINE
  5
2A7
100
AcDbEntity
  8
0
100
AcDbLine
 62
7
  6
CONTINUOUS
 10
86.01417107
 20
200.2928117019
 11
86.01417107
 21
204.0428117019
  0
LINE
  5
2A8
100
AcDbEntity
  8
0
100
AcDbLine
 62
7
  6
CONTINUOUS
 10
87.01417107
 20
178.1678117019
 11
87.01417107
 21
194.2178117019
  0
LINE
  5
2A9
100
AcDbEntity
  8
0
100
AcDbLine
 62
7
  6
CONTINUOUS
 10
87.899125824
 20
198.7903126271
 11
87.899125824
 21
194.7178117019
  0
LINE
  5
2AA
100
AcDbEntity
  8
0
100
AcDbLine
 62
7
  6
CONTINUOUS
 10
87.899125824
 20
205.5453107766
 11
87.899125824
 21
212.6832434938
  0
LINE
  5
2AB
100
AcDbEntity
  8
0
100
AcDbLine
 62
7
  6
CONTINUOUS
 10
89.4588952091
 20
244.1178398874
 11
88.3593983427
 21
222.1678117019
  0
LINE
  5
2AC
100
AcDbEntity
  8
0
100
AcDbLine
 62
7
  6
CONTINUOUS
 10
77.36417107
 20
158.3678117019
 11
137.66417107
 21
158.3678117019
  0
LINE
  5
2AD
100
AcDbEntity
  8
0
100
AcDbLine
 62
7
  6
CONTINUOUS
 10
88.66417107
 20
221.0303843989
 11
88.66417107
 21
220.5678117019
  0
LINE
  5
2AE
100
AcDbEntity
  8
0
100
AcDbLine
 62
7
  6
CONTINUOUS
 10
91.51417107
 20
207.5163347879
 11
91.51417107
 21
204.0428117019
  0
LINE
  5
2AF
100
AcDbEntity
  8
0
100
AcDbLine
 62
7
  6
CONTINUOUS
 10
91.51417107
 20
194.2178117019
 11
91.51417107
 21
200.2928117019
  0
LINE
  5
2B0
100
AcDbEntity
  8
0
100
AcDbLine
 62
7
  6
CONTINUOUS
 10
92.01417107
 20
200.2928117019
 11
92.01417107
 21
194.7178117019
  0
LINE
  5
2B1
100
AcDbEntity
  8
DEFAULT_2
100
AcDbLine
 62
8
  6
HIDDEN
 10
92.01417107
 20
115.9678117019
 11
92.01417107
 21
136.1678117019
  0
LINE
  5
2B2
100
AcDbEntity
  8
0
100
AcDbLine
 62
7
  6
CONTINUOUS
 10
92.01417107
 20
204.0428117019
 11
92.01417107
 21
207.5163347879
  0
LINE
  5
2B3
100
AcDbEntity
  8
0_COMPONENTS
100
AcDbLine
 62
7
  6
CONTINUOUS
 10
79.9528462046
 20
161.467811702
 11
79.66417107
 21
160.967811702
  0
LINE
  5
2B4
100
AcDbEntity
  8
0
100
AcDbLine
 62
7
  6
CONTINUOUS
 10
82.51417107
 20
178.1678117019
 11
82.01417107
 21
177.6678117019
  0
LINE
  5
2B5
100
AcDbEntity
  8
0
100
AcDbLine
 62
7
  6
CONTINUOUS
 10
101.51417107
 20
195.1206397973
 11
101.0713183258
 21
194.6777870532
  0
LINE
  5
2B6
100
AcDbEntity
  8
0
100
AcDbLine
 62
7
  6
CONTINUOUS
 10
101.51417107
 20
194.7178117019
 11
101.0727497137
 21
194.2763903456
  0
LINE
  5
2B7
100
AcDbEntity
  8
0
100
AcDbLine
 62
7
  6
CONTINUOUS
 10
102.01417107
 20
194.5107049207
 11
101.9212778511
 21
194.4178117019
  0
LINE
  5
2B8
100
AcDbEntity
  8
0
100
AcDbLine
 62
7
  6
CONTINUOUS
 10
100.9313283575
 20
194.2178117019
 11
101.0727497137
 21
194.2763903456
  0
LINE
  5
2B9
100
AcDbEntity
  8
0
100
AcDbLine
 62
7
  6
CONTINUOUS
 10
77.66417107
 20
158.6678117019
 11
137.36417107
 21
158.6678117019
  0
LINE
  5
2BA
100
AcDbEntity
  8
0_COMPONENTS
100
AcDbLine
 62
7
  6
CONTINUOUS
 10
79.66417107
 20
160.9678117019
 11
135.36417107
 21
160.9678117019
  0
LINE
  5
2BB
100
AcDbEntity
  8
0_COMPONENTS
100
AcDbLine
 62
7
  6
CONTINUOUS
 10
79.9528462046
 20
161.4678117019
 11
135.0754959353
 21
161.4678117019
  0
LINE
  5
2BC
100
AcDbEntity
  8
0
100
AcDbLine
 62
7
  6
CONTINUOUS
 10
129.9117663341
 20
204.0428117019
 11
132.51417107
 21
205.5453107766
  0
LINE
  5
2BD
100
AcDbEntity
  8
0
100
AcDbLine
 62
7
  6
CONTINUOUS
 10
101.0312747847
 20
194.7178117019
 11
101.0312747847
 21
198.7903126271
  0
LINE
  5
2BE
100
AcDbEntity
  8
0
100
AcDbLine
 62
7
  6
CONTINUOUS
 10
101.0312747847
 20
205.5453107766
 11
101.0312747847
 21
207.217811702
  0
LINE
  5
2BF
100
AcDbEntity
  8
0
100
AcDbLine
 62
7
  6
CONTINUOUS
 10
101.51417107
 20
194.7178117019
 11
101.51417107
 21
200.2928117019
  0
LINE
  5
2C0
100
AcDbEntity
  8
0
100
AcDbLine
 62
7
  6
CONTINUOUS
 10
101.51417107
 20
204.0428117019
 11
101.51417107
 21
207.217811702
  0
LINE
  5
2C1
100
AcDbEntity
  8
0
100
AcDbLine
 62
7
  6
CONTINUOUS
 10
101.9212778511
 20
194.4178117019
 11
101.9212778511
 21
194.2178117019
  0
LINE
  5
2C2
100
AcDbEntity
  8
0
100
AcDbLine
 62
7
  6
CONTINUOUS
 10
102.01417107
 20
194.5107049207
 11
102.01417107
 21
200.2928117019
  0
LINE
  5
2C3
100
AcDbEntity
  8
0
100
AcDbLine
 62
7
  6
CONTINUOUS
 10
102.01417107
 20
204.0428117019
 11
102.01417107
 21
207.2178117019
  0
LINE
  5
2C4
100
AcDbEntity
  8
0
100
AcDbLine
 62
7
  6
CONTINUOUS
 10
102.24417107
 20
244.0678117019
 11
102.24417107
 21
242.0678117019
  0
LINE
  5
2C5
100
AcDbEntity
  8
0
100
AcDbLine
 62
7
  6
CONTINUOUS
 10
102.9043988413
 20
204.0428117019
 11
102.9043988413
 21
200.2928117019
  0
LINE
  5
2C6
100
AcDbEntity
  8
0
100
AcDbLine
 62
7
  6
CONTINUOUS
 10
137.51417107
 20
137.1678117019
 11
137.66417107
 21
137.0178117019
  0
LINE
  5
2C7
100
AcDbEntity
  8
0
100
AcDbLine
 62
7
  6
CONTINUOUS
 10
82.51417107
 20
194.7178117019
 11
83.01417107
 21
194.2178117019
  0
LINE
  5
2C8
100
AcDbEntity
  8
0
100
AcDbLine
 62
7
  6
CONTINUOUS
 10
88.3593983427
 20
222.1678117019
 11
88.66417107
 21
221.0303843989
  0
LINE
  5
2C9
100
AcDbEntity
  8
3_ALL_AXES
100
AcDbLine
 62
7
  6
CENTER
 10
107.51417107
 20
251.0678117019
 11
107.51417107
 21
104.1678117019
  0
LINE
  5
2CA
100
AcDbEntity
  8
0
100
AcDbLine
 62
7
  6
CONTINUOUS
 10
82.01417107
 20
177.6678117019
 11
133.01417107
 21
177.6678117019
  0
LINE
  5
2CB
100
AcDbEntity
  8
0
100
AcDbLine
 62
7
  6
CONTINUOUS
 10
82.51417107
 20
178.1678117019
 11
132.51417107
 21
178.1678117019
  0
LINE
  5
2CC
100
AcDbEntity
  8
0
100
AcDbLine
 62
7
  6
CONTINUOUS
 10
112.1239432986
 20
204.0428117019
 11
112.1239432986
 21
200.2928117019
  0
LINE
  5
2CD
100
AcDbEntity
  8
0
100
AcDbLine
 62
7
  6
CONTINUOUS
 10
112.78417107
 20
244.0678117019
 11
112.78417107
 21
242.0678117019
  0
LINE
  5
2CE
100
AcDbEntity
  8
0
100
AcDbLine
 62
7
  6
CONTINUOUS
 10
113.01417107
 20
207.2178117019
 11
113.01417107
 21
204.0428117019
  0
LINE
  5
2CF
100
AcDbEntity
  8
0
100
AcDbLine
 62
7
  6
CONTINUOUS
 10
113.01417107
 20
200.2928117019
 11
113.01417107
 21
194.5107049207
  0
LINE
  5
2D0
100
AcDbEntity
  8
0
100
AcDbLine
 62
7
  6
CONTINUOUS
 10
132.51417107
 20
194.7178117019
 11
132.01417107
 21
194.2178117019
  0
LINE
  5
2D1
100
AcDbEntity
  8
0
100
AcDbLine
 62
7
  6
CONTINUOUS
 10
92.01417107
 20
194.7178117019
 11
92.51417107
 21
194.2178117019
  0
LINE
  5
2D2
100
AcDbEntity
  8
0
100
AcDbLine
 62
7
  6
CONTINUOUS
 10
113.1070642888
 20
194.4178117019
 11
113.1070642888
 21
194.2178117019
  0
LINE
  5
2D3
100
AcDbEntity
  8
0
100
AcDbLine
 62
7
  6
CONTINUOUS
 10
113.51417107
 20
194.7178117019
 11
113.51417107
 21
200.2928117019
  0
LINE
  5
2D4
100
AcDbEntity
  8
0
100
AcDbLine
 62
7
  6
CONTINUOUS
 10
113.51417107
 20
204.0428117019
 11
113.51417107
 21
207.217811702
  0
LINE
  5
2D5
100
AcDbEntity
  8
0
100
AcDbLine
 62
7
  6
CONTINUOUS
 10
113.9970673552
 20
195.1238266718
 11
113.9970673552
 21
198.7903126271
  0
LINE
  5
2D6
100
AcDbEntity
  8
0
100
AcDbLine
 62
7
  6
CONTINUOUS
 10
113.9970673552
 20
205.5453107766
 11
113.9970673552
 21
207.217811702
  0
LINE
  5
2D7
100
AcDbEntity
  8
0
100
AcDbLine
 62
7
  6
CONTINUOUS
 10
126.6689437972
 20
222.1678117019
 11
126.36417107
 21
221.0303843989
  0
LINE
  5
2D8
100
AcDbEntity
  8
0
100
AcDbLine
 62
7
  6
CONTINUOUS
 10
77.51417107
 20
137.1678117019
 11
77.36417107
 21
137.0178117019
  0
LINE
  5
2D9
100
AcDbEntity
  8
0
100
AcDbLine
 62
7
  6
CONTINUOUS
 10
85.1165758058
 20
204.0428117019
 11
82.51417107
 21
205.5453107766
  0
LINE
  5
2DA
100
AcDbEntity
  8
DEFAULT_2
100
AcDbLine
 62
8
  6
HIDDEN
 10
123.01417107
 20
115.9678117019
 11
123.01417107
 21
136.1678117019
  0
LINE
  5
2DB
100
AcDbEntity
  8
0
100
AcDbLine
 62
7
  6
CONTINUOUS
 10
126.36417107
 20
221.0303843989
 11
126.36417107
 21
220.5678117019
  0
LINE
  5
2DC
100
AcDbEntity
  8
0
100
AcDbLine
 62
7
  6
CONTINUOUS
 10
132.0139238416
 20
194.2178117019
 11
114.0970137824
 21
194.2178117019
  0
LINE
  5
2DD
100
AcDbEntity
  8
0
100
AcDbLine
 62
7
  6
CONTINUOUS
 10
83.0144377197
 20
194.2178117019
 11
114.0670861481
 21
194.2178117019
  0
LINE
  5
2DE
100
AcDbEntity
  8
0
100
AcDbLine
 62
7
  6
CONTINUOUS
 10
101.9212778511
 20
194.4178117019
 11
113.1070642888
 21
194.4178117019
  0
LINE
  5
2DF
100
AcDbEntity
  8
0
100
AcDbLine
 62
7
  6
CONTINUOUS
 10
132.51417107
 20
194.7178117019
 11
114.346104032
 21
194.7178117019
  0
LINE
  5
2E0
100
AcDbEntity
  8
0
100
AcDbLine
 62
7
  6
CONTINUOUS
 10
101.0312747847
 20
194.7178117019
 11
82.51417107
 21
194.7178117019
  0
LINE
  5
2E1
100
AcDbEntity
  8
0
100
AcDbLine
 62
7
  6
CONTINUOUS
 10
113.9555924262
 20
194.2763903456
 11
114.0970137824
 21
194.2178117019
  0
LINE
  5
2E2
100
AcDbEntity
  8
0
100
AcDbLine
 62
7
  6
CONTINUOUS
 10
113.1070642888
 20
194.4178117019
 11
113.01417107
 21
194.5107049207
  0
LINE
  5
2E3
100
AcDbEntity
  8
0
100
AcDbLine
 62
7
  6
CONTINUOUS
 10
113.9555924262
 20
194.2763903456
 11
113.51417107
 21
194.7178117019
  0
LINE
  5
2E4
100
AcDbEntity
  8
0
100
AcDbLine
 62
7
  6
CONTINUOUS
 10
132.51417107
 20
178.1678117019
 11
133.01417107
 21
177.6678117019
  0
LINE
  5
2E5
100
AcDbEntity
  8
0_COMPONENTS
100
AcDbLine
 62
7
  6
CONTINUOUS
 10
135.0754959352
 20
161.4678117021
 11
135.3641710698
 21
160.9678117021
  0
LINE
  5
2E6
100
AcDbEntity
  8
0
100
AcDbLine
 62
7
  6
CONTINUOUS
 10
125.5694469308
 20
244.1178398874
 11
126.6689437972
 21
222.1678117019
  0
LINE
  5
2E7
100
AcDbEntity
  8
0
100
AcDbLine
 62
7
  6
CONTINUOUS
 10
128.01417107
 20
178.1678117019
 11
128.01417107
 21
194.2178117019
  0
LINE
  5
2E8
100
AcDbEntity
  8
0
100
AcDbLine
 62
7
  6
CONTINUOUS
 10
129.01417107
 20
200.2928117019
 11
129.01417107
 21
204.0428117019
  0
LINE
  5
2E9
100
AcDbEntity
  8
0
100
AcDbLine
 62
7
  6
CONTINUOUS
 10
132.51417107
 20
219.6678117019
 11
132.51417107
 21
218.6678092515
  0
LINE
  5
2EA
100
AcDbEntity
  8
0
100
AcDbLine
 62
7
  6
CONTINUOUS
 10
132.51417107
 20
207.6678141522
 11
132.51417107
 21
205.5453107766
  0
LINE
  5
2EB
100
AcDbEntity
  8
0
100
AcDbLine
 62
7
  6
CONTINUOUS
 10
132.51417107
 20
198.7903126271
 11
132.51417107
 21
194.7178117019
  0
LINE
  5
2EC
100
AcDbEntity
  8
0
100
AcDbLine
 62
7
  6
CONTINUOUS
 10
132.5141710699
 20
198.7903126271
 11
113.9970673552
 21
198.7903126271
  0
LINE
  5
2ED
100
AcDbEntity
  8
0
100
AcDbLine
 62
7
  6
CONTINUOUS
 10
101.0312747847
 20
198.7903126271
 11
92.01417107
 21
198.7903126271
  0
LINE
  5
2EE
100
AcDbEntity
  8
0
100
AcDbLine
 62
7
  6
CONTINUOUS
 10
87.899125824
 20
198.7903126271
 11
82.51417107
 21
198.7903126271
  0
LINE
  5
2EF
100
AcDbEntity
  8
0
100
AcDbLine
 62
7
  6
CONTINUOUS
 10
85.1167353212
 20
200.2928117019
 11
102.9043988413
 21
200.2928117019
  0
LINE
  5
2F0
100
AcDbEntity
  8
0
100
AcDbLine
 62
7
  6
CONTINUOUS
 10
112.1239432986
 20
200.2928117019
 11
129.9117068969
 21
200.2928117019
  0
LINE
  5
2F1
100
AcDbEntity
  8
GIANNI_ASSI
100
AcDbLine
 62
7
  6
CONTINUOUS
 10
133.01417107
 20
177.6678117019
 11
133.01417107
 21
161.4678117019
  0
LINE
  5
2F2
100
AcDbEntity
  8
0_COMPONENTS
100
AcDbLine
 62
7
  6
CONTINUOUS
 10
135.36417107
 20
160.9678117019
 11
135.36417107
 21
158.6678117019
  0
LINE
  5
2F3
100
AcDbEntity
  8
0
100
AcDbLine
 62
7
  6
CONTINUOUS
 10
137.51417107
 20
148.6678117019
 11
137.51417107
 21
137.1678117019
  0
LINE
  5
2F4
100
AcDbEntity
  8
0
100
AcDbLine
 62
7
  6
CONTINUOUS
 10
137.51417107
 20
122.1678117019
 11
137.51417107
 21
117.8553761366
  0
LINE
  5
2F5
100
AcDbEntity
  8
0
100
AcDbLine
 62
7
  6
CONTINUOUS
 10
137.51417107
 20
115.6931322674
 11
137.51417107
 21
114.830089362
  0
LINE
  5
2F6
100
AcDbEntity
  8
0
100
AcDbLine
 62
7
  6
CONTINUOUS
 10
137.66417107
 20
158.3678117019
 11
137.66417107
 21
149.1178117019
  0
LINE
  5
2F7
100
AcDbEntity
  8
0
100
AcDbLine
 62
7
  6
CONTINUOUS
 10
137.66417107
 20
137.0178117019
 11
137.66417107
 21
122.3178117019
  0
LINE
  5
2F8
100
AcDbEntity
  8
0
100
AcDbLine
 62
7
  6
CONTINUOUS
 10
129.9117068969
 20
204.0428117019
 11
112.1239432986
 21
204.0428117019
  0
LINE
  5
2F9
100
AcDbEntity
  8
0
100
AcDbLine
 62
7
  6
CONTINUOUS
 10
85.1167353212
 20
204.0428117019
 11
102.9043988413
 21
204.0428117019
  0
LINE
  5
2FA
100
AcDbEntity
  8
0
100
AcDbLine
 62
7
  6
CONTINUOUS
 10
82.51417107
 20
205.5453107766
 11
87.899125824
 21
205.5453107766
  0
LINE
  5
2FB
100
AcDbEntity
  8
0
100
AcDbLine
 62
7
  6
CONTINUOUS
 10
92.01417107
 20
205.5453107766
 11
101.0312747847
 21
205.5453107766
  0
LINE
  5
2FC
100
AcDbEntity
  8
0
100
AcDbLine
 62
7
  6
CONTINUOUS
 10
113.9970673552
 20
205.5453107766
 11
132.5141710699
 21
205.5453107766
  0
LINE
  5
2FD
100
AcDbEntity
  8
0
100
AcDbLine
 62
7
  6
CONTINUOUS
 10
101.0312747847
 20
207.217811702
 11
102.01417107
 21
207.2178117019
  0
LINE
  5
2FE
100
AcDbEntity
  8
0
100
AcDbLine
 62
7
  6
CONTINUOUS
 10
113.01417107
 20
207.2178117019
 11
113.9970673552
 21
207.217811702
  0
LINE
  5
2FF
100
AcDbEntity
  8
0
100
AcDbLine
 62
7
  6
CONTINUOUS
 10
91.51417107
 20
207.5163347879
 11
92.01417107
 21
207.5163347853
  0
LINE
  5
300
100
AcDbEntity
  8
0
100
AcDbLine
 62
7
  6
CONTINUOUS
 10
132.51417107
 20
198.7903126271
 11
129.9117663341
 21
200.2928117019
  0
LINE
  5
301
100
AcDbEntity
  8
0
100
AcDbLine
 62
7
  6
CONTINUOUS
 10
137.51417107
 20
114.830089362
 11
137.462854368
 21
114.513861596
  0
LINE
  5
302
100
AcDbEntity
  8
0
100
AcDbLine
 62
7
  6
CONTINUOUS
 10
137.66417107
 20
149.1178117019
 11
137.51417107
 21
148.6678117019
  0
LINE
  5
303
100
AcDbEntity
  8
0
100
AcDbLine
 62
7
  6
CONTINUOUS
 10
115.8391099202
 20
245.0495359055
 11
116.2211209228
 21
244.2581208926
  0
LINE
  5
304
100
AcDbEntity
  8
0
100
AcDbLine
 62
7
  6
CONTINUOUS
 10
118.3825855248
 20
244.8762721362
 11
118.4937002682
 21
244.6460749023
  0
LINE
  5
305
100
AcDbEntity
  8
0
100
AcDbLine
 62
7
  6
CONTINUOUS
 10
132.51417107
 20
219.6678117019
 11
82.51417107
 21
219.6678117019
  0
LINE
  5
306
100
AcDbEntity
  8
0
100
AcDbLine
 62
7
  6
CONTINUOUS
 10
132.0138839987
 20
220.1678117019
 11
83.0144581412
 21
220.1678117019
  0
LINE
  5
307
100
AcDbEntity
  8
0
100
AcDbLine
 62
7
  6
CONTINUOUS
 10
88.66417107
 20
220.5678117019
 11
126.36417107
 21
220.5678117019
  0
LINE
  5
308
100
AcDbEntity
  8
0
100
AcDbLine
 62
7
  6
CONTINUOUS
 10
88.66417107
 20
221.0303843989
 11
126.36417107
 21
221.0303843989
  0
LINE
  5
309
100
AcDbEntity
  8
0
100
AcDbLine
 62
7
  6
CONTINUOUS
 10
126.6689437972
 20
222.1678117019
 11
88.3593983427
 21
222.1678117019
  0
LINE
  5
30A
100
AcDbEntity
  8
0
100
AcDbLine
 62
7
  6
CONTINUOUS
 10
101.24417107
 20
245.0678117019
 11
102.24417107
 21
244.0678117019
  0
LINE
  5
30B
100
AcDbEntity
  8
0
100
AcDbLine
 62
7
  6
CONTINUOUS
 10
137.462854368
 20
114.513861596
 11
136.242095148
 21
110.8515839358
  0
LINE
  5
30C
100
AcDbEntity
  8
0
100
AcDbLine
 62
7
  6
CONTINUOUS
 10
132.01417107
 20
220.1678117019
 11
132.51417107
 21
219.6678117019
  0
LINE
  5
30D
100
AcDbEntity
  8
0
100
AcDbLine
 62
7
  6
CONTINUOUS
 10
137.1749405854
 20
117.2678117019
 11
137.51417107
 21
117.8553761366
  0
LINE
  5
30E
100
AcDbEntity
  8
0
100
AcDbLine
 62
7
  6
CONTINUOUS
 10
137.66417107
 20
122.3178117019
 11
137.51417107
 21
122.1678117019
  0
LINE
  5
30F
100
AcDbEntity
  8
0
100
AcDbLine
 62
7
  6
CONTINUOUS
 10
113.3101194469
 20
240.5678117019
 11
101.7194683703
 21
240.5678117019
  0
LINE
  5
310
100
AcDbEntity
  8
0
100
AcDbLine
 62
7
  6
CONTINUOUS
 10
99.2937784889
 20
242.0678117019
 11
102.24417107
 21
242.0678117019
  0
LINE
  5
311
100
AcDbEntity
  8
0
100
AcDbLine
 62
7
  6
CONTINUOUS
 10
112.78417107
 20
242.0678117019
 11
115.7345636511
 21
242.0678117019
  0
LINE
  5
312
100
AcDbEntity
  8
0
100
AcDbLine
 62
7
  6
CONTINUOUS
 10
99.6370536264
 20
244.0678117019
 11
102.24417107
 21
244.0678117019
  0
LINE
  5
313
100
AcDbEntity
  8
0
100
AcDbLine
 62
7
  6
CONTINUOUS
 10
112.78417107
 20
244.0678117019
 11
115.3912885135
 21
244.0678117019
  0
LINE
  5
314
100
AcDbEntity
  8
0
100
AcDbLine
 62
7
  6
CONTINUOUS
 10
89.4588952091
 20
244.1178398874
 11
99.5063574219
 21
244.1178398874
  0
LINE
  5
315
100
AcDbEntity
  8
0
100
AcDbLine
 62
7
  6
CONTINUOUS
 10
115.521984718
 20
244.1178398874
 11
125.5694469308
 21
244.1178398874
  0
LINE
  5
316
100
AcDbEntity
  8
0
100
AcDbLine
 62
7
  6
CONTINUOUS
 10
90.4578345115
 20
245.0678117019
 11
101.24417107
 21
245.0678117019
  0
LINE
  5
317
100
AcDbEntity
  8
0
100
AcDbLine
 62
7
  6
CONTINUOUS
 10
113.78417107
 20
245.0678117019
 11
124.5705095776
 21
245.0678117019
  0
ARC
  5
318
100
AcDbEntity
  8
0
100
AcDbCircle
 62
7
  6
CONTINUOUS
 10
59.1962122184
 20
103.8797670884
 40
109.5953711531
100
AcDbArc
 50
59.9980866122
 51
60.2891766697
  0
ARC
  5
319
100
AcDbEntity
  8
0
100
AcDbCircle
 62
7
  6
CONTINUOUS
 10
87.6733469833
 20
172.1412227006
 40
34.9447898765
100
AcDbArc
 50
40.2455367399
 51
41.1234248643
  0
ARC
  5
31A
100
AcDbEntity
  8
GIANNI_ASSI
100
AcDbCircle
 62
7
  6
CONTINUOUS
 10
53.8064386162
 20
163.1546072662
 40
28.3331318069
100
AcDbArc
 50
0.5671866977
 51
4.8977107178
  0
ARC
  5
31B
100
AcDbEntity
  8
GIANNI_ASSI
100
AcDbCircle
 62
7
  6
CONTINUOUS
 10
54.0911227043
 20
163.1702621107
 40
28.0483564515
100
AcDbArc
 50
356.5139290687
 51
359.4426735415
  0
ARC
  5
31C
100
AcDbEntity
  8
GIANNI_ASSI
100
AcDbCircle
 62
7
  6
CONTINUOUS
 10
54.2347764354
 20
163.1678117789
 40
27.9046857019
100
AcDbArc
 50
359.4448354101
 51
0.548781823
  0
ARC
  5
31D
100
AcDbEntity
  8
0
100
AcDbCircle
 62
7
  6
CONTINUOUS
 10
76.81417107
 20
116.6678117019
 40
1.2
100
AcDbArc
 50
305.6853347127
 51
30.0
  0
ARC
  5
31E
100
AcDbEntity
  8
0
100
AcDbCircle
 62
7
  6
CONTINUOUS
 10
79.73493029
 20
111.1678117019
 40
1.0
100
AcDbArc
 50
198.4349488229
 51
270.0
  0
ARC
  5
31F
100
AcDbEntity
  8
0
100
AcDbCircle
 62
7
  6
CONTINUOUS
 10
77.66417107
 20
158.3678117019
 40
0.3
100
AcDbArc
 50
90.0
 51
180.0
  0
ARC
  5
320
100
AcDbEntity
  8
0
100
AcDbCircle
 62
7
  6
CONTINUOUS
 10
26.7489344441
 20
281.3187829105
 40
122.6450410568
100
AcDbArc
 50
315.0542634693
 51
315.3479061547
  0
ARC
  5
321
100
AcDbEntity
  8
0
100
AcDbCircle
 62
7
  6
CONTINUOUS
 10
30.8397337249
 20
278.1712319076
 40
118.0584009072
100
AcDbArc
 50
314.7613971531
 51
315.0181712947
  0
ARC
  5
322
100
AcDbEntity
  8
0
100
AcDbCircle
 62
7
  6
CONTINUOUS
 10
59.1962122184
 20
300.4558563153
 40
109.5953711531
100
AcDbArc
 50
299.7108233303
 51
300.0019133878
  0
ARC
  5
323
100
AcDbEntity
  8
0
100
AcDbCircle
 62
7
  6
CONTINUOUS
 10
88.4105034345
 20
274.668043642
 40
81.3796089434
100
AcDbArc
 50
279.385213711
 51
279.5565875173
  0
ARC
  5
324
100
AcDbEntity
  8
0
100
AcDbCircle
 62
7
  6
CONTINUOUS
 10
86.01417107
 20
207.5163347879
 40
6.0
100
AcDbArc
 50
0.0
 51
67.5565610017
  0
ARC
  5
325
100
AcDbEntity
  8
0
100
AcDbCircle
 62
7
  6
CONTINUOUS
 10
107.51417107
 20
207.2178117019
 40
6.0
100
AcDbArc
 50
0.0000000014
 51
179.9999999985
  0
ARC
  5
326
100
AcDbEntity
  8
0
100
AcDbCircle
 62
7
  6
CONTINUOUS
 10
107.51417107
 20
207.2178117019
 40
5.5
100
AcDbArc
 50
0.0
 51
180.0
  0
ARC
  5
327
100
AcDbEntity
  8
0
100
AcDbCircle
 62
7
  6
CONTINUOUS
 10
86.01417107
 20
207.5163347879
 40
5.5
100
AcDbArc
 50
0.0
 51
69.9573800954
  0
CIRCLE
  5
328
100
AcDbEntity
  8
0
100
AcDbCircle
 62
7
  6
CONTINUOUS
 10
107.51417107
 20
227.6678117019
 40
3.0
  0
ARC
  5
329
100
AcDbEntity
  8
0
100
AcDbCircle
 62
7
  6
CONTINUOUS
 10
98.5257156393
 20
241.3602280338
 40
2.9267868801
100
AcDbArc
 50
67.6841156425
 51
70.423967809
  0
ARC
  5
32A
100
AcDbEntity
  8
0
100
AcDbCircle
 62
7
  6
CONTINUOUS
 10
103.74417107
 20
242.0678117019
 40
1.5
100
AcDbArc
 50
180.0
 51
270.0
  0
ARC
  5
32B
100
AcDbEntity
  8
0
100
AcDbCircle
 62
7
  6
CONTINUOUS
 10
90.4576430154
 20
244.0678117019
 40
1.0
100
AcDbArc
 50
90.0
 51
177.1323990795
  0
ARC
  5
32C
100
AcDbEntity
  8
0
100
AcDbCircle
 62
7
  6
CONTINUOUS
 10
88.06417107
 20
220.5678117019
 40
0.6
100
AcDbArc
 50
317.8046766054
 51
360.0
  0
ARC
  5
32D
100
AcDbEntity
  8
0
100
AcDbCircle
 62
7
  6
CONTINUOUS
 10
138.9460829155
 20
86.3814383424
 40
123.4566597889
100
AcDbArc
 50
112.6784607421
 51
114.4236809037
  0
ARC
  5
32E
100
AcDbEntity
  8
0
100
AcDbCircle
 62
7
  6
CONTINUOUS
 10
155.8322828074
 20
103.8794724141
 40
109.5957027909
100
AcDbArc
 50
119.7108164194
 51
120.0019055746
  0
ARC
  5
32F
100
AcDbEntity
  8
0
100
AcDbCircle
 62
7
  6
CONTINUOUS
 10
138.21417107
 20
116.6678117019
 40
1.2
100
AcDbArc
 50
150.0
 51
234.3146652873
  0
ARC
  5
330
100
AcDbEntity
  8
0
100
AcDbCircle
 62
7
  6
CONTINUOUS
 10
135.2934118499
 20
111.1678117019
 40
1.0
100
AcDbArc
 50
270.0
 51
341.5650511771
  0
ARC
  5
331
100
AcDbEntity
  8
0
100
AcDbCircle
 62
7
  6
CONTINUOUS
 10
137.36417107
 20
158.3678117019
 40
0.3
100
AcDbArc
 50
0.0
 51
90.0
  0
ARC
  5
332
100
AcDbEntity
  8
0
100
AcDbCircle
 62
7
  6
CONTINUOUS
 10
138.9460829155
 20
317.9541850613
 40
123.4566597889
100
AcDbArc
 50
245.5763190963
 51
247.3215392579
  0
ARC
  5
333
100
AcDbEntity
  8
0
100
AcDbCircle
 62
7
  6
CONTINUOUS
 10
189.5851928032
 20
243.9650614614
 40
112.9838387849
100
AcDbArc
 50
205.8412206678
 51
206.1232868243
  0
ARC
  5
334
100
AcDbEntity
  8
0
100
AcDbCircle
 62
7
  6
CONTINUOUS
 10
155.8322828048
 20
300.4561509849
 40
109.5957027856
100
AcDbArc
 50
239.9980944254
 51
240.2891835806
  0
ARC
  5
335
100
AcDbEntity
  8
0
100
AcDbCircle
 62
7
  6
CONTINUOUS
 10
126.6178387052
 20
274.6680436406
 40
81.379608942
100
AcDbArc
 50
260.4434124827
 51
260.614786289
  0
ARC
  5
336
100
AcDbEntity
  8
0
100
AcDbCircle
 62
7
  6
CONTINUOUS
 10
156.5167220902
 20
213.1678117019
 40
24.507651999
100
AcDbArc
 50
178.8309823603
 51
181.1690176397
  0
ARC
  5
337
100
AcDbEntity
  8
0
100
AcDbCircle
 62
7
  6
CONTINUOUS
 10
116.5026265006
 20
241.3602280338
 40
2.92678688
100
AcDbArc
 50
109.576032191
 51
112.3158843575
  0
ARC
  5
338
100
AcDbEntity
  8
0
100
AcDbCircle
 62
7
  6
CONTINUOUS
 10
111.28417107
 20
242.0678117019
 40
1.5
100
AcDbArc
 50
270.0
 51
360.0
  0
ARC
  5
339
100
AcDbEntity
  8
0
100
AcDbCircle
 62
7
  6
CONTINUOUS
 10
124.5706991245
 20
244.0678117019
 40
1.0
100
AcDbArc
 50
2.8676009205
 51
90.0
  0
ARC
  5
33A
100
AcDbEntity
  8
0
100
AcDbCircle
 62
7
  6
CONTINUOUS
 10
126.96417107
 20
220.5678117019
 40
0.6
100
AcDbArc
 50
180.0
 51
222.1953233946
  0
SPLINE
  5
33B
100
AcDbEntity
  8
0
100
AcDbSpline
 62
2
  6
CONTINUOUS
 70
0
 71
3
 72
19
 73
15
 74
0
 42
0.0000001
 43
0.0000001
 44
0.0000000001
 40
0.0
 40
0.0
 40
0.0
 40
0.0
 40
0.0833333333
 40
0.1666666667
 40
0.25
 40
0.3333333333
 40
0.4166666667
 40
0.5
 40
0.5833333333
 40
0.6666666667
 40
0.75
 40
0.8333333333
 40
0.9166666667
 40
1.0
 40
1.0
 40
1.0
 40
1.0
 10
82.1370159891
 20
163.1678117019
 30
0.0
 10
82.1366565052
 20
163.3854565469
 30
0.0
 10
82.1314556564
 20
163.8211206639
 30
0.0
 10
82.1076671231
 20
164.4316896866
 30
0.0
 10
82.0755161817
 20
164.956025242
 30
0.0
 10
82.043362406
 20
165.3579978656
 30
0.0
 10
82.0198903881
 20
165.6104616644
 30
0.0
 10
82.0113114236
 20
165.6964866517
 30
0.0
 10
82.0198903371
 20
165.6104619397
 30
0.0
 10
82.0433616234
 20
165.3580071788
 30
0.0
 10
82.0755161079
 20
164.9560260049
 30
0.0
 10
82.1076665529
 20
164.4317010375
 30
0.0
 10
82.1314557086
 20
163.8211213144
 30
0.0
 10
82.1366565302
 20
163.3854566267
 30
0.0
 10
82.1370159891
 20
163.1678117019
 30
0.0
  0
SPLINE
  5
33C
100
AcDbEntity
  8
0
100
AcDbSpline
 62
2
  6
CONTINUOUS
 70
0
 71
3
 72
10
 73
6
 74
0
 42
0.0000001
 43
0.0000001
 44
0.0000000001
 40
0.0
 40
0.0
 40
0.0
 40
0.0
 40
0.3501063051
 40
0.7002126102
 40
1.0
 40
1.0
 40
1.0
 40
1.0
 10
82.1370159891
 20
163.1678117019
 30
0.0
 10
82.1366565052
 20
162.9501668568
 30
0.0
 10
82.1314556564
 20
162.5145027399
 30
0.0
 10
82.1088067895
 20
161.9331849955
 30
0.0
 10
82.0892849612
 20
161.6049135364
 30
0.0
 10
82.0801326309
 20
161.46780459
 30
0.0
  0
SPLINE
  5
33D
100
AcDbEntity
  8
0
100
AcDbSpline
 62
2
  6
CONTINUOUS
 70
0
 71
3
 72
10
 73
6
 74
0
 42
0.0000001
 43
0.0000001
 44
0.0000000001
 40
0.0
 40
0.0
 40
0.0
 40
0.0
 40
0.2997852433
 40
0.6498926216
 40
1.0
 40
1.0
 40
1.0
 40
1.0
 10
82.080132641
 20
161.4678045194
 30
0.0
 10
82.0892848624
 20
161.6049113998
 30
0.0
 10
82.1088063186
 20
161.9331759393
 30
0.0
 10
82.1314557086
 20
162.5145020893
 30
0.0
 10
82.1366565302
 20
162.950166777
 30
0.0
 10
82.1370159891
 20
163.1678117019
 30
0.0
  0
LINE
  5
33E
100
AcDbEntity
  8
GIANNI_ASSI
100
AcDbLine
 62
7
  6
CONTINUOUS
 10
82.01417107
 20
165.8178117019
 11
82.0361178934
 21
165.5736082786
  0
SPLINE
  5
33F
100
AcDbEntity
  8
0
100
AcDbSpline
 62
7
  6
CONTINUOUS
 70
0
 71
3
 72
23
 73
19
 74
0
 42
0.0000001
 43
0.0000001
 44
0.0000000001
 40
0.0
 40
0.0
 40
0.0
 40
0.0
 40
0.1900450175
 40
0.3725123921
 40
0.5420880048
 40
0.6203925245
 40
0.6934240661
 40
0.7604415343
 40
0.8206853118
 40
0.8733957861
 40
0.9178169332
 40
0.9532335229
 40
0.9673752614
 40
0.9790415312
 40
0.9881686749
 40
0.9947228806
 40
0.9986760316
 40
1.0
 40
1.0
 40
1.0
 40
1.0
 10
132.01417107
 20
213.6678117019
 30
0.0
 10
132.0195713591
 20
213.9864287641
 30
0.0
 10
132.0403004758
 20
214.6108341752
 30
0.0
 10
132.0989664625
 20
215.5180304816
 30
0.0
 10
132.1665626693
 20
216.2365558194
 30
0.0
 10
132.2276819727
 20
216.7711817749
 30
0.0
 10
132.2736614392
 20
217.1344205974
 30
0.0
 10
132.3195251725
 20
217.4671307331
 30
0.0
 10
132.3636695059
 20
217.7656470495
 30
0.0
 10
132.40455525
 20
218.0263893188
 30
0.0
 10
132.4405600937
 20
218.2455852042
 30
0.0
 10
132.4671305934
 20
218.4012046216
 30
0.0
 10
132.4846037582
 20
218.5019108697
 30
0.0
 10
132.4951221125
 20
218.5605109848
 30
0.0
 10
132.5022468738
 20
218.6032855808
 30
0.0
 10
132.5100806586
 20
218.6411042379
 30
0.0
 10
132.5099985851
 20
218.6510828186
 30
0.0
 10
132.5153139346
 20
218.6697149229
 30
0.0
 10
132.51417107
 20
218.6678117019
 30
0.0
  0
LINE
  5
340
100
AcDbEntity
  8
0
100
AcDbLine
 62
7
  6
CONTINUOUS
 10
132.4947976774
 20
207.7762466496
 11
132.51417107
 21
207.6678117019
  0
SPLINE
  5
341
100
AcDbEntity
  8
0
100
AcDbSpline
 62
7
  6
CONTINUOUS
 70
0
 71
3
 72
21
 73
17
 74
0
 42
0.0000001
 43
0.0000001
 44
0.0000000001
 40
0.0
 40
0.0
 40
0.0
 40
0.0
 40
0.0013239755
 40
0.0052771376
 40
0.01183136
 40
0.0209585277
 40
0.0467665993
 40
0.082183292
 40
0.1266045624
 40
0.1793151819
 40
0.2395591252
 40
0.3065767785
 40
0.4579104978
 40
0.6274865813
 40
0.809954458
 40
1.0
 40
1.0
 40
1.0
 40
1.0
 10
132.51417107
 20
207.6678117019
 30
0.0
 10
132.5134055397
 20
207.6698955394
 30
0.0
 10
132.5127241021
 20
207.6788462958
 30
0.0
 10
132.5083496023
 20
207.6981367231
 30
0.0
 10
132.5030382753
 20
207.7306771374
 30
0.0
 10
132.4905795119
 20
207.799093806
 30
0.0
 10
132.4704143531
 20
207.91534278
 30
0.0
 10
132.4405657253
 20
208.089944775
 30
0.0
 10
132.4045532542
 20
208.3092670755
 30
0.0
 10
132.3636701728
 20
208.5699654256
 30
0.0
 10
132.3195248938
 20
208.8684963791
 30
0.0
 10
132.2557322157
 20
209.3312671927
 30
0.0
 10
132.1780331903
 20
209.977143562
 30
0.0
 10
132.0989665721
 20
210.8175905935
 30
0.0
 10
132.0403004395
 20
211.7247899682
 30
0.0
 10
132.0195713591
 20
212.3491946439
 30
0.0
 10
132.01417107
 20
212.6678117019
 30
0.0
  0
SPLINE
  5
342
100
AcDbEntity
  8
0
100
AcDbSpline
 62
7
  6
CONTINUOUS
 70
0
 71
3
 72
9
 73
5
 74
0
 42
0.0000001
 43
0.0000001
 44
0.0000000001
 40
0.0
 40
0.0
 40
0.0
 40
0.0
 40
0.4998572763
 40
1.0
 40
1.0
 40
1.0
 40
1.0
 10
99.2937784889
 20
242.0678117019
 30
0.0
 10
99.3649675464
 20
242.3983908815
 30
0.0
 10
99.4868961727
 20
243.0641127215
 30
0.0
 10
99.5891122061
 20
243.73287479
 30
0.0
 10
99.6370536264
 20
244.0678117019
 30
0.0
  0
SPLINE
  5
343
100
AcDbEntity
  8
0
100
AcDbSpline
 62
7
  6
CONTINUOUS
 70
0
 71
3
 72
16
 73
12
 74
0
 42
0.0000001
 43
0.0000001
 44
0.0000000001
 40
0.0
 40
0.0
 40
0.0
 40
0.0
 40
0.1235814236
 40
0.1867849936
 40
0.2506443432
 40
0.3773403025
 40
0.5010736097
 40
0.6252416927
 40
0.7517583454
 40
0.8777402672
 40
1.0
 40
1.0
 40
1.0
 40
1.0
 10
101.0312747847
 20
207.217811702
 30
0.0
 10
101.0317652025
 20
207.6373944765
 30
0.0
 10
101.0922031032
 20
208.2738405173
 30
0.0
 10
101.2972158518
 20
209.1008181924
 30
0.0
 10
101.5846254855
 20
209.914350674
 30
0.0
 10
102.0908018949
 20
210.8625280529
 30
0.0
 10
102.9026432538
 20
211.8517304481
 30
0.0
 10
103.8912612272
 20
212.6638827387
 30
0.0
 10
105.0274421528
 20
213.2694305257
 30
0.0
 10
106.2540519853
 20
213.6366346757
 30
0.0
 10
107.0990754076
 20
213.7178301584
 30
0.0
 10
107.51417107
 20
213.7178117019
 30
0.0
  0
SPLINE
  5
344
100
AcDbEntity
  8
0
100
AcDbSpline
 62
7
  6
CONTINUOUS
 70
0
 71
3
 72
16
 73
12
 74
0
 42
0.0000001
 43
0.0000001
 44
0.0000000001
 40
0.0
 40
0.0
 40
0.0
 40
0.0
 40
0.1224698911
 40
0.2485626085
 40
0.3750364067
 40
0.499062961
 40
0.6229154128
 40
0.7496624843
 40
0.8134707906
 40
0.8765957042
 40
1.0
 40
1.0
 40
1.0
 40
1.0
 10
107.51417107
 20
213.7178117019
 30
0.0
 10
107.9299801169
 20
213.7177932136
 30
0.0
 10
108.7761042303
 20
213.6364058762
 30
0.0
 10
110.0034828507
 20
213.2683878116
 30
0.0
 10
111.1391496473
 20
212.6624277595
 30
0.0
 10
112.1273100752
 20
211.8501057124
 30
0.0
 10
112.9389236333
 20
210.8605635956
 30
0.0
 10
113.4448594137
 20
209.9117928319
 30
0.0
 10
113.7318493347
 20
209.0983977234
 30
0.0
 10
113.9362991179
 20
208.2723578874
 30
0.0
 10
113.9965867229
 20
207.6367929592
 30
0.0
 10
113.9970673552
 20
207.217811702
 30
0.0
  0
SPLINE
  5
345
100
AcDbEntity
  8
0
100
AcDbSpline
 62
7
  6
CONTINUOUS
 70
0
 71
3
 72
9
 73
5
 74
0
 42
0.0000001
 43
0.0000001
 44
0.0000000001
 40
0.0
 40
0.0
 40
0.0
 40
0.0
 40
0.496294813
 40
1.0
 40
1.0
 40
1.0
 40
1.0
 10
116.2211209228
 20
244.2581208926
 30
0.0
 10
116.1027117754
 20
244.2581208926
 30
0.0
 10
115.8636954603
 20
244.2289444439
 30
0.0
 10
115.6352367134
 20
244.1580460509
 30
0.0
 10
115.521984718
 20
244.1178398874
 30
0.0
  0
SPLINE
  5
346
100
AcDbEntity
  8
0
100
AcDbSpline
 62
7
  6
CONTINUOUS
 70
0
 71
3
 72
15
 73
11
 74
0
 42
0.0000001
 43
0.0000001
 44
0.0000000001
 40
0.0
 40
0.0
 40
0.0
 40
0.0
 40
0.0521716478
 40
0.1077089994
 40
0.2247030482
 40
0.346841925
 40
0.4725577156
 40
0.6010884529
 40
0.7320020668
 40
1.0
 40
1.0
 40
1.0
 40
1.0
 10
118.4937002682
 20
244.6460749023
 30
0.0
 10
118.4640624512
 20
244.6184003259
 30
0.0
 10
118.3920802582
 20
244.5734319881
 30
0.0
 10
118.2324712011
 20
244.502688514
 30
0.0
 10
118.0123771439
 20
244.4363954895
 30
0.0
 10
117.7351435131
 20
244.3765721554
 30
0.0
 10
117.445976683
 20
244.3312237552
 30
0.0
 10
117.1484322572
 20
244.2976941546
 30
0.0
 10
116.739595208
 20
244.2666640597
 30
0.0
 10
116.429418919
 20
244.2581208926
 30
0.0
 10
116.2211209228
 20
244.2581208926
 30
0.0
  0
SPLINE
  5
347
100
AcDbEntity
  8
0
100
AcDbSpline
 62
7
  6
CONTINUOUS
 70
0
 71
3
 72
11
 73
7
 74
0
 42
0.0000001
 43
0.0000001
 44
0.0000000001
 40
0.0
 40
0.0
 40
0.0
 40
0.0
 40
0.313011198
 40
0.5852901561
 40
0.801098324
 40
1.0
 40
1.0
 40
1.0
 40
1.0
 10
118.3825855248
 20
244.8762721362
 30
0.0
 10
118.4125526225
 20
244.8647844335
 30
0.0
 10
118.4665980731
 20
244.8372742684
 30
0.0
 10
118.5244358568
 20
244.7737062738
 30
0.0
 10
118.5329980363
 20
244.6985100091
 30
0.0
 10
118.5086060233
 20
244.6599932842
 30
0.0
 10
118.4937002682
 20
244.6460749023
 30
0.0
  0
SPLINE
  5
348
100
AcDbEntity
  8
0
100
AcDbSpline
 62
7
  6
CONTINUOUS
 70
0
 71
3
 72
14
 73
10
 74
0
 42
0.0000001
 43
0.0000001
 44
0.0000000001
 40
0.0
 40
0.0
 40
0.0
 40
0.0
 40
0.2434756868
 40
0.4888711049
 40
0.6128456128
 40
0.7383357045
 40
0.8664608642
 40
0.9322656592
 40
1.0
 40
1.0
 40
1.0
 40
1.0
 10
115.8391099202
 20
245.0495359055
 30
0.0
 10
116.0466274378
 20
245.0495359055
 30
0.0
 10
116.4633001696
 20
245.047292747
 30
0.0
 10
116.9855747429
 20
245.036974557
 30
0.0
 10
117.4070071121
 20
245.0189362952
 30
0.0
 10
117.7280832585
 20
244.9969803344
 30
0.0
 10
117.9989621473
 20
244.9669338504
 30
0.0
 10
118.2183340154
 20
244.9267436434
 30
0.0
 10
118.3286797424
 20
244.8969365864
 30
0.0
 10
118.3825855248
 20
244.8762721362
 30
0.0
  0
SPLINE
  5
349
100
AcDbEntity
  8
0
100
AcDbSpline
 62
7
  6
CONTINUOUS
 70
0
 71
3
 72
9
 73
5
 74
0
 42
0.0000001
 43
0.0000001
 44
0.0000000001
 40
0.0
 40
0.0
 40
0.0
 40
0.0
 40
0.2586489624
 40
1.0
 40
1.0
 40
1.0
 40
1.0
 10
115.1343661766
 20
245.0678117019
 30
0.0
 10
115.1951479383
 20
245.0678117019
 30
0.0
 10
115.4301227257
 20
245.0631060219
 30
0.0
 10
115.6648945603
 20
245.0495359055
 30
0.0
 10
115.8391099202
 20
245.0495359055
 30
0.0
  0
SPLINE
  5
34A
100
AcDbEntity
  8
0
100
AcDbSpline
 62
7
  6
CONTINUOUS
 70
0
 71
3
 72
9
 73
5
 74
0
 42
0.0000001
 43
0.0000001
 44
0.0000000001
 40
0.0
 40
0.0
 40
0.0
 40
0.0
 40
0.2358336756
 40
1.0
 40
1.0
 40
1.0
 40
1.0
 10
99.1892322197
 20
245.0495359055
 30
0.0
 10
99.2446526143
 20
245.0495359055
 30
0.0
 10
99.4796362651
 20
245.0536864478
 30
0.0
 10
99.7143985593
 20
245.0678117019
 30
0.0
 10
99.8939759633
 20
245.0678117019
 30
0.0
  0
SPLINE
  5
34B
100
AcDbEntity
  8
0
100
AcDbSpline
 62
7
  6
CONTINUOUS
 70
0
 71
3
 72
14
 73
10
 74
0
 42
0.0000001
 43
0.0000001
 44
0.0000000001
 40
0.0
 40
0.0
 40
0.0
 40
0.0
 40
0.0677344058
 40
0.1335382903
 40
0.2616630277
 40
0.387153288
 40
0.5111280032
 40
0.7565238745
 40
1.0
 40
1.0
 40
1.0
 40
1.0
 10
96.6457566151
 20
244.8762721362
 30
0.0
 10
96.6996624482
 20
244.8969366058
 30
0.0
 10
96.8100074479
 20
244.926743643
 30
0.0
 10
97.0293784601
 20
244.9669325251
 30
0.0
 10
97.3002562251
 20
244.9969795655
 30
0.0
 10
97.6213322731
 20
245.0189366136
 30
0.0
 10
98.0427653517
 20
245.0369746617
 30
0.0
 10
98.5650408471
 20
245.0472929492
 30
0.0
 10
98.9817143326
 20
245.0495359055
 30
0.0
 10
99.1892322197
 20
245.0495359055
 30
0.0
  0
SPLINE
  5
34C
100
AcDbEntity
  8
0
100
AcDbSpline
 62
7
  6
CONTINUOUS
 70
0
 71
3
 72
11
 73
7
 74
0
 42
0.0000001
 43
0.0000001
 44
0.0000000001
 40
0.0
 40
0.0
 40
0.0
 40
0.0
 40
0.1989099002
 40
0.4147583584
 40
0.6870005168
 40
1.0
 40
1.0
 40
1.0
 40
1.0
 10
96.5346418717
 20
244.6460749023
 30
0.0
 10
96.5197356227
 20
244.6599937455
 30
0.0
 10
96.4953361385
 20
244.6985151973
 30
0.0
 10
96.5039255253
 20
244.7737090414
 30
0.0
 10
96.5617413212
 20
244.8372863557
 30
0.0
 10
96.615790885
 20
244.8647849577
 30
0.0
 10
96.6457566151
 20
244.8762721362
 30
0.0
  0
SPLINE
  5
34D
100
AcDbEntity
  8
0
100
AcDbSpline
 62
7
  6
CONTINUOUS
 70
0
 71
3
 72
15
 73
11
 74
0
 42
0.0000001
 43
0.0000001
 44
0.0000000001
 40
0.0
 40
0.0
 40
0.0
 40
0.0
 40
0.2679976988
 40
0.3989112192
 40
0.5274418619
 40
0.6531575816
 40
0.7752963985
 40
0.8922904309
 40
0.9478278763
 40
1.0
 40
1.0
 40
1.0
 40
1.0
 10
98.8072212172
 20
244.2581208926
 30
0.0
 10
98.5989234
 20
244.2581208926
 30
0.0
 10
98.2887473634
 20
244.2666640801
 30
0.0
 10
97.87991063
 20
244.2976940618
 30
0.0
 10
97.582366398
 20
244.3312236647
 30
0.0
 10
97.2931997485
 20
244.3765720107
 30
0.0
 10
97.0159661365
 20
244.4363951206
 30
0.0
 10
96.7958722693
 20
244.5026885108
 30
0.0
 10
96.6362623066
 20
244.5734311119
 30
0.0
 10
96.5642799595
 20
244.618400073
 30
0.0
 10
96.5346418717
 20
244.6460749023
 30
0.0
  0
SPLINE
  5
34E
100
AcDbEntity
  8
0
100
AcDbSpline
 62
7
  6
CONTINUOUS
 70
0
 71
3
 72
9
 73
5
 74
0
 42
0.0000001
 43
0.0000001
 44
0.0000000001
 40
0.0
 40
0.0
 40
0.0
 40
0.0
 40
0.503829595
 40
1.0
 40
1.0
 40
1.0
 40
1.0
 10
99.5063574219
 20
244.1178398874
 30
0.0
 10
99.3930780076
 20
244.158055785
 30
0.0
 10
99.1646086972
 20
244.2289103115
 30
0.0
 10
98.9256001048
 20
244.2581208926
 30
0.0
 10
98.8072212172
 20
244.2581208926
 30
0.0
  0
LINE
  5
34F
100
AcDbEntity
  8
0
100
AcDbLine
 62
7
  6
CONTINUOUS
 10
101.0312747847
 20
194.7178117019
 11
101.0713183258
 21
194.6777870532
  0
LINE
  5
350
100
AcDbEntity
  8
0
100
AcDbLine
 62
7
  6
CONTINUOUS
 10
101.0993968992
 20
194.3030375311
 11
101.0713183258
 21
194.6777870532
  0
LINE
  5
351
100
AcDbEntity
  8
0
100
AcDbLine
 62
7
  6
CONTINUOUS
 10
113.9712626034
 20
194.3444168
 11
113.9292282194
 21
194.3027554496
  0
SPLINE
  5
352
100
AcDbEntity
  8
0
100
AcDbSpline
 62
7
  6
CONTINUOUS
 70
0
 71
3
 72
13
 73
9
 74
0
 42
0.0000001
 43
0.0000001
 44
0.0000000001
 40
0.0
 40
0.0
 40
0.0
 40
0.0
 40
0.0187817454
 40
0.0732489619
 40
0.1609813314
 40
0.2795553591
 40
0.5974749629
 40
1.0
 40
1.0
 40
1.0
 40
1.0
 10
101.0727497137
 20
194.2763903456
 30
0.0
 10
101.0732178793
 20
194.2768585112
 30
0.0
 10
101.0762078854
 20
194.2764150639
 30
0.0
 10
101.0813964498
 20
194.2781253329
 30
0.0
 10
101.090692647
 20
194.2791768308
 30
0.0
 10
101.1087943934
 20
194.2824567147
 30
0.0
 10
101.1380467385
 20
194.2872143524
 30
0.0
 10
101.163061288
 20
194.2914885198
 30
0.0
 10
101.1770563096
 20
194.2938305986
 30
0.0
  0
LINE
  5
353
100
AcDbEntity
  8
0
100
AcDbLine
 62
7
  6
CONTINUOUS
 10
101.1770563096
 20
194.2938305986
 11
101.3018572113
 21
194.3145597127
  0
LINE
  5
354
100
AcDbEntity
  8
0
100
AcDbLine
 62
7
  6
CONTINUOUS
 10
101.3018572113
 20
194.3145597127
 11
101.6811863466
 21
194.3777595048
  0
LINE
  5
355
100
AcDbEntity
  8
0
100
AcDbLine
 62
7
  6
CONTINUOUS
 10
101.51417107
 20
194.7178117019
 11
102.01417107
 21
194.5107049207
  0
SPLINE
  5
356
100
AcDbEntity
  8
0
100
AcDbSpline
 62
7
  6
CONTINUOUS
 70
0
 71
3
 72
9
 73
5
 74
0
 42
0.0000001
 43
0.0000001
 44
0.0000000001
 40
0.0
 40
0.0
 40
0.0
 40
0.0
 40
0.5001426607
 40
1.0
 40
1.0
 40
1.0
 40
1.0
 10
115.3912885135
 20
244.0678117019
 30
0.0
 10
115.4392299278
 20
243.7328748316
 30
0.0
 10
115.5414457446
 20
243.0641127265
 30
0.0
 10
115.6633745844
 20
242.3983909237
 30
0.0
 10
115.7345636511
 20
242.0678117019
 30
0.0
  0
LINE
  5
357
100
AcDbEntity
  8
0
100
AcDbLine
 62
7
  6
CONTINUOUS
 10
113.3471557933
 20
194.3777595048
 11
113.7264849286
 21
194.3145597127
  0
LINE
  5
358
100
AcDbEntity
  8
0
100
AcDbLine
 62
7
  6
CONTINUOUS
 10
113.7264849286
 20
194.3145597127
 11
113.8512858303
 21
194.2938305986
  0
LINE
  5
359
100
AcDbEntity
  8
0
100
AcDbLine
 62
7
  6
CONTINUOUS
 10
113.8512858303
 20
194.2938305986
 11
113.9301078726
 21
194.2805750003
  0
LINE
  5
35A
100
AcDbEntity
  8
0
100
AcDbLine
 62
7
  6
CONTINUOUS
 10
113.51417107
 20
194.7178117019
 11
113.4728162829
 21
194.7006819882
  0
LINE
  5
35B
100
AcDbEntity
  8
0
100
AcDbLine
 62
7
  6
CONTINUOUS
 10
113.4728162829
 20
194.7006819882
 11
113.01417107
 21
194.5107049207
  0
SPLINE
  5
35C
100
AcDbEntity
  8
0
100
AcDbSpline
 62
7
  6
CONTINUOUS
 70
0
 71
3
 72
12
 73
8
 74
0
 42
0.0000001
 43
0.0000001
 44
0.0000000001
 40
0.0
 40
0.0
 40
0.0
 40
0.0
 40
0.3150731128
 40
0.5766887606
 40
0.6874886439
 40
0.7916583034
 40
1.0
 40
1.0
 40
1.0
 40
1.0
 10
87.899125824
 20
212.6832434938
 30
0.0
 10
87.899125824
 20
212.7534792112
 30
0.0
 10
87.9168273934
 20
212.8835481336
 30
0.0
 10
88.003396661
 20
213.019809379
 30
0.0
 10
88.0969012045
 20
213.0739437389
 30
0.0
 10
88.1902788217
 20
213.0945442725
 30
0.0
 10
88.2618728384
 20
213.0796066434
 30
0.0
 10
88.3047983577
 20
213.0618759364
 30
0.0
  0
SPLINE
  5
35D
100
AcDbEntity
  8
0
100
AcDbSpline
 62
7
  6
CONTINUOUS
 70
0
 71
3
 72
22
 73
18
 74
0
 42
0.0000001
 43
0.0000001
 44
0.0000000001
 40
0.0
 40
0.0
 40
0.0
 40
0.0
 40
0.062556171
 40
0.1251483221
 40
0.1877001426
 40
0.2502003965
 40
0.3126743134
 40
0.3751719749
 40
0.4377178514
 40
0.5002965092
 40
0.6248286474
 40
0.6873261783
 40
0.7497995775
 40
0.8123000138
 40
0.8748518506
 40
0.9374445944
 40
1.0
 40
1.0
 40
1.0
 40
1.0
 10
104.0227746652
 20
227.6885624695
 30
0.0
 10
104.0243881208
 20
227.9161763934
 30
0.0
 10
104.071867882
 20
228.3726238108
 30
0.0
 10
104.2764547135
 20
229.028378653
 30
0.0
 10
104.5984552155
 20
229.6352123792
 30
0.0
 10
105.0342507796
 20
230.1662386333
 30
0.0
 10
105.566120665
 20
230.6004785934
 30
0.0
 10
106.172711722
 20
230.9221522622
 30
0.0
 10
106.8303205535
 20
231.1213879916
 30
0.0
 10
107.7388548775
 20
231.2131883241
 30
0.0
 10
108.656281633
 20
231.0280184045
 30
0.0
 10
109.4620805119
 20
230.6005871678
 30
0.0
 10
109.9944246814
 20
230.1664939578
 30
0.0
 10
110.4300013787
 20
229.6353152768
 30
0.0
 10
110.7515631904
 20
229.0282601815
 30
0.0
 10
110.9564632385
 20
228.3726465807
 30
0.0
 10
111.0040591168
 20
227.9161743289
 30
0.0
 10
111.0055674748
 20
227.6885624695
 30
0.0
  0
SPLINE
  5
35E
100
AcDbEntity
  8
0
100
AcDbSpline
 62
7
  6
CONTINUOUS
 70
0
 71
3
 72
21
 73
17
 74
0
 42
0.0000001
 43
0.0000001
 44
0.0000000001
 40
0.0
 40
0.0
 40
0.0
 40
0.0
 40
0.0627282509
 40
0.1252943179
 40
0.1877096098
 40
0.2500576163
 40
0.3124582787
 40
0.3750149056
 40
0.4999988013
 40
0.6249855432
 40
0.6875421307
 40
0.7499422371
 40
0.8122904053
 40
0.8747060267
 40
0.9372724284
 40
1.0
 40
1.0
 40
1.0
 40
1.0
 10
111.0055674748
 20
227.6885624695
 30
0.0
 10
111.007091496
 20
227.4585870102
 30
0.0
 10
110.9659564602
 20
226.9974700873
 30
0.0
 10
110.7678269344
 20
226.3340506837
 30
0.0
 10
110.4487175101
 20
225.7209800949
 30
0.0
 10
110.0143200205
 20
225.1838114863
 30
0.0
 10
109.4807931773
 20
224.7438319198
 30
0.0
 10
108.6683743026
 20
224.3096876035
 30
0.0
 10
107.5141311994
 20
224.0741831102
 30
0.0
 10
106.360093168
 20
224.3100483367
 30
0.0
 10
105.5474493073
 20
224.7437450216
 30
0.0
 10
105.0137480733
 20
225.1835484016
 30
0.0
 10
104.5794961633
 20
225.7208827659
 30
0.0
 10
104.2608398224
 20
226.33416326
 30
0.0
 10
104.0623917306
 20
226.9974472798
 30
0.0
 10
104.0211444924
 20
227.458590229
 30
0.0
 10
104.0227746652
 20
227.6885624695
 30
0.0
  0
SPLINE
  5
35F
100
AcDbEntity
  8
0
100
AcDbSpline
 62
7
  6
CONTINUOUS
 70
0
 71
3
 72
19
 73
15
 74
0
 42
0.0000001
 43
0.0000001
 44
0.0000000001
 40
0.0
 40
0.0
 40
0.0
 40
0.0
 40
0.2497748935
 40
0.3737542297
 40
0.4973042447
 40
0.6207076873
 40
0.6824817588
 40
0.7443819594
 40
0.8065515223
 40
0.8692930221
 40
0.901140666
 40
0.9335886942
 40
0.9665984566
 40
1.0
 40
1.0
 40
1.0
 40
1.0
 10
101.719352219
 20
240.5678117019
 30
0.0
 10
101.464449029
 20
240.5678117019
 30
0.0
 10
101.0809693992
 20
240.6266905164
 30
0.0
 10
100.602508526
 20
240.7977481841
 30
0.0
 10
100.2621481927
 20
240.9653781481
 30
0.0
 10
99.9952676091
 20
241.1339688834
 30
0.0
 10
99.7933964254
 20
241.2852270095
 30
0.0
 10
99.6483760015
 20
241.4076881205
 30
0.0
 10
99.5117677951
 20
241.5408511903
 30
0.0
 10
99.4085122367
 20
241.6638933505
 30
0.0
 10
99.3401661838
 20
241.7743528626
 30
0.0
 10
99.3000324267
 20
241.8658008556
 30
0.0
 10
99.2810755117
 20
241.9659633024
 30
0.0
 10
99.2866024087
 20
242.0344882845
 30
0.0
 10
99.2937784889
 20
242.0678117019
 30
0.0
  0
SPLINE
  5
360
100
AcDbEntity
  8
0
100
AcDbSpline
 62
7
  6
CONTINUOUS
 70
0
 71
3
 72
18
 73
14
 74
0
 42
0.0000001
 43
0.0000001
 44
0.0000000001
 40
0.0
 40
0.0
 40
0.0
 40
0.0
 40
0.0660009826
 40
0.0984469424
 40
0.1303690936
 40
0.193119972
 40
0.255319802
 40
0.3172407054
 40
0.3790372144
 40
0.5024835487
 40
0.6260752495
 40
0.7500985348
 40
1.0
 40
1.0
 40
1.0
 40
1.0
 10
115.7345636511
 20
242.0678117019
 30
0.0
 10
115.748735711
 20
242.002001195
 30
0.0
 10
115.7422446575
 20
241.895914471
 30
0.0
 10
115.6879934259
 20
241.7741308598
 30
0.0
 10
115.6196378027
 20
241.6635756201
 30
0.0
 10
115.5163252351
 20
241.5405840653
 30
0.0
 10
115.3797260215
 20
241.4074615813
 30
0.0
 10
115.2347102295
 20
241.2850435118
 30
0.0
 10
115.0328655689
 20
241.1338336679
 30
0.0
 10
114.7660329713
 20
240.965287088
 30
0.0
 10
114.4257318508
 20
240.7977103451
 30
0.0
 10
113.9473274623
 20
240.6266802919
 30
0.0
 10
113.5638824624
 20
240.5678117019
 30
0.0
 10
113.3089899209
 20
240.5678117019
 30
0.0
  0
ENDSEC
  0
SECTION
  2
OBJECTS
  0
DICTIONARY
  5
C
100
AcDbDictionary
280
0
281
1
  3
ACAD_GROUP
350
D
  3
ACAD_MLINESTYLE
350
17
  3
ACAD_LAYOUT
350
1A
  3
ACAD_PLOTSETTINGS
350
19
  3
ACAD_PLOTSTYLENAME
350
E
  3
ACAD_TABLESTYLE
350
       361
  0
DICTIONARY
  5
D
102
{ACAD_REACTORS
330
C
102
}
100
AcDbDictionary
280
0
281
1
  0
ACDBDICTIONARYWDFLT
  5
E
102
{ACAD_REACTORS
330
C
102
}
100
AcDbDictionary
281
1
  3
Normal
350
F
100
AcDbDictionaryWithDefault
340
F
  0
DICTIONARY
  5
17
102
{ACAD_REACTORS
330
C
102
}
100
AcDbDictionary
280
0
281
1
  3
Standard
350
18
  0
DICTIONARY
  5
361
330
C
100
AcDbDictionary
281
1
  3
Standard
350
       364
  3
Standard1
350
       365
  0
DICTIONARY
  5
19
102
{ACAD_REACTORS
330
C
102
}
100
AcDbDictionary
281
1
  0
DICTIONARY
  5
1A
102
{ACAD_REACTORS
330
C
102
}
100
AcDbDictionary
281
1
  3
Model
350
362
  3
Layout1
350
363
  0
ACDBPLACEHOLDER
  5
F
102
{ACAD_REACTORS
330
E
102
}
  0
MLINESTYLE
  5
18
102
{ACAD_REACTORS
330
17
102
}
100
AcDbMlineStyle
  2
STANDARD
 70
0
  3

 62
256
 51
90.0
 52
90.0
 71
2
 49
0.5
 62
256
  6
BYLAYER
 49
-0.5
 62
256
  6
BYLAYER
  0
LAYOUT
  5
362
102
{ACAD_REACTORS
330
1A
102
}
100
AcDbPlotSettings
  1

  2
none_device
  4

  6

 40
0.0
 41
0.0
 42
0.0
 43
0.0
 44
210.0
 45
297.0
 46
0.0
 47
0.0
 48
0.0
 49
0.0
140
0.0
141
0.0
142
1.0
143
1.0
 70
1024
 72
1
 73
0
 74
0
  7

 75
0
147
1.0
148
0.0
149
0.0
100
AcDbLayout
  1
Model
 70
0
 71
0
 10
0.0
 20
0.0
 11
210.0
 21
297.0
 12
0.0
 22
0.0
 32
0.0
 14
0.0
 24
0.0
 34
0.0
 15
0.0
 25
0.0
 35
0.0
146
0.0
 13
0.0
 23
0.0
 33
0.0
 16
1.0
 26
0.0
 36
0.0
 17
0.0
 27
1.0
 37
0.0
 76
0
330
218
345
0
346
0
  0
LAYOUT
  5
363
102
{ACAD_REACTORS
330
1A
102
}
100
AcDbPlotSettings
  1

  2
none_device
  4

  6

 40
0.0
 41
0.0
 42
0.0
 43
0.0
 44
210.0
 45
297.0
 46
0.0
 47
0.0
 48
0.0
 49
0.0
140
0.0
141
0.0
142
1.0
143
1.0
 70
0
 72
1
 73
0
 74
0
  7

 75
0
147
1.0
148
0.0
149
0.0
100
AcDbLayout
  1
Layout1
 70
0
 71
1
 10
0.0
 20
0.0
 11
210.0
 21
297.0
 12
0.0
 22
0.0
 32
0.0
 14
0.0
 24
0.0
 34
0.0
 15
0.0
 25
0.0
 35
0.0
146
0.0
 13
0.0
 23
0.0
 33
0.0
 16
1.0
 26
0.0
 36
0.0
 17
0.0
 27
1.0
 37
0.0
 76
0
330
219
345
0
346
0
  0
TABLESTYLE
  5
364
102
{ACAD_REACTORS
330
361
102
}
330
361
100
AcDbTableStyle
  3
Standard
 70
0
 71
0
 40
0.06
 41
0.06
280
1
281
1
  7
Standard
140
0.18
170
1
 62
0
 63
7
283
0
  7
Standard
140
0.18
170
1
 62
0
 63
7
283
0
  7
Standard
140
0.18
170
1
 62
0
 63
7
283
0
  0
TABLESTYLE
  5
365
102
{ACAD_REACTORS
330
361
330
282
102
}
330
361
100
AcDbTableStyle
  3
Standard1
 70
1
 71
0
 40
0.06
 41
0.06
280
1
281
1
  7
Standard
140
0.18
170
1
 62
0
 63
7
283
0
  7
Standard
140
0.18
170
1
 62
0
 63
7
283
0
  7
Standard
140
0.18
170
1
 62
0
 63
7
283
0
  0
ENDSEC
  0
EOF
