999
DXF file: 34400-h63a.dxf
999
Pro/ENGINEER 2019352 by Parametric Technology Corporation
  0
SECTION
  2
HEADER
  9
$ACADVER
  1
AC1027
  9
$DWGCODEPAGE
  3
ANSI_1252
  9
$EXTMAX
 10
210.0
 20
297.0
 30
0.0
  9
$EXTMIN
 10
0.0
 20
0.0
 30
0.0
  9
$LIMMIN
 10
0.0
 20
0.0
  9
$LIMMAX
 10
210.0
 20
297.0
  9
$VIEWCTR
 10
105.0
 20
148.5
  9
$VIEWSIZE
 40
297.0
  9
$CLAYER
  8
0
  9
$LTSCALE
 40
19.36
  9
$CELTYPE
  6
BYLAYER
  9
$DIMSCALE
 40
1.0
  9
$DIMASZ
 40
4.76
  9
$DIMEXO
 40
0.1
  9
$DIMDLI
 40
13.376
  9
$DIMEXE
 40
1.0
  9
$DIMCEN
 40
3.168
  9
$DIMLFAC
 40
1.0
  9
$DIMBLK
  1
_FILLED
  9
$DIMALT
 70
0
  9
$DIMALTF
 40
0.0393700787
  9
$DIMTXT
 40
1.5
  9
$DIMTOL
 70
1
  9
$DIMLIM
 70
0
  9
$DIMTFAC
 40
1.0
  9
$DIMTP
 40
0.001
  9
$DIMTM
 40
0.001
  9
$DIMGAP
 40
0.625
  9
$DIMDSEP
 70
46
  9
$AUNITS
 70
0
  9
$PDMODE
 70
3
  9
$PDSIZE
 40
0.3125
  9
$HANDSEED
  5
353
  9
$TILEMODE
 70
1
  9
$MEASUREMENT
 70
1
  9
$INSUNITS
 70
4
  0
ENDSEC
  0
SECTION
  2
CLASSES
  0
CLASS
  1
ACDBDICTIONARYWDFLT
  2
AcDbDictionaryWithDefault
  3
AutoCAD 2000
 90
0
 91
1
280
0
281
0
  0
CLASS
  1
ACDBPLACEHOLDER
  2
AcDbPlaceHolder
  3
AutoCAD 2000
 90
0
 91
1
280
0
281
0
  0
CLASS
  1
LAYOUT
  2
AcDbLayout
  3
AutoCAD 2000
 90
0
 91
0
280
0
281
0
  0
CLASS
  1
TABLESTYLE
  2
AcDbTableStyle
  3
ObjectDBX Classes
 90
2047
 91
1
280
0
281
0
  0
CLASS
  1
ACAD_TABLE
  2
AcDbTable
  3
ObjectDBX Classes
 90
1025
 91
1
280
0
281
1
  0
ENDSEC
  0
SECTION
  2
TABLES
  0
TABLE
  2
VPORT
  5
8
100
AcDbSymbolTable
 70
2
  0
VPORT
  5
1F4
100
AcDbSymbolTableRecord
100
AcDbViewportTableRecord
  2
*ACTIVE
 70
0
 10
0.0
 20
0.0
 11
1.0
 21
1.0
 12
105.0
 22
148.5
 13
0.0
 23
0.0
 14
1.0
 24
1.0
 15
0.0
 25
0.0
 16
0.0
 26
0.0
 36
1.0
 17
0.0
 27
0.0
 37
0.0
 40
297.0
 41
0.7070707071
 42
50.0
 43
0.0
 44
0.0
 50
0.0
 51
0.0
 71
0
 72
100
 73
1
 74
1
 75
0
 76
0
 77
0
 78
0
  0
ENDTAB
  0
TABLE
  2
LTYPE
  5
5
100
AcDbSymbolTable
 70
6
  0
LTYPE
  5
14
100
AcDbSymbolTableRecord
100
AcDbLinetypeTableRecord
  2
BYBLOCK
 70
0
  3

 72
65
 73
0
 40
0.0
  0
LTYPE
  5
15
100
AcDbSymbolTableRecord
100
AcDbLinetypeTableRecord
  2
BYLAYER
 70
0
  3

 72
65
 73
0
 40
0.0
  0
LTYPE
  5
16
100
AcDbSymbolTableRecord
100
AcDbLinetypeTableRecord
  2
CONTINUOUS
 70
64
  3
Solid line
 72
65
 73
0
 40
0.0
  0
LTYPE
  5
1F5
100
AcDbSymbolTableRecord
100
AcDbLinetypeTableRecord
  2
CENTER
 70
64
  3
____ _ ____ _ ____ _ ____ _ ____ _ ____ _ ____
 72
65
 73
4
 40
0.6
 49
0.375
 74
0
 49
-0.075
 74
0
 49
0.075
 74
0
 49
-0.075
 74
0
  0
LTYPE
  5
1F6
100
AcDbSymbolTableRecord
100
AcDbLinetypeTableRecord
  2
HIDDEN
 70
64
  3
- - - - - - - - - - - - - - - - - - - -
 72
65
 73
2
 40
0.2
 49
0.1
 74
0
 49
-0.1
 74
0
  0
LTYPE
  5
1F7
100
AcDbSymbolTableRecord
100
AcDbLinetypeTableRecord
  2
PHANTOM
 70
64
  3
_____ _ _ _____ _ _ _____ _ _ _____
 72
65
 73
6
 40
0.8
 49
0.45
 74
0
 49
-0.05
 74
0
 49
0.1
 74
0
 49
-0.05
 74
0
 49
0.1
 74
0
 49
-0.05
 74
0
  0
LTYPE
  5
1F8
100
AcDbSymbolTableRecord
100
AcDbLinetypeTableRecord
  2
DOT
 70
64
  3
. . . . . . . . . . . . . . . . . . . .
 72
65
 73
2
 40
0.2
 49
0.1
 74
0
 49
-0.1
 74
0
  0
LTYPE
  5
1F9
100
AcDbSymbolTableRecord
100
AcDbLinetypeTableRecord
  2
DASHED
 70
64
  3
- - - - - - - - - - - - - - - - - - - -
 72
65
 73
2
 40
0.2
 49
0.1
 74
0
 49
-0.1
 74
0
  0
ENDTAB
  0
TABLE
  2
LAYER
  5
2
100
AcDbSymbolTable
 70
36
  0
LAYER
  5
10
100
AcDbSymbolTableRecord
100
AcDbLayerTableRecord
  2
0
 70
0
 62
7
  6
CONTINUOUS
370
-3
390
F
  0
LAYER
  5
1FA
100
AcDbSymbolTableRecord
100
AcDbLayerTableRecord
  2
DEFAULT_1
 70
0
 62
7
  6
CENTER
370
-3
390
F
  0
LAYER
  5
1FB
100
AcDbSymbolTableRecord
100
AcDbLayerTableRecord
  2
DEFAULT_2
 70
0
 62
8
  6
HIDDEN
370
-3
390
F
  0
LAYER
  5
1FC
100
AcDbSymbolTableRecord
100
AcDbLayerTableRecord
  2
DEFAULT_3
 70
0
 62
7
  6
PHANTOM
370
-3
390
F
  0
LAYER
  5
1FD
100
AcDbSymbolTableRecord
100
AcDbLayerTableRecord
  2
0_COMPONENTS
 70
0
 62
7
  6
CONTINUOUS
370
-3
390
F
  0
LAYER
  5
1FE
100
AcDbSymbolTableRecord
100
AcDbLayerTableRecord
  2
1_ALL_PLANES
 70
0
 62
7
  6
CONTINUOUS
370
-3
390
F
  0
LAYER
  5
1FF
100
AcDbSymbolTableRecord
100
AcDbLayerTableRecord
  2
1__DEF_ASM_PLN
 70
0
 62
7
  6
CONTINUOUS
370
-3
390
F
  0
LAYER
  5
200
100
AcDbSymbolTableRecord
100
AcDbLayerTableRecord
  2
1__DEF_PLANES
 70
0
 62
7
  6
CONTINUOUS
370
-3
390
F
  0
LAYER
  5
201
100
AcDbSymbolTableRecord
100
AcDbLayerTableRecord
  2
2_ALL_CSYS
 70
0
 62
7
  6
CONTINUOUS
370
-3
390
F
  0
LAYER
  5
202
100
AcDbSymbolTableRecord
100
AcDbLayerTableRecord
  2
2_ALL_NOTES
 70
0
 62
7
  6
CONTINUOUS
370
-3
390
F
  0
LAYER
  5
203
100
AcDbSymbolTableRecord
100
AcDbLayerTableRecord
  2
2__DEF_ASM_CSYS
 70
0
 62
7
  6
CONTINUOUS
370
-3
390
F
  0
LAYER
  5
204
100
AcDbSymbolTableRecord
100
AcDbLayerTableRecord
  2
2__DEF_CSYS
 70
0
 62
7
  6
CONTINUOUS
370
-3
390
F
  0
LAYER
  5
205
100
AcDbSymbolTableRecord
100
AcDbLayerTableRecord
  2
3_ALL_AXES
 70
0
 62
7
  6
CONTINUOUS
370
-3
390
F
  0
LAYER
  5
206
100
AcDbSymbolTableRecord
100
AcDbLayerTableRecord
  2
4_ALL_POINTS
 70
0
 62
7
  6
CONTINUOUS
370
-3
390
F
  0
LAYER
  5
207
100
AcDbSymbolTableRecord
100
AcDbLayerTableRecord
  2
5_ALL_CURVES
 70
0
 62
7
  6
CONTINUOUS
370
-3
390
F
  0
LAYER
  5
208
100
AcDbSymbolTableRecord
100
AcDbLayerTableRecord
  2
5_ALL_GTOLS(FREE)
 70
0
 62
7
  6
CONTINUOUS
370
-3
390
F
  0
LAYER
  5
209
100
AcDbSymbolTableRecord
100
AcDbLayerTableRecord
  2
6_ALL_SURFS
 70
0
 62
7
  6
CONTINUOUS
370
-3
390
F
  0
LAYER
  5
20A
100
AcDbSymbolTableRecord
100
AcDbLayerTableRecord
  2
GIANNI_ASSI
 70
0
 62
7
  6
CONTINUOUS
370
-3
390
F
  0
LAYER
  5
20B
100
AcDbSymbolTableRecord
100
AcDbLayerTableRecord
  2
GIANNI_CURVE
 70
0
 62
7
  6
CONTINUOUS
370
-3
390
F
  0
LAYER
  5
20C
100
AcDbSymbolTableRecord
100
AcDbLayerTableRecord
  2
LAY0001
 70
0
 62
7
  6
CONTINUOUS
370
-3
390
F
  0
LAYER
  5
20D
100
AcDbSymbolTableRecord
100
AcDbLayerTableRecord
  2
XSEC_DATUMS
 70
0
 62
7
  6
CONTINUOUS
370
-3
390
F
  0
ENDTAB
  0
TABLE
  2
STYLE
  5
3
100
AcDbSymbolTable
 70
1
  0
STYLE
  5
11
100
AcDbSymbolTableRecord
100
AcDbTextStyleTableRecord
  2
STANDARD
 70
0
 40
0.0
 41
1.2
 50
0.0
 71
0
 42
0.2
  3
txt
  4

  0
STYLE
  5
20E
100
AcDbSymbolTableRecord
100
AcDbTextStyleTableRecord
  2
TEXTSTYLE_1
 70
0
 40
0.0
 41
0.8
 50
0.0
 71
0
 42
0.2
  3
gdt
  4

  0
STYLE
  5
20F
100
AcDbSymbolTableRecord
100
AcDbTextStyleTableRecord
  2
TEXTSTYLE_2
 70
0
 40
0.0
 41
1.0
 50
0.0
 71
0
 42
0.2
  3
txt
  4

  0
STYLE
  5
210
100
AcDbSymbolTableRecord
100
AcDbTextStyleTableRecord
  2
TEXTSTYLE_3
 70
0
 40
0.0
 41
1.0
 50
0.0
 71
0
 42
0.2
  3
txt
  4

  0
STYLE
  5
211
100
AcDbSymbolTableRecord
100
AcDbTextStyleTableRecord
  2
TEXTSTYLE_4
 70
0
 40
0.0
 41
1.0
 50
0.0
 71
0
 42
0.2
  3
gdt
  4

  0
STYLE
  5
212
100
AcDbSymbolTableRecord
100
AcDbTextStyleTableRecord
  2
TEXTSTYLE_5
 70
0
 40
0.0
 41
1.0
 50
0.0
 71
0
 42
0.2
  3
txt
  4

  0
ENDTAB
  0
TABLE
  2
VIEW
  5
6
100
AcDbSymbolTable
 70
0
  0
ENDTAB
  0
TABLE
  2
UCS
  5
7
100
AcDbSymbolTable
 70
0
  0
ENDTAB
  0
TABLE
  2
APPID
  5
9
100
AcDbSymbolTable
 70
1
  0
APPID
  5
213
100
AcDbSymbolTableRecord
100
AcDbRegAppTableRecord
  2
ACAD
 70
0
  0
ENDTAB
  0
TABLE
  2
BLOCK_RECORD
  5
1
100
AcDbSymbolTable
 70
0
  0
BLOCK_RECORD
  5
214
100
AcDbSymbolTableRecord
100
AcDbBlockTableRecord
  2
*Model_Space
  0
BLOCK_RECORD
  5
215
100
AcDbSymbolTableRecord
100
AcDbBlockTableRecord
  2
*Paper_Space
  0
BLOCK_RECORD
  5
216
100
AcDbSymbolTableRecord
100
AcDbBlockTableRecord
  2
_FILLED
  0
BLOCK_RECORD
  5
217
100
AcDbSymbolTableRecord
100
AcDbBlockTableRecord
  2
*D0
  0
BLOCK_RECORD
  5
218
100
AcDbSymbolTableRecord
100
AcDbBlockTableRecord
  2
*D1
  0
BLOCK_RECORD
  5
219
100
AcDbSymbolTableRecord
100
AcDbBlockTableRecord
  2
*D2
  0
BLOCK_RECORD
  5
21A
100
AcDbSymbolTableRecord
100
AcDbBlockTableRecord
  2
*D3
  0
BLOCK_RECORD
  5
21B
100
AcDbSymbolTableRecord
100
AcDbBlockTableRecord
  2
*T1
  0
ENDTAB
  0
TABLE
  2
DIMSTYLE
  5
A
100
AcDbSymbolTable
 70
1
100
AcDbDimStyleTable
 71
0
  0
DIMSTYLE
105
21C
100
AcDbSymbolTableRecord
100
AcDbDimStyleTableRecord
  2
STANDARD
 70
0
  3

  4

 40
1.0
 41
4.76
 42
0.1
 43
0.38
 44
1.0
 45
0.0
 46
0.0
 47
0.001
 48
0.001
140
1.5
141
0.09
142
0.0
143
25.4
144
1.0
145
0.0
146
1.0
147
0.625
 71
1.0
 72
0.0
 73
0
 74
0
 75
0
 76
0
 77
1
 78
8
 79
2
170
0
171
2
172
0
173
0
174
0
175
0
176
0
177
0
178
5
270
2
179
3
271
3
272
3
273
2
274
2
275
0
280
0
281
0
282
0
283
1
284
8
285
0
286
0
287
3
288
0
340
11
278
46
341
216
342
216
343
216
344
216
  0
DIMSTYLE
105
21D
100
AcDbSymbolTableRecord
100
AcDbDimStyleTableRecord
  2
DIMSTYLE_1
 70
0
  3

  4

 40
1.0
 41
4.76
 42
0.1
 43
0.38
 44
1.0
 45
0.0
 46
0.0
 47
0.01
 48
0.01
140
1.5
141
0.09
142
0.0
143
25.4
144
1.0
145
0.0
146
1.0
147
0.375
 71
0.0
 72
0.0
 73
0
 74
0
 75
0
 76
0
 77
1
 78
8
 79
2
170
0
171
2
172
0
173
0
174
0
175
0
176
0
177
0
178
5
270
2
179
3
271
3
272
3
273
2
274
2
275
0
280
0
281
0
282
0
283
1
284
8
285
0
286
0
287
3
288
0
340
11
278
46
341
216
342
216
343
216
344
216
  0
DIMSTYLE
105
21E
100
AcDbSymbolTableRecord
100
AcDbDimStyleTableRecord
  2
DIMSTYLE_2
 70
0
  3
<>
  4

 40
1.0
 41
4.76
 42
0.1
 43
0.38
 44
1.0
 45
0.0
 46
0.0
 47
0.01
 48
0.01
140
1.5
141
0.09
142
0.0
143
25.4
144
1.0
145
0.0
146
1.0
147
0.625
 71
0.0
 72
0.0
 73
0
 74
0
 75
0
 76
0
 77
1
 78
8
 79
2
170
0
171
2
172
0
173
0
174
0
175
0
176
0
177
0
178
5
270
2
179
3
271
3
272
3
273
2
274
2
275
0
280
0
281
0
282
0
283
1
284
8
285
0
286
0
287
3
288
0
340
11
278
46
341
216
342
216
343
216
344
216
  0
ENDTAB
  0
ENDSEC
  0
SECTION
  2
BLOCKS
  0
BLOCK
  5
20
100
AcDbEntity
  8
0
100
AcDbBlockBegin
  2
*Model_Space
 70
0
 10
0.0
 20
0.0
 30
0.0
  3
*Model_Space
  1

  0
ENDBLK
  5
21
100
AcDbEntity
  8
0
100
AcDbBlockEnd
  0
BLOCK
  5
1C
100
AcDbEntity
  8
0
100
AcDbBlockBegin
  2
*Paper_Space
 70
0
 10
0.0
 20
0.0
 30
0.0
  3
*Paper_Space
  1

  0
ENDBLK
  5
1D
100
AcDbEntity
  8
0
100
AcDbBlockEnd
  0
BLOCK
  5
21F
100
AcDbEntity
  8
0
100
AcDbBlockBegin
  2
_FILLED
 70
64
 10
0.0
 20
0.0
  3
_FILLED
  1

  0
SOLID
  5
220
100
AcDbEntity
  8
0
  6
BYBLOCK
 62
0
100
AcDbTrace
 10
0.0
 20
0.0
 11
-1.0
 21
0.1050420168
 12
-1.0
 22
-0.1050420168
 13
-1.0
 23
-0.1050420168
  0
ENDBLK
  5
221
100
AcDbEntity
  8
0
  6
BYBLOCK
 62
0
100
AcDbBlockEnd
  0
BLOCK
  5
222
100
AcDbEntity
  8
0
100
AcDbBlockBegin
 62
2
  6
CONTINUOUS
  2
*D0
 70
65
 10
0.0
 20
0.0
  3
*D0
  1

  0
MTEXT
  5
223
100
AcDbEntity
  8
0
100
AcDbMText
 62
5
  6
CONTINUOUS
  7
STANDARD
 71
2
 72
1
 10
102.1140639238
 20
140.1352343568
 30
0.0
 11
1.0
 21
0.0
 31
0.0
 73
2
 44
0.9
  1
d
 40
1.5
 41
3.4714285714
  0
LINE
  5
224
100
AcDbEntity
  8
0
100
AcDbLine
 62
2
  6
CONTINUOUS
 10
111.6560884601
 20
152.9040375931
 11
111.6560884601
 21
137.2602343568
  0
LINE
  5
225
100
AcDbEntity
  8
0
100
AcDbLine
 62
2
  6
CONTINUOUS
 10
92.6560884601
 20
152.9040375931
 11
92.6560884601
 21
137.2602343568
  0
LINE
  5
226
100
AcDbEntity
  8
0
100
AcDbLine
 62
2
  6
CONTINUOUS
 10
111.6560884601
 20
138.2602343568
 11
102.1560884601
 21
138.2602343568
  0
LINE
  5
227
100
AcDbEntity
  8
0
100
AcDbLine
 62
2
  6
CONTINUOUS
 10
92.6560884601
 20
138.2602343568
 11
102.1560884601
 21
138.2602343568
  0
INSERT
  5
228
100
AcDbEntity
  8
0
100
AcDbBlockReference
 62
2
  6
CONTINUOUS
  2
_FILLED
 10
111.6560884601
 20
138.2602343568
 41
4.76
 42
4.76
 43
4.76
  0
INSERT
  5
229
100
AcDbEntity
  8
0
100
AcDbBlockReference
 62
2
  6
CONTINUOUS
  2
_FILLED
 10
92.6560884601
 20
138.2602343568
 41
4.76
 42
4.76
 43
4.76
 50
180.0
  0
ENDBLK
  5
22A
100
AcDbEntity
  8
0
  6
BYBLOCK
 62
0
100
AcDbBlockEnd
  0
BLOCK
  5
22B
100
AcDbEntity
  8
0
100
AcDbBlockBegin
 62
2
  6
CONTINUOUS
  2
*D1
 70
65
 10
0.0
 20
0.0
  3
*D1
  1

  0
MTEXT
  5
22C
100
AcDbEntity
  8
0
100
AcDbMText
 62
5
  6
CONTINUOUS
  7
STANDARD
 71
2
 72
1
 10
101.439939358
 20
131.0345527182
 30
0.0
 11
1.0
 21
0.0
 31
0.0
 73
2
 44
0.9
  1
D
 40
1.5
 41
3.4714285714
  0
LINE
  5
22D
100
AcDbEntity
  8
0
100
AcDbLine
 62
2
  6
CONTINUOUS
 10
122.6560884601
 20
147.8103323726
 11
122.6560884601
 21
128.1595527182
  0
LINE
  5
22E
100
AcDbEntity
  8
0
100
AcDbLine
 62
2
  6
CONTINUOUS
 10
81.6560884601
 20
147.8103323726
 11
81.6560884601
 21
128.1595527182
  0
LINE
  5
22F
100
AcDbEntity
  8
0
100
AcDbLine
 62
2
  6
CONTINUOUS
 10
122.6560884601
 20
129.1595527182
 11
102.1560884601
 21
129.1595527182
  0
LINE
  5
230
100
AcDbEntity
  8
0
100
AcDbLine
 62
2
  6
CONTINUOUS
 10
81.6560884601
 20
129.1595527182
 11
102.1560884601
 21
129.1595527182
  0
INSERT
  5
231
100
AcDbEntity
  8
0
100
AcDbBlockReference
 62
2
  6
CONTINUOUS
  2
_FILLED
 10
122.6560884601
 20
129.1595527182
 41
4.76
 42
4.76
 43
4.76
  0
INSERT
  5
232
100
AcDbEntity
  8
0
100
AcDbBlockReference
 62
2
  6
CONTINUOUS
  2
_FILLED
 10
81.6560884601
 20
129.1595527182
 41
4.76
 42
4.76
 43
4.76
 50
180.0
  0
ENDBLK
  5
233
100
AcDbEntity
  8
0
  6
BYBLOCK
 62
0
100
AcDbBlockEnd
  0
BLOCK
  5
234
100
AcDbEntity
  8
0
100
AcDbBlockBegin
 62
2
  6
CONTINUOUS
  2
*D2
 70
65
 10
0.0
 20
0.0
  3
*D2
  1

  0
MTEXT
  5
235
100
AcDbEntity
  8
0
100
AcDbMText
 62
5
  6
CONTINUOUS
  7
STANDARD
 71
2
 72
1
 10
50.4313762028
 20
189.0040375931
 30
0.0
 11
0.0
 21
1.0
 31
0.0
 73
2
 44
0.9
  1
72
 40
1.5
 41
6.9428571429
  0
LINE
  5
236
100
AcDbEntity
  8
0
100
AcDbLine
 62
2
  6
CONTINUOUS
 10
71.0560884601
 20
225.0040375931
 11
51.5742333457
 21
225.0040375931
  0
LINE
  5
237
100
AcDbEntity
  8
0
100
AcDbLine
 62
2
  6
CONTINUOUS
 10
82.8758925817
 20
153.0040375931
 11
51.5742333457
 21
153.0040375931
  0
LINE
  5
238
100
AcDbEntity
  8
0
100
AcDbLine
 62
2
  6
CONTINUOUS
 10
52.5742333457
 20
225.0040375931
 11
52.5742333457
 21
189.0040375931
  0
LINE
  5
239
100
AcDbEntity
  8
0
100
AcDbLine
 62
2
  6
CONTINUOUS
 10
52.5742333457
 20
153.0040375931
 11
52.5742333457
 21
189.0040375931
  0
INSERT
  5
23A
100
AcDbEntity
  8
0
100
AcDbBlockReference
 62
2
  6
CONTINUOUS
  2
_FILLED
 10
52.5742333457
 20
225.0040375931
 41
4.76
 42
4.76
 43
4.76
 50
90.0
  0
INSERT
  5
23B
100
AcDbEntity
  8
0
100
AcDbBlockReference
 62
2
  6
CONTINUOUS
  2
_FILLED
 10
52.5742333457
 20
153.0040375931
 41
4.76
 42
4.76
 43
4.76
 50
270.0
  0
ENDBLK
  5
23C
100
AcDbEntity
  8
0
  6
BYBLOCK
 62
0
100
AcDbBlockEnd
  0
BLOCK
  5
23D
100
AcDbEntity
  8
0
100
AcDbBlockBegin
 62
2
  6
CONTINUOUS
  2
*D3
 70
65
 10
0.0
 20
0.0
  3
*D3
  1

  0
MTEXT
  5
23E
100
AcDbEntity
  8
0
100
AcDbMText
 62
5
  6
CONTINUOUS
  7
STANDARD
 71
3
 72
1
 10
76.5557074918
 20
196.8213751141
 30
0.0
 11
0.9119319439
 21
0.4103414795
 31
0.0
 73
2
 44
0.9
  1
R1.5
 40
1.5
 41
13.8857142857
  0
LINE
  5
23F
100
AcDbEntity
  8
0
100
AcDbLine
 62
2
  6
CONTINUOUS
 10
84.7739863759
 20
198.1695498123
 11
68.9931263819
 21
191.0686455386
  0
INSERT
  5
240
100
AcDbEntity
  8
0
100
AcDbBlockReference
 62
2
  6
CONTINUOUS
  2
_FILLED
 10
84.7739863759
 20
198.1695498123
 41
4.76
 42
4.76
 43
4.76
 50
24.2262878119
  0
ENDBLK
  5
241
100
AcDbEntity
  8
0
  6
BYBLOCK
 62
0
100
AcDbBlockEnd
  0
BLOCK
  5
242
100
AcDbEntity
  8
0
100
AcDbBlockBegin
  2
*T1
 70
1
 10
0.0
 20
0.0
  3
*T1
  1

  0
LINE
  5
243
100
AcDbEntity
  8
0
100
AcDbLine
 62
2
  6
CONTINUOUS
 10
200.0
 20
0.0
 11
0.0
 21
0.0
  0
LINE
  5
244
100
AcDbEntity
  8
0
100
AcDbLine
 62
2
  6
CONTINUOUS
 10
200.0
 20
0.0
 11
200.0
 21
33.6
  0
LINE
  5
245
100
AcDbEntity
  8
0
100
AcDbLine
 62
2
  6
CONTINUOUS
 10
163.0
 20
4.2
 11
0.0
 21
4.2
  0
LINE
  5
246
100
AcDbEntity
  8
0
100
AcDbLine
 62
2
  6
CONTINUOUS
 10
200.0
 20
8.4
 11
163.0
 21
8.4
  0
LINE
  5
247
100
AcDbEntity
  8
0
100
AcDbLine
 62
2
  6
CONTINUOUS
 10
30.0
 20
8.4
 11
0.0
 21
8.4
  0
LINE
  5
248
100
AcDbEntity
  8
0
100
AcDbLine
 62
2
  6
CONTINUOUS
 10
200.0
 20
12.6
 11
0.0
 21
12.6
  0
LINE
  5
249
100
AcDbEntity
  8
0
100
AcDbLine
 62
2
  6
CONTINUOUS
 10
30.0
 20
16.8
 11
0.0
 21
16.8
  0
LINE
  5
24A
100
AcDbEntity
  8
0
100
AcDbLine
 62
2
  6
CONTINUOUS
 10
163.0
 20
21.0
 11
0.0
 21
21.0
  0
LINE
  5
24B
100
AcDbEntity
  8
0
100
AcDbLine
 62
2
  6
CONTINUOUS
 10
30.0
 20
25.2
 11
0.0
 21
25.2
  0
LINE
  5
24C
100
AcDbEntity
  8
0
100
AcDbLine
 62
2
  6
CONTINUOUS
 10
163.0
 20
29.4
 11
0.0
 21
29.4
  0
LINE
  5
24D
100
AcDbEntity
  8
0
100
AcDbLine
 62
2
  6
CONTINUOUS
 10
200.0
 20
33.6
 11
0.0
 21
33.6
  0
LINE
  5
24E
100
AcDbEntity
  8
0
100
AcDbLine
 62
2
  6
CONTINUOUS
 10
191.5
 20
0.0
 11
191.5
 21
12.6
  0
LINE
  5
24F
100
AcDbEntity
  8
0
100
AcDbLine
 62
2
  6
CONTINUOUS
 10
183.0
 20
12.6
 11
183.0
 21
33.6
  0
LINE
  5
250
100
AcDbEntity
  8
0
100
AcDbLine
 62
2
  6
CONTINUOUS
 10
163.0
 20
0.0
 11
163.0
 21
33.6
  0
LINE
  5
251
100
AcDbEntity
  8
0
100
AcDbLine
 62
2
  6
CONTINUOUS
 10
143.0
 20
4.2
 11
143.0
 21
29.4
  0
LINE
  5
252
100
AcDbEntity
  8
0
100
AcDbLine
 62
2
  6
CONTINUOUS
 10
123.0
 20
4.2
 11
123.0
 21
33.6
  0
LINE
  5
253
100
AcDbEntity
  8
0
100
AcDbLine
 62
2
  6
CONTINUOUS
 10
98.0
 20
4.2
 11
98.0
 21
12.6
  0
LINE
  5
254
100
AcDbEntity
  8
0
100
AcDbLine
 62
2
  6
CONTINUOUS
 10
91.0
 20
4.2
 11
91.0
 21
12.6
  0
LINE
  5
255
100
AcDbEntity
  8
0
100
AcDbLine
 62
2
  6
CONTINUOUS
 10
51.0
 20
4.2
 11
51.0
 21
12.6
  0
LINE
  5
256
100
AcDbEntity
  8
0
100
AcDbLine
 62
2
  6
CONTINUOUS
 10
30.0
 20
0.0
 11
30.0
 21
33.6
  0
LINE
  5
257
100
AcDbEntity
  8
0
100
AcDbLine
 62
2
  6
CONTINUOUS
 10
25.0
 20
4.2
 11
25.0
 21
33.6
  0
LINE
  5
258
100
AcDbEntity
  8
0
100
AcDbLine
 62
2
  6
CONTINUOUS
 10
10.0
 20
4.2
 11
10.0
 21
33.6
  0
LINE
  5
259
100
AcDbEntity
  8
0
100
AcDbLine
 62
2
  6
CONTINUOUS
 10
0.0
 20
0.0
 11
0.0
 21
33.6
  0
MTEXT
  5
25A
100
AcDbEntity
  8
0
100
AcDbMText
 62
5
  6
CONTINUOUS
  7
TEXTSTYLE_2
 71
2
 72
1
 10
177.25
 20
5.7461538462
 30
0.0
 11
1.0
 21
0.0
 31
0.0
 73
2
 44
0.9
  1
34400/H63A
 40
2.0
 41
54.3076923077
  0
MTEXT
  5
25B
100
AcDbEntity
  8
0
100
AcDbMText
 62
5
  6
CONTINUOUS
  7
TEXTSTYLE_2
 71
1
 72
1
 10
31.5
 20
2.1230769231
 30
0.0
 11
1.0
 21
0.0
 31
0.0
 73
2
 44
0.9
  1
La ditta tutela i propri disegni a norma di legge
 40
1.0
 41
94.3076923077
  0
MTEXT
  5
25C
100
AcDbEntity
  8
0
100
AcDbMText
 62
5
  6
CONTINUOUS
  7
TEXTSTYLE_2
 71
1
 72
1
 10
1.5
 20
1.8346153846
 30
0.0
 11
1.0
 21
0.0
 31
0.0
 73
2
 44
0.9
  1
    MODIFICA
 40
1.5
 41
44.4230769231
  0
MTEXT
  5
25D
100
AcDbEntity
  8
0
100
AcDbMText
 62
5
  6
CONTINUOUS
  7
TEXTSTYLE_2
 71
1
 72
1
 10
144.5
 20
10.4076923077
 30
0.0
 11
1.0
 21
0.0
 31
0.0
 73
2
 44
0.9
  1
Peso finito\P0.943
 40
1.2
 41
24.3692307692
  0
MTEXT
  5
25E
100
AcDbEntity
  8
0
100
AcDbMText
 62
5
  6
CONTINUOUS
  7
TEXTSTYLE_2
 71
1
 72
1
 10
124.5
 20
10.4076923077
 30
0.0
 11
1.0
 21
0.0
 31
0.0
 73
2
 44
0.9
  1
Peso grezzo Kg.\P 
 40
1.2
 41
38.5846153846
  0
MTEXT
  5
25F
100
AcDbEntity
  8
0
100
AcDbMText
 62
5
  6
CONTINUOUS
  7
TEXTSTYLE_2
 71
1
 72
1
 10
99.5
 20
10.35
 30
0.0
 11
1.0
 21
0.0
 31
0.0
 73
2
 44
0.9
  1
Dimens.grezze\P 
 40
1.3
 41
34.6
  0
MTEXT
  5
260
100
AcDbEntity
  8
0
100
AcDbMText
 62
5
  6
CONTINUOUS
  7
TEXTSTYLE_2
 71
1
 72
1
 10
52.5
 20
10.4653846154
 30
0.0
 11
1.0
 21
0.0
 31
0.0
 73
2
 44
0.9
  1
Tratt.termici\P 
 40
1.1
 41
25.7230769231
  0
MTEXT
  5
261
100
AcDbEntity
  8
0
100
AcDbMText
 62
5
  6
CONTINUOUS
  7
TEXTSTYLE_2
 71
1
 72
1
 10
31.5
 20
10.4653846154
 30
0.0
 11
1.0
 21
0.0
 31
0.0
 73
2
 44
0.9
  1
Materiale\P 
 40
1.1
 41
17.9384615385
  0
MTEXT
  5
262
100
AcDbEntity
  8
0
100
AcDbMText
 62
5
  6
CONTINUOUS
  7
TEXTSTYLE_2
 71
1
 72
1
 10
26.5
 20
6.3230769231
 30
0.0
 11
1.0
 21
0.0
 31
0.0
 73
2
 44
0.9
  1
Esp
 40
1.0
 41
6.6153846154
  0
MTEXT
  5
263
100
AcDbEntity
  8
0
100
AcDbMText
 62
5
  6
CONTINUOUS
  7
TEXTSTYLE_2
 71
1
 72
1
 10
11.5
 20
6.3230769231
 30
0.0
 11
1.0
 21
0.0
 31
0.0
 73
2
 44
0.9
  1
DATA
 40
1.0
 41
10.7692307692
  0
MTEXT
  5
264
100
AcDbEntity
  8
0
100
AcDbMText
 62
5
  6
CONTINUOUS
  7
TEXTSTYLE_2
 71
1
 72
1
 10
1.5
 20
6.3230769231
 30
0.0
 11
1.0
 21
0.0
 31
0.0
 73
2
 44
0.9
  1
N\fgdt;{\fgdt;~}
 40
1.0
 41
3.7948717949
  0
MTEXT
  5
265
100
AcDbEntity
  8
0
100
AcDbMText
 62
5
  6
CONTINUOUS
  7
TEXTSTYLE_3
 71
2
 72
1
 10
195.75
 20
10.3857142857
 30
0.0
 11
1.0
 21
0.0
 31
0.0
 73
2
 44
0.9
  1
esp.
 40
1.0
 41
10.2857142857
  0
MTEXT
  5
266
100
AcDbEntity
  8
0
100
AcDbMText
 62
5
  6
CONTINUOUS
  7
TEXTSTYLE_3
 71
2
 72
1
 10
177.25
 20
10.3857142857
 30
0.0
 11
1.0
 21
0.0
 31
0.0
 73
2
 44
0.9
  1
cod.disegno
 40
1.0
 41
28.2857142857
  0
MTEXT
  5
267
100
AcDbEntity
  8
0
100
AcDbMText
 62
5
  6
CONTINUOUS
  7
TEXTSTYLE_2
 71
1
 72
1
 10
144.5
 20
18.9230769231
 30
0.0
 11
1.0
 21
0.0
 31
0.0
 73
2
 44
0.9
  1
Scala\P\H1.5;1:1
 40
1.0
 41
9.8461538462
  0
MTEXT
  5
268
100
AcDbEntity
  8
0
100
AcDbMText
 62
5
  6
CONTINUOUS
  7
TEXTSTYLE_2
 71
1
 72
1
 10
124.5
 20
18.9230769231
 30
0.0
 11
1.0
 21
0.0
 31
0.0
 73
2
 44
0.9
  1
Visto
 40
1.0
 41
9.2307692308
  0
MTEXT
  5
269
100
AcDbEntity
  8
0
100
AcDbMText
 62
5
  6
CONTINUOUS
  7
TEXTSTYLE_2
 71
1
 72
1
 10
31.5
 20
18.9230769231
 30
0.0
 11
1.0
 21
0.0
 31
0.0
 73
2
 44
0.9
  1
Descrizione\P\H1.5;MANDRINO ATTACCO HSK63A DIN 69893
 40
1.0
 41
126.4615384615
  0
MTEXT
  5
26A
100
AcDbEntity
  8
0
100
AcDbMText
 62
5
  6
CONTINUOUS
  7
TEXTSTYLE_2
 71
1
 72
1
 10
144.5
 20
27.3230769231
 30
0.0
 11
1.0
 21
0.0
 31
0.0
 73
2
 44
0.9
  1
Data\P\H1.5;15/01/02
 40
1.0
 41
26.0769230769
  0
MTEXT
  5
26B
100
AcDbEntity
  8
0
100
AcDbMText
 62
5
  6
CONTINUOUS
  7
TEXTSTYLE_2
 71
1
 72
1
 10
124.5
 20
27.3230769231
 30
0.0
 11
1.0
 21
0.0
 31
0.0
 73
2
 44
0.9
  1
Firma\P\H1.5;calvo
 40
1.0
 41
14.3076923077
  0
MTEXT
  5
26C
100
AcDbEntity
  8
0
100
AcDbMText
 62
5
  6
CONTINUOUS
  7
TEXTSTYLE_2
 71
1
 72
1
 10
31.5
 20
27.3230769231
 30
0.0
 11
1.0
 21
0.0
 31
0.0
 73
2
 44
0.9
  1
Macchina o codice prenotante\P\H1.8;Cod.CAD 34400-H63A
 40
1.0
 41
81.5538461538
  0
MTEXT
  5
26D
100
AcDbEntity
  8
0
100
AcDbMText
 62
5
  6
CONTINUOUS
  7
TEXTSTYLE_2
 71
1
 72
1
 10
124.5
 20
31.5230769231
 30
0.0
 11
1.0
 21
0.0
 31
0.0
 73
2
 44
0.9
  1
Rugosita' \fgdt;{\fgdt;a}\ftxt;0.8=rettifica
 40
1.0
 41
46.5961538462
  0
MTEXT
  5
26E
100
AcDbEntity
  8
0
100
AcDbMText
 62
5
  6
CONTINUOUS
  7
TEXTSTYLE_2
 71
1
 72
1
 10
31.5
 20
31.5230769231
 30
0.0
 11
1.0
 21
0.0
 31
0.0
 73
2
 44
0.9
  1
Toleranze generali per quote senza valori:\fgdt;{\fgdt;n}\ftxt;=H11-h11 - lineari\fgdt;{\fgdt;`}\ftxt;0.2
 40
1.0
 41
123.8461538462
  0
ENDBLK
  5
26F
100
AcDbEntity
  8
0
  6
BYBLOCK
 62
0
100
AcDbBlockEnd
  0
ENDSEC
  0
SECTION
  2
ENTITIES
  0
DIMENSION
  5
270
100
AcDbEntity
  8
0
100
AcDbDimension
 62
2
  6
CONTINUOUS
  2
*D0
 10
92.6560884601
 20
138.2602343568
 11
101.5354941406
 21
138.2602343568
 70
160
 71
2
 72
2
 41
0.9
 42
19.0
  1
d
  3
DIMSTYLE_1
100
AcDbAlignedDimension
 13
111.6560884601
 23
153.0040375931
 14
92.6560884601
 24
153.0040375931
 50
180.0
100
AcDbRotatedDimension
  0
DIMENSION
  5
271
100
AcDbEntity
  8
0
100
AcDbDimension
 62
2
  6
CONTINUOUS
  2
*D1
 10
81.6560884601
 20
129.1595527182
 11
101.0542226563
 21
129.1595527182
 70
160
 71
2
 72
2
 41
0.9
 42
41.0
  1
D
  3
DIMSTYLE_1
100
AcDbAlignedDimension
 13
122.6560884601
 23
147.9103323726
 14
81.6560884601
 24
147.9103323726
 50
180.0
100
AcDbRotatedDimension
  0
DIMENSION
  5
272
100
AcDbEntity
  8
0
100
AcDbDimension
 62
2
  6
CONTINUOUS
  2
*D2
 10
52.5742333457
 20
153.0040375931
 11
52.5742333457
 21
188.6183283127
 70
160
 71
2
 72
2
 41
0.9
 42
72.0
  3
DIMSTYLE_1
100
AcDbAlignedDimension
 13
71.1560884601
 23
225.0040375931
 14
82.9758925817
 24
153.0040375931
 50
270.0
100
AcDbRotatedDimension
  0
DIMENSION
  5
273
100
AcDbEntity
  8
0
100
AcDbDimension
 62
2
  6
CONTINUOUS
  2
*D3
 10
83.4060884601
 20
197.5540375931
 11
72.6425214613
 21
194.2381313083
 70
164
 71
3
 72
2
 41
0.9
 42
1.5
  1
R<>
  3
DIMSTYLE_2
100
AcDbRadialDimension
 15
84.7739863759
 25
198.1695498123
  0
ACAD_TABLE
  5
274
100
AcDbEntity
  8
0
 62
2
  6
CONTINUOUS
100
AcDbBlockReference
  2
*T1
 10
6.0002639043
 20
8.0000365924
 30
0.0
100
AcDbTable
342
       352
343
21B
 11
1.0
 21
0.0
 31
0.0
 90
6
 91
8
 92
14
 93
4
 94
0
 95
0
 96
0
 70
1
141
4.2
141
4.2
141
4.2
141
4.2
141
4.2
141
4.2
141
4.2
141
4.2
142
10.0
142
15.0
142
5.0
142
21.0
142
40.0
142
7.0
142
25.0
142
10.0
142
10.0
142
20.0
142
11.0
142
9.0
142
8.5
142
8.5
171
1
172
0
173
0
174
0
175
3
176
1
 91
49
178
0
145
0.0
  7
TEXTSTYLE_2
301
CELL_VALUE
 90
4
  1
    MODIFICA
304
ACVALUE_END
170
1
140
1.5
171
1
172
0
173
1
174
0
175
1
176
1
 91
1
178
0
145
0.0
170
1
171
1
172
0
173
1
174
0
175
1
176
1
 91
1
178
0
145
0.0
170
1
171
1
172
0
173
0
174
0
175
7
176
1
 91
49
178
0
145
0.0
  7
TEXTSTYLE_2
301
CELL_VALUE
 90
4
  1
La ditta tutela i propri disegni a norma di legge
304
ACVALUE_END
170
1
140
1.0
171
1
172
0
173
1
174
0
175
1
176
1
 91
1
178
0
145
0.0
170
1
171
1
172
0
173
1
174
0
175
1
176
1
 91
1
178
0
145
0.0
170
1
171
1
172
0
173
1
174
0
175
1
176
1
 91
1
178
0
145
0.0
170
1
171
1
172
0
173
1
174
0
175
1
176
1
 91
1
178
0
145
0.0
170
1
171
1
172
0
173
1
174
0
175
1
176
1
 91
1
178
0
145
0.0
170
1
171
1
172
0
173
1
174
0
175
1
176
1
 91
1
178
0
145
0.0
170
1
171
1
172
0
173
0
174
0
175
3
176
2
 91
49
178
0
145
0.0
  7
TEXTSTYLE_2
301
CELL_VALUE
 90
4
  1
34400/H63A
304
ACVALUE_END
170
2
140
2.0
171
1
172
0
173
1
174
0
175
1
176
1
 91
1
178
0
145
0.0
170
1
171
1
172
0
173
1
174
0
175
1
176
1
 91
1
178
0
145
0.0
170
2
171
1
172
0
173
0
174
0
175
1
176
2
 91
33
178
0
145
0.0
301
CELL_VALUE
 90
4
  1
 
304
ACVALUE_END
170
1
140
3.0
171
1
172
0
173
0
174
0
175
1
176
1
 91
57
178
0
145
0.0
  7
TEXTSTYLE_2
301
CELL_VALUE
 90
4
  1
N\fgdt;{\fgdt;~}
304
ACVALUE_END
170
1
140
1.0
 64
5
171
1
172
0
173
0
174
0
175
1
176
1
 91
57
178
0
145
0.0
  7
TEXTSTYLE_2
301
CELL_VALUE
 90
4
  1
DATA
304
ACVALUE_END
170
1
140
1.0
 64
5
171
1
172
0
173
0
174
0
175
1
176
1
 91
57
178
0
145
0.0
  7
TEXTSTYLE_2
301
CELL_VALUE
 90
4
  1
Esp
304
ACVALUE_END
170
1
140
1.0
 64
5
171
1
172
0
173
0
174
0
175
1
176
2
 91
57
178
0
145
0.0
  7
TEXTSTYLE_2
301
CELL_VALUE
 90
4
  1
Materiale\P 
304
ACVALUE_END
170
1
140
1.1
 64
5
171
1
172
0
173
0
174
0
175
1
176
2
 91
57
178
0
145
0.0
  7
TEXTSTYLE_2
301
CELL_VALUE
 90
4
  1
Tratt.termici\P 
304
ACVALUE_END
170
1
140
1.1
 64
5
171
1
172
0
173
0
174
0
175
1
176
2
 91
41
178
0
145
0.0
301
CELL_VALUE
 90
4
  1
 
304
ACVALUE_END
170
1
140
3.0
 64
5
171
1
172
0
173
0
174
0
175
1
176
2
 91
57
178
0
145
0.0
  7
TEXTSTYLE_2
301
CELL_VALUE
 90
4
  1
Dimens.grezze\P 
304
ACVALUE_END
170
1
140
1.3
 64
5
171
1
172
0
173
0
174
0
175
2
176
2
 91
49
178
0
145
0.0
  7
TEXTSTYLE_2
301
CELL_VALUE
 90
4
  1
Peso grezzo Kg.\P 
304
ACVALUE_END
170
1
140
1.2
171
1
172
0
173
1
174
0
175
1
176
1
 91
1
178
0
145
0.0
170
1
171
1
172
0
173
0
174
0
175
1
176
2
 91
57
178
0
145
0.0
  7
TEXTSTYLE_2
301
CELL_VALUE
 90
4
  1
Peso finito\P0.943
304
ACVALUE_END
170
1
140
1.2
 64
5
171
1
172
0
173
1
174
0
175
1
176
1
 91
1
178
0
145
0.0
170
1
171
1
172
0
173
1
174
0
175
1
176
1
 91
1
178
0
145
0.0
170
1
171
1
172
0
173
1
174
0
175
1
176
1
 91
1
178
0
145
0.0
170
1
171
1
172
0
173
1
174
0
175
1
176
1
 91
1
178
0
145
0.0
170
1
171
1
172
0
173
0
174
0
175
1
176
1
 91
41
178
0
145
0.0
301
CELL_VALUE
 90
4
  1
 
304
ACVALUE_END
170
1
140
3.0
 64
5
171
1
172
0
173
0
174
0
175
1
176
1
 91
41
178
0
145
0.0
301
CELL_VALUE
 90
4
  1
 
304
ACVALUE_END
170
1
140
3.0
 64
5
171
1
172
0
173
0
174
0
175
1
176
1
 91
41
178
0
145
0.0
301
CELL_VALUE
 90
4
  1
 
304
ACVALUE_END
170
1
140
3.0
 64
5
171
1
172
0
173
1
174
0
175
1
176
1
 91
1
178
0
145
0.0
170
1
171
1
172
0
173
1
174
0
175
1
176
1
 91
1
178
0
145
0.0
170
1
171
1
172
0
173
1
174
0
175
1
176
1
 91
1
178
0
145
0.0
170
1
171
1
172
0
173
1
174
0
175
1
176
1
 91
1
178
0
145
0.0
170
1
171
1
172
0
173
1
174
0
175
1
176
1
 91
1
178
0
145
0.0
170
1
171
1
172
0
173
1
174
0
175
1
176
1
 91
1
178
0
145
0.0
170
1
171
1
172
0
173
1
174
0
175
1
176
1
 91
1
178
0
145
0.0
170
1
171
1
172
0
173
0
174
0
175
3
176
1
 91
49
178
0
145
0.0
  7
TEXTSTYLE_3
301
CELL_VALUE
 90
4
  1
cod.disegno
304
ACVALUE_END
170
2
140
1.0
171
1
172
0
173
1
174
0
175
1
176
1
 91
1
178
0
145
0.0
170
1
171
1
172
0
173
1
174
0
175
1
176
1
 91
1
178
0
145
0.0
170
2
171
1
172
0
173
0
174
0
175
1
176
1
 91
57
178
0
145
0.0
  7
TEXTSTYLE_3
301
CELL_VALUE
 90
4
  1
esp.
304
ACVALUE_END
170
2
140
1.0
 64
5
171
1
172
0
173
0
174
0
175
1
176
1
 91
41
178
0
145
0.0
301
CELL_VALUE
 90
4
  1
 
304
ACVALUE_END
170
1
140
3.0
 64
5
171
1
172
0
173
0
174
0
175
1
176
1
 91
41
178
0
145
0.0
301
CELL_VALUE
 90
4
  1
 
304
ACVALUE_END
170
1
140
3.0
 64
5
171
1
172
0
173
0
174
0
175
1
176
1
 91
41
178
0
145
0.0
301
CELL_VALUE
 90
4
  1
 
304
ACVALUE_END
170
1
140
3.0
 64
5
171
1
172
0
173
0
174
0
175
4
176
2
 91
49
178
0
145
0.0
  7
TEXTSTYLE_2
301
CELL_VALUE
 90
4
  1
Descrizione\P\H1.5;MANDRINO ATTACCO HSK63A DIN 69893
304
ACVALUE_END
170
1
140
1.0
171
1
172
0
173
1
174
0
175
1
176
1
 91
1
178
0
145
0.0
170
1
171
1
172
0
173
1
174
0
175
1
176
1
 91
1
178
0
145
0.0
170
1
171
1
172
0
173
1
174
0
175
1
176
1
 91
1
178
0
145
0.0
170
1
171
1
172
0
173
0
174
0
175
2
176
2
 91
49
178
0
145
0.0
  7
TEXTSTYLE_2
301
CELL_VALUE
 90
4
  1
Visto
304
ACVALUE_END
170
1
140
1.0
171
1
172
0
173
1
174
0
175
1
176
1
 91
1
178
0
145
0.0
170
1
171
1
172
0
173
0
174
0
175
1
176
2
 91
57
178
0
145
0.0
  7
TEXTSTYLE_2
301
CELL_VALUE
 90
4
  1
Scala\P\H1.5;1:1
304
ACVALUE_END
170
1
140
1.0
 64
5
171
1
172
0
173
0
174
0
175
2
176
5
 91
33
178
0
145
0.0
301
CELL_VALUE
 90
4
  1
 
304
ACVALUE_END
170
1
140
3.0
171
1
172
0
173
1
174
0
175
1
176
1
 91
1
178
0
145
0.0
170
1
171
1
172
0
173
0
174
0
175
2
176
5
 91
33
178
0
145
0.0
301
CELL_VALUE
 90
4
  1
 
304
ACVALUE_END
170
1
140
3.0
171
1
172
0
173
1
174
0
175
1
176
1
 91
1
178
0
145
0.0
170
1
171
1
172
0
173
0
174
0
175
1
176
1
 91
41
178
0
145
0.0
301
CELL_VALUE
 90
4
  1
 
304
ACVALUE_END
170
1
140
3.0
 64
5
171
1
172
0
173
0
174
0
175
1
176
1
 91
41
178
0
145
0.0
301
CELL_VALUE
 90
4
  1
 
304
ACVALUE_END
170
1
140
3.0
 64
5
171
1
172
0
173
0
174
0
175
1
176
1
 91
41
178
0
145
0.0
301
CELL_VALUE
 90
4
  1
 
304
ACVALUE_END
170
1
140
3.0
 64
5
171
1
172
0
173
1
174
0
175
1
176
1
 91
1
178
0
145
0.0
170
1
171
1
172
0
173
1
174
0
175
1
176
1
 91
1
178
0
145
0.0
170
1
171
1
172
0
173
1
174
0
175
1
176
1
 91
1
178
0
145
0.0
170
1
171
1
172
0
173
1
174
0
175
1
176
1
 91
1
178
0
145
0.0
170
1
171
1
172
0
173
1
174
0
175
1
176
1
 91
1
178
0
145
0.0
170
1
171
1
172
0
173
1
174
0
175
1
176
1
 91
1
178
0
145
0.0
170
1
171
1
172
0
173
1
174
0
175
1
176
1
 91
1
178
0
145
0.0
170
1
171
1
172
0
173
1
174
0
175
1
176
1
 91
1
178
0
145
0.0
170
1
171
1
172
0
173
1
174
0
175
1
176
1
 91
1
178
0
145
0.0
170
1
171
1
172
0
173
1
174
0
175
1
176
1
 91
1
178
0
145
0.0
170
1
171
1
172
0
173
1
174
0
175
1
176
1
 91
1
178
0
145
0.0
170
1
171
1
172
0
173
0
174
0
175
1
176
1
 91
41
178
0
145
0.0
301
CELL_VALUE
 90
4
  1
 
304
ACVALUE_END
170
1
140
3.0
 64
5
171
1
172
0
173
0
174
0
175
1
176
1
 91
41
178
0
145
0.0
301
CELL_VALUE
 90
4
  1
 
304
ACVALUE_END
170
1
140
3.0
 64
5
171
1
172
0
173
0
174
0
175
1
176
1
 91
41
178
0
145
0.0
301
CELL_VALUE
 90
4
  1
 
304
ACVALUE_END
170
1
140
3.0
 64
5
171
1
172
0
173
0
174
0
175
4
176
2
 91
49
178
0
145
0.0
  7
TEXTSTYLE_2
301
CELL_VALUE
 90
4
  1
Macchina o codice prenotante\P\H1.8;Cod.CAD 34400-H63A
304
ACVALUE_END
170
1
140
1.0
171
1
172
0
173
1
174
0
175
1
176
1
 91
1
178
0
145
0.0
170
1
171
1
172
0
173
1
174
0
175
1
176
1
 91
1
178
0
145
0.0
170
1
171
1
172
0
173
1
174
0
175
1
176
1
 91
1
178
0
145
0.0
170
1
171
1
172
0
173
0
174
0
175
2
176
2
 91
49
178
0
145
0.0
  7
TEXTSTYLE_2
301
CELL_VALUE
 90
4
  1
Firma\P\H1.5;calvo
304
ACVALUE_END
170
1
140
1.0
171
1
172
0
173
1
174
0
175
1
176
1
 91
1
178
0
145
0.0
170
1
171
1
172
0
173
0
174
0
175
1
176
2
 91
57
178
0
145
0.0
  7
TEXTSTYLE_2
301
CELL_VALUE
 90
4
  1
Data\P\H1.5;15/01/02
304
ACVALUE_END
170
1
140
1.0
 64
5
171
1
172
0
173
1
174
0
175
1
176
1
 91
1
178
0
145
0.0
170
1
171
1
172
0
173
1
174
0
175
1
176
1
 91
1
178
0
145
0.0
170
1
171
1
172
0
173
1
174
0
175
1
176
1
 91
1
178
0
145
0.0
170
1
171
1
172
0
173
1
174
0
175
1
176
1
 91
1
178
0
145
0.0
170
1
171
1
172
0
173
0
174
0
175
1
176
1
 91
41
178
0
145
0.0
301
CELL_VALUE
 90
4
  1
 
304
ACVALUE_END
170
1
140
3.0
 64
5
171
1
172
0
173
0
174
0
175
1
176
1
 91
41
178
0
145
0.0
301
CELL_VALUE
 90
4
  1
 
304
ACVALUE_END
170
1
140
3.0
 64
5
171
1
172
0
173
0
174
0
175
1
176
1
 91
41
178
0
145
0.0
301
CELL_VALUE
 90
4
  1
 
304
ACVALUE_END
170
1
140
3.0
 64
5
171
1
172
0
173
1
174
0
175
1
176
1
 91
1
178
0
145
0.0
170
1
171
1
172
0
173
1
174
0
175
1
176
1
 91
1
178
0
145
0.0
170
1
171
1
172
0
173
1
174
0
175
1
176
1
 91
1
178
0
145
0.0
170
1
171
1
172
0
173
1
174
0
175
1
176
1
 91
1
178
0
145
0.0
170
1
171
1
172
0
173
1
174
0
175
1
176
1
 91
1
178
0
145
0.0
170
1
171
1
172
0
173
1
174
0
175
1
176
1
 91
1
178
0
145
0.0
170
1
171
1
172
0
173
1
174
0
175
1
176
1
 91
1
178
0
145
0.0
170
1
171
1
172
0
173
1
174
0
175
1
176
1
 91
1
178
0
145
0.0
170
1
171
1
172
0
173
1
174
0
175
1
176
1
 91
1
178
0
145
0.0
170
1
171
1
172
0
173
1
174
0
175
1
176
1
 91
1
178
0
145
0.0
170
1
171
1
172
0
173
1
174
0
175
1
176
1
 91
1
178
0
145
0.0
170
1
171
1
172
0
173
0
174
0
175
1
176
1
 91
41
178
0
145
0.0
301
CELL_VALUE
 90
4
  1
 
304
ACVALUE_END
170
1
140
3.0
 64
5
171
1
172
0
173
0
174
0
175
1
176
1
 91
41
178
0
145
0.0
301
CELL_VALUE
 90
4
  1
 
304
ACVALUE_END
170
1
140
3.0
 64
5
171
1
172
0
173
0
174
0
175
1
176
1
 91
41
178
0
145
0.0
301
CELL_VALUE
 90
4
  1
 
304
ACVALUE_END
170
1
140
3.0
 64
5
171
1
172
0
173
0
174
0
175
4
176
1
 91
49
178
0
145
0.0
  7
TEXTSTYLE_2
301
CELL_VALUE
 90
4
  1
Toleranze generali per quote senza valori:\fgdt;{\fgdt;n}\ftxt;=H11-h11 - lineari\fgdt;{\fgdt;`}\ftxt;0.2
304
ACVALUE_END
170
1
140
1.0
171
1
172
0
173
1
174
0
175
1
176
1
 91
1
178
0
145
0.0
170
1
171
1
172
0
173
1
174
0
175
1
176
1
 91
1
178
0
145
0.0
170
1
171
1
172
0
173
1
174
0
175
1
176
1
 91
1
178
0
145
0.0
170
1
171
1
172
0
173
0
174
0
175
3
176
1
 91
49
178
0
145
0.0
  7
TEXTSTYLE_2
301
CELL_VALUE
 90
4
  1
Rugosita' \fgdt;{\fgdt;a}\ftxt;0.8=rettifica
304
ACVALUE_END
170
1
140
1.0
171
1
172
0
173
1
174
0
175
1
176
1
 91
1
178
0
145
0.0
170
1
171
1
172
0
173
1
174
0
175
1
176
1
 91
1
178
0
145
0.0
170
1
171
1
172
0
173
1
174
0
175
1
176
1
 91
1
178
0
145
0.0
170
1
171
1
172
0
173
1
174
0
175
1
176
1
 91
1
178
0
145
0.0
170
1
171
1
172
0
173
1
174
0
175
1
176
1
 91
1
178
0
145
0.0
170
1
171
1
172
0
173
1
174
0
175
1
176
1
 91
1
178
0
145
0.0
170
1
  0
MTEXT
  5
275
100
AcDbEntity
  8
0
100
AcDbMText
 62
5
  6
CONTINUOUS
  7
STANDARD
 71
1
 72
1
 10
35.2450994741
 20
106.3943769742
 30
0.0
 11
1.0
 21
0.0
 31
0.0
 73
2
 44
0.9
  1
Caratteristiche tecniche:\P-capacita' di maschiatura da M3 a M 12\P-scorrimento con gabbia a sfere\P-corsa in compensazione, rientro 7.5, sfilamento 7.5\P-dispositivo per incrementare la pressione d'imbocco del maschio
 40
1.5
 41
222.1714285714
  0
LINE
  5
276
100
AcDbEntity
  8
0
100
AcDbLine
 62
7
  6
CONTINUOUS
 10
0.0
 20
0.0
 11
210.0
 21
0.0
  0
LINE
  5
277
100
AcDbEntity
  8
0
100
AcDbLine
 62
7
  6
CONTINUOUS
 10
0.0
 20
0.0
 11
0.0
 21
297.0
  0
LINE
  5
278
100
AcDbEntity
  8
0
100
AcDbLine
 62
7
  6
CONTINUOUS
 10
210.0
 20
0.0
 11
210.0
 21
297.0
  0
LINE
  5
279
100
AcDbEntity
  8
0
100
AcDbLine
 62
7
  6
CONTINUOUS
 10
0.0
 20
297.0
 11
210.0
 21
297.0
  0
LINE
  5
27A
100
AcDbEntity
  8
0_COMPONENTS
100
AcDbLine
 62
7
  6
CONTINUOUS
 10
121.4489816776
 20
149.8040375931
 11
82.8633631667
 21
149.8040375931
  0
LINE
  5
27B
100
AcDbEntity
  8
0_COMPONENTS
100
AcDbLine
 62
7
  6
CONTINUOUS
 10
82.509641851
 20
149.9504842021
 11
121.8025350691
 21
149.9504842021
  0
LINE
  5
27C
100
AcDbEntity
  8
0_COMPONENTS
100
AcDbLine
 62
7
  6
CONTINUOUS
 10
80.3025350722
 20
152.157590981
 11
124.0096418479
 21
152.157590981
  0
LINE
  5
27D
100
AcDbEntity
  8
0_COMPONENTS
100
AcDbLine
 62
7
  6
CONTINUOUS
 10
80.1560884601
 20
152.5111443742
 11
124.15608846
 21
152.5111443742
  0
LINE
  5
27E
100
AcDbEntity
  8
0_COMPONENTS
100
AcDbLine
 62
8
  6
HIDDEN
 10
121.8560505641
 20
153.0040375931
 11
82.4560884601
 21
153.0040375931
  0
LINE
  5
27F
100
AcDbEntity
  8
0_COMPONENTS
100
AcDbLine
 62
7
  6
CONTINUOUS
 10
80.3025350716
 20
152.1575909815
 11
82.5096418513
 21
149.9504842018
  0
LINE
  5
280
100
AcDbEntity
  8
0_COMPONENTS
100
AcDbLine
 62
7
  6
CONTINUOUS
 10
80.1560884601
 20
157.3040375931
 11
124.1560884601
 21
157.3040375931
  0
LINE
  5
281
100
AcDbEntity
  8
0_COMPONENTS
100
AcDbLine
 62
7
  6
CONTINUOUS
 10
80.6560884601
 20
157.8040375931
 11
123.6560884601
 21
157.8040375931
  0
LINE
  5
282
100
AcDbEntity
  8
0_COMPONENTS
100
AcDbLine
 62
7
  6
CONTINUOUS
 10
122.6560884601
 20
158.1380121893
 11
81.6560884601
 21
158.1380121893
  0
LINE
  5
283
100
AcDbEntity
  8
0_COMPONENTS
100
AcDbLine
 62
7
  6
CONTINUOUS
 10
81.6560884601
 20
161.0040375931
 11
122.6560884601
 21
161.0040375931
  0
LINE
  5
284
100
AcDbEntity
  8
0_COMPONENTS
100
AcDbLine
 62
7
  6
CONTINUOUS
 10
81.4060884601
 20
161.2540375931
 11
122.9060884601
 21
161.2540375931
  0
LINE
  5
285
100
AcDbEntity
  8
0_COMPONENTS
100
AcDbLine
 62
7
  6
CONTINUOUS
 10
81.4060884601
 20
161.2540375931
 11
81.6560884601
 21
161.0040375931
  0
LINE
  5
286
100
AcDbEntity
  8
3_ALL_AXES
100
AcDbLine
 62
7
  6
CONTINUOUS
 10
71.1560884601
 20
225.0040375931
 11
70.6560884601
 21
224.5040375931
  0
LINE
  5
287
100
AcDbEntity
  8
0_COMPONENTS
100
AcDbLine
 62
7
  6
CONTINUOUS
 10
81.8489087831
 20
157.8040375931
 11
81.6560884601
 21
158.1380121893
  0
LINE
  5
288
100
AcDbEntity
  8
3_ALL_AXES
100
AcDbLine
 62
7
  6
CONTINUOUS
 10
109.4260884601
 20
256.9040375931
 11
108.4260884601
 21
255.9040375931
  0
LINE
  5
289
100
AcDbEntity
  8
0_COMPONENTS
100
AcDbLine
 62
7
  6
CONTINUOUS
 10
81.4060884601
 20
170.7540375931
 11
122.9060884601
 21
170.7540375931
  0
LINE
  5
28A
100
AcDbEntity
  8
3_ALL_AXES
100
AcDbLine
 62
7
  6
CONTINUOUS
 10
70.6560884601
 20
224.5040375931
 11
70.6560884601
 21
210.3815366679
  0
LINE
  5
28B
100
AcDbEntity
  8
3_ALL_AXES
100
AcDbLine
 62
7
  6
CONTINUOUS
 10
70.6560884601
 20
203.6265385183
 11
70.6560884601
 21
199.5540375931
  0
LINE
  5
28C
100
AcDbEntity
  8
3_ALL_AXES
100
AcDbLine
 62
7
  6
CONTINUOUS
 10
92.0418484426
 20
256.6571005539
 11
91.9403417308
 21
256.4331953214
  0
LINE
  5
28D
100
AcDbEntity
  8
0_COMPONENTS
100
AcDbLine
 62
7
  6
CONTINUOUS
 10
81.6560884601
 20
171.0040375931
 11
122.6560884601
 21
171.0040375931
  0
LINE
  5
28E
100
AcDbEntity
  8
3_ALL_AXES
100
AcDbLine
 62
7
  6
CONTINUOUS
 10
74.6560884601
 20
205.1290375931
 11
74.6560884601
 21
208.8790375931
  0
LINE
  5
28F
100
AcDbEntity
  8
3_ALL_AXES
100
AcDbLine
 62
7
  6
CONTINUOUS
 10
77.8199014128
 20
203.6265385183
 11
77.8199014128
 21
199.5540375931
  0
LINE
  5
290
100
AcDbEntity
  8
3_ALL_AXES
100
AcDbLine
 62
7
  6
CONTINUOUS
 10
77.8199014128
 20
210.3815366679
 11
77.8199014128
 21
219.5960291186
  0
LINE
  5
291
100
AcDbEntity
  8
3_ALL_AXES
100
AcDbLine
 62
7
  6
CONTINUOUS
 10
79.3765867398
 20
255.7640847237
 11
77.9356496846
 21
227.0040375931
  0
LINE
  5
292
100
AcDbEntity
  8
0_COMPONENTS
100
AcDbLine
 62
7
  6
CONTINUOUS
 10
81.6560884601
 20
178.0040375931
 11
122.6560884601
 21
178.0040375931
  0
LINE
  5
293
100
AcDbEntity
  8
3_ALL_AXES
100
AcDbLine
 62
7
  6
CONTINUOUS
 10
70.6560884601
 20
199.5540375931
 11
71.1560884601
 21
199.0540375931
  0
LINE
  5
294
100
AcDbEntity
  8
0_COMPONENTS
100
AcDbLine
 62
7
  6
CONTINUOUS
 10
81.4060884601
 20
179.2540375931
 11
81.6560884601
 21
178.0040375931
  0
LINE
  5
295
100
AcDbEntity
  8
3_ALL_AXES
100
AcDbLine
 62
7
  6
CONTINUOUS
 10
78.2560884601
 20
225.8081438022
 11
78.2560884601
 21
225.4040375931
  0
LINE
  5
296
100
AcDbEntity
  8
0_COMPONENTS
100
AcDbLine
 62
7
  6
CONTINUOUS
 10
80.1560884601
 20
157.3040375931
 11
80.1560884601
 21
152.5111443742
  0
LINE
  5
297
100
AcDbEntity
  8
0_COMPONENTS
100
AcDbLine
 62
7
  6
CONTINUOUS
 10
81.4060884601
 20
185.7040375931
 11
81.4060884601
 21
184.7539416952
  0
LINE
  5
298
100
AcDbEntity
  8
0_COMPONENTS
100
AcDbLine
 62
7
  6
CONTINUOUS
 10
81.4060884601
 20
183.2541702008
 11
81.4060884601
 21
179.2540375931
  0
LINE
  5
299
100
AcDbEntity
  8
0_COMPONENTS
100
AcDbLine
 62
7
  6
CONTINUOUS
 10
81.4060884601
 20
170.7540375931
 11
81.4060884601
 21
161.2540375931
  0
LINE
  5
29A
100
AcDbEntity
  8
3_ALL_AXES
100
AcDbLine
 62
7
  6
CONTINUOUS
 10
81.6560884601
 20
213.0518351539
 11
81.6560884601
 21
208.8790375931
  0
LINE
  5
29B
100
AcDbEntity
  8
0_COMPONENTS
100
AcDbLine
 62
7
  6
CONTINUOUS
 10
81.6560884601
 20
178.0040375931
 11
81.6560884601
 21
171.0040375931
  0
LINE
  5
29C
100
AcDbEntity
  8
0_COMPONENTS
100
AcDbLine
 62
7
  6
CONTINUOUS
 10
81.6560884601
 20
161.0040375931
 11
81.6560884601
 21
158.1380121893
  0
LINE
  5
29D
100
AcDbEntity
  8
3_ALL_AXES
100
AcDbLine
 62
7
  6
CONTINUOUS
 10
81.6560884601
 20
199.0540375931
 11
81.6560884601
 21
205.1290375931
  0
LINE
  5
29E
100
AcDbEntity
  8
0_COMPONENTS
100
AcDbLine
 62
7
  6
CONTINUOUS
 10
81.4060884601
 20
179.2540375931
 11
122.9060884601
 21
179.2540375931
  0
LINE
  5
29F
100
AcDbEntity
  8
3_ALL_AXES
100
AcDbLine
 62
7
  6
CONTINUOUS
 10
82.1560884601
 20
205.1290375931
 11
82.1560884601
 21
199.5540375931
  0
LINE
  5
2A0
100
AcDbEntity
  8
3_ALL_AXES
100
AcDbLine
 62
7
  6
CONTINUOUS
 10
82.1560884601
 20
208.8790375931
 11
82.1560884601
 21
213.0518351539
  0
LINE
  5
2A1
100
AcDbEntity
  8
0_COMPONENTS
100
AcDbLine
 62
7
  6
CONTINUOUS
 10
83.1060884601
 20
186.5040375931
 11
83.1060884601
 21
186.0040375931
  0
LINE
  5
2A2
100
AcDbEntity
  8
3_ALL_AXES
100
AcDbLine
 62
7
  6
CONTINUOUS
 10
84.6560884601
 20
196.0540375931
 11
84.6560884601
 21
187.0040375931
  0
LINE
  5
2A3
100
AcDbEntity
  8
0
100
AcDbLine
 62
7
  6
CONTINUOUS
 10
84.9060884601
 20
197.5540375931
 11
84.9060884601
 21
196.487050295
  0
LINE
  5
2A4
100
AcDbEntity
  8
3_ALL_AXES
100
AcDbLine
 62
7
  6
CONTINUOUS
 10
95.5125262137
 20
250.9040375931
 11
95.4201883888
 21
250.5882141964
  0
LINE
  5
2A5
100
AcDbEntity
  8
0_COMPONENTS
100
AcDbLine
 62
7
  6
CONTINUOUS
 10
81.4060884601
 20
185.7040375931
 11
122.9060884601
 21
185.7040375931
  0
LINE
  5
2A6
100
AcDbEntity
  8
0_COMPONENTS
100
AcDbLine
 62
7
  6
CONTINUOUS
 10
122.6060884419
 20
186.0040375931
 11
81.7062663293
 21
186.0040375931
  0
LINE
  5
2A7
100
AcDbEntity
  8
0_COMPONENTS
100
AcDbLine
 62
7
  6
CONTINUOUS
 10
83.1060884601
 20
186.5040375931
 11
121.2060884601
 21
186.5040375931
  0
LINE
  5
2A8
100
AcDbEntity
  8
0_COMPONENTS
100
AcDbLine
 62
7
  6
CONTINUOUS
 10
83.3949164492
 20
187.0040375931
 11
120.9172604709
 21
187.0040375931
  0
LINE
  5
2A9
100
AcDbEntity
  8
0_COMPONENTS
100
AcDbLine
 62
7
  6
CONTINUOUS
 10
123.6560884601
 20
157.8040375931
 11
124.1560884601
 21
157.3040375931
  0
LINE
  5
2AA
100
AcDbEntity
  8
3_ALL_AXES
100
AcDbLine
 62
7
  6
CONTINUOUS
 10
82.1560884601
 20
199.5540375931
 11
82.6560884601
 21
199.0540375931
  0
LINE
  5
2AB
100
AcDbEntity
  8
3_ALL_AXES
100
AcDbLine
 62
7
  6
CONTINUOUS
 10
77.9356496846
 20
227.0040375931
 11
78.2560884601
 21
225.8081438022
  0
LINE
  5
2AC
100
AcDbEntity
  8
3_ALL_AXES
100
AcDbLine
 62
7
  6
CONTINUOUS
 10
70.6560884601
 20
203.6265385183
 11
73.2584931959
 21
205.1290375931
  0
LINE
  5
2AD
100
AcDbEntity
  8
DEFAULT_2
100
AcDbLine
 62
8
  6
HIDDEN
 10
92.6560884601
 20
153.0040375931
 11
92.6560884601
 21
168.0040375931
  0
LINE
  5
2AE
100
AcDbEntity
  8
3_ALL_AXES
100
AcDbLine
 62
7
  6
CONTINUOUS
 10
93.6745540087
 20
199.7607590775
 11
93.6745540087
 21
203.6265385183
  0
LINE
  5
2AF
100
AcDbEntity
  8
3_ALL_AXES
100
AcDbLine
 62
7
  6
CONTINUOUS
 10
93.6745540087
 20
210.3815366679
 11
93.6745540087
 21
212.0540375931
  0
LINE
  5
2B0
100
AcDbEntity
  8
3_ALL_AXES
100
AcDbLine
 62
7
  6
CONTINUOUS
 10
94.1560884601
 20
199.5540375931
 11
94.1560884601
 21
205.1290375931
  0
LINE
  5
2B1
100
AcDbEntity
  8
3_ALL_AXES
100
AcDbLine
 62
7
  6
CONTINUOUS
 10
94.1560884601
 20
208.8790375931
 11
94.1560884601
 21
212.0540375931
  0
LINE
  5
2B2
100
AcDbEntity
  8
0
100
AcDbLine
 62
7
  6
CONTINUOUS
 10
84.9060884601
 20
196.487050295
 11
84.6560884601
 21
196.0540375931
  0
LINE
  5
2B3
100
AcDbEntity
  8
0_COMPONENTS
100
AcDbLine
 62
7
  6
CONTINUOUS
 10
83.3947635947
 20
187.0040375931
 11
83.1060884601
 21
186.5040375931
  0
LINE
  5
2B4
100
AcDbEntity
  8
3_ALL_AXES
100
AcDbLine
 62
7
  6
CONTINUOUS
 10
73.2584931959
 20
208.8790375931
 11
70.6560884601
 21
210.3815366679
  0
LINE
  5
2B5
100
AcDbEntity
  8
0_COMPONENTS
100
AcDbLine
 62
7
  6
CONTINUOUS
 10
122.6560884601
 20
171.0040375931
 11
122.9060884601
 21
170.7540375931
  0
LINE
  5
2B6
100
AcDbEntity
  8
3_ALL_AXES
100
AcDbLine
 62
7
  6
CONTINUOUS
 10
94.6560884601
 20
200.0540375931
 11
94.6560884601
 21
205.1290375931
  0
LINE
  5
2B7
100
AcDbEntity
  8
3_ALL_AXES
100
AcDbLine
 62
7
  6
CONTINUOUS
 10
94.6560884601
 20
208.8790375931
 11
94.6560884601
 21
212.0540375931
  0
LINE
  5
2B8
100
AcDbEntity
  8
3_ALL_AXES
100
AcDbLine
 62
7
  6
CONTINUOUS
 10
94.8076192317
 20
208.8790375931
 11
94.8076192317
 21
205.1290375931
  0
LINE
  5
2B9
100
AcDbEntity
  8
3_ALL_AXES
100
AcDbLine
 62
7
  6
CONTINUOUS
 10
95.8860884601
 20
255.9040375931
 11
95.8860884601
 21
252.1040375931
  0
LINE
  5
2BA
100
AcDbEntity
  8
3_ALL_AXES
100
AcDbLine
 62
7
  6
CONTINUOUS
 10
110.1560884601
 20
199.7255788279
 11
110.6376229115
 21
199.7607590775
  0
LINE
  5
2BB
100
AcDbEntity
  8
0
100
AcDbLine
 62
7
  6
CONTINUOUS
 10
119.6560884601
 20
196.0540375931
 11
84.6560884601
 21
196.0540375931
  0
LINE
  5
2BC
100
AcDbEntity
  8
0
100
AcDbLine
 62
7
  6
CONTINUOUS
 10
84.9060884601
 20
196.487050295
 11
119.4060884601
 21
196.487050295
  0
LINE
  5
2BD
100
AcDbEntity
  8
0
100
AcDbLine
 62
7
  6
CONTINUOUS
 10
119.4060884601
 20
197.5540375931
 11
84.9060884601
 21
197.5540375931
  0
LINE
  5
2BE
100
AcDbEntity
  8
3_ALL_AXES
100
AcDbLine
 62
7
  6
CONTINUOUS
 10
133.1557569259
 20
199.0540375931
 11
110.6560884601
 21
199.0540375931
  0
LINE
  5
2BF
100
AcDbEntity
  8
3_ALL_AXES
100
AcDbLine
 62
7
  6
CONTINUOUS
 10
110.6273226373
 20
199.0540375931
 11
93.6848542829
 21
199.0540375931
  0
LINE
  5
2C0
100
AcDbEntity
  8
3_ALL_AXES
100
AcDbLine
 62
7
  6
CONTINUOUS
 10
93.6560884601
 20
199.0540375931
 11
71.1561164583
 21
199.0540375931
  0
LINE
  5
2C1
100
AcDbEntity
  8
3_ALL_AXES
100
AcDbLine
 62
7
  6
CONTINUOUS
 10
110.4560884601
 20
199.2540375931
 11
93.8560884601
 21
199.2540375931
  0
LINE
  5
2C2
100
AcDbEntity
  8
3_ALL_AXES
100
AcDbLine
 62
7
  6
CONTINUOUS
 10
133.6560884601
 20
199.5540375931
 11
110.7853756338
 21
199.5540375931
  0
LINE
  5
2C3
100
AcDbEntity
  8
3_ALL_AXES
100
AcDbLine
 62
7
  6
CONTINUOUS
 10
93.5268012864
 20
199.5540375931
 11
70.6560884601
 21
199.5540375931
  0
LINE
  5
2C4
100
AcDbEntity
  8
3_ALL_AXES
100
AcDbLine
 62
7
  6
CONTINUOUS
 10
94.1560884601
 20
199.7255788279
 11
93.6745540087
 21
199.7607590775
  0
LINE
  5
2C5
100
AcDbEntity
  8
3_ALL_AXES
100
AcDbLine
 62
7
  6
CONTINUOUS
 10
94.6560884601
 20
200.0540375931
 11
94.1780701374
 21
199.5760192704
  0
LINE
  5
2C6
100
AcDbEntity
  8
3_ALL_AXES
100
AcDbLine
 62
7
  6
CONTINUOUS
 10
93.6560884601
 20
199.0540375931
 11
94.1560884601
 21
199.5540375931
  0
LINE
  5
2C7
100
AcDbEntity
  8
3_ALL_AXES
100
AcDbLine
 62
7
  6
CONTINUOUS
 10
133.6560884601
 20
203.6265385183
 11
110.6376229115
 21
203.6265385183
  0
LINE
  5
2C8
100
AcDbEntity
  8
3_ALL_AXES
100
AcDbLine
 62
7
  6
CONTINUOUS
 10
93.6745540087
 20
203.6265385183
 11
82.1560884601
 21
203.6265385183
  0
LINE
  5
2C9
100
AcDbEntity
  8
3_ALL_AXES
100
AcDbLine
 62
7
  6
CONTINUOUS
 10
77.8199014128
 20
203.6265385183
 11
70.6560884601
 21
203.6265385183
  0
LINE
  5
2CA
100
AcDbEntity
  8
3_ALL_AXES
100
AcDbLine
 62
7
  6
CONTINUOUS
 10
73.2586605983
 20
205.1290375931
 11
94.8076192317
 21
205.1290375931
  0
LINE
  5
2CB
100
AcDbEntity
  8
3_ALL_AXES
100
AcDbLine
 62
7
  6
CONTINUOUS
 10
109.5045576884
 20
205.1290375931
 11
131.0536304742
 21
205.1290375931
  0
LINE
  5
2CC
100
AcDbEntity
  8
3_ALL_AXES
100
AcDbLine
 62
7
  6
CONTINUOUS
 10
110.6560884601
 20
199.0540375931
 11
109.6560884601
 21
200.0540375931
  0
LINE
  5
2CD
100
AcDbEntity
  8
3_ALL_AXES
100
AcDbLine
 62
7
  6
CONTINUOUS
 10
108.4260884601
 20
255.9040375931
 11
108.4260884601
 21
252.1040375931
  0
LINE
  5
2CE
100
AcDbEntity
  8
3_ALL_AXES
100
AcDbLine
 62
7
  6
CONTINUOUS
 10
109.5045576884
 20
208.8790375931
 11
109.5045576884
 21
205.1290375931
  0
LINE
  5
2CF
100
AcDbEntity
  8
3_ALL_AXES
100
AcDbLine
 62
7
  6
CONTINUOUS
 10
109.6560884601
 20
212.0540375931
 11
109.6560884601
 21
208.8790375931
  0
LINE
  5
2D0
100
AcDbEntity
  8
3_ALL_AXES
100
AcDbLine
 62
7
  6
CONTINUOUS
 10
109.6560884601
 20
205.1290375931
 11
109.6560884601
 21
200.0540375931
  0
LINE
  5
2D1
100
AcDbEntity
  8
3_ALL_AXES
100
AcDbLine
 62
7
  6
CONTINUOUS
 10
110.1560884601
 20
199.5540375931
 11
110.1560884601
 21
205.1290375931
  0
LINE
  5
2D2
100
AcDbEntity
  8
3_ALL_AXES
100
AcDbLine
 62
7
  6
CONTINUOUS
 10
110.1560884601
 20
208.8790375931
 11
110.1560884601
 21
212.0540375932
  0
LINE
  5
2D3
100
AcDbEntity
  8
3_ALL_AXES
100
AcDbLine
 62
7
  6
CONTINUOUS
 10
110.6376229115
 20
199.7607590775
 11
110.6376229115
 21
203.6265385183
  0
LINE
  5
2D4
100
AcDbEntity
  8
3_ALL_AXES
100
AcDbLine
 62
7
  6
CONTINUOUS
 10
110.6376229115
 20
210.3815366679
 11
110.6376229115
 21
212.0540375932
  0
LINE
  5
2D5
100
AcDbEntity
  8
0_COMPONENTS
100
AcDbLine
 62
7
  6
CONTINUOUS
 10
81.6560884601
 20
171.0040375931
 11
81.4060884601
 21
170.7540375931
  0
LINE
  5
2D6
100
AcDbEntity
  8
3_ALL_AXES
100
AcDbLine
 62
7
  6
CONTINUOUS
 10
131.0536304742
 20
208.8790375931
 11
109.5045576884
 21
208.8790375931
  0
LINE
  5
2D7
100
AcDbEntity
  8
3_ALL_AXES
100
AcDbLine
 62
7
  6
CONTINUOUS
 10
73.2586605983
 20
208.8790375931
 11
94.8076192317
 21
208.8790375931
  0
LINE
  5
2D8
100
AcDbEntity
  8
3_ALL_AXES
100
AcDbLine
 62
7
  6
CONTINUOUS
 10
70.6560884601
 20
210.3815366679
 11
77.8199014128
 21
210.3815366679
  0
LINE
  5
2D9
100
AcDbEntity
  8
3_ALL_AXES
100
AcDbLine
 62
7
  6
CONTINUOUS
 10
82.1560884601
 20
210.3815366679
 11
93.6745540087
 21
210.3815366679
  0
LINE
  5
2DA
100
AcDbEntity
  8
3_ALL_AXES
100
AcDbLine
 62
7
  6
CONTINUOUS
 10
110.6376229115
 20
210.3815366679
 11
133.6560884601
 21
210.3815366679
  0
LINE
  5
2DB
100
AcDbEntity
  8
3_ALL_AXES
100
AcDbLine
 62
7
  6
CONTINUOUS
 10
93.6745540087
 20
212.0540375931
 11
94.6560884601
 21
212.0540375931
  0
LINE
  5
2DC
100
AcDbEntity
  8
3_ALL_AXES
100
AcDbLine
 62
7
  6
CONTINUOUS
 10
109.6560884601
 20
212.0540375931
 11
110.6376229115
 21
212.0540375932
  0
LINE
  5
2DD
100
AcDbEntity
  8
0_COMPONENTS
100
AcDbLine
 62
7
  6
CONTINUOUS
 10
120.9174133255
 20
187.0040375931
 11
121.2060884601
 21
186.5040375931
  0
LINE
  5
2DE
100
AcDbEntity
  8
DEFAULT_2
100
AcDbLine
 62
8
  6
HIDDEN
 10
111.6560884601
 20
153.0040375931
 11
111.6560884601
 21
168.0040375931
  0
LINE
  5
2DF
100
AcDbEntity
  8
3_ALL_AXES
100
AcDbLine
 62
7
  6
CONTINUOUS
 10
131.0536837243
 20
208.8790375931
 11
133.6560884601
 21
210.3815366679
  0
LINE
  5
2E0
100
AcDbEntity
  8
3_ALL_AXES
100
AcDbLine
 62
7
  6
CONTINUOUS
 10
81.6560884601
 20
213.0518351539
 11
82.1560884601
 21
213.0518351537
  0
LINE
  5
2E1
100
AcDbEntity
  8
0
100
AcDbLine
 62
7
  6
CONTINUOUS
 10
119.4060884601
 20
196.487050295
 11
119.6560884601
 21
196.0540375931
  0
LINE
  5
2E2
100
AcDbEntity
  8
0_COMPONENTS
100
AcDbLine
 62
7
  6
CONTINUOUS
 10
80.6560884601
 20
157.8040375931
 11
80.1560884601
 21
157.3040375931
  0
LINE
  5
2E3
100
AcDbEntity
  8
3_ALL_AXES
100
AcDbLine
 62
7
  6
CONTINUOUS
 10
133.6560884601
 20
203.6265385183
 11
131.0536837243
 21
205.1290375931
  0
LINE
  5
2E4
100
AcDbEntity
  8
0
100
AcDbLine
 62
7
  6
CONTINUOUS
 10
119.4060884601
 20
197.5540375931
 11
119.4060884601
 21
196.487050295
  0
LINE
  5
2E5
100
AcDbEntity
  8
3_ALL_AXES
100
AcDbLine
 62
7
  6
CONTINUOUS
 10
119.6560884601
 20
196.0540375931
 11
119.6560884601
 21
190.6540375931
  0
LINE
  5
2E6
100
AcDbEntity
  8
0_COMPONENTS
100
AcDbLine
 62
7
  6
CONTINUOUS
 10
121.2060884601
 20
186.5040375931
 11
121.2060884601
 21
186.0040375931
  0
LINE
  5
2E7
100
AcDbEntity
  8
0_COMPONENTS
100
AcDbLine
 62
7
  6
CONTINUOUS
 10
122.6560884601
 20
178.0040375931
 11
122.6560884601
 21
171.0040375931
  0
LINE
  5
2E8
100
AcDbEntity
  8
0_COMPONENTS
100
AcDbLine
 62
7
  6
CONTINUOUS
 10
122.6560884601
 20
161.0040375931
 11
122.6560884601
 21
158.1380121893
  0
LINE
  5
2E9
100
AcDbEntity
  8
0_COMPONENTS
100
AcDbLine
 62
7
  6
CONTINUOUS
 10
122.9060884601
 20
185.7040375931
 11
122.9060884601
 21
179.2540375931
  0
LINE
  5
2EA
100
AcDbEntity
  8
0_COMPONENTS
100
AcDbLine
 62
7
  6
CONTINUOUS
 10
122.9060884601
 20
170.7540375931
 11
122.9060884601
 21
161.2540375931
  0
LINE
  5
2EB
100
AcDbEntity
  8
3_ALL_AXES
100
AcDbLine
 62
7
  6
CONTINUOUS
 10
126.3765272356
 20
227.0040375931
 11
126.0560884601
 21
225.8081438022
  0
LINE
  5
2EC
100
AcDbEntity
  8
3_ALL_AXES
100
AcDbLine
 62
7
  6
CONTINUOUS
 10
133.6560884601
 20
224.5040375931
 11
70.6560884601
 21
224.5040375931
  0
LINE
  5
2ED
100
AcDbEntity
  8
3_ALL_AXES
100
AcDbLine
 62
7
  6
CONTINUOUS
 10
108.7996507065
 20
250.9040375931
 11
108.8919885314
 21
250.5882141964
  0
LINE
  5
2EE
100
AcDbEntity
  8
3_ALL_AXES
100
AcDbLine
 62
7
  6
CONTINUOUS
 10
124.9355901804
 20
255.7640847237
 11
126.3765272356
 21
227.0040375931
  0
LINE
  5
2EF
100
AcDbEntity
  8
0_COMPONENTS
100
AcDbLine
 62
7
  6
CONTINUOUS
 10
124.1560884601
 20
157.3040375931
 11
124.1560884601
 21
152.5111443742
  0
LINE
  5
2F0
100
AcDbEntity
  8
3_ALL_AXES
100
AcDbLine
 62
7
  6
CONTINUOUS
 10
126.0560884601
 20
225.8081438022
 11
126.0560884601
 21
225.4040375931
  0
LINE
  5
2F1
100
AcDbEntity
  8
0_COMPONENTS
100
AcDbLine
 62
7
  6
CONTINUOUS
 10
122.9060884601
 20
179.2540375931
 11
122.6560884601
 21
178.0040375931
  0
LINE
  5
2F2
100
AcDbEntity
  8
3_ALL_AXES
100
AcDbLine
 62
7
  6
CONTINUOUS
 10
133.6560884601
 20
199.5540375931
 11
133.1560884601
 21
199.0540375931
  0
LINE
  5
2F3
100
AcDbEntity
  8
3_ALL_AXES
100
AcDbLine
 62
7
  6
CONTINUOUS
 10
133.1557252271
 20
225.0040375931
 11
71.1564516931
 21
225.0040375931
  0
LINE
  5
2F4
100
AcDbEntity
  8
3_ALL_AXES
100
AcDbLine
 62
7
  6
CONTINUOUS
 10
78.2560884601
 20
225.4040375931
 11
126.0560884601
 21
225.4040375931
  0
LINE
  5
2F5
100
AcDbEntity
  8
3_ALL_AXES
100
AcDbLine
 62
7
  6
CONTINUOUS
 10
78.2560884601
 20
225.8081438022
 11
126.0560884601
 21
225.8081438022
  0
LINE
  5
2F6
100
AcDbEntity
  8
3_ALL_AXES
100
AcDbLine
 62
7
  6
CONTINUOUS
 10
126.3765272356
 20
227.0040375931
 11
77.9356496846
 21
227.0040375931
  0
LINE
  5
2F7
100
AcDbEntity
  8
3_ALL_AXES
100
AcDbLine
 62
7
  6
CONTINUOUS
 10
129.6560884601
 20
205.1290375931
 11
129.6560884601
 21
208.8790375931
  0
LINE
  5
2F8
100
AcDbEntity
  8
3_ALL_AXES
100
AcDbLine
 62
7
  6
CONTINUOUS
 10
133.6560884601
 20
224.5040375931
 11
133.6560884601
 21
223.5040593037
  0
LINE
  5
2F9
100
AcDbEntity
  8
3_ALL_AXES
100
AcDbLine
 62
7
  6
CONTINUOUS
 10
133.6560884601
 20
212.5040158818
 11
133.6560884601
 21
210.3815366679
  0
LINE
  5
2FA
100
AcDbEntity
  8
3_ALL_AXES
100
AcDbLine
 62
7
  6
CONTINUOUS
 10
133.6560884601
 20
203.6265385183
 11
133.6560884601
 21
199.5540375931
  0
LINE
  5
2FB
100
AcDbEntity
  8
3_ALL_AXES
100
AcDbLine
 62
7
  6
CONTINUOUS
 10
94.8860884601
 20
256.9040375931
 11
95.8860884601
 21
255.9040375931
  0
LINE
  5
2FC
100
AcDbEntity
  8
3_ALL_AXES
100
AcDbLine
 62
7
  6
CONTINUOUS
 10
112.2703284775
 20
256.6571005539
 11
112.3718351894
 21
256.4331953214
  0
LINE
  5
2FD
100
AcDbEntity
  8
3_ALL_AXES
100
AcDbLine
 62
7
  6
CONTINUOUS
 10
133.1560884601
 20
225.0040375931
 11
133.6560884601
 21
224.5040375931
  0
LINE
  5
2FE
100
AcDbEntity
  8
0_COMPONENTS
100
AcDbLine
 62
7
  6
CONTINUOUS
 10
122.463268137
 20
157.8040375931
 11
122.6560884601
 21
158.1380121893
  0
LINE
  5
2FF
100
AcDbEntity
  8
0_COMPONENTS
100
AcDbLine
 62
7
  6
CONTINUOUS
 10
122.9060884601
 20
161.2540375931
 11
122.6560884601
 21
161.0040375931
  0
LINE
  5
300
100
AcDbEntity
  8
3_ALL_AXES
100
AcDbLine
 62
7
  6
CONTINUOUS
 10
108.8919885314
 20
250.5882141964
 11
95.4201883888
 21
250.5882141964
  0
LINE
  5
301
100
AcDbEntity
  8
3_ALL_AXES
100
AcDbLine
 62
4
  6
CONTINUOUS
 10
92.107297165
 20
250.9040375931
 11
112.2048797058
 21
250.9040375931
  0
LINE
  5
302
100
AcDbEntity
  8
3_ALL_AXES
100
AcDbLine
 62
7
  6
CONTINUOUS
 10
92.4686974389
 20
252.1040375931
 11
95.8860884601
 21
252.1040375931
  0
LINE
  5
303
100
AcDbEntity
  8
3_ALL_AXES
100
AcDbLine
 62
7
  6
CONTINUOUS
 10
108.4260884601
 20
252.1040375931
 11
111.8434794717
 21
252.1040375931
  0
LINE
  5
304
100
AcDbEntity
  8
0_COMPONENTS
100
AcDbLine
 62
7
  6
CONTINUOUS
 10
124.0096418485
 20
152.1575909815
 11
121.8025350688
 21
149.9504842018
  0
LINE
  5
305
100
AcDbEntity
  8
3_ALL_AXES
100
AcDbLine
 62
7
  6
CONTINUOUS
 10
79.3765867398
 20
255.7640847237
 11
93.0263689064
 21
255.7640847237
  0
LINE
  5
306
100
AcDbEntity
  8
3_ALL_AXES
100
AcDbLine
 62
7
  6
CONTINUOUS
 10
111.2858080137
 20
255.7640847237
 11
124.9355901804
 21
255.7640847237
  0
LINE
  5
307
100
AcDbEntity
  8
3_ALL_AXES
100
AcDbLine
 62
7
  6
CONTINUOUS
 10
93.0634169707
 20
255.9040375931
 11
95.8860884601
 21
255.9040375931
  0
LINE
  5
308
100
AcDbEntity
  8
3_ALL_AXES
100
AcDbLine
 62
7
  6
CONTINUOUS
 10
108.4260884601
 20
255.9040375931
 11
111.2487599494
 21
255.9040375931
  0
LINE
  5
309
100
AcDbEntity
  8
3_ALL_AXES
100
AcDbLine
 62
7
  6
CONTINUOUS
 10
94.8860884601
 20
256.9040375931
 11
80.5761709843
 21
256.9040375931
  0
LINE
  5
30A
100
AcDbEntity
  8
3_ALL_AXES
100
AcDbLine
 62
7
  6
CONTINUOUS
 10
109.4260884601
 20
256.9040375931
 11
123.7370934763
 21
256.9040375931
  0
ARC
  5
30B
100
AcDbEntity
  8
3_ALL_AXES
100
AcDbCircle
 62
7
  6
CONTINUOUS
 10
140.3514035608
 20
350.3467461036
 40
153.2985603757
100
AcDbArc
 50
245.9265985332
 51
247.3426013525
  0
ARC
  5
30C
100
AcDbEntity
  8
3_ALL_AXES
100
AcDbCircle
 62
7
  6
CONTINUOUS
 10
140.3514035609
 20
63.6613290826
 40
153.2985603758
100
AcDbArc
 50
112.6573986475
 51
114.0734014668
  0
ARC
  5
30D
100
AcDbEntity
  8
3_ALL_AXES
100
AcDbCircle
 62
7
  6
CONTINUOUS
 10
209.5507401666
 20
261.8018684351
 40
145.6976538017
100
AcDbArc
 50
205.2925155746
 51
205.5101843933
  0
ARC
  5
30E
100
AcDbEntity
  8
3_ALL_AXES
100
AcDbCircle
 62
7
  6
CONTINUOUS
 10
164.7209582589
 20
333.4317569537
 40
142.0878188631
100
AcDbArc
 50
239.9988383463
 51
240.2228026989
  0
ARC
  5
30F
100
AcDbEntity
  8
3_ALL_AXES
100
AcDbCircle
 62
7
  6
CONTINUOUS
 10
164.7209582589
 20
80.5763182325
 40
142.0878188631
100
AcDbArc
 50
119.7771973011
 51
120.0011616537
  0
ARC
  5
310
100
AcDbEntity
  8
3_ALL_AXES
100
AcDbCircle
 62
7
  6
CONTINUOUS
 10
39.5913257889
 20
333.4315496948
 40
142.0875858081
100
AcDbArc
 50
299.7772013032
 51
300.0011660325
  0
ARC
  5
311
100
AcDbEntity
  8
3_ALL_AXES
100
AcDbCircle
 62
7
  6
CONTINUOUS
 10
39.5913257889
 20
80.5765254914
 40
142.0875858081
100
AcDbArc
 50
59.9988339675
 51
60.2227986968
  0
ARC
  5
312
100
AcDbEntity
  8
0_COMPONENTS
100
AcDbCircle
 62
7
  6
CONTINUOUS
 10
60.6518076887
 20
184.0037085593
 40
20.7678394206
100
AcDbArc
 50
0.0009077617
 51
1.9693328879
  0
ARC
  5
313
100
AcDbEntity
  8
0_COMPONENTS
100
AcDbCircle
 62
7
  6
CONTINUOUS
 10
60.6658601777
 20
184.0041241404
 40
20.7537869292
100
AcDbArc
 50
358.0291147873
 51
359.9997610656
  0
ARC
  5
314
100
AcDbEntity
  8
3_ALL_AXES
100
AcDbCircle
 62
7
  6
CONTINUOUS
 10
139.7148562109
 20
188.4575643731
 40
20.1786683973
100
AcDbArc
 50
173.7509007568
 51
174.7400231988
  0
ARC
  5
315
100
AcDbEntity
  8
3_ALL_AXES
100
AcDbCircle
 62
7
  6
CONTINUOUS
 10
139.1754618965
 20
188.5098421589
 40
19.6377436282
100
AcDbArc
 50
180.4284724015
 51
184.4278562476
  0
ARC
  5
316
100
AcDbEntity
  8
3_ALL_AXES
100
AcDbCircle
 62
7
  6
CONTINUOUS
 10
139.1203155789
 20
188.502073493
 40
19.5825536614
100
AcDbArc
 50
174.7102296781
 51
179.9949844819
  0
ARC
  5
317
100
AcDbEntity
  8
3_ALL_AXES
100
AcDbCircle
 62
7
  6
CONTINUOUS
 10
138.7890207811
 20
188.5024869189
 40
19.2512588325
100
AcDbArc
 50
179.996128612
 51
180.4151831605
  0
ARC
  5
318
100
AcDbEntity
  8
3_ALL_AXES
100
AcDbCircle
 62
7
  6
CONTINUOUS
 10
74.1560884601
 20
213.0518351539
 40
8.0
100
AcDbArc
 50
0.0
 51
59.3072031604
  0
ARC
  5
319
100
AcDbEntity
  8
3_ALL_AXES
100
AcDbCircle
 62
7
  6
CONTINUOUS
 10
102.1560884601
 20
212.0540375931
 40
8.0
100
AcDbArc
 50
0.0000000004
 51
179.9999999997
  0
ARC
  5
31A
100
AcDbEntity
  8
3_ALL_AXES
100
AcDbCircle
 62
7
  6
CONTINUOUS
 10
74.1560884601
 20
213.0518351539
 40
7.5
100
AcDbArc
 50
0.0
 51
60.7574103131
  0
ARC
  5
31B
100
AcDbEntity
  8
3_ALL_AXES
100
AcDbCircle
 62
7
  6
CONTINUOUS
 10
102.1560884601
 20
212.0540375931
 40
7.5
100
AcDbArc
 50
0.0
 51
180.0
  0
CIRCLE
  5
31C
100
AcDbEntity
  8
3_ALL_AXES
100
AcDbCircle
 62
7
  6
CONTINUOUS
 10
102.1560884601
 20
234.0040375931
 40
3.75
  0
ARC
  5
31D
100
AcDbEntity
  8
0
100
AcDbCircle
 62
7
  6
CONTINUOUS
 10
83.4060884601
 20
197.5540375931
 40
1.5
100
AcDbArc
 50
0.0
 51
89.9999847324
  0
ARC
  5
31E
100
AcDbEntity
  8
0
100
AcDbCircle
 62
7
  6
CONTINUOUS
 10
120.9060884601
 20
197.5540375931
 40
1.5
100
AcDbArc
 50
90.0000152676
 51
180.0
  0
ARC
  5
31F
100
AcDbEntity
  8
3_ALL_AXES
100
AcDbCircle
 62
7
  6
CONTINUOUS
 10
97.0860884601
 20
252.1040375931
 40
1.2
100
AcDbArc
 50
180.0
 51
270.0
  0
ARC
  5
320
100
AcDbEntity
  8
3_ALL_AXES
100
AcDbCircle
 62
7
  6
CONTINUOUS
 10
107.2260884601
 20
252.1040375931
 40
1.2
100
AcDbArc
 50
270.0
 51
360.0
  0
ARC
  5
321
100
AcDbEntity
  8
3_ALL_AXES
100
AcDbCircle
 62
7
  6
CONTINUOUS
 10
123.7370934795
 20
255.7040375931
 40
1.2
100
AcDbArc
 50
2.8682371247
 51
90.0
  0
ARC
  5
322
100
AcDbEntity
  8
3_ALL_AXES
100
AcDbCircle
 62
7
  6
CONTINUOUS
 10
80.5750834407
 20
255.7040375931
 40
1.2
100
AcDbArc
 50
90.0
 51
177.1317628753
  0
ARC
  5
323
100
AcDbEntity
  8
0_COMPONENTS
100
AcDbCircle
 62
8
  6
HIDDEN
 10
82.9758923628
 20
154.0040375931
 40
1.0
100
AcDbArc
 50
191.3099325163
 51
270.0000001922
  0
ARC
  5
324
100
AcDbEntity
  8
0_COMPONENTS
100
AcDbCircle
 62
8
  6
HIDDEN
 10
121.3362845574
 20
154.0040375931
 40
1.0
100
AcDbArc
 50
269.9999998078
 51
348.6900674837
  0
ARC
  5
325
100
AcDbEntity
  8
0_COMPONENTS
100
AcDbCircle
 62
8
  6
HIDDEN
 10
121.8560884601
 20
153.8040375931
 40
0.8
100
AcDbArc
 50
270.0
 51
360.0
  0
ARC
  5
326
100
AcDbEntity
  8
0_COMPONENTS
100
AcDbCircle
 62
8
  6
HIDDEN
 10
82.4560884601
 20
153.8040375931
 40
0.8
100
AcDbArc
 50
180.0
 51
270.0
  0
ARC
  5
327
100
AcDbEntity
  8
3_ALL_AXES
100
AcDbCircle
 62
7
  6
CONTINUOUS
 10
126.6560884601
 20
225.4040375931
 40
0.6
100
AcDbArc
 50
180.0
 51
222.1953233946
  0
ARC
  5
328
100
AcDbEntity
  8
3_ALL_AXES
100
AcDbCircle
 62
7
  6
CONTINUOUS
 10
77.6560884601
 20
225.4040375931
 40
0.6
100
AcDbArc
 50
317.8046766054
 51
360.0
  0
ARC
  5
329
100
AcDbEntity
  8
0_COMPONENTS
100
AcDbCircle
 62
7
  6
CONTINUOUS
 10
82.8631952413
 20
150.3040375931
 40
0.5
100
AcDbArc
 50
225.0000001101
 51
270.0000001476
  0
ARC
  5
32A
100
AcDbEntity
  8
0_COMPONENTS
100
AcDbCircle
 62
7
  6
CONTINUOUS
 10
121.4489816789
 20
150.3040375931
 40
0.5
100
AcDbArc
 50
269.9999998524
 51
314.9999998899
  0
ARC
  5
32B
100
AcDbEntity
  8
0_COMPONENTS
100
AcDbCircle
 62
7
  6
CONTINUOUS
 10
80.6560884601
 20
152.5111443743
 40
0.5
100
AcDbArc
 50
180.0000000115
 51
225.000000349
  0
ARC
  5
32C
100
AcDbEntity
  8
0_COMPONENTS
100
AcDbCircle
 62
7
  6
CONTINUOUS
 10
123.6560884601
 20
152.5111443743
 40
0.5
100
AcDbArc
 50
314.999999651
 51
359.9999999885
  0
ARC
  5
32D
100
AcDbEntity
  8
0_COMPONENTS
100
AcDbCircle
 62
7
  6
CONTINUOUS
 10
81.7060884601
 20
185.7040375931
 40
0.3
100
AcDbArc
 50
89.9999965194
 51
180.0
  0
ARC
  5
32E
100
AcDbEntity
  8
0_COMPONENTS
100
AcDbCircle
 62
7
  6
CONTINUOUS
 10
122.6060884601
 20
185.7040375931
 40
0.3
100
AcDbArc
 50
0.0
 51
90.0000034806
  0
LINE
  5
32F
100
AcDbEntity
  8
0_COMPONENTS
100
AcDbLine
 62
7
  6
CONTINUOUS
 10
81.407371844
 20
184.7176495324
 11
81.4060884602
 21
184.7540375953
  0
LINE
  5
330
100
AcDbEntity
  8
0_COMPONENTS
100
AcDbLine
 62
7
  6
CONTINUOUS
 10
81.4073698334
 20
183.2903671046
 11
81.4060884605
 21
183.2540375924
  0
LINE
  5
331
100
AcDbEntity
  8
0_COMPONENTS
100
AcDbLine
 62
7
  6
CONTINUOUS
 10
81.4060884605
 20
183.2540375924
 11
81.4073802535
 21
183.290670823
  0
LINE
  5
332
100
AcDbEntity
  8
0_COMPONENTS
100
AcDbLine
 62
7
  6
CONTINUOUS
 10
81.4060884602
 20
184.7540375953
 11
81.4073808663
 21
184.7173865493
  0
SPLINE
  5
333
100
AcDbEntity
  8
3_ALL_AXES
100
AcDbSpline
 62
7
  6
CONTINUOUS
 70
0
 71
3
 72
11
 73
7
 74
0
 42
0.0000001
 43
0.0000001
 44
0.0000000001
 40
0.0
 40
0.0
 40
0.0
 40
0.0
 40
0.1551329251
 40
0.499994345
 40
0.8448591598
 40
1.0
 40
1.0
 40
1.0
 40
1.0
 10
133.6560790794
 20
212.5040754341
 30
0.0
 10
133.5714575576
 20
213.0685190013
 30
0.0
 10
133.3413606851
 20
214.894129831
 30
0.0
 10
133.1745841583
 20
218.0039946897
 30
0.0
 10
133.3414848848
 20
221.1138528139
 30
0.0
 10
133.5713235479
 20
222.9395463
 30
0.0
 10
133.6560789683
 20
223.5039992242
 30
0.0
  0
SPLINE
  5
334
100
AcDbEntity
  8
3_ALL_AXES
100
AcDbSpline
 62
7
  6
CONTINUOUS
 70
0
 71
3
 72
9
 73
5
 74
0
 42
0.0000001
 43
0.0000001
 44
0.0000000001
 40
0.0
 40
0.0
 40
0.0
 40
0.0
 40
0.5019173598
 40
1.0
 40
1.0
 40
1.0
 40
1.0
 10
95.4201883888
 20
250.5882141964
 30
0.0
 10
95.1520932717
 20
250.5882141964
 30
0.0
 10
94.6157321842
 20
250.67020313
 30
0.0
 10
94.1209118424
 20
250.881247131
 30
0.0
 10
93.8850816515
 20
251.0043935403
 30
0.0
  0
SPLINE
  5
335
100
AcDbEntity
  8
3_ALL_AXES
100
AcDbSpline
 62
7
  6
CONTINUOUS
 70
0
 71
3
 72
12
 73
8
 74
0
 42
0.0000001
 43
0.0000001
 44
0.0000000001
 40
0.0
 40
0.0
 40
0.0
 40
0.0
 40
0.2461289959
 40
0.4973621595
 40
0.7507289997
 40
0.8792671498
 40
1.0
 40
1.0
 40
1.0
 40
1.0
 10
110.7637803044
 20
256.9040375931
 30
0.0
 10
110.8893147888
 20
256.9040375931
 30
0.0
 10
111.1431272623
 20
256.885803736
 30
0.0
 10
111.5204771365
 20
256.8186947453
 30
0.0
 10
111.833934088
 20
256.7400353115
 30
0.0
 10
112.0821139638
 20
256.6771590526
 30
0.0
 10
112.208750458
 20
256.6571005539
 30
0.0
 10
112.2703284775
 20
256.6571005539
 30
0.0
  0
SPLINE
  5
336
100
AcDbEntity
  8
3_ALL_AXES
100
AcDbSpline
 62
7
  6
CONTINUOUS
 70
0
 71
3
 72
12
 73
8
 74
0
 42
0.0000001
 43
0.0000001
 44
0.0000000001
 40
0.0
 40
0.0
 40
0.0
 40
0.0
 40
0.1207250172
 40
0.2492765172
 40
0.5026453017
 40
0.7538736487
 40
1.0
 40
1.0
 40
1.0
 40
1.0
 10
92.0418484426
 20
256.6571005539
 30
0.0
 10
92.1034224992
 20
256.6571005539
 30
0.0
 10
92.2300642095
 20
256.6771434188
 30
0.0
 10
92.4782410548
 20
256.7400525957
 30
0.0
 10
92.7917089878
 20
256.8186879525
 30
0.0
 10
93.1690540812
 20
256.8858071147
 30
0.0
 10
93.4228634146
 20
256.9040375931
 30
0.0
 10
93.5483966158
 20
256.9040375931
 30
0.0
  0
SPLINE
  5
337
100
AcDbEntity
  8
3_ALL_AXES
100
AcDbSpline
 62
7
  6
CONTINUOUS
 70
0
 71
3
 72
16
 73
12
 74
0
 42
0.0000001
 43
0.0000001
 44
0.0000000001
 40
0.0
 40
0.0
 40
0.0
 40
0.0
 40
0.1232847047
 40
0.1863966297
 40
0.2502063333
 40
0.3769230476
 40
0.5007653381
 40
0.6250367777
 40
0.7516783473
 40
0.877744369
 40
1.0
 40
1.0
 40
1.0
 40
1.0
 10
93.6745540087
 20
212.0540375931
 30
0.0
 10
93.6751960291
 20
212.6014939247
 30
0.0
 10
93.7540267566
 20
213.432166324
 30
0.0
 10
94.0215215523
 20
214.5119261204
 30
0.0
 10
94.3970649848
 20
215.5755077569
 30
0.0
 10
95.0591047245
 20
216.8160369419
 30
0.0
 10
96.1214115467
 20
218.1107593718
 30
0.0
 10
97.4154098101
 20
219.1741459345
 30
0.0
 10
98.9025150678
 20
219.9670793044
 30
0.0
 10
100.5076360977
 20
220.4477986336
 30
0.0
 10
101.6132014459
 20
220.5540601052
 30
0.0
 10
102.1560884601
 20
220.5540375931
 30
0.0
  0
SPLINE
  5
338
100
AcDbEntity
  8
3_ALL_AXES
100
AcDbSpline
 62
7
  6
CONTINUOUS
 70
0
 71
3
 72
25
 73
21
 74
0
 42
0.0000001
 43
0.0000001
 44
0.0000000001
 40
0.0
 40
0.0
 40
0.0
 40
0.0
 40
0.1257261445
 40
0.1874907601
 40
0.2483720469
 40
0.3081432521
 40
0.3663430225
 40
0.3945545094
 40
0.4217874548
 40
0.434862089
 40
0.4473063654
 40
0.4590569984
 40
0.4705260661
 40
0.4861311509
 40
0.5040662048
 40
0.5393750344
 40
0.6081940569
 40
0.7416125438
 40
0.8719094018
 40
1.0
 40
1.0
 40
1.0
 40
1.0
 10
91.9403417308
 20
256.4331953214
 30
0.0
 10
91.8775575814
 20
256.4331953214
 30
0.0
 10
91.7839049282
 20
256.4352479161
 30
0.0
 10
91.6600899609
 20
256.4427400562
 30
0.0
 10
91.5693480819
 20
256.4509504607
 30
0.0
 10
91.4807397081
 20
256.4623200344
 30
0.0
 10
91.4088421519
 20
256.4753085562
 30
0.0
 10
91.3537754404
 20
256.4891953983
 30
0.0
 10
91.3212693926
 20
256.4999308125
 30
0.0
 10
91.2970588048
 20
256.5106116566
 30
0.0
 10
91.2813243708
 20
256.5202766185
 30
0.0
 10
91.266829526
 20
256.5318908091
 30
0.0
 10
91.2643484058
 20
256.5537618182
 30
0.0
 10
91.282691904
 20
256.5702805747
 30
0.0
 10
91.3130623674
 20
256.5852569036
 30
0.0
 10
91.3716308368
 20
256.6041550721
 30
0.0
 10
91.4880592378
 20
256.6264801275
 30
0.0
 10
91.6534663583
 20
256.6441755999
 30
0.0
 10
91.8488281722
 20
256.6548703619
 30
0.0
 10
91.9778835506
 20
256.6571005539
 30
0.0
 10
92.0418484426
 20
256.6571005539
 30
0.0
  0
SPLINE
  5
339
100
AcDbEntity
  8
3_ALL_AXES
100
AcDbSpline
 62
7
  6
CONTINUOUS
 70
0
 71
3
 72
16
 73
12
 74
0
 42
0.0000001
 43
0.0000001
 44
0.0000000001
 40
0.0
 40
0.0
 40
0.0
 40
0.0
 40
0.1224547131
 40
0.2486273791
 40
0.3752344373
 40
0.499378766
 40
0.6233330687
 40
0.7500911721
 40
0.8138491634
 40
0.8768841936
 40
1.0
 40
1.0
 40
1.0
 40
1.0
 10
102.1560884601
 20
220.5540375931
 30
0.0
 10
102.6998593253
 20
220.5540150444
 30
0.0
 10
103.8067958759
 20
220.4475139515
 30
0.0
 10
105.4129020698
 20
219.9657740882
 30
0.0
 10
106.8994233447
 20
219.1722873554
 30
0.0
 10
108.1928788567
 20
218.1086322193
 30
0.0
 10
109.2548714561
 20
216.8134682842
 30
0.0
 10
109.9165684125
 20
215.5722385326
 30
0.0
 10
110.291564273
 20
214.5088778599
 30
0.0
 10
110.55835059
 20
213.4303088967
 30
0.0
 10
110.6369931837
 20
212.6007437389
 30
0.0
 10
110.6376229115
 20
212.0540375932
 30
0.0
  0
SPLINE
  5
33A
100
AcDbEntity
  8
3_ALL_AXES
100
AcDbSpline
 62
7
  6
CONTINUOUS
 70
0
 71
3
 72
11
 73
7
 74
0
 42
0.0000001
 43
0.0000001
 44
0.0000000001
 40
0.0
 40
0.0
 40
0.0
 40
0.0
 40
0.2628920941
 40
0.5151609821
 40
0.7563191329
 40
1.0
 40
1.0
 40
1.0
 40
1.0
 10
93.0634169707
 20
255.9040375931
 30
0.0
 10
92.9679344193
 20
255.9573607638
 30
0.0
 10
92.7813415796
 20
256.0624383964
 30
0.0
 10
92.5056593737
 20
256.2155068558
 30
0.0
 10
92.2383204275
 20
256.3606911361
 30
0.0
 10
92.041712921
 20
256.4331953214
 30
0.0
 10
91.9403417308
 20
256.4331953214
 30
0.0
  0
SPLINE
  5
33B
100
AcDbEntity
  8
3_ALL_AXES
100
AcDbSpline
 62
7
  6
CONTINUOUS
 70
0
 71
3
 72
8
 73
4
 74
0
 42
0.0000001
 43
0.0000001
 44
0.0000000001
 40
0.0
 40
0.0
 40
0.0
 40
0.0
 40
1.0
 40
1.0
 40
1.0
 40
1.0
 10
93.0263689064
 20
255.7640847237
 30
0.0
 10
93.0322615812
 20
255.8119814322
 30
0.0
 10
93.0453137769
 20
255.8593040187
 30
0.0
 10
93.0634169707
 20
255.9040375931
 30
0.0
  0
SPLINE
  5
33C
100
AcDbEntity
  8
3_ALL_AXES
100
AcDbSpline
 62
7
  6
CONTINUOUS
 70
0
 71
3
 72
9
 73
5
 74
0
 42
0.0000001
 43
0.0000001
 44
0.0000000001
 40
0.0
 40
0.0
 40
0.0
 40
0.0
 40
0.4980854383
 40
1.0
 40
1.0
 40
1.0
 40
1.0
 10
110.4270952686
 20
251.0043935403
 30
0.0
 10
110.1912637861
 20
250.8812464565
 30
0.0
 10
109.6964427115
 20
250.6702045325
 30
0.0
 10
109.1600821161
 20
250.5882141964
 30
0.0
 10
108.8919885314
 20
250.5882141964
 30
0.0
  0
SPLINE
  5
33D
100
AcDbEntity
  8
3_ALL_AXES
100
AcDbSpline
 62
7
  6
CONTINUOUS
 70
0
 71
3
 72
9
 73
5
 74
0
 42
0.0000001
 43
0.0000001
 44
0.0000000001
 40
0.0
 40
0.0
 40
0.0
 40
0.0
 40
0.5000754659
 40
1.0
 40
1.0
 40
1.0
 40
1.0
 10
111.2858080137
 20
255.7640847237
 30
0.0
 10
111.3611776055
 20
255.1514672778
 30
0.0
 10
111.5234408821
 20
253.9279018205
 30
0.0
 10
111.722074923
 20
252.709026607
 30
0.0
 10
111.8434794717
 20
252.1040375931
 30
0.0
  0
SPLINE
  5
33E
100
AcDbEntity
  8
3_ALL_AXES
100
AcDbSpline
 62
7
  6
CONTINUOUS
 70
0
 71
3
 72
22
 73
18
 74
0
 42
0.0000001
 43
0.0000001
 44
0.0000000001
 40
0.0
 40
0.0
 40
0.0
 40
0.0
 40
0.0625484576
 40
0.1251351893
 40
0.1876873691
 40
0.250193493
 40
0.3126750644
 40
0.375177243
 40
0.4377224966
 40
0.5002965315
 40
0.6248233693
 40
0.6873254281
 40
0.7498065143
 40
0.8123128049
 40
0.8748649747
 40
0.9374522899
 40
1.0
 40
1.0
 40
1.0
 40
1.0
 10
97.9140282707
 20
234.0249482398
 30
0.0
 10
97.9156385836
 20
234.3015622514
 30
0.0
 10
97.9727310055
 20
234.8563582223
 30
0.0
 10
98.220897256
 20
235.6535005998
 30
0.0
 10
98.6122457375
 20
236.3910912662
 30
0.0
 10
99.1419799613
 20
237.0365316481
 30
0.0
 10
99.7884393279
 20
237.5644198043
 30
0.0
 10
100.5257374855
 20
237.9554317074
 30
0.0
 10
101.3249720635
 20
238.197660678
 30
0.0
 10
102.4291722759
 20
238.3093949513
 30
0.0
 10
103.544177567
 20
238.0841025582
 30
0.0
 10
104.5235596606
 20
237.5645483414
 30
0.0
 10
105.1705888404
 20
237.0368277769
 30
0.0
 10
105.7000665468
 20
236.3912131819
 30
0.0
 10
106.090901592
 20
235.6533622633
 30
0.0
 10
106.3394312274
 20
234.8563847229
 30
0.0
 10
106.396661911
 20
234.301559637
 30
0.0
 10
106.3981486494
 20
234.0249482398
 30
0.0
  0
SPLINE
  5
33F
100
AcDbEntity
  8
3_ALL_AXES
100
AcDbSpline
 62
7
  6
CONTINUOUS
 70
0
 71
3
 72
8
 73
4
 74
0
 42
0.0000001
 43
0.0000001
 44
0.0000000001
 40
0.0
 40
0.0
 40
0.0
 40
0.0
 40
1.0
 40
1.0
 40
1.0
 40
1.0
 10
111.2487599494
 20
255.9040375931
 30
0.0
 10
111.2668631432
 20
255.8593040187
 30
0.0
 10
111.279915339
 20
255.8119814322
 30
0.0
 10
111.2858080137
 20
255.7640847237
 30
0.0
  0
SPLINE
  5
340
100
AcDbEntity
  8
3_ALL_AXES
100
AcDbSpline
 62
7
  6
CONTINUOUS
 70
0
 71
3
 72
21
 73
17
 74
0
 42
0.0000001
 43
0.0000001
 44
0.0000000001
 40
0.0
 40
0.0
 40
0.0
 40
0.0
 40
0.0627148651
 40
0.1252772819
 40
0.1876992543
 40
0.2500606605
 40
0.3124737059
 40
0.3750344621
 40
0.4999988415
 40
0.6249659786
 40
0.6875267001
 40
0.7499392199
 40
0.8123007672
 40
0.8747230286
 40
0.9372857925
 40
1.0
 40
1.0
 40
1.0
 40
1.0
 10
106.3981486494
 20
234.0249482398
 30
0.0
 10
106.3996485449
 20
233.7458889522
 30
0.0
 10
106.3488510228
 20
233.1863805206
 30
0.0
 10
106.1071026546
 20
232.3816441151
 30
0.0
 10
105.7187512063
 20
231.6380533608
 30
0.0
 10
105.1907472771
 20
230.9865824532
 30
0.0
 10
104.542827647
 20
230.4528827593
 30
0.0
 10
103.556710961
 20
229.926253332
 30
0.0
 10
102.1560416901
 20
229.6401768188
 30
0.0
 10
100.7556137624
 20
229.9266785213
 30
0.0
 10
99.7692326935
 20
230.4527818207
 30
0.0
 10
99.1211079557
 20
230.9862737612
 30
0.0
 10
98.5932732367
 20
231.6379379511
 30
0.0
 10
98.2054535132
 20
232.3817762448
 30
0.0
 10
97.9633347835
 20
233.1863539172
 30
0.0
 10
97.9124037437
 20
233.7458925759
 30
0.0
 10
97.9140282707
 20
234.0249482398
 30
0.0
  0
SPLINE
  5
341
100
AcDbEntity
  8
3_ALL_AXES
100
AcDbSpline
 62
7
  6
CONTINUOUS
 70
0
 71
3
 72
11
 73
7
 74
0
 42
0.0000001
 43
0.0000001
 44
0.0000000001
 40
0.0
 40
0.0
 40
0.0
 40
0.0
 40
0.2436998785
 40
0.4848545042
 40
0.7371128111
 40
1.0
 40
1.0
 40
1.0
 40
1.0
 10
112.3718351894
 20
256.4331953214
 30
0.0
 10
112.2704568724
 20
256.4331953214
 30
0.0
 10
112.0738723985
 20
256.3606020861
 30
0.0
 10
111.8064827165
 20
256.2155300903
 30
0.0
 10
111.5308324825
 20
256.0624196066
 30
0.0
 10
111.3442399828
 20
255.9573593576
 30
0.0
 10
111.2487599494
 20
255.9040375931
 30
0.0
  0
SPLINE
  5
342
100
AcDbEntity
  8
3_ALL_AXES
100
AcDbSpline
 62
7
  6
CONTINUOUS
 70
0
 71
3
 72
25
 73
21
 74
0
 42
0.0000001
 43
0.0000001
 44
0.0000000001
 40
0.0
 40
0.0
 40
0.0
 40
0.0
 40
0.1280663841
 40
0.2583383302
 40
0.3917308396
 40
0.4605312434
 40
0.4958288299
 40
0.5138211696
 40
0.5292857889
 40
0.5410487989
 40
0.5527350781
 40
0.5652266375
 40
0.5782682181
 40
0.6055130286
 40
0.6337210283
 40
0.6919117448
 40
0.7516729289
 40
0.8125435654
 40
0.8742970021
 40
1.0
 40
1.0
 40
1.0
 40
1.0
 10
112.2703284775
 20
256.6571005539
 30
0.0
 10
112.3342824256
 20
256.6571005539
 30
0.0
 10
112.4633201819
 20
256.6548798232
 30
0.0
 10
112.6586269643
 20
256.6441490513
 30
0.0
 10
112.8240696062
 20
256.6265867208
 30
0.0
 10
112.9403514888
 20
256.6040458481
 30
0.0
 10
112.9991190382
 20
256.5855048091
 30
0.0
 10
113.0292163616
 20
256.5701586218
 30
0.0
 10
113.0478751516
 20
256.5539057006
 30
0.0
 10
113.0454400015
 20
256.5318196298
 30
0.0
 10
113.0307663983
 20
256.5202155587
 30
0.0
 10
113.015017132
 20
256.5106298571
 30
0.0
 10
112.9908468739
 20
256.4998323718
 30
0.0
 10
112.9583114617
 20
256.4891966832
 30
0.0
 10
112.9032587064
 20
256.4752781315
 30
0.0
 10
112.8313622405
 20
256.4623139286
 30
0.0
 10
112.7427693322
 20
256.4509426978
 30
0.0
 10
112.6520407666
 20
256.4427372501
 30
0.0
 10
112.5282461882
 20
256.4352468899
 30
0.0
 10
112.4346089068
 20
256.4331953214
 30
0.0
 10
112.3718351894
 20
256.4331953214
 30
0.0
  0
SPLINE
  5
343
100
AcDbEntity
  8
3_ALL_AXES
100
AcDbSpline
 62
7
  6
CONTINUOUS
 70
0
 71
3
 72
12
 73
8
 74
0
 42
0.0000001
 43
0.0000001
 44
0.0000000001
 40
0.0
 40
0.0
 40
0.0
 40
0.0
 40
0.3139013705
 40
0.5717199017
 40
0.6802495491
 40
0.7844026796
 40
1.0
 40
1.0
 40
1.0
 40
1.0
 10
77.8199014128
 20
219.5960291186
 30
0.0
 10
77.8199014128
 20
219.667492978
 30
0.0
 10
77.8349281121
 20
219.7990390429
 30
0.0
 10
77.9266244765
 20
219.9380625239
 30
0.0
 10
78.0278749065
 20
219.9807275464
 30
0.0
 10
78.1268562527
 20
219.9845675609
 30
0.0
 10
78.1973591588
 20
219.9562207414
 30
0.0
 10
78.2395669739
 20
219.9311667513
 30
0.0
  0
LINE
  5
344
100
AcDbEntity
  8
3_ALL_AXES
100
AcDbLine
 62
7
  6
CONTINUOUS
 10
93.6848542829
 20
199.0828034159
 11
93.6322526227
 21
199.2396247448
  0
LINE
  5
345
100
AcDbEntity
  8
3_ALL_AXES
100
AcDbLine
 62
7
  6
CONTINUOUS
 10
93.6322526227
 20
199.2396247448
 11
93.5268012864
 21
199.5540375931
  0
LINE
  5
346
100
AcDbEntity
  8
3_ALL_AXES
100
AcDbLine
 62
7
  6
CONTINUOUS
 10
110.7853756338
 20
199.5540375931
 11
110.6273226373
 21
199.0828034159
  0
SPLINE
  5
347
100
AcDbEntity
  8
3_ALL_AXES
100
AcDbSpline
 62
7
  6
CONTINUOUS
 70
0
 71
3
 72
9
 73
5
 74
0
 42
0.0000001
 43
0.0000001
 44
0.0000000001
 40
0.0
 40
0.0
 40
0.0
 40
0.0
 40
0.5017547785
 40
1.0
 40
1.0
 40
1.0
 40
1.0
 10
93.8850816515
 20
251.0043935403
 30
0.0
 10
94.0571938116
 20
250.9866731919
 30
0.0
 10
94.3975506918
 20
250.9307418911
 30
0.0
 10
94.7423812395
 20
250.9040375931
 30
0.0
 10
94.9141930082
 20
250.9040375931
 30
0.0
  0
SPLINE
  5
348
100
AcDbEntity
  8
3_ALL_AXES
100
AcDbSpline
 62
7
  6
CONTINUOUS
 70
0
 71
3
 72
15
 73
11
 74
0
 42
0.0000001
 43
0.0000001
 44
0.0000000001
 40
0.0
 40
0.0
 40
0.0
 40
0.0
 40
0.247234729
 40
0.4940354331
 40
0.6177419637
 40
0.7420904949
 40
0.8048825326
 40
0.8686020733
 40
0.9336529545
 40
1.0
 40
1.0
 40
1.0
 40
1.0
 10
93.8850816515
 20
251.0043935403
 30
0.0
 10
93.7341128027
 20
251.0460730208
 30
0.0
 10
93.4386501687
 20
251.1530309133
 30
0.0
 10
93.0915178941
 20
251.3367496233
 30
0.0
 10
92.8329265535
 20
251.5144158293
 30
0.0
 10
92.6821206341
 20
251.6420569689
 30
0.0
 10
92.5747767097
 20
251.7596409375
 30
0.0
 10
92.505801256
 20
251.8601421438
 30
0.0
 10
92.4599811951
 20
251.976965773
 30
0.0
 10
92.4604281838
 20
252.0628298351
 30
0.0
 10
92.4686974049
 20
252.104037415
 30
0.0
  0
SPLINE
  5
349
100
AcDbEntity
  8
3_ALL_AXES
100
AcDbSpline
 62
7
  6
CONTINUOUS
 70
0
 71
3
 72
9
 73
5
 74
0
 42
0.0000001
 43
0.0000001
 44
0.0000000001
 40
0.0
 40
0.0
 40
0.0
 40
0.0
 40
0.498253124
 40
1.0
 40
1.0
 40
1.0
 40
1.0
 10
109.397983912
 20
250.9040375931
 30
0.0
 10
109.5697984362
 20
250.9040375931
 30
0.0
 10
109.9146295291
 20
250.930736206
 30
0.0
 10
110.2549857888
 20
250.9866734679
 30
0.0
 10
110.4270952686
 20
251.0043935403
 30
0.0
  0
SPLINE
  5
34A
100
AcDbEntity
  8
3_ALL_AXES
100
AcDbSpline
 62
7
  6
CONTINUOUS
 70
0
 71
3
 72
15
 73
11
 74
0
 42
0.0000001
 43
0.0000001
 44
0.0000000001
 40
0.0
 40
0.0
 40
0.0
 40
0.0
 40
0.0663475902
 40
0.1313983561
 40
0.1951186922
 40
0.257910513
 40
0.382258983
 40
0.5059653893
 40
0.7527658167
 40
1.0
 40
1.0
 40
1.0
 40
1.0
 10
111.8434795151
 20
252.1040373651
 30
0.0
 10
111.8517488037
 20
252.0628294486
 30
0.0
 10
111.852194706
 20
251.9769651779
 30
0.0
 10
111.8063756972
 20
251.8601404468
 30
0.0
 10
111.7373991669
 20
251.7596394321
 30
0.0
 10
111.630054586
 20
251.6420557506
 30
0.0
 10
111.4792490884
 20
251.514414505
 30
0.0
 10
111.2206576217
 20
251.3367489974
 30
0.0
 10
110.8735259368
 20
251.1530305831
 30
0.0
 10
110.5780637775
 20
251.0460729269
 30
0.0
 10
110.4270952686
 20
251.0043935403
 30
0.0
  0
SPLINE
  5
34B
100
AcDbEntity
  8
3_ALL_AXES
100
AcDbSpline
 62
7
  6
CONTINUOUS
 70
0
 71
3
 72
9
 73
5
 74
0
 42
0.0000001
 43
0.0000001
 44
0.0000000001
 40
0.0
 40
0.0
 40
0.0
 40
0.0
 40
0.4999240816
 40
1.0
 40
1.0
 40
1.0
 40
1.0
 10
92.4686974389
 20
252.1040375931
 30
0.0
 10
92.5901018809
 20
252.7090260678
 30
0.0
 10
92.7887388342
 20
253.9279008281
 30
0.0
 10
92.9509992454
 20
255.1514667148
 30
0.0
 10
93.0263689064
 20
255.7640847237
 30
0.0
  0
ELLIPSE
  5
34C
100
AcDbEntity
  8
3_ALL_AXES
100
AcDbEllipse
 62
7
  6
CONTINUOUS
 10
102.1560884601
 20
165.3397627563
 30
0.0
 11
22.2738636074
 21
53.7738636074
 31
0.0
 40
0.4142135624
 41
1.0580176067
 42
1.0628913796
  0
ELLIPSE
  5
34D
100
AcDbEntity
  8
3_ALL_AXES
100
AcDbEllipse
 62
7
  6
CONTINUOUS
 10
102.1560884601
 20
165.3397627563
 30
0.0
 11
-22.2738636074
 21
53.7738636074
 31
0.0
 40
0.4142135624
 41
-1.0628913796
 42
-1.0580176067
  0
ENDSEC
  0
SECTION
  2
OBJECTS
  0
DICTIONARY
  5
C
100
AcDbDictionary
280
0
281
1
  3
ACAD_GROUP
350
D
  3
ACAD_MLINESTYLE
350
17
  3
ACAD_LAYOUT
350
1A
  3
ACAD_PLOTSETTINGS
350
19
  3
ACAD_PLOTSTYLENAME
350
E
  3
ACAD_TABLESTYLE
350
       34E
  0
DICTIONARY
  5
D
102
{ACAD_REACTORS
330
C
102
}
100
AcDbDictionary
280
0
281
1
  0
ACDBDICTIONARYWDFLT
  5
E
102
{ACAD_REACTORS
330
C
102
}
100
AcDbDictionary
281
1
  3
Normal
350
F
100
AcDbDictionaryWithDefault
340
F
  0
DICTIONARY
  5
17
102
{ACAD_REACTORS
330
C
102
}
100
AcDbDictionary
280
0
281
1
  3
Standard
350
18
  0
DICTIONARY
  5
34E
330
C
100
AcDbDictionary
281
1
  3
Standard
350
       351
  3
Standard1
350
       352
  0
DICTIONARY
  5
19
102
{ACAD_REACTORS
330
C
102
}
100
AcDbDictionary
281
1
  0
DICTIONARY
  5
1A
102
{ACAD_REACTORS
330
C
102
}
100
AcDbDictionary
281
1
  3
Model
350
34F
  3
Layout1
350
350
  0
ACDBPLACEHOLDER
  5
F
102
{ACAD_REACTORS
330
E
102
}
  0
MLINESTYLE
  5
18
102
{ACAD_REACTORS
330
17
102
}
100
AcDbMlineStyle
  2
STANDARD
 70
0
  3

 62
256
 51
90.0
 52
90.0
 71
2
 49
0.5
 62
256
  6
BYLAYER
 49
-0.5
 62
256
  6
BYLAYER
  0
LAYOUT
  5
34F
102
{ACAD_REACTORS
330
1A
102
}
100
AcDbPlotSettings
  1

  2
none_device
  4

  6

 40
0.0
 41
0.0
 42
0.0
 43
0.0
 44
210.0
 45
297.0
 46
0.0
 47
0.0
 48
0.0
 49
0.0
140
0.0
141
0.0
142
1.0
143
1.0
 70
1024
 72
1
 73
0
 74
0
  7

 75
0
147
1.0
148
0.0
149
0.0
100
AcDbLayout
  1
Model
 70
0
 71
0
 10
0.0
 20
0.0
 11
210.0
 21
297.0
 12
0.0
 22
0.0
 32
0.0
 14
0.0
 24
0.0
 34
0.0
 15
0.0
 25
0.0
 35
0.0
146
0.0
 13
0.0
 23
0.0
 33
0.0
 16
1.0
 26
0.0
 36
0.0
 17
0.0
 27
1.0
 37
0.0
 76
0
330
214
345
0
346
0
  0
LAYOUT
  5
350
102
{ACAD_REACTORS
330
1A
102
}
100
AcDbPlotSettings
  1

  2
none_device
  4

  6

 40
0.0
 41
0.0
 42
0.0
 43
0.0
 44
210.0
 45
297.0
 46
0.0
 47
0.0
 48
0.0
 49
0.0
140
0.0
141
0.0
142
1.0
143
1.0
 70
0
 72
1
 73
0
 74
0
  7

 75
0
147
1.0
148
0.0
149
0.0
100
AcDbLayout
  1
Layout1
 70
0
 71
1
 10
0.0
 20
0.0
 11
210.0
 21
297.0
 12
0.0
 22
0.0
 32
0.0
 14
0.0
 24
0.0
 34
0.0
 15
0.0
 25
0.0
 35
0.0
146
0.0
 13
0.0
 23
0.0
 33
0.0
 16
1.0
 26
0.0
 36
0.0
 17
0.0
 27
1.0
 37
0.0
 76
0
330
215
345
0
346
0
  0
TABLESTYLE
  5
351
102
{ACAD_REACTORS
330
34E
102
}
330
34E
100
AcDbTableStyle
  3
Standard
 70
0
 71
0
 40
0.06
 41
0.06
280
1
281
1
  7
Standard
140
0.18
170
1
 62
0
 63
7
283
0
  7
Standard
140
0.18
170
1
 62
0
 63
7
283
0
  7
Standard
140
0.18
170
1
 62
0
 63
7
283
0
  0
TABLESTYLE
  5
352
102
{ACAD_REACTORS
330
34E
330
274
102
}
330
34E
100
AcDbTableStyle
  3
Standard1
 70
1
 71
0
 40
0.06
 41
0.06
280
1
281
1
  7
Standard
140
0.18
170
1
 62
0
 63
7
283
0
  7
Standard
140
0.18
170
1
 62
0
 63
7
283
0
  7
Standard
140
0.18
170
1
 62
0
 63
7
283
0
  0
ENDSEC
  0
EOF
