999
DXF file: 34400-h40a.dxf
999
Pro/ENGINEER 2019352 by Parametric Technology Corporation
  0
SECTION
  2
HEADER
  9
$ACADVER
  1
AC1027
  9
$DWGCODEPAGE
  3
ANSI_1252
  9
$EXTMAX
 10
210.0
 20
297.0
 30
0.0
  9
$EXTMIN
 10
0.0
 20
0.0
 30
0.0
  9
$LIMMIN
 10
0.0
 20
0.0
  9
$LIMMAX
 10
210.0
 20
297.0
  9
$VIEWCTR
 10
105.0
 20
148.5
  9
$VIEWSIZE
 40
297.0
  9
$CLAYER
  8
0
  9
$LTSCALE
 40
19.36
  9
$CELTYPE
  6
BYLAYER
  9
$DIMSCALE
 40
1.0
  9
$DIMASZ
 40
4.76
  9
$DIMEXO
 40
0.1
  9
$DIMDLI
 40
13.376
  9
$DIMEXE
 40
1.0
  9
$DIMCEN
 40
3.168
  9
$DIMLFAC
 40
1.0
  9
$DIMBLK
  1
_FILLED
  9
$DIMALT
 70
0
  9
$DIMALTF
 40
0.0393700787
  9
$DIMTXT
 40
1.5
  9
$DIMTOL
 70
1
  9
$DIMLIM
 70
0
  9
$DIMTFAC
 40
1.0
  9
$DIMTP
 40
0.001
  9
$DIMTM
 40
0.001
  9
$DIMGAP
 40
0.625
  9
$DIMDSEP
 70
46
  9
$AUNITS
 70
0
  9
$PDMODE
 70
3
  9
$PDSIZE
 40
0.3125
  9
$HANDSEED
  5
529
  9
$TILEMODE
 70
1
  9
$MEASUREMENT
 70
1
  9
$INSUNITS
 70
4
  0
ENDSEC
  0
SECTION
  2
CLASSES
  0
CLASS
  1
ACDBDICTIONARYWDFLT
  2
AcDbDictionaryWithDefault
  3
AutoCAD 2000
 90
0
 91
1
280
0
281
0
  0
CLASS
  1
ACDBPLACEHOLDER
  2
AcDbPlaceHolder
  3
AutoCAD 2000
 90
0
 91
1
280
0
281
0
  0
CLASS
  1
LAYOUT
  2
AcDbLayout
  3
AutoCAD 2000
 90
0
 91
0
280
0
281
0
  0
CLASS
  1
TABLESTYLE
  2
AcDbTableStyle
  3
ObjectDBX Classes
 90
2047
 91
1
280
0
281
0
  0
CLASS
  1
ACAD_TABLE
  2
AcDbTable
  3
ObjectDBX Classes
 90
1025
 91
1
280
0
281
1
  0
ENDSEC
  0
SECTION
  2
TABLES
  0
TABLE
  2
VPORT
  5
8
100
AcDbSymbolTable
 70
2
  0
VPORT
  5
1F4
100
AcDbSymbolTableRecord
100
AcDbViewportTableRecord
  2
*ACTIVE
 70
0
 10
0.0
 20
0.0
 11
1.0
 21
1.0
 12
105.0
 22
148.5
 13
0.0
 23
0.0
 14
1.0
 24
1.0
 15
0.0
 25
0.0
 16
0.0
 26
0.0
 36
1.0
 17
0.0
 27
0.0
 37
0.0
 40
297.0
 41
0.7070707071
 42
50.0
 43
0.0
 44
0.0
 50
0.0
 51
0.0
 71
0
 72
100
 73
1
 74
1
 75
0
 76
0
 77
0
 78
0
  0
ENDTAB
  0
TABLE
  2
LTYPE
  5
5
100
AcDbSymbolTable
 70
6
  0
LTYPE
  5
14
100
AcDbSymbolTableRecord
100
AcDbLinetypeTableRecord
  2
BYBLOCK
 70
0
  3

 72
65
 73
0
 40
0.0
  0
LTYPE
  5
15
100
AcDbSymbolTableRecord
100
AcDbLinetypeTableRecord
  2
BYLAYER
 70
0
  3

 72
65
 73
0
 40
0.0
  0
LTYPE
  5
16
100
AcDbSymbolTableRecord
100
AcDbLinetypeTableRecord
  2
CONTINUOUS
 70
64
  3
Solid line
 72
65
 73
0
 40
0.0
  0
LTYPE
  5
1F5
100
AcDbSymbolTableRecord
100
AcDbLinetypeTableRecord
  2
CENTER
 70
64
  3
____ _ ____ _ ____ _ ____ _ ____ _ ____ _ ____
 72
65
 73
4
 40
0.6
 49
0.375
 74
0
 49
-0.075
 74
0
 49
0.075
 74
0
 49
-0.075
 74
0
  0
LTYPE
  5
1F6
100
AcDbSymbolTableRecord
100
AcDbLinetypeTableRecord
  2
HIDDEN
 70
64
  3
- - - - - - - - - - - - - - - - - - - -
 72
65
 73
2
 40
0.2
 49
0.1
 74
0
 49
-0.1
 74
0
  0
LTYPE
  5
1F7
100
AcDbSymbolTableRecord
100
AcDbLinetypeTableRecord
  2
PHANTOM
 70
64
  3
_____ _ _ _____ _ _ _____ _ _ _____
 72
65
 73
6
 40
0.8
 49
0.45
 74
0
 49
-0.05
 74
0
 49
0.1
 74
0
 49
-0.05
 74
0
 49
0.1
 74
0
 49
-0.05
 74
0
  0
LTYPE
  5
1F8
100
AcDbSymbolTableRecord
100
AcDbLinetypeTableRecord
  2
DOT
 70
64
  3
. . . . . . . . . . . . . . . . . . . .
 72
65
 73
2
 40
0.2
 49
0.1
 74
0
 49
-0.1
 74
0
  0
LTYPE
  5
1F9
100
AcDbSymbolTableRecord
100
AcDbLinetypeTableRecord
  2
DASHED
 70
64
  3
- - - - - - - - - - - - - - - - - - - -
 72
65
 73
2
 40
0.2
 49
0.1
 74
0
 49
-0.1
 74
0
  0
ENDTAB
  0
TABLE
  2
LAYER
  5
2
100
AcDbSymbolTable
 70
36
  0
LAYER
  5
10
100
AcDbSymbolTableRecord
100
AcDbLayerTableRecord
  2
0
 70
0
 62
7
  6
CONTINUOUS
370
-3
390
F
  0
LAYER
  5
1FA
100
AcDbSymbolTableRecord
100
AcDbLayerTableRecord
  2
DEFAULT_1
 70
0
 62
7
  6
CENTER
370
-3
390
F
  0
LAYER
  5
1FB
100
AcDbSymbolTableRecord
100
AcDbLayerTableRecord
  2
DEFAULT_2
 70
0
 62
8
  6
HIDDEN
370
-3
390
F
  0
LAYER
  5
1FC
100
AcDbSymbolTableRecord
100
AcDbLayerTableRecord
  2
DEFAULT_3
 70
0
 62
7
  6
PHANTOM
370
-3
390
F
  0
LAYER
  5
1FD
100
AcDbSymbolTableRecord
100
AcDbLayerTableRecord
  2
0_COMPONENTS
 70
0
 62
7
  6
CONTINUOUS
370
-3
390
F
  0
LAYER
  5
1FE
100
AcDbSymbolTableRecord
100
AcDbLayerTableRecord
  2
1_ALL_PLANES
 70
0
 62
7
  6
CONTINUOUS
370
-3
390
F
  0
LAYER
  5
1FF
100
AcDbSymbolTableRecord
100
AcDbLayerTableRecord
  2
1__DEF_ASM_PLN
 70
0
 62
7
  6
CONTINUOUS
370
-3
390
F
  0
LAYER
  5
200
100
AcDbSymbolTableRecord
100
AcDbLayerTableRecord
  2
1__DEF_PLANES
 70
0
 62
7
  6
CONTINUOUS
370
-3
390
F
  0
LAYER
  5
201
100
AcDbSymbolTableRecord
100
AcDbLayerTableRecord
  2
2_ALL_CSYS
 70
0
 62
7
  6
CONTINUOUS
370
-3
390
F
  0
LAYER
  5
202
100
AcDbSymbolTableRecord
100
AcDbLayerTableRecord
  2
2_ALL_NOTES
 70
0
 62
7
  6
CONTINUOUS
370
-3
390
F
  0
LAYER
  5
203
100
AcDbSymbolTableRecord
100
AcDbLayerTableRecord
  2
2__DEF_ASM_CSYS
 70
0
 62
7
  6
CONTINUOUS
370
-3
390
F
  0
LAYER
  5
204
100
AcDbSymbolTableRecord
100
AcDbLayerTableRecord
  2
2__DEF_CSYS
 70
0
 62
7
  6
CONTINUOUS
370
-3
390
F
  0
LAYER
  5
205
100
AcDbSymbolTableRecord
100
AcDbLayerTableRecord
  2
3_ALL_AXES
 70
0
 62
7
  6
CONTINUOUS
370
-3
390
F
  0
LAYER
  5
206
100
AcDbSymbolTableRecord
100
AcDbLayerTableRecord
  2
4_ALL_POINTS
 70
0
 62
7
  6
CONTINUOUS
370
-3
390
F
  0
LAYER
  5
207
100
AcDbSymbolTableRecord
100
AcDbLayerTableRecord
  2
5_ALL_CURVES
 70
0
 62
7
  6
CONTINUOUS
370
-3
390
F
  0
LAYER
  5
208
100
AcDbSymbolTableRecord
100
AcDbLayerTableRecord
  2
5_ALL_GTOLS(FREE)
 70
0
 62
7
  6
CONTINUOUS
370
-3
390
F
  0
LAYER
  5
209
100
AcDbSymbolTableRecord
100
AcDbLayerTableRecord
  2
6_ALL_SURFS
 70
0
 62
7
  6
CONTINUOUS
370
-3
390
F
  0
LAYER
  5
20A
100
AcDbSymbolTableRecord
100
AcDbLayerTableRecord
  2
CURVA
 70
0
 62
7
  6
CONTINUOUS
370
-3
390
F
  0
LAYER
  5
20B
100
AcDbSymbolTableRecord
100
AcDbLayerTableRecord
  2
GIANNI_ASSI
 70
0
 62
7
  6
CONTINUOUS
370
-3
390
F
  0
LAYER
  5
20C
100
AcDbSymbolTableRecord
100
AcDbLayerTableRecord
  2
LAY0001
 70
0
 62
7
  6
CONTINUOUS
370
-3
390
F
  0
LAYER
  5
20D
100
AcDbSymbolTableRecord
100
AcDbLayerTableRecord
  2
XSEC_DATUMS
 70
0
 62
7
  6
CONTINUOUS
370
-3
390
F
  0
ENDTAB
  0
TABLE
  2
STYLE
  5
3
100
AcDbSymbolTable
 70
1
  0
STYLE
  5
11
100
AcDbSymbolTableRecord
100
AcDbTextStyleTableRecord
  2
STANDARD
 70
0
 40
0.0
 41
1.2
 50
0.0
 71
0
 42
0.2
  3
txt
  4

  0
STYLE
  5
20E
100
AcDbSymbolTableRecord
100
AcDbTextStyleTableRecord
  2
TEXTSTYLE_1
 70
0
 40
0.0
 41
0.8
 50
0.0
 71
0
 42
0.2
  3
gdt
  4

  0
STYLE
  5
20F
100
AcDbSymbolTableRecord
100
AcDbTextStyleTableRecord
  2
TEXTSTYLE_2
 70
0
 40
0.0
 41
1.2
 50
0.0
 71
0
 42
0.2
  3
gdt
  4

  0
STYLE
  5
210
100
AcDbSymbolTableRecord
100
AcDbTextStyleTableRecord
  2
TEXTSTYLE_3
 70
0
 40
0.0
 41
1.0
 50
0.0
 71
0
 42
0.2
  3
txt
  4

  0
STYLE
  5
211
100
AcDbSymbolTableRecord
100
AcDbTextStyleTableRecord
  2
TEXTSTYLE_4
 70
0
 40
0.0
 41
1.0
 50
0.0
 71
0
 42
0.2
  3
txt
  4

  0
STYLE
  5
212
100
AcDbSymbolTableRecord
100
AcDbTextStyleTableRecord
  2
TEXTSTYLE_5
 70
0
 40
0.0
 41
1.0
 50
0.0
 71
0
 42
0.2
  3
gdt
  4

  0
STYLE
  5
213
100
AcDbSymbolTableRecord
100
AcDbTextStyleTableRecord
  2
TEXTSTYLE_6
 70
0
 40
0.0
 41
1.0
 50
0.0
 71
0
 42
0.2
  3
txt
  4

  0
ENDTAB
  0
TABLE
  2
VIEW
  5
6
100
AcDbSymbolTable
 70
0
  0
ENDTAB
  0
TABLE
  2
UCS
  5
7
100
AcDbSymbolTable
 70
0
  0
ENDTAB
  0
TABLE
  2
APPID
  5
9
100
AcDbSymbolTable
 70
1
  0
APPID
  5
214
100
AcDbSymbolTableRecord
100
AcDbRegAppTableRecord
  2
ACAD
 70
0
  0
ENDTAB
  0
TABLE
  2
BLOCK_RECORD
  5
1
100
AcDbSymbolTable
 70
0
  0
BLOCK_RECORD
  5
215
100
AcDbSymbolTableRecord
100
AcDbBlockTableRecord
  2
*Model_Space
  0
BLOCK_RECORD
  5
216
100
AcDbSymbolTableRecord
100
AcDbBlockTableRecord
  2
*Paper_Space
  0
BLOCK_RECORD
  5
217
100
AcDbSymbolTableRecord
100
AcDbBlockTableRecord
  2
_FILLED
  0
BLOCK_RECORD
  5
218
100
AcDbSymbolTableRecord
100
AcDbBlockTableRecord
  2
*D0
  0
BLOCK_RECORD
  5
219
100
AcDbSymbolTableRecord
100
AcDbBlockTableRecord
  2
*D1
  0
BLOCK_RECORD
  5
21A
100
AcDbSymbolTableRecord
100
AcDbBlockTableRecord
  2
*D2
  0
BLOCK_RECORD
  5
21B
100
AcDbSymbolTableRecord
100
AcDbBlockTableRecord
  2
*T1
  0
ENDTAB
  0
TABLE
  2
DIMSTYLE
  5
A
100
AcDbSymbolTable
 70
1
100
AcDbDimStyleTable
 71
0
  0
DIMSTYLE
105
21C
100
AcDbSymbolTableRecord
100
AcDbDimStyleTableRecord
  2
STANDARD
 70
0
  3

  4

 40
1.0
 41
4.76
 42
0.1
 43
0.38
 44
1.0
 45
0.0
 46
0.0
 47
0.001
 48
0.001
140
1.5
141
0.09
142
0.0
143
25.4
144
1.0
145
0.0
146
1.0
147
0.625
 71
1.0
 72
0.0
 73
0
 74
0
 75
0
 76
0
 77
1
 78
8
 79
2
170
0
171
2
172
0
173
0
174
0
175
0
176
0
177
0
178
5
270
2
179
3
271
3
272
3
273
2
274
2
275
0
280
0
281
0
282
0
283
1
284
8
285
0
286
0
287
3
288
0
340
11
278
46
341
217
342
217
343
217
344
217
  0
DIMSTYLE
105
21D
100
AcDbSymbolTableRecord
100
AcDbDimStyleTableRecord
  2
DIMSTYLE_1
 70
0
  3

  4

 40
1.0
 41
4.76
 42
0.1
 43
0.38
 44
1.0
 45
0.0
 46
0.0
 47
0.01
 48
0.01
140
1.5
141
0.09
142
0.0
143
25.4
144
1.0
145
0.0
146
1.0
147
0.375
 71
0.0
 72
0.0
 73
0
 74
0
 75
0
 76
0
 77
1
 78
8
 79
2
170
0
171
2
172
0
173
0
174
0
175
0
176
0
177
0
178
0
270
2
179
3
271
3
272
3
273
2
274
2
275
0
280
0
281
0
282
0
283
1
284
8
285
0
286
0
287
3
288
0
340
11
278
46
341
217
342
217
343
217
344
217
  0
DIMSTYLE
105
21E
100
AcDbSymbolTableRecord
100
AcDbDimStyleTableRecord
  2
DIMSTYLE_2
 70
0
  3

  4

 40
1.0
 41
4.76
 42
0.1
 43
0.38
 44
1.0
 45
0.0
 46
0.0
 47
0.01
 48
0.01
140
1.5
141
0.09
142
0.0
143
25.4
144
1.0
145
0.0
146
1.0
147
0.375
 71
0.0
 72
0.0
 73
0
 74
0
 75
0
 76
0
 77
1
 78
8
 79
2
170
0
171
2
172
0
173
0
174
0
175
0
176
0
177
0
178
5
270
2
179
3
271
3
272
3
273
2
274
2
275
0
280
0
281
0
282
0
283
1
284
8
285
0
286
0
287
3
288
0
340
11
278
46
341
217
342
217
343
217
344
217
  0
ENDTAB
  0
ENDSEC
  0
SECTION
  2
BLOCKS
  0
BLOCK
  5
20
100
AcDbEntity
  8
0
100
AcDbBlockBegin
  2
*Model_Space
 70
0
 10
0.0
 20
0.0
 30
0.0
  3
*Model_Space
  1

  0
ENDBLK
  5
21
100
AcDbEntity
  8
0
100
AcDbBlockEnd
  0
BLOCK
  5
1C
100
AcDbEntity
  8
0
100
AcDbBlockBegin
  2
*Paper_Space
 70
0
 10
0.0
 20
0.0
 30
0.0
  3
*Paper_Space
  1

  0
ENDBLK
  5
1D
100
AcDbEntity
  8
0
100
AcDbBlockEnd
  0
BLOCK
  5
21F
100
AcDbEntity
  8
0
100
AcDbBlockBegin
  2
_FILLED
 70
64
 10
0.0
 20
0.0
  3
_FILLED
  1

  0
SOLID
  5
220
100
AcDbEntity
  8
0
  6
BYBLOCK
 62
0
100
AcDbTrace
 10
0.0
 20
0.0
 11
-1.0
 21
0.1050420168
 12
-1.0
 22
-0.1050420168
 13
-1.0
 23
-0.1050420168
  0
ENDBLK
  5
221
100
AcDbEntity
  8
0
  6
BYBLOCK
 62
0
100
AcDbBlockEnd
  0
BLOCK
  5
222
100
AcDbEntity
  8
0
100
AcDbBlockBegin
 62
6
  6
CONTINUOUS
  2
*D0
 70
65
 10
0.0
 20
0.0
  3
*D0
  1

  0
MTEXT
  5
223
100
AcDbEntity
  8
0
100
AcDbMText
 62
6
  6
CONTINUOUS
  7
STANDARD
 71
2
 72
1
 10
65.682565796
 20
145.87450985
 30
0.0
 11
0.0
 21
1.0
 31
0.0
 73
2
 44
0.9
  1
79.5
 40
1.5
 41
13.8857142857
  0
LINE
  5
224
100
AcDbEntity
  8
0
100
AcDbLine
 62
6
  6
CONTINUOUS
 10
81.9029607838
 20
185.62450985
 11
66.8254229388
 21
185.62450985
  0
LINE
  5
225
100
AcDbEntity
  8
0
100
AcDbLine
 62
6
  6
CONTINUOUS
 10
81.7029607838
 20
106.12450985
 11
66.8254229388
 21
106.12450985
  0
LINE
  5
226
100
AcDbEntity
  8
0
100
AcDbLine
 62
6
  6
CONTINUOUS
 10
67.8254229388
 20
185.62450985
 11
67.8254229388
 21
145.87450985
  0
LINE
  5
227
100
AcDbEntity
  8
0
100
AcDbLine
 62
6
  6
CONTINUOUS
 10
67.8254229388
 20
106.12450985
 11
67.8254229388
 21
145.87450985
  0
INSERT
  5
228
100
AcDbEntity
  8
0
100
AcDbBlockReference
 62
6
  6
CONTINUOUS
  2
_FILLED
 10
67.8254229388
 20
185.62450985
 41
4.76
 42
4.76
 43
4.76
 50
90.0
  0
INSERT
  5
229
100
AcDbEntity
  8
0
100
AcDbBlockReference
 62
6
  6
CONTINUOUS
  2
_FILLED
 10
67.8254229388
 20
106.12450985
 41
4.76
 42
4.76
 43
4.76
 50
270.0
  0
ENDBLK
  5
22A
100
AcDbEntity
  8
0
  6
BYBLOCK
 62
0
100
AcDbBlockEnd
  0
BLOCK
  5
22B
100
AcDbEntity
  8
0
100
AcDbBlockBegin
 62
2
  6
CONTINUOUS
  2
*D1
 70
65
 10
0.0
 20
0.0
  3
*D1
  1

  0
MTEXT
  5
22C
100
AcDbEntity
  8
0
100
AcDbMText
 62
5
  6
CONTINUOUS
  7
TEXTSTYLE_2
 71
2
 72
1
 10
101.4609362475
 20
93.5735637565
 30
0.0
 11
1.0
 21
0.0
 31
0.0
 73
2
 44
0.9
  1
{\fgdt;n}\ftxt;{\W1.2;19}
 40
1.5
 41
9.9428571429
  0
LINE
  5
22D
100
AcDbEntity
  8
0
100
AcDbLine
 62
2
  6
CONTINUOUS
 10
111.0029607838
 20
106.07450985
 11
111.0029607838
 21
90.4307066137
  0
LINE
  5
22E
100
AcDbEntity
  8
0
100
AcDbLine
 62
2
  6
CONTINUOUS
 10
92.0029607838
 20
106.07450985
 11
92.0029607838
 21
90.4307066137
  0
LINE
  5
22F
100
AcDbEntity
  8
0
100
AcDbLine
 62
2
  6
CONTINUOUS
 10
111.0029607838
 20
91.4307066137
 11
101.5029607838
 21
91.4307066137
  0
LINE
  5
230
100
AcDbEntity
  8
0
100
AcDbLine
 62
2
  6
CONTINUOUS
 10
92.0029607838
 20
91.4307066137
 11
101.5029607838
 21
91.4307066137
  0
INSERT
  5
231
100
AcDbEntity
  8
0
100
AcDbBlockReference
 62
2
  6
CONTINUOUS
  2
_FILLED
 10
111.0029607838
 20
91.4307066137
 41
4.76
 42
4.76
 43
4.76
  0
INSERT
  5
232
100
AcDbEntity
  8
0
100
AcDbBlockReference
 62
2
  6
CONTINUOUS
  2
_FILLED
 10
92.0029607838
 20
91.4307066137
 41
4.76
 42
4.76
 43
4.76
 50
180.0
  0
ENDBLK
  5
233
100
AcDbEntity
  8
0
  6
BYBLOCK
 62
0
100
AcDbBlockEnd
  0
BLOCK
  5
234
100
AcDbEntity
  8
0
100
AcDbBlockBegin
 62
2
  6
CONTINUOUS
  2
*D2
 70
65
 10
0.0
 20
0.0
  3
*D2
  1

  0
MTEXT
  5
235
100
AcDbEntity
  8
0
100
AcDbMText
 62
5
  6
CONTINUOUS
  7
TEXTSTYLE_2
 71
2
 72
1
 10
100.7868116817
 20
84.4728821179
 30
0.0
 11
1.0
 21
0.0
 31
0.0
 73
2
 44
0.9
  1
{\fgdt;n}\ftxt;{\W1.2;41}
 40
1.5
 41
9.9428571429
  0
LINE
  5
236
100
AcDbEntity
  8
0
100
AcDbLine
 62
2
  6
CONTINUOUS
 10
122.0029607838
 20
100.9808046295
 11
122.0029607838
 21
81.3300249751
  0
LINE
  5
237
100
AcDbEntity
  8
0
100
AcDbLine
 62
2
  6
CONTINUOUS
 10
81.0029607838
 20
100.9808046295
 11
81.0029607838
 21
81.3300249751
  0
LINE
  5
238
100
AcDbEntity
  8
0
100
AcDbLine
 62
2
  6
CONTINUOUS
 10
122.0029607838
 20
82.3300249751
 11
101.5029607838
 21
82.3300249751
  0
LINE
  5
239
100
AcDbEntity
  8
0
100
AcDbLine
 62
2
  6
CONTINUOUS
 10
81.0029607838
 20
82.3300249751
 11
101.5029607838
 21
82.3300249751
  0
INSERT
  5
23A
100
AcDbEntity
  8
0
100
AcDbBlockReference
 62
2
  6
CONTINUOUS
  2
_FILLED
 10
122.0029607838
 20
82.3300249751
 41
4.76
 42
4.76
 43
4.76
  0
INSERT
  5
23B
100
AcDbEntity
  8
0
100
AcDbBlockReference
 62
2
  6
CONTINUOUS
  2
_FILLED
 10
81.0029607838
 20
82.3300249751
 41
4.76
 42
4.76
 43
4.76
 50
180.0
  0
ENDBLK
  5
23C
100
AcDbEntity
  8
0
  6
BYBLOCK
 62
0
100
AcDbBlockEnd
  0
BLOCK
  5
23D
100
AcDbEntity
  8
0
100
AcDbBlockBegin
  2
*T1
 70
1
 10
0.0
 20
0.0
  3
*T1
  1

  0
LINE
  5
23E
100
AcDbEntity
  8
0
100
AcDbLine
 62
2
  6
CONTINUOUS
 10
200.0
 20
0.0
 11
0.0
 21
0.0
  0
LINE
  5
23F
100
AcDbEntity
  8
0
100
AcDbLine
 62
2
  6
CONTINUOUS
 10
200.0
 20
0.0
 11
200.0
 21
33.6
  0
LINE
  5
240
100
AcDbEntity
  8
0
100
AcDbLine
 62
2
  6
CONTINUOUS
 10
163.0
 20
4.2
 11
0.0
 21
4.2
  0
LINE
  5
241
100
AcDbEntity
  8
0
100
AcDbLine
 62
2
  6
CONTINUOUS
 10
200.0
 20
8.4
 11
163.0
 21
8.4
  0
LINE
  5
242
100
AcDbEntity
  8
0
100
AcDbLine
 62
2
  6
CONTINUOUS
 10
30.0
 20
8.4
 11
0.0
 21
8.4
  0
LINE
  5
243
100
AcDbEntity
  8
0
100
AcDbLine
 62
2
  6
CONTINUOUS
 10
200.0
 20
12.6
 11
0.0
 21
12.6
  0
LINE
  5
244
100
AcDbEntity
  8
0
100
AcDbLine
 62
2
  6
CONTINUOUS
 10
30.0
 20
16.8
 11
0.0
 21
16.8
  0
LINE
  5
245
100
AcDbEntity
  8
0
100
AcDbLine
 62
2
  6
CONTINUOUS
 10
163.0
 20
21.0
 11
0.0
 21
21.0
  0
LINE
  5
246
100
AcDbEntity
  8
0
100
AcDbLine
 62
2
  6
CONTINUOUS
 10
30.0
 20
25.2
 11
0.0
 21
25.2
  0
LINE
  5
247
100
AcDbEntity
  8
0
100
AcDbLine
 62
2
  6
CONTINUOUS
 10
163.0
 20
29.4
 11
0.0
 21
29.4
  0
LINE
  5
248
100
AcDbEntity
  8
0
100
AcDbLine
 62
2
  6
CONTINUOUS
 10
200.0
 20
33.6
 11
0.0
 21
33.6
  0
LINE
  5
249
100
AcDbEntity
  8
0
100
AcDbLine
 62
2
  6
CONTINUOUS
 10
191.5
 20
0.0
 11
191.5
 21
12.6
  0
LINE
  5
24A
100
AcDbEntity
  8
0
100
AcDbLine
 62
2
  6
CONTINUOUS
 10
183.0
 20
12.6
 11
183.0
 21
33.6
  0
LINE
  5
24B
100
AcDbEntity
  8
0
100
AcDbLine
 62
2
  6
CONTINUOUS
 10
163.0
 20
0.0
 11
163.0
 21
33.6
  0
LINE
  5
24C
100
AcDbEntity
  8
0
100
AcDbLine
 62
2
  6
CONTINUOUS
 10
143.0
 20
4.2
 11
143.0
 21
29.4
  0
LINE
  5
24D
100
AcDbEntity
  8
0
100
AcDbLine
 62
2
  6
CONTINUOUS
 10
123.0
 20
4.2
 11
123.0
 21
33.6
  0
LINE
  5
24E
100
AcDbEntity
  8
0
100
AcDbLine
 62
2
  6
CONTINUOUS
 10
98.0
 20
4.2
 11
98.0
 21
12.6
  0
LINE
  5
24F
100
AcDbEntity
  8
0
100
AcDbLine
 62
2
  6
CONTINUOUS
 10
91.0
 20
4.2
 11
91.0
 21
12.6
  0
LINE
  5
250
100
AcDbEntity
  8
0
100
AcDbLine
 62
2
  6
CONTINUOUS
 10
51.0
 20
4.2
 11
51.0
 21
12.6
  0
LINE
  5
251
100
AcDbEntity
  8
0
100
AcDbLine
 62
2
  6
CONTINUOUS
 10
30.0
 20
0.0
 11
30.0
 21
33.6
  0
LINE
  5
252
100
AcDbEntity
  8
0
100
AcDbLine
 62
2
  6
CONTINUOUS
 10
25.0
 20
4.2
 11
25.0
 21
33.6
  0
LINE
  5
253
100
AcDbEntity
  8
0
100
AcDbLine
 62
2
  6
CONTINUOUS
 10
10.0
 20
4.2
 11
10.0
 21
33.6
  0
LINE
  5
254
100
AcDbEntity
  8
0
100
AcDbLine
 62
2
  6
CONTINUOUS
 10
0.0
 20
0.0
 11
0.0
 21
33.6
  0
MTEXT
  5
255
100
AcDbEntity
  8
0
100
AcDbMText
 62
5
  6
CONTINUOUS
  7
TEXTSTYLE_3
 71
2
 72
1
 10
177.25
 20
5.7461538462
 30
0.0
 11
1.0
 21
0.0
 31
0.0
 73
2
 44
0.9
  1
34400/H40A
 40
2.0
 41
54.0
  0
MTEXT
  5
256
100
AcDbEntity
  8
0
100
AcDbMText
 62
5
  6
CONTINUOUS
  7
TEXTSTYLE_3
 71
1
 72
1
 10
31.5
 20
2.1230769231
 30
0.0
 11
1.0
 21
0.0
 31
0.0
 73
2
 44
0.9
  1
La ditta tutela i propri disegni a norma di legge
 40
1.0
 41
94.3076923077
  0
MTEXT
  5
257
100
AcDbEntity
  8
0
100
AcDbMText
 62
5
  6
CONTINUOUS
  7
TEXTSTYLE_3
 71
1
 72
1
 10
1.5
 20
1.8346153846
 30
0.0
 11
1.0
 21
0.0
 31
0.0
 73
2
 44
0.9
  1
    MODIFICA
 40
1.5
 41
44.4230769231
  0
MTEXT
  5
258
100
AcDbEntity
  8
0
100
AcDbMText
 62
5
  6
CONTINUOUS
  7
TEXTSTYLE_3
 71
1
 72
1
 10
144.5
 20
10.4076923077
 30
0.0
 11
1.0
 21
0.0
 31
0.0
 73
2
 44
0.9
  1
Peso finito\P0.561
 40
1.2
 41
24.3692307692
  0
MTEXT
  5
259
100
AcDbEntity
  8
0
100
AcDbMText
 62
5
  6
CONTINUOUS
  7
TEXTSTYLE_3
 71
1
 72
1
 10
124.5
 20
10.4076923077
 30
0.0
 11
1.0
 21
0.0
 31
0.0
 73
2
 44
0.9
  1
Peso grezzo Kg.\P 
 40
1.2
 41
38.5846153846
  0
MTEXT
  5
25A
100
AcDbEntity
  8
0
100
AcDbMText
 62
5
  6
CONTINUOUS
  7
TEXTSTYLE_3
 71
1
 72
1
 10
99.5
 20
10.35
 30
0.0
 11
1.0
 21
0.0
 31
0.0
 73
2
 44
0.9
  1
Dimens.grezze\P 
 40
1.3
 41
34.6
  0
MTEXT
  5
25B
100
AcDbEntity
  8
0
100
AcDbMText
 62
5
  6
CONTINUOUS
  7
TEXTSTYLE_3
 71
1
 72
1
 10
52.5
 20
10.4653846154
 30
0.0
 11
1.0
 21
0.0
 31
0.0
 73
2
 44
0.9
  1
Tratt.termici\P 
 40
1.1
 41
25.7230769231
  0
MTEXT
  5
25C
100
AcDbEntity
  8
0
100
AcDbMText
 62
5
  6
CONTINUOUS
  7
TEXTSTYLE_3
 71
1
 72
1
 10
31.5
 20
10.4653846154
 30
0.0
 11
1.0
 21
0.0
 31
0.0
 73
2
 44
0.9
  1
Materiale\P 
 40
1.1
 41
17.9384615385
  0
MTEXT
  5
25D
100
AcDbEntity
  8
0
100
AcDbMText
 62
5
  6
CONTINUOUS
  7
TEXTSTYLE_3
 71
1
 72
1
 10
26.5
 20
6.3230769231
 30
0.0
 11
1.0
 21
0.0
 31
0.0
 73
2
 44
0.9
  1
Esp
 40
1.0
 41
6.6153846154
  0
MTEXT
  5
25E
100
AcDbEntity
  8
0
100
AcDbMText
 62
5
  6
CONTINUOUS
  7
TEXTSTYLE_3
 71
1
 72
1
 10
11.5
 20
6.3230769231
 30
0.0
 11
1.0
 21
0.0
 31
0.0
 73
2
 44
0.9
  1
DATA
 40
1.0
 41
10.7692307692
  0
MTEXT
  5
25F
100
AcDbEntity
  8
0
100
AcDbMText
 62
5
  6
CONTINUOUS
  7
TEXTSTYLE_3
 71
1
 72
1
 10
1.5
 20
6.3230769231
 30
0.0
 11
1.0
 21
0.0
 31
0.0
 73
2
 44
0.9
  1
N\fgdt;{\fgdt;~}
 40
1.0
 41
3.7948717949
  0
MTEXT
  5
260
100
AcDbEntity
  8
0
100
AcDbMText
 62
5
  6
CONTINUOUS
  7
TEXTSTYLE_4
 71
2
 72
1
 10
195.75
 20
10.3857142857
 30
0.0
 11
1.0
 21
0.0
 31
0.0
 73
2
 44
0.9
  1
esp.
 40
1.0
 41
10.2857142857
  0
MTEXT
  5
261
100
AcDbEntity
  8
0
100
AcDbMText
 62
5
  6
CONTINUOUS
  7
TEXTSTYLE_4
 71
2
 72
1
 10
177.25
 20
10.3857142857
 30
0.0
 11
1.0
 21
0.0
 31
0.0
 73
2
 44
0.9
  1
cod.disegno
 40
1.0
 41
28.2857142857
  0
MTEXT
  5
262
100
AcDbEntity
  8
0
100
AcDbMText
 62
5
  6
CONTINUOUS
  7
TEXTSTYLE_3
 71
1
 72
1
 10
144.5
 20
18.9230769231
 30
0.0
 11
1.0
 21
0.0
 31
0.0
 73
2
 44
0.9
  1
Scala\P\H1.5;1:1
 40
1.0
 41
9.8461538462
  0
MTEXT
  5
263
100
AcDbEntity
  8
0
100
AcDbMText
 62
5
  6
CONTINUOUS
  7
TEXTSTYLE_3
 71
1
 72
1
 10
124.5
 20
18.9230769231
 30
0.0
 11
1.0
 21
0.0
 31
0.0
 73
2
 44
0.9
  1
Visto
 40
1.0
 41
9.2307692308
  0
MTEXT
  5
264
100
AcDbEntity
  8
0
100
AcDbMText
 62
5
  6
CONTINUOUS
  7
TEXTSTYLE_3
 71
1
 72
1
 10
31.5
 20
18.9230769231
 30
0.0
 11
1.0
 21
0.0
 31
0.0
 73
2
 44
0.9
  1
Descrizione\P\H1.5;MANDRINO ATTACCO HSK40A DIN 69893
 40
1.0
 41
127.1538461538
  0
MTEXT
  5
265
100
AcDbEntity
  8
0
100
AcDbMText
 62
5
  6
CONTINUOUS
  7
TEXTSTYLE_3
 71
1
 72
1
 10
144.5
 20
27.3230769231
 30
0.0
 11
1.0
 21
0.0
 31
0.0
 73
2
 44
0.9
  1
Data\P\H1.5;15/01/02
 40
1.0
 41
26.0769230769
  0
MTEXT
  5
266
100
AcDbEntity
  8
0
100
AcDbMText
 62
5
  6
CONTINUOUS
  7
TEXTSTYLE_3
 71
1
 72
1
 10
124.5
 20
27.3230769231
 30
0.0
 11
1.0
 21
0.0
 31
0.0
 73
2
 44
0.9
  1
Firma\P\H1.5;calvo
 40
1.0
 41
14.3076923077
  0
MTEXT
  5
267
100
AcDbEntity
  8
0
100
AcDbMText
 62
5
  6
CONTINUOUS
  7
TEXTSTYLE_3
 71
1
 72
1
 10
31.5
 20
27.3230769231
 30
0.0
 11
1.0
 21
0.0
 31
0.0
 73
2
 44
0.9
  1
Macchina o codice prenotante\P\H1.8;Cod.CAD 34400-H40A
 40
1.0
 41
82.3846153846
  0
MTEXT
  5
268
100
AcDbEntity
  8
0
100
AcDbMText
 62
5
  6
CONTINUOUS
  7
TEXTSTYLE_3
 71
1
 72
1
 10
124.5
 20
31.5230769231
 30
0.0
 11
1.0
 21
0.0
 31
0.0
 73
2
 44
0.9
  1
Rugosita' \fgdt;{\fgdt;a}\ftxt;0.8=rettifica
 40
1.0
 41
46.5961538462
  0
MTEXT
  5
269
100
AcDbEntity
  8
0
100
AcDbMText
 62
5
  6
CONTINUOUS
  7
TEXTSTYLE_3
 71
1
 72
1
 10
31.5
 20
31.5230769231
 30
0.0
 11
1.0
 21
0.0
 31
0.0
 73
2
 44
0.9
  1
Toleranze generali per quote senza valori:\fgdt;{\fgdt;n}\ftxt;=H11-h11 - lineari\fgdt;{\fgdt;`}\ftxt;0.2
 40
1.0
 41
123.8461538462
  0
ENDBLK
  5
26A
100
AcDbEntity
  8
0
  6
BYBLOCK
 62
0
100
AcDbBlockEnd
  0
ENDSEC
  0
SECTION
  2
ENTITIES
  0
DIMENSION
  5
26B
100
AcDbEntity
  8
0
100
AcDbDimension
 62
6
  6
CONTINUOUS
  2
*D0
 10
67.8254229388
 20
106.12450985
 11
67.8254229388
 21
145.4887998715
 70
160
 71
2
 72
2
 41
0.9
 42
79.5
  3
DIMSTYLE_1
100
AcDbAlignedDimension
 13
82.0029607838
 23
185.62450985
 14
81.8029607838
 24
106.12450985
 50
270.0
100
AcDbRotatedDimension
  0
DIMENSION
  5
26C
100
AcDbEntity
  8
0
100
AcDbDimension
 62
2
  6
CONTINUOUS
  2
*D1
 10
92.0029607838
 20
91.4307066137
 11
101.4609362475
 21
91.4307066137
 70
160
 71
2
 72
2
 41
0.9
 42
19.0
  1
%%c<>
  3
DIMSTYLE_2
100
AcDbAlignedDimension
 13
111.0029607838
 23
106.17450985
 14
92.0029607838
 24
106.17450985
 50
180.0
100
AcDbRotatedDimension
  0
DIMENSION
  5
26D
100
AcDbEntity
  8
0
100
AcDbDimension
 62
2
  6
CONTINUOUS
  2
*D2
 10
81.0029607838
 20
82.3300249751
 11
100.7868116817
 21
82.3300249751
 70
160
 71
2
 72
2
 41
0.9
 42
41.0
  1
%%c<>
  3
DIMSTYLE_2
100
AcDbAlignedDimension
 13
122.0029607838
 23
101.0808046295
 14
81.0029607838
 24
101.0808046295
 50
180.0
100
AcDbRotatedDimension
  0
ACAD_TABLE
  5
26E
100
AcDbEntity
  8
0
 62
2
  6
CONTINUOUS
100
AcDbBlockReference
  2
*T1
 10
6.0000164405
 20
8.0000528128
 30
0.0
100
AcDbTable
342
       528
343
21B
 11
1.0
 21
0.0
 31
0.0
 90
6
 91
8
 92
14
 93
4
 94
0
 95
0
 96
0
 70
1
141
4.2
141
4.2
141
4.2
141
4.2
141
4.2
141
4.2
141
4.2
141
4.2
142
10.0
142
15.0
142
5.0
142
21.0
142
40.0
142
7.0
142
25.0
142
10.0
142
10.0
142
20.0
142
11.0
142
9.0
142
8.5
142
8.5
171
1
172
0
173
0
174
0
175
3
176
1
 91
49
178
0
145
0.0
  7
TEXTSTYLE_3
301
CELL_VALUE
 90
4
  1
    MODIFICA
304
ACVALUE_END
170
1
140
1.5
171
1
172
0
173
1
174
0
175
1
176
1
 91
1
178
0
145
0.0
170
1
171
1
172
0
173
1
174
0
175
1
176
1
 91
1
178
0
145
0.0
170
1
171
1
172
0
173
0
174
0
175
7
176
1
 91
49
178
0
145
0.0
  7
TEXTSTYLE_3
301
CELL_VALUE
 90
4
  1
La ditta tutela i propri disegni a norma di legge
304
ACVALUE_END
170
1
140
1.0
171
1
172
0
173
1
174
0
175
1
176
1
 91
1
178
0
145
0.0
170
1
171
1
172
0
173
1
174
0
175
1
176
1
 91
1
178
0
145
0.0
170
1
171
1
172
0
173
1
174
0
175
1
176
1
 91
1
178
0
145
0.0
170
1
171
1
172
0
173
1
174
0
175
1
176
1
 91
1
178
0
145
0.0
170
1
171
1
172
0
173
1
174
0
175
1
176
1
 91
1
178
0
145
0.0
170
1
171
1
172
0
173
1
174
0
175
1
176
1
 91
1
178
0
145
0.0
170
1
171
1
172
0
173
0
174
0
175
3
176
2
 91
49
178
0
145
0.0
  7
TEXTSTYLE_3
301
CELL_VALUE
 90
4
  1
34400/H40A
304
ACVALUE_END
170
2
140
2.0
171
1
172
0
173
1
174
0
175
1
176
1
 91
1
178
0
145
0.0
170
1
171
1
172
0
173
1
174
0
175
1
176
1
 91
1
178
0
145
0.0
170
2
171
1
172
0
173
0
174
0
175
1
176
2
 91
33
178
0
145
0.0
301
CELL_VALUE
 90
4
  1
 
304
ACVALUE_END
170
1
140
3.0
171
1
172
0
173
0
174
0
175
1
176
1
 91
57
178
0
145
0.0
  7
TEXTSTYLE_3
301
CELL_VALUE
 90
4
  1
N\fgdt;{\fgdt;~}
304
ACVALUE_END
170
1
140
1.0
 64
5
171
1
172
0
173
0
174
0
175
1
176
1
 91
57
178
0
145
0.0
  7
TEXTSTYLE_3
301
CELL_VALUE
 90
4
  1
DATA
304
ACVALUE_END
170
1
140
1.0
 64
5
171
1
172
0
173
0
174
0
175
1
176
1
 91
57
178
0
145
0.0
  7
TEXTSTYLE_3
301
CELL_VALUE
 90
4
  1
Esp
304
ACVALUE_END
170
1
140
1.0
 64
5
171
1
172
0
173
0
174
0
175
1
176
2
 91
57
178
0
145
0.0
  7
TEXTSTYLE_3
301
CELL_VALUE
 90
4
  1
Materiale\P 
304
ACVALUE_END
170
1
140
1.1
 64
5
171
1
172
0
173
0
174
0
175
1
176
2
 91
57
178
0
145
0.0
  7
TEXTSTYLE_3
301
CELL_VALUE
 90
4
  1
Tratt.termici\P 
304
ACVALUE_END
170
1
140
1.1
 64
5
171
1
172
0
173
0
174
0
175
1
176
2
 91
41
178
0
145
0.0
301
CELL_VALUE
 90
4
  1
 
304
ACVALUE_END
170
1
140
3.0
 64
5
171
1
172
0
173
0
174
0
175
1
176
2
 91
57
178
0
145
0.0
  7
TEXTSTYLE_3
301
CELL_VALUE
 90
4
  1
Dimens.grezze\P 
304
ACVALUE_END
170
1
140
1.3
 64
5
171
1
172
0
173
0
174
0
175
2
176
2
 91
49
178
0
145
0.0
  7
TEXTSTYLE_3
301
CELL_VALUE
 90
4
  1
Peso grezzo Kg.\P 
304
ACVALUE_END
170
1
140
1.2
171
1
172
0
173
1
174
0
175
1
176
1
 91
1
178
0
145
0.0
170
1
171
1
172
0
173
0
174
0
175
1
176
2
 91
57
178
0
145
0.0
  7
TEXTSTYLE_3
301
CELL_VALUE
 90
4
  1
Peso finito\P0.561
304
ACVALUE_END
170
1
140
1.2
 64
5
171
1
172
0
173
1
174
0
175
1
176
1
 91
1
178
0
145
0.0
170
1
171
1
172
0
173
1
174
0
175
1
176
1
 91
1
178
0
145
0.0
170
1
171
1
172
0
173
1
174
0
175
1
176
1
 91
1
178
0
145
0.0
170
1
171
1
172
0
173
1
174
0
175
1
176
1
 91
1
178
0
145
0.0
170
1
171
1
172
0
173
0
174
0
175
1
176
1
 91
41
178
0
145
0.0
301
CELL_VALUE
 90
4
  1
 
304
ACVALUE_END
170
1
140
3.0
 64
5
171
1
172
0
173
0
174
0
175
1
176
1
 91
41
178
0
145
0.0
301
CELL_VALUE
 90
4
  1
 
304
ACVALUE_END
170
1
140
3.0
 64
5
171
1
172
0
173
0
174
0
175
1
176
1
 91
41
178
0
145
0.0
301
CELL_VALUE
 90
4
  1
 
304
ACVALUE_END
170
1
140
3.0
 64
5
171
1
172
0
173
1
174
0
175
1
176
1
 91
1
178
0
145
0.0
170
1
171
1
172
0
173
1
174
0
175
1
176
1
 91
1
178
0
145
0.0
170
1
171
1
172
0
173
1
174
0
175
1
176
1
 91
1
178
0
145
0.0
170
1
171
1
172
0
173
1
174
0
175
1
176
1
 91
1
178
0
145
0.0
170
1
171
1
172
0
173
1
174
0
175
1
176
1
 91
1
178
0
145
0.0
170
1
171
1
172
0
173
1
174
0
175
1
176
1
 91
1
178
0
145
0.0
170
1
171
1
172
0
173
1
174
0
175
1
176
1
 91
1
178
0
145
0.0
170
1
171
1
172
0
173
0
174
0
175
3
176
1
 91
49
178
0
145
0.0
  7
TEXTSTYLE_4
301
CELL_VALUE
 90
4
  1
cod.disegno
304
ACVALUE_END
170
2
140
1.0
171
1
172
0
173
1
174
0
175
1
176
1
 91
1
178
0
145
0.0
170
1
171
1
172
0
173
1
174
0
175
1
176
1
 91
1
178
0
145
0.0
170
2
171
1
172
0
173
0
174
0
175
1
176
1
 91
57
178
0
145
0.0
  7
TEXTSTYLE_4
301
CELL_VALUE
 90
4
  1
esp.
304
ACVALUE_END
170
2
140
1.0
 64
5
171
1
172
0
173
0
174
0
175
1
176
1
 91
41
178
0
145
0.0
301
CELL_VALUE
 90
4
  1
 
304
ACVALUE_END
170
1
140
3.0
 64
5
171
1
172
0
173
0
174
0
175
1
176
1
 91
41
178
0
145
0.0
301
CELL_VALUE
 90
4
  1
 
304
ACVALUE_END
170
1
140
3.0
 64
5
171
1
172
0
173
0
174
0
175
1
176
1
 91
41
178
0
145
0.0
301
CELL_VALUE
 90
4
  1
 
304
ACVALUE_END
170
1
140
3.0
 64
5
171
1
172
0
173
0
174
0
175
4
176
2
 91
49
178
0
145
0.0
  7
TEXTSTYLE_3
301
CELL_VALUE
 90
4
  1
Descrizione\P\H1.5;MANDRINO ATTACCO HSK40A DIN 69893
304
ACVALUE_END
170
1
140
1.0
171
1
172
0
173
1
174
0
175
1
176
1
 91
1
178
0
145
0.0
170
1
171
1
172
0
173
1
174
0
175
1
176
1
 91
1
178
0
145
0.0
170
1
171
1
172
0
173
1
174
0
175
1
176
1
 91
1
178
0
145
0.0
170
1
171
1
172
0
173
0
174
0
175
2
176
2
 91
49
178
0
145
0.0
  7
TEXTSTYLE_3
301
CELL_VALUE
 90
4
  1
Visto
304
ACVALUE_END
170
1
140
1.0
171
1
172
0
173
1
174
0
175
1
176
1
 91
1
178
0
145
0.0
170
1
171
1
172
0
173
0
174
0
175
1
176
2
 91
57
178
0
145
0.0
  7
TEXTSTYLE_3
301
CELL_VALUE
 90
4
  1
Scala\P\H1.5;1:1
304
ACVALUE_END
170
1
140
1.0
 64
5
171
1
172
0
173
0
174
0
175
2
176
5
 91
33
178
0
145
0.0
301
CELL_VALUE
 90
4
  1
 
304
ACVALUE_END
170
1
140
3.0
171
1
172
0
173
1
174
0
175
1
176
1
 91
1
178
0
145
0.0
170
1
171
1
172
0
173
0
174
0
175
2
176
5
 91
33
178
0
145
0.0
301
CELL_VALUE
 90
4
  1
 
304
ACVALUE_END
170
1
140
3.0
171
1
172
0
173
1
174
0
175
1
176
1
 91
1
178
0
145
0.0
170
1
171
1
172
0
173
0
174
0
175
1
176
1
 91
41
178
0
145
0.0
301
CELL_VALUE
 90
4
  1
 
304
ACVALUE_END
170
1
140
3.0
 64
5
171
1
172
0
173
0
174
0
175
1
176
1
 91
41
178
0
145
0.0
301
CELL_VALUE
 90
4
  1
 
304
ACVALUE_END
170
1
140
3.0
 64
5
171
1
172
0
173
0
174
0
175
1
176
1
 91
41
178
0
145
0.0
301
CELL_VALUE
 90
4
  1
 
304
ACVALUE_END
170
1
140
3.0
 64
5
171
1
172
0
173
1
174
0
175
1
176
1
 91
1
178
0
145
0.0
170
1
171
1
172
0
173
1
174
0
175
1
176
1
 91
1
178
0
145
0.0
170
1
171
1
172
0
173
1
174
0
175
1
176
1
 91
1
178
0
145
0.0
170
1
171
1
172
0
173
1
174
0
175
1
176
1
 91
1
178
0
145
0.0
170
1
171
1
172
0
173
1
174
0
175
1
176
1
 91
1
178
0
145
0.0
170
1
171
1
172
0
173
1
174
0
175
1
176
1
 91
1
178
0
145
0.0
170
1
171
1
172
0
173
1
174
0
175
1
176
1
 91
1
178
0
145
0.0
170
1
171
1
172
0
173
1
174
0
175
1
176
1
 91
1
178
0
145
0.0
170
1
171
1
172
0
173
1
174
0
175
1
176
1
 91
1
178
0
145
0.0
170
1
171
1
172
0
173
1
174
0
175
1
176
1
 91
1
178
0
145
0.0
170
1
171
1
172
0
173
1
174
0
175
1
176
1
 91
1
178
0
145
0.0
170
1
171
1
172
0
173
0
174
0
175
1
176
1
 91
41
178
0
145
0.0
301
CELL_VALUE
 90
4
  1
 
304
ACVALUE_END
170
1
140
3.0
 64
5
171
1
172
0
173
0
174
0
175
1
176
1
 91
41
178
0
145
0.0
301
CELL_VALUE
 90
4
  1
 
304
ACVALUE_END
170
1
140
3.0
 64
5
171
1
172
0
173
0
174
0
175
1
176
1
 91
41
178
0
145
0.0
301
CELL_VALUE
 90
4
  1
 
304
ACVALUE_END
170
1
140
3.0
 64
5
171
1
172
0
173
0
174
0
175
4
176
2
 91
49
178
0
145
0.0
  7
TEXTSTYLE_3
301
CELL_VALUE
 90
4
  1
Macchina o codice prenotante\P\H1.8;Cod.CAD 34400-H40A
304
ACVALUE_END
170
1
140
1.0
171
1
172
0
173
1
174
0
175
1
176
1
 91
1
178
0
145
0.0
170
1
171
1
172
0
173
1
174
0
175
1
176
1
 91
1
178
0
145
0.0
170
1
171
1
172
0
173
1
174
0
175
1
176
1
 91
1
178
0
145
0.0
170
1
171
1
172
0
173
0
174
0
175
2
176
2
 91
49
178
0
145
0.0
  7
TEXTSTYLE_3
301
CELL_VALUE
 90
4
  1
Firma\P\H1.5;calvo
304
ACVALUE_END
170
1
140
1.0
171
1
172
0
173
1
174
0
175
1
176
1
 91
1
178
0
145
0.0
170
1
171
1
172
0
173
0
174
0
175
1
176
2
 91
57
178
0
145
0.0
  7
TEXTSTYLE_3
301
CELL_VALUE
 90
4
  1
Data\P\H1.5;15/01/02
304
ACVALUE_END
170
1
140
1.0
 64
5
171
1
172
0
173
1
174
0
175
1
176
1
 91
1
178
0
145
0.0
170
1
171
1
172
0
173
1
174
0
175
1
176
1
 91
1
178
0
145
0.0
170
1
171
1
172
0
173
1
174
0
175
1
176
1
 91
1
178
0
145
0.0
170
1
171
1
172
0
173
1
174
0
175
1
176
1
 91
1
178
0
145
0.0
170
1
171
1
172
0
173
0
174
0
175
1
176
1
 91
41
178
0
145
0.0
301
CELL_VALUE
 90
4
  1
 
304
ACVALUE_END
170
1
140
3.0
 64
5
171
1
172
0
173
0
174
0
175
1
176
1
 91
41
178
0
145
0.0
301
CELL_VALUE
 90
4
  1
 
304
ACVALUE_END
170
1
140
3.0
 64
5
171
1
172
0
173
0
174
0
175
1
176
1
 91
41
178
0
145
0.0
301
CELL_VALUE
 90
4
  1
 
304
ACVALUE_END
170
1
140
3.0
 64
5
171
1
172
0
173
1
174
0
175
1
176
1
 91
1
178
0
145
0.0
170
1
171
1
172
0
173
1
174
0
175
1
176
1
 91
1
178
0
145
0.0
170
1
171
1
172
0
173
1
174
0
175
1
176
1
 91
1
178
0
145
0.0
170
1
171
1
172
0
173
1
174
0
175
1
176
1
 91
1
178
0
145
0.0
170
1
171
1
172
0
173
1
174
0
175
1
176
1
 91
1
178
0
145
0.0
170
1
171
1
172
0
173
1
174
0
175
1
176
1
 91
1
178
0
145
0.0
170
1
171
1
172
0
173
1
174
0
175
1
176
1
 91
1
178
0
145
0.0
170
1
171
1
172
0
173
1
174
0
175
1
176
1
 91
1
178
0
145
0.0
170
1
171
1
172
0
173
1
174
0
175
1
176
1
 91
1
178
0
145
0.0
170
1
171
1
172
0
173
1
174
0
175
1
176
1
 91
1
178
0
145
0.0
170
1
171
1
172
0
173
1
174
0
175
1
176
1
 91
1
178
0
145
0.0
170
1
171
1
172
0
173
0
174
0
175
1
176
1
 91
41
178
0
145
0.0
301
CELL_VALUE
 90
4
  1
 
304
ACVALUE_END
170
1
140
3.0
 64
5
171
1
172
0
173
0
174
0
175
1
176
1
 91
41
178
0
145
0.0
301
CELL_VALUE
 90
4
  1
 
304
ACVALUE_END
170
1
140
3.0
 64
5
171
1
172
0
173
0
174
0
175
1
176
1
 91
41
178
0
145
0.0
301
CELL_VALUE
 90
4
  1
 
304
ACVALUE_END
170
1
140
3.0
 64
5
171
1
172
0
173
0
174
0
175
4
176
1
 91
49
178
0
145
0.0
  7
TEXTSTYLE_3
301
CELL_VALUE
 90
4
  1
Toleranze generali per quote senza valori:\fgdt;{\fgdt;n}\ftxt;=H11-h11 - lineari\fgdt;{\fgdt;`}\ftxt;0.2
304
ACVALUE_END
170
1
140
1.0
171
1
172
0
173
1
174
0
175
1
176
1
 91
1
178
0
145
0.0
170
1
171
1
172
0
173
1
174
0
175
1
176
1
 91
1
178
0
145
0.0
170
1
171
1
172
0
173
1
174
0
175
1
176
1
 91
1
178
0
145
0.0
170
1
171
1
172
0
173
0
174
0
175
3
176
1
 91
49
178
0
145
0.0
  7
TEXTSTYLE_3
301
CELL_VALUE
 90
4
  1
Rugosita' \fgdt;{\fgdt;a}\ftxt;0.8=rettifica
304
ACVALUE_END
170
1
140
1.0
171
1
172
0
173
1
174
0
175
1
176
1
 91
1
178
0
145
0.0
170
1
171
1
172
0
173
1
174
0
175
1
176
1
 91
1
178
0
145
0.0
170
1
171
1
172
0
173
1
174
0
175
1
176
1
 91
1
178
0
145
0.0
170
1
171
1
172
0
173
1
174
0
175
1
176
1
 91
1
178
0
145
0.0
170
1
171
1
172
0
173
1
174
0
175
1
176
1
 91
1
178
0
145
0.0
170
1
171
1
172
0
173
1
174
0
175
1
176
1
 91
1
178
0
145
0.0
170
1
  0
MTEXT
  5
26F
100
AcDbEntity
  8
0
100
AcDbMText
 62
5
  6
CONTINUOUS
  7
STANDARD
 71
1
 72
1
 10
101.5186183948
 20
226.9556638542
 30
0.0
 11
1.0
 21
0.0
 31
0.0
 73
2
 44
0.9
  1
SCALA 1:2
 40
1.5
 41
31.2428571429
  0
LINE
  5
270
100
AcDbEntity
  8
0
100
AcDbLine
 62
7
  6
CONTINUOUS
 10
0.0
 20
0.0
 11
210.0
 21
0.0
  0
LINE
  5
271
100
AcDbEntity
  8
0
100
AcDbLine
 62
7
  6
CONTINUOUS
 10
0.0
 20
0.0
 11
0.0
 21
297.0
  0
LINE
  5
272
100
AcDbEntity
  8
0
100
AcDbLine
 62
7
  6
CONTINUOUS
 10
210.0
 20
0.0
 11
210.0
 21
297.0
  0
LINE
  5
273
100
AcDbEntity
  8
0
100
AcDbLine
 62
7
  6
CONTINUOUS
 10
0.0
 20
297.0
 11
210.0
 21
297.0
  0
LINE
  5
274
100
AcDbEntity
  8
0_COMPONENTS
100
AcDbLine
 62
7
  6
CONTINUOUS
 10
120.7958540013
 20
102.97450985
 11
82.2102354904
 21
102.97450985
  0
LINE
  5
275
100
AcDbEntity
  8
0_COMPONENTS
100
AcDbLine
 62
7
  6
CONTINUOUS
 10
81.8565141748
 20
103.120956459
 11
121.1494073928
 21
103.120956459
  0
LINE
  5
276
100
AcDbEntity
  8
0_COMPONENTS
100
AcDbLine
 62
7
  6
CONTINUOUS
 10
79.649407396
 20
105.3280632378
 11
123.3565141716
 21
105.3280632378
  0
LINE
  5
277
100
AcDbEntity
  8
0_COMPONENTS
100
AcDbLine
 62
7
  6
CONTINUOUS
 10
79.5029607839
 20
105.681616631
 11
123.5029607838
 21
105.681616631
  0
LINE
  5
278
100
AcDbEntity
  8
0_COMPONENTS
100
AcDbLine
 62
8
  6
HIDDEN
 10
121.2029228878
 20
106.17450985
 11
81.8029607838
 21
106.17450985
  0
LINE
  5
279
100
AcDbEntity
  8
0_COMPONENTS
100
AcDbLine
 62
7
  6
CONTINUOUS
 10
79.6494073954
 20
105.3280632384
 11
81.8565141751
 21
103.1209564587
  0
LINE
  5
27A
100
AcDbEntity
  8
0_COMPONENTS
100
AcDbLine
 62
7
  6
CONTINUOUS
 10
79.5029607838
 20
110.47450985
 11
123.5029607838
 21
110.47450985
  0
LINE
  5
27B
100
AcDbEntity
  8
0_COMPONENTS
100
AcDbLine
 62
7
  6
CONTINUOUS
 10
80.0029607838
 20
110.97450985
 11
123.0029607838
 21
110.97450985
  0
LINE
  5
27C
100
AcDbEntity
  8
0_COMPONENTS
100
AcDbLine
 62
7
  6
CONTINUOUS
 10
122.0029607838
 20
111.3084844462
 11
81.0029607838
 21
111.3084844462
  0
LINE
  5
27D
100
AcDbEntity
  8
0_COMPONENTS
100
AcDbLine
 62
7
  6
CONTINUOUS
 10
80.7529607838
 20
114.42450985
 11
81.0029607838
 21
114.17450985
  0
LINE
  5
27E
100
AcDbEntity
  8
0_COMPONENTS
100
AcDbLine
 62
7
  6
CONTINUOUS
 10
81.0029607838
 20
114.17450985
 11
122.0029607838
 21
114.17450985
  0
LINE
  5
27F
100
AcDbEntity
  8
0_COMPONENTS
100
AcDbLine
 62
7
  6
CONTINUOUS
 10
80.7529607838
 20
114.42450985
 11
122.2529607838
 21
114.42450985
  0
LINE
  5
280
100
AcDbEntity
  8
0_COMPONENTS
100
AcDbLine
 62
7
  6
CONTINUOUS
 10
81.1957811068
 20
110.97450985
 11
81.0029607838
 21
111.3084844462
  0
LINE
  5
281
100
AcDbEntity
  8
0
100
AcDbLine
 62
7
  6
CONTINUOUS
 10
82.0029607838
 20
185.67450985
 11
81.5029607838
 21
185.17450985
  0
LINE
  5
282
100
AcDbEntity
  8
0
100
AcDbLine
 62
7
  6
CONTINUOUS
 10
106.3279607838
 20
205.57450985
 11
105.5279607838
 21
204.77450985
  0
LINE
  5
283
100
AcDbEntity
  8
0_COMPONENTS
100
AcDbLine
 62
7
  6
CONTINUOUS
 10
80.7529607838
 20
123.92450985
 11
122.2529607838
 21
123.92450985
  0
LINE
  5
284
100
AcDbEntity
  8
0_COMPONENTS
100
AcDbLine
 62
7
  6
CONTINUOUS
 10
81.0029607838
 20
124.17450985
 11
122.0029607838
 21
124.17450985
  0
LINE
  5
285
100
AcDbEntity
  8
0
100
AcDbLine
 62
7
  6
CONTINUOUS
 10
95.0821649573
 20
205.5639793128
 11
94.7699556198
 21
204.9038851458
  0
LINE
  5
286
100
AcDbEntity
  8
0_COMPONENTS
100
AcDbLine
 62
7
  6
CONTINUOUS
 10
79.5029607838
 20
110.47450985
 11
79.5029607838
 21
105.681616631
  0
LINE
  5
287
100
AcDbEntity
  8
0_COMPONENTS
100
AcDbLine
 62
7
  6
CONTINUOUS
 10
81.0029607838
 20
131.17450985
 11
122.0029607838
 21
131.17450985
  0
LINE
  5
288
100
AcDbEntity
  8
0_COMPONENTS
100
AcDbLine
 62
7
  6
CONTINUOUS
 10
80.7529607838
 20
132.42450985
 11
122.2529607838
 21
132.42450985
  0
LINE
  5
289
100
AcDbEntity
  8
0_COMPONENTS
100
AcDbLine
 62
7
  6
CONTINUOUS
 10
80.7529607838
 20
132.42450985
 11
81.0029607838
 21
131.17450985
  0
LINE
  5
28A
100
AcDbEntity
  8
0_COMPONENTS
100
AcDbLine
 62
7
  6
CONTINUOUS
 10
80.7529607838
 20
138.87450985
 11
80.7529607838
 21
137.9244139521
  0
LINE
  5
28B
100
AcDbEntity
  8
0_COMPONENTS
100
AcDbLine
 62
7
  6
CONTINUOUS
 10
80.7529607838
 20
136.4246424577
 11
80.7529607838
 21
132.42450985
  0
LINE
  5
28C
100
AcDbEntity
  8
0_COMPONENTS
100
AcDbLine
 62
7
  6
CONTINUOUS
 10
80.7529607838
 20
123.92450985
 11
80.7529607838
 21
114.42450985
  0
LINE
  5
28D
100
AcDbEntity
  8
0_COMPONENTS
100
AcDbLine
 62
7
  6
CONTINUOUS
 10
81.0029607838
 20
131.17450985
 11
81.0029607838
 21
124.17450985
  0
LINE
  5
28E
100
AcDbEntity
  8
0_COMPONENTS
100
AcDbLine
 62
7
  6
CONTINUOUS
 10
81.0029607838
 20
114.17450985
 11
81.0029607838
 21
111.3084844462
  0
LINE
  5
28F
100
AcDbEntity
  8
0
100
AcDbLine
 62
7
  6
CONTINUOUS
 10
81.5029607838
 20
185.17450985
 11
81.5029607838
 21
171.6952357921
  0
LINE
  5
290
100
AcDbEntity
  8
0
100
AcDbLine
 62
7
  6
CONTINUOUS
 10
81.5029607838
 20
167.6537839078
 11
81.5029607838
 21
166.22450985
  0
LINE
  5
291
100
AcDbEntity
  8
0_COMPONENTS
100
AcDbLine
 62
7
  6
CONTINUOUS
 10
82.4529607838
 20
139.67450985
 11
82.4529607838
 21
139.17450985
  0
LINE
  5
292
100
AcDbEntity
  8
0
100
AcDbLine
 62
7
  6
CONTINUOUS
 10
81.5029607838
 20
167.6537839078
 11
83.2709099762
 21
168.67450985
  0
LINE
  5
293
100
AcDbEntity
  8
GIANNI_ASSI
100
AcDbLine
 62
7
  6
CONTINUOUS
 10
84.0029607838
 20
150.0971595808
 11
84.0029607838
 21
143.82450985
  0
LINE
  5
294
100
AcDbEntity
  8
0
100
AcDbLine
 62
7
  6
CONTINUOUS
 10
84.1029607838
 20
168.67450985
 11
84.1029607838
 21
170.67450985
  0
LINE
  5
295
100
AcDbEntity
  8
0
100
AcDbLine
 62
7
  6
CONTINUOUS
 10
85.0029607838
 20
165.72450985
 11
85.0029607838
 21
150.67450985
  0
LINE
  5
296
100
AcDbEntity
  8
0
100
AcDbLine
 62
7
  6
CONTINUOUS
 10
85.5029607838
 20
167.6537839078
 11
85.5029607838
 21
166.22450985
  0
LINE
  5
297
100
AcDbEntity
  8
0
100
AcDbLine
 62
7
  6
CONTINUOUS
 10
85.5029607838
 20
171.6952357921
 11
85.5029607838
 21
177.0665961809
  0
LINE
  5
298
100
AcDbEntity
  8
0
100
AcDbLine
 62
7
  6
CONTINUOUS
 10
86.6529607838
 20
186.7276492753
 11
86.6529607838
 21
185.92450985
  0
LINE
  5
299
100
AcDbEntity
  8
0
100
AcDbLine
 62
7
  6
CONTINUOUS
 10
87.258056171
 20
204.8145438386
 11
86.3992502575
 21
187.67450985
  0
LINE
  5
29A
100
AcDbEntity
  8
0_COMPONENTS
100
AcDbLine
 62
7
  6
CONTINUOUS
 10
80.7529607838
 20
138.87450985
 11
122.2529607838
 21
138.87450985
  0
LINE
  5
29B
100
AcDbEntity
  8
0_COMPONENTS
100
AcDbLine
 62
7
  6
CONTINUOUS
 10
121.9529607656
 20
139.17450985
 11
81.0531386531
 21
139.17450985
  0
LINE
  5
29C
100
AcDbEntity
  8
0_COMPONENTS
100
AcDbLine
 62
7
  6
CONTINUOUS
 10
82.4529607838
 20
139.67450985
 11
120.5529607838
 21
139.67450985
  0
LINE
  5
29D
100
AcDbEntity
  8
0_COMPONENTS
100
AcDbLine
 62
7
  6
CONTINUOUS
 10
123.0029607838
 20
110.97450985
 11
123.5029607838
 21
110.47450985
  0
LINE
  5
29E
100
AcDbEntity
  8
0
100
AcDbLine
 62
7
  6
CONTINUOUS
 10
88.9029607838
 20
168.67450985
 11
88.9029607838
 21
170.67450985
  0
LINE
  5
29F
100
AcDbEntity
  8
0
100
AcDbLine
 62
7
  6
CONTINUOUS
 10
89.0029607838
 20
165.72450985
 11
89.0029607838
 21
170.7223074107
  0
LINE
  5
2A0
100
AcDbEntity
  8
0
100
AcDbLine
 62
7
  6
CONTINUOUS
 10
89.5029607838
 20
166.02450985
 11
89.5029607838
 21
170.7223074107
  0
LINE
  5
2A1
100
AcDbEntity
  8
0
100
AcDbLine
 62
7
  6
CONTINUOUS
 10
96.8029607838
 20
165.72450985
 11
97.0029607838
 21
165.92450985
  0
LINE
  5
2A2
100
AcDbEntity
  8
0_COMPONENTS
100
AcDbLine
 62
7
  6
CONTINUOUS
 10
82.7417887729
 20
140.17450985
 11
120.2641327947
 21
140.17450985
  0
LINE
  5
2A3
100
AcDbEntity
  8
DEFAULT_2
100
AcDbLine
 62
8
  6
HIDDEN
 10
92.0029607838
 20
106.17450985
 11
92.0029607838
 21
121.17450985
  0
LINE
  5
2A4
100
AcDbEntity
  8
0_COMPONENTS
100
AcDbLine
 62
7
  6
CONTINUOUS
 10
82.7416359184
 20
140.17450985
 11
82.4529607838
 21
139.67450985
  0
LINE
  5
2A5
100
AcDbEntity
  8
0
100
AcDbLine
 62
7
  6
CONTINUOUS
 10
96.7116965531
 20
166.4651958411
 11
96.7116965531
 21
167.6537839078
  0
LINE
  5
2A6
100
AcDbEntity
  8
0
100
AcDbLine
 62
7
  6
CONTINUOUS
 10
96.7116965531
 20
171.6952357921
 11
96.7116965531
 21
173.2245098513
  0
LINE
  5
2A7
100
AcDbEntity
  8
0
100
AcDbLine
 62
7
  6
CONTINUOUS
 10
97.0029607838
 20
165.92450985
 11
97.0029607838
 21
168.67450985
  0
LINE
  5
2A8
100
AcDbEntity
  8
0
100
AcDbLine
 62
7
  6
CONTINUOUS
 10
97.0029607838
 20
170.67450985
 11
97.0029607838
 21
173.2245098513
  0
LINE
  5
2A9
100
AcDbEntity
  8
0
100
AcDbLine
 62
7
  6
CONTINUOUS
 10
97.4779607838
 20
204.77450985
 11
97.4779607838
 21
203.07450985
  0
LINE
  5
2AA
100
AcDbEntity
  8
0
100
AcDbLine
 62
7
  6
CONTINUOUS
 10
97.5029607838
 20
165.72450985
 11
97.5029607838
 21
168.67450985
  0
LINE
  5
2AB
100
AcDbEntity
  8
0
100
AcDbLine
 62
7
  6
CONTINUOUS
 10
97.5029607838
 20
170.67450985
 11
97.5029607838
 21
173.22450985
  0
LINE
  5
2AC
100
AcDbEntity
  8
0
100
AcDbLine
 62
7
  6
CONTINUOUS
 10
97.7935133856
 20
170.67450985
 11
97.7935133856
 21
168.67450985
  0
LINE
  5
2AD
100
AcDbEntity
  8
0
100
AcDbLine
 62
7
  6
CONTINUOUS
 10
84.0029607838
 20
150.0971595808
 11
85.0029607838
 21
150.67450985
  0
LINE
  5
2AE
100
AcDbEntity
  8
0
100
AcDbLine
 62
7
  6
CONTINUOUS
 10
119.7350115914
 20
170.67450985
 11
121.5029607838
 21
171.6952357921
  0
LINE
  5
2AF
100
AcDbEntity
  8
0
100
AcDbLine
 62
7
  6
CONTINUOUS
 10
119.0029607838
 20
150.0971595808
 11
84.0029607838
 21
150.0971595808
  0
LINE
  5
2B0
100
AcDbEntity
  8
0
100
AcDbLine
 62
7
  6
CONTINUOUS
 10
85.0029607838
 20
150.67450985
 11
118.0029607838
 21
150.67450985
  0
LINE
  5
2B1
100
AcDbEntity
  8
0_COMPONENTS
100
AcDbLine
 62
7
  6
CONTINUOUS
 10
122.0029607838
 20
124.17450985
 11
122.2529607838
 21
123.92450985
  0
LINE
  5
2B2
100
AcDbEntity
  8
0
100
AcDbLine
 62
7
  6
CONTINUOUS
 10
81.5029607838
 20
166.22450985
 11
82.0029607838
 21
165.72450985
  0
LINE
  5
2B3
100
AcDbEntity
  8
0
100
AcDbLine
 62
7
  6
CONTINUOUS
 10
86.3992502575
 20
187.67450985
 11
86.6529607838
 21
186.7276492753
  0
LINE
  5
2B4
100
AcDbEntity
  8
0
100
AcDbLine
 62
7
  6
CONTINUOUS
 10
89.5029607838
 20
166.02450985
 11
89.8029607838
 21
165.72450985
  0
LINE
  5
2B5
100
AcDbEntity
  8
0
100
AcDbLine
 62
7
  6
CONTINUOUS
 10
105.212408182
 20
170.67450985
 11
105.212408182
 21
168.67450985
  0
LINE
  5
2B6
100
AcDbEntity
  8
0
100
AcDbLine
 62
7
  6
CONTINUOUS
 10
105.5029607838
 20
173.22450985
 11
105.5029607838
 21
170.67450985
  0
LINE
  5
2B7
100
AcDbEntity
  8
0
100
AcDbLine
 62
7
  6
CONTINUOUS
 10
105.5029607838
 20
165.72450985
 11
105.5029607838
 21
168.67450985
  0
LINE
  5
2B8
100
AcDbEntity
  8
0
100
AcDbLine
 62
7
  6
CONTINUOUS
 10
105.5279607838
 20
204.77450985
 11
105.5279607838
 21
203.07450985
  0
LINE
  5
2B9
100
AcDbEntity
  8
0
100
AcDbLine
 62
7
  6
CONTINUOUS
 10
106.0029607838
 20
165.92450985
 11
106.0029607838
 21
168.67450985
  0
LINE
  5
2BA
100
AcDbEntity
  8
0
100
AcDbLine
 62
7
  6
CONTINUOUS
 10
106.0029607838
 20
170.67450985
 11
106.0029607838
 21
173.2245098514
  0
LINE
  5
2BB
100
AcDbEntity
  8
0
100
AcDbLine
 62
7
  6
CONTINUOUS
 10
106.2942250145
 20
166.4651958411
 11
106.2942250145
 21
167.6537839078
  0
LINE
  5
2BC
100
AcDbEntity
  8
0
100
AcDbLine
 62
7
  6
CONTINUOUS
 10
106.2942250145
 20
171.6952357921
 11
106.2942250145
 21
173.2245098514
  0
LINE
  5
2BD
100
AcDbEntity
  8
0
100
AcDbLine
 62
7
  6
CONTINUOUS
 10
116.6066713101
 20
187.67450985
 11
116.3529607838
 21
186.7276492753
  0
LINE
  5
2BE
100
AcDbEntity
  8
0
100
AcDbLine
 62
7
  6
CONTINUOUS
 10
121.5029607838
 20
166.22450985
 11
121.0029607838
 21
165.72450985
  0
LINE
  5
2BF
100
AcDbEntity
  8
0_COMPONENTS
100
AcDbLine
 62
7
  6
CONTINUOUS
 10
81.0029607838
 20
124.17450985
 11
80.7529607838
 21
123.92450985
  0
LINE
  5
2C0
100
AcDbEntity
  8
0
100
AcDbLine
 62
7
  6
CONTINUOUS
 10
83.2709099762
 20
170.67450985
 11
81.5029607838
 21
171.6952357921
  0
LINE
  5
2C1
100
AcDbEntity
  8
0
100
AcDbLine
 62
7
  6
CONTINUOUS
 10
119.0029607838
 20
150.0971595808
 11
118.0029607838
 21
150.67450985
  0
LINE
  5
2C2
100
AcDbEntity
  8
DEFAULT_2
100
AcDbLine
 62
8
  6
HIDDEN
 10
111.0029607838
 20
106.17450985
 11
111.0029607838
 21
121.17450985
  0
LINE
  5
2C3
100
AcDbEntity
  8
0
100
AcDbLine
 62
7
  6
CONTINUOUS
 10
121.0028452563
 20
165.72450985
 11
96.8372021313
 21
165.72450985
  0
LINE
  5
2C4
100
AcDbEntity
  8
0
100
AcDbLine
 62
7
  6
CONTINUOUS
 10
96.8029607838
 20
165.72450985
 11
82.0029628368
 21
165.72450985
  0
LINE
  5
2C5
100
AcDbEntity
  8
0
100
AcDbLine
 62
7
  6
CONTINUOUS
 10
106.0029607838
 20
165.92450985
 11
97.0029607838
 21
165.92450985
  0
LINE
  5
2C6
100
AcDbEntity
  8
0
100
AcDbLine
 62
7
  6
CONTINUOUS
 10
106.0029607838
 20
165.92450985
 11
106.2029607838
 21
165.72450985
  0
LINE
  5
2C7
100
AcDbEntity
  8
0_COMPONENTS
100
AcDbLine
 62
7
  6
CONTINUOUS
 10
120.2642856492
 20
140.17450985
 11
120.5529607838
 21
139.67450985
  0
LINE
  5
2C8
100
AcDbEntity
  8
0
100
AcDbLine
 62
7
  6
CONTINUOUS
 10
116.3529607838
 20
186.7276492753
 11
116.3529607838
 21
185.92450985
  0
LINE
  5
2C9
100
AcDbEntity
  8
0
100
AcDbLine
 62
7
  6
CONTINUOUS
 10
89.5029607838
 20
166.02450985
 11
85.7536750857
 21
166.02450985
  0
LINE
  5
2CA
100
AcDbEntity
  8
0
100
AcDbLine
 62
7
  6
CONTINUOUS
 10
81.5029607838
 20
166.22450985
 11
85.5029607838
 21
166.22450985
  0
LINE
  5
2CB
100
AcDbEntity
  8
0
100
AcDbLine
 62
7
  6
CONTINUOUS
 10
89.5029607838
 20
166.22450985
 11
96.5019712881
 21
166.22450985
  0
LINE
  5
2CC
100
AcDbEntity
  8
0
100
AcDbLine
 62
7
  6
CONTINUOUS
 10
106.5039502795
 20
166.22450985
 11
121.5029607838
 21
166.22450985
  0
LINE
  5
2CD
100
AcDbEntity
  8
0
100
AcDbLine
 62
7
  6
CONTINUOUS
 10
121.5029607838
 20
167.6537839078
 11
106.2942250145
 21
167.6537839078
  0
LINE
  5
2CE
100
AcDbEntity
  8
0
100
AcDbLine
 62
7
  6
CONTINUOUS
 10
96.7116965531
 20
167.6537839078
 11
89.5029607838
 21
167.6537839078
  0
LINE
  5
2CF
100
AcDbEntity
  8
0
100
AcDbLine
 62
7
  6
CONTINUOUS
 10
85.5029607838
 20
167.6537839078
 11
81.5029607838
 21
167.6537839078
  0
LINE
  5
2D0
100
AcDbEntity
  8
0
100
AcDbLine
 62
7
  6
CONTINUOUS
 10
83.2709218174
 20
168.67450985
 11
88.9029607838
 21
168.67450985
  0
LINE
  5
2D1
100
AcDbEntity
  8
0
100
AcDbLine
 62
7
  6
CONTINUOUS
 10
89.5029607838
 20
168.67450985
 11
97.7935133856
 21
168.67450985
  0
LINE
  5
2D2
100
AcDbEntity
  8
0
100
AcDbLine
 62
7
  6
CONTINUOUS
 10
105.212408182
 20
168.67450985
 11
119.7349394181
 21
168.67450985
  0
LINE
  5
2D3
100
AcDbEntity
  8
0
100
AcDbLine
 62
7
  6
CONTINUOUS
 10
115.7478653966
 20
204.8145438386
 11
116.6066713101
 21
187.67450985
  0
LINE
  5
2D4
100
AcDbEntity
  8
0
100
AcDbLine
 62
7
  6
CONTINUOUS
 10
118.0029607838
 20
165.72450985
 11
118.0029607838
 21
150.67450985
  0
LINE
  5
2D5
100
AcDbEntity
  8
0
100
AcDbLine
 62
7
  6
CONTINUOUS
 10
118.9029607838
 20
168.67450985
 11
118.9029607838
 21
170.67450985
  0
LINE
  5
2D6
100
AcDbEntity
  8
GIANNI_ASSI
100
AcDbLine
 62
7
  6
CONTINUOUS
 10
119.0029607838
 20
150.0971595808
 11
119.0029607838
 21
140.17450985
  0
LINE
  5
2D7
100
AcDbEntity
  8
0_COMPONENTS
100
AcDbLine
 62
7
  6
CONTINUOUS
 10
120.5529607838
 20
139.67450985
 11
120.5529607838
 21
139.17450985
  0
LINE
  5
2D8
100
AcDbEntity
  8
0_COMPONENTS
100
AcDbLine
 62
7
  6
CONTINUOUS
 10
80.0029607838
 20
110.97450985
 11
79.5029607838
 21
110.47450985
  0
LINE
  5
2D9
100
AcDbEntity
  8
0
100
AcDbLine
 62
7
  6
CONTINUOUS
 10
119.7349394181
 20
170.67450985
 11
105.212408182
 21
170.67450985
  0
LINE
  5
2DA
100
AcDbEntity
  8
0
100
AcDbLine
 62
7
  6
CONTINUOUS
 10
97.7935133856
 20
170.67450985
 11
89.5029607838
 21
170.67450985
  0
LINE
  5
2DB
100
AcDbEntity
  8
0
100
AcDbLine
 62
7
  6
CONTINUOUS
 10
83.2709218174
 20
170.67450985
 11
88.9029607838
 21
170.67450985
  0
LINE
  5
2DC
100
AcDbEntity
  8
0
100
AcDbLine
 62
7
  6
CONTINUOUS
 10
89.0029607838
 20
170.7223074107
 11
89.5029607838
 21
170.7223074098
  0
LINE
  5
2DD
100
AcDbEntity
  8
0
100
AcDbLine
 62
7
  6
CONTINUOUS
 10
81.5029607838
 20
171.6952357921
 11
85.5029607838
 21
171.6952357921
  0
LINE
  5
2DE
100
AcDbEntity
  8
0
100
AcDbLine
 62
7
  6
CONTINUOUS
 10
89.4435785409
 20
171.6952357921
 11
96.7116965531
 21
171.6952357921
  0
LINE
  5
2DF
100
AcDbEntity
  8
0
100
AcDbLine
 62
7
  6
CONTINUOUS
 10
106.2942250145
 20
171.6952357921
 11
121.5029607838
 21
171.6952357921
  0
LINE
  5
2E0
100
AcDbEntity
  8
0
100
AcDbLine
 62
7
  6
CONTINUOUS
 10
97.5029607838
 20
173.22450985
 11
96.7116965531
 21
173.2245098513
  0
LINE
  5
2E1
100
AcDbEntity
  8
0
100
AcDbLine
 62
7
  6
CONTINUOUS
 10
105.5029607838
 20
173.22450985
 11
106.2942250145
 21
173.2245098514
  0
LINE
  5
2E2
100
AcDbEntity
  8
0
100
AcDbLine
 62
7
  6
CONTINUOUS
 10
121.5029607838
 20
185.17450985
 11
121.5029607838
 21
184.1745094797
  0
LINE
  5
2E3
100
AcDbEntity
  8
0
100
AcDbLine
 62
7
  6
CONTINUOUS
 10
121.5029607838
 20
173.1745102202
 11
121.5029607838
 21
171.6952357921
  0
LINE
  5
2E4
100
AcDbEntity
  8
0
100
AcDbLine
 62
7
  6
CONTINUOUS
 10
121.5029607838
 20
167.6537839078
 11
121.5029607838
 21
166.22450985
  0
LINE
  5
2E5
100
AcDbEntity
  8
0_COMPONENTS
100
AcDbLine
 62
7
  6
CONTINUOUS
 10
122.0029607838
 20
131.17450985
 11
122.0029607838
 21
124.17450985
  0
LINE
  5
2E6
100
AcDbEntity
  8
0_COMPONENTS
100
AcDbLine
 62
7
  6
CONTINUOUS
 10
122.0029607838
 20
114.17450985
 11
122.0029607838
 21
111.3084844462
  0
LINE
  5
2E7
100
AcDbEntity
  8
0_COMPONENTS
100
AcDbLine
 62
7
  6
CONTINUOUS
 10
122.2529607838
 20
138.87450985
 11
122.2529607838
 21
132.42450985
  0
LINE
  5
2E8
100
AcDbEntity
  8
0_COMPONENTS
100
AcDbLine
 62
7
  6
CONTINUOUS
 10
122.2529607838
 20
123.92450985
 11
122.2529607838
 21
114.42450985
  0
LINE
  5
2E9
100
AcDbEntity
  8
0_COMPONENTS
100
AcDbLine
 62
7
  6
CONTINUOUS
 10
123.5029607838
 20
110.47450985
 11
123.5029607838
 21
105.681616631
  0
LINE
  5
2EA
100
AcDbEntity
  8
0
100
AcDbLine
 62
7
  6
CONTINUOUS
 10
121.5029607838
 20
167.6537839078
 11
119.7350115914
 21
168.67450985
  0
LINE
  5
2EB
100
AcDbEntity
  8
0_COMPONENTS
100
AcDbLine
 62
7
  6
CONTINUOUS
 10
122.2529607838
 20
132.42450985
 11
122.0029607838
 21
131.17450985
  0
LINE
  5
2EC
100
AcDbEntity
  8
0
100
AcDbLine
 62
7
  6
CONTINUOUS
 10
107.9237566103
 20
205.5639793128
 11
108.2359659478
 21
204.9038851458
  0
LINE
  5
2ED
100
AcDbEntity
  8
0
100
AcDbLine
 62
7
  6
CONTINUOUS
 10
121.5029607838
 20
185.17450985
 11
81.5029607838
 21
185.17450985
  0
LINE
  5
2EE
100
AcDbEntity
  8
0
100
AcDbLine
 62
7
  6
CONTINUOUS
 10
121.0029607838
 20
185.67450985
 11
82.0029607838
 21
185.67450985
  0
LINE
  5
2EF
100
AcDbEntity
  8
0
100
AcDbLine
 62
7
  6
CONTINUOUS
 10
86.6529607838
 20
185.92450985
 11
116.3529607838
 21
185.92450985
  0
LINE
  5
2F0
100
AcDbEntity
  8
0
100
AcDbLine
 62
7
  6
CONTINUOUS
 10
86.6529607838
 20
186.7276492753
 11
116.3529607838
 21
186.7276492753
  0
LINE
  5
2F1
100
AcDbEntity
  8
0
100
AcDbLine
 62
7
  6
CONTINUOUS
 10
116.6066713101
 20
187.67450985
 11
86.3992502575
 21
187.67450985
  0
LINE
  5
2F2
100
AcDbEntity
  8
0
100
AcDbLine
 62
7
  6
CONTINUOUS
 10
96.6779607838
 20
205.57450985
 11
97.4779607838
 21
204.77450985
  0
LINE
  5
2F3
100
AcDbEntity
  8
0
100
AcDbLine
 62
7
  6
CONTINUOUS
 10
121.0029607838
 20
185.67450985
 11
121.5029607838
 21
185.17450985
  0
LINE
  5
2F4
100
AcDbEntity
  8
0_COMPONENTS
100
AcDbLine
 62
7
  6
CONTINUOUS
 10
121.8101404608
 20
110.97450985
 11
122.0029607838
 21
111.3084844462
  0
LINE
  5
2F5
100
AcDbEntity
  8
0_COMPONENTS
100
AcDbLine
 62
7
  6
CONTINUOUS
 10
122.2529607838
 20
114.42450985
 11
122.0029607838
 21
114.17450985
  0
LINE
  5
2F6
100
AcDbEntity
  8
0
100
AcDbLine
 62
7
  6
CONTINUOUS
 10
106.1744498686
 20
202.07450985
 11
96.831467033
 21
202.07450985
  0
LINE
  5
2F7
100
AcDbEntity
  8
0
100
AcDbLine
 62
7
  6
CONTINUOUS
 10
95.0558726158
 20
203.07450985
 11
97.4779607838
 21
203.07450985
  0
LINE
  5
2F8
100
AcDbEntity
  8
0
100
AcDbLine
 62
7
  6
CONTINUOUS
 10
105.5279607838
 20
203.07450985
 11
107.9500489518
 21
203.07450985
  0
LINE
  5
2F9
100
AcDbEntity
  8
0_COMPONENTS
100
AcDbLine
 62
7
  6
CONTINUOUS
 10
123.3565141722
 20
105.3280632384
 11
121.1494073925
 21
103.1209564587
  0
LINE
  5
2FA
100
AcDbEntity
  8
0
100
AcDbLine
 62
7
  6
CONTINUOUS
 10
95.3890549648
 20
204.77450985
 11
97.4779607838
 21
204.77450985
  0
LINE
  5
2FB
100
AcDbEntity
  8
0
100
AcDbLine
 62
7
  6
CONTINUOUS
 10
105.5279607838
 20
204.77450985
 11
107.6168666028
 21
204.77450985
  0
LINE
  5
2FC
100
AcDbEntity
  8
0
100
AcDbLine
 62
7
  6
CONTINUOUS
 10
87.258056171
 20
204.8145438386
 11
95.2752747046
 21
204.8145438386
  0
LINE
  5
2FD
100
AcDbEntity
  8
0
100
AcDbLine
 62
7
  6
CONTINUOUS
 10
107.730646863
 20
204.8145438386
 11
115.7478653966
 21
204.8145438386
  0
LINE
  5
2FE
100
AcDbEntity
  8
0
100
AcDbLine
 62
7
  6
CONTINUOUS
 10
88.0572094234
 20
205.57450985
 11
96.6779607838
 21
205.57450985
  0
LINE
  5
2FF
100
AcDbEntity
  8
0
100
AcDbLine
 62
7
  6
CONTINUOUS
 10
106.3279607838
 20
205.57450985
 11
114.9487135788
 21
205.57450985
  0
LINE
  5
300
100
AcDbEntity
  8
0_COMPONENTS
100
AcDbLine
 62
7
  6
CONTINUOUS
 10
93.2034239603
 20
229.7584053474
 11
92.3620697031
 21
229.9150742297
  0
LINE
  5
301
100
AcDbEntity
  8
0_COMPONENTS
100
AcDbLine
 62
7
  6
CONTINUOUS
 10
81.7020405327
 20
239.1678976855
 11
82.0222722408
 21
238.3742518611
  0
LINE
  5
302
100
AcDbEntity
  8
0_COMPONENTS
100
AcDbLine
 62
7
  6
CONTINUOUS
 10
85.9507161831
 20
239.3385049078
 11
85.8132606358
 21
239.6561583932
  0
LINE
  5
303
100
AcDbEntity
  8
0
100
AcDbLine
 62
7
  6
CONTINUOUS
 10
87.2074416387
 20
236.3329198258
 11
88.8773538538
 21
236.2306198302
  0
LINE
  5
304
100
AcDbEntity
  8
0
100
AcDbLine
 62
7
  6
CONTINUOUS
 10
94.6252523697
 20
235.8784995287
 11
96.2951645849
 21
235.7761995331
  0
LINE
  5
305
100
AcDbEntity
  8
0
100
AcDbLine
 62
7
  6
CONTINUOUS
 10
87.1923765707
 20
236.687135198
 11
88.7663238624
 21
236.5907140811
  0
LINE
  5
306
100
AcDbEntity
  8
0
100
AcDbLine
 62
7
  6
CONTINUOUS
 10
94.8111643571
 20
236.2204029053
 11
96.3851116489
 21
236.1239817884
  0
LINE
  5
307
100
AcDbEntity
  8
0
100
AcDbLine
 62
7
  6
CONTINUOUS
 10
88.0094131345
 20
237.6858129717
 11
89.5833604263
 21
237.5893918547
  0
LINE
  5
308
100
AcDbEntity
  8
0
100
AcDbLine
 62
7
  6
CONTINUOUS
 10
95.628200921
 20
237.2190806789
 11
96.1322774428
 21
237.188200597
  0
LINE
  5
309
100
AcDbEntity
  8
0
100
AcDbLine
 62
7
  6
CONTINUOUS
 10
88.2884579978
 20
238.092669458
 11
89.4750104737
 21
238.0199804197
  0
LINE
  5
30A
100
AcDbEntity
  8
0
100
AcDbLine
 62
7
  6
CONTINUOUS
 10
95.8264092688
 20
237.630889267
 11
95.8959940574
 21
237.626626454
  0
LINE
  5
30B
100
AcDbEntity
  8
0
100
AcDbLine
 62
7
  6
CONTINUOUS
 10
96.5217541203
 20
236.1243397082
 11
96.5420584922
 21
236.1096153329
  0
LINE
  5
30C
100
AcDbEntity
  8
0
100
AcDbLine
 62
7
  6
CONTINUOUS
 10
85.2075153384
 20
240.9761542537
 11
86.7814626302
 21
240.8797331367
  0
LINE
  5
30D
100
AcDbEntity
  8
0
100
AcDbLine
 62
7
  6
CONTINUOUS
 10
92.8263031249
 20
240.5094219609
 11
93.6603972153
 21
240.4583247709
  0
LINE
  5
30E
100
AcDbEntity
  8
0
100
AcDbLine
 62
7
  6
CONTINUOUS
 10
85.0421384762
 20
241.0118497047
 11
86.7120506914
 21
240.9095497091
  0
LINE
  5
30F
100
AcDbEntity
  8
0
100
AcDbLine
 62
7
  6
CONTINUOUS
 10
92.4599492072
 20
240.5574294076
 11
93.6320868294
 21
240.4856234333
  0
LINE
  5
310
100
AcDbEntity
  8
0
100
AcDbLine
 62
7
  6
CONTINUOUS
 10
85.2075153384
 20
240.9761542537
 11
84.9951165324
 21
241.0023139174
  0
LINE
  5
311
100
AcDbEntity
  8
0_COMPONENTS
100
AcDbLine
 62
7
  6
CONTINUOUS
 10
88.8579963374
 20
252.3885073919
 11
88.835510935
 21
252.3407506861
  0
LINE
  5
312
100
AcDbEntity
  8
0_COMPONENTS
100
AcDbLine
 62
7
  6
CONTINUOUS
 10
83.2527490982
 20
246.7012896395
 11
82.0290087833
 21
245.2054909112
  0
LINE
  5
313
100
AcDbEntity
  8
0_COMPONENTS
100
AcDbLine
 62
7
  6
CONTINUOUS
 10
90.9876869728
 20
255.1687996666
 11
89.3408476488
 21
253.1558397792
  0
LINE
  5
314
100
AcDbEntity
  8
0_COMPONENTS
100
AcDbLine
 62
7
  6
CONTINUOUS
 10
87.1705942759
 20
250.503101943
 11
85.0731141488
 21
247.9393160903
  0
LINE
  5
315
100
AcDbEntity
  8
0_COMPONENTS
100
AcDbLine
 62
7
  6
CONTINUOUS
 10
89.118440415
 20
252.6865802311
 11
87.8356570756
 21
251.1186122036
  0
LINE
  5
316
100
AcDbEntity
  8
0
100
AcDbLine
 62
7
  6
CONTINUOUS
 10
87.5745994215
 20
241.8491978094
 11
87.7066795577
 21
241.8411064874
  0
LINE
  5
317
100
AcDbEntity
  8
0
100
AcDbLine
 62
7
  6
CONTINUOUS
 10
96.3851116489
 20
236.1239817884
 11
96.4661951687
 21
235.9373132033
  0
LINE
  5
318
100
AcDbEntity
  8
0_COMPONENTS
100
AcDbLine
 62
7
  6
CONTINUOUS
 10
96.3989148233
 20
236.6171798499
 11
96.231266856
 21
237.0045248882
  0
LINE
  5
319
100
AcDbEntity
  8
0
100
AcDbLine
 62
7
  6
CONTINUOUS
 10
103.0994277786
 20
269.3809655755
 11
99.6578466037
 21
265.1742620111
  0
LINE
  5
31A
100
AcDbEntity
  8
0
100
AcDbLine
 62
7
  6
CONTINUOUS
 10
98.625967241
 20
263.912978208
 11
98.2610393769
 21
263.4669206348
  0
LINE
  5
31B
100
AcDbEntity
  8
GIANNI_ASSI
100
AcDbLine
 62
7
  6
CONTINUOUS
 10
95.1108177271
 20
257.6422770007
 11
94.3556112955
 21
256.7191752558
  0
LINE
  5
31C
100
AcDbEntity
  8
0
100
AcDbLine
 62
7
  6
CONTINUOUS
 10
99.4878448502
 20
262.2027626342
 11
96.5586592911
 21
258.6223689993
  0
LINE
  5
31D
100
AcDbEntity
  8
0
100
AcDbLine
 62
7
  6
CONTINUOUS
 10
110.4420114608
 20
273.8040667208
 11
110.444176011
 21
273.8063999166
  0
LINE
  5
31E
100
AcDbEntity
  8
0
100
AcDbLine
 62
7
  6
CONTINUOUS
 10
110.4428628301
 20
273.8049851334
 11
107.6506586701
 21
270.7944145301
  0
LINE
  5
31F
100
AcDbEntity
  8
0
100
AcDbLine
 62
7
  6
CONTINUOUS
 10
108.1829226894
 20
261.5730083447
 11
108.3765777001
 21
261.6594633409
  0
LINE
  5
320
100
AcDbEntity
  8
0
100
AcDbLine
 62
7
  6
CONTINUOUS
 10
87.5379695988
 20
237.076671883
 11
87.5694386655
 21
237.1315842211
  0
LINE
  5
321
100
AcDbEntity
  8
0
100
AcDbLine
 62
7
  6
CONTINUOUS
 10
86.7814626302
 20
240.8797331367
 11
87.5787514633
 21
241.8542729212
  0
LINE
  5
322
100
AcDbEntity
  8
0
100
AcDbLine
 62
7
  6
CONTINUOUS
 10
87.1923765707
 20
236.687135198
 11
87.0727805977
 21
236.5127603797
  0
LINE
  5
323
100
AcDbEntity
  8
0
100
AcDbLine
 62
7
  6
CONTINUOUS
 10
108.1610235937
 20
263.5326261562
 11
107.7960957297
 21
263.0865685831
  0
LINE
  5
324
100
AcDbEntity
  8
0
100
AcDbLine
 62
7
  6
CONTINUOUS
 10
109.1929029564
 20
264.7939099593
 11
110.56433978
 21
266.4702406576
  0
LINE
  5
325
100
AcDbEntity
  8
0_COMPONENTS
100
AcDbLine
 62
7
  6
CONTINUOUS
 10
103.5092646612
 20
242.9479460889
 11
103.2971513251
 21
243.4375681095
  0
LINE
  5
326
100
AcDbEntity
  8
0_COMPONENTS
100
AcDbLine
 62
7
  6
CONTINUOUS
 10
103.4729918663
 20
243.0378427214
 11
103.2634341126
 21
243.5215656815
  0
LINE
  5
327
100
AcDbEntity
  8
0
100
AcDbLine
 62
7
  6
CONTINUOUS
 10
88.0094131345
 20
237.6858129717
 11
87.5934801539
 21
237.1774109717
  0
LINE
  5
328
100
AcDbEntity
  8
0
100
AcDbLine
 62
7
  6
CONTINUOUS
 10
87.2508560546
 20
236.758615672
 11
87.1923765707
 21
236.687135198
  0
LINE
  5
329
100
AcDbEntity
  8
0
100
AcDbLine
 62
7
  6
CONTINUOUS
 10
109.0351419116
 20
262.5254844545
 11
109.545789764
 21
263.149658063
  0
LINE
  5
32A
100
AcDbEntity
  8
0
100
AcDbLine
 62
7
  6
CONTINUOUS
 10
109.5760378179
 20
263.1255839687
 11
108.3765777001
 21
261.6594633409
  0
LINE
  5
32B
100
AcDbEntity
  8
0
100
AcDbLine
 62
7
  6
CONTINUOUS
 10
109.8613551711
 20
262.9186768153
 11
108.6618950533
 21
261.4525561875
  0
LINE
  5
32C
100
AcDbEntity
  8
0
100
AcDbLine
 62
7
  6
CONTINUOUS
 10
109.3775227354
 20
262.2771958704
 11
109.8881705878
 21
262.9013694789
  0
LINE
  5
32D
100
AcDbEntity
  8
0
100
AcDbLine
 62
7
  6
CONTINUOUS
 10
88.7663238624
 20
236.5907140811
 11
89.5833604263
 21
237.5893918547
  0
LINE
  5
32E
100
AcDbEntity
  8
0
100
AcDbLine
 62
7
  6
CONTINUOUS
 10
111.7066622543
 20
258.1368585807
 11
111.8357655948
 21
258.1944952449
  0
LINE
  5
32F
100
AcDbEntity
  8
0
100
AcDbLine
 62
7
  6
CONTINUOUS
 10
110.443562419
 20
261.8773689288
 11
110.0786345549
 21
261.4313113557
  0
LINE
  5
330
100
AcDbEntity
  8
0
100
AcDbLine
 62
7
  6
CONTINUOUS
 10
113.150197696
 20
255.0175719948
 11
113.2793010364
 21
255.075208659
  0
LINE
  5
331
100
AcDbEntity
  8
0
100
AcDbLine
 62
7
  6
CONTINUOUS
 10
119.4170287183
 20
270.1446978387
 11
119.7977441032
 21
270.6100527687
  0
LINE
  5
332
100
AcDbEntity
  8
0
100
AcDbLine
 62
7
  6
CONTINUOUS
 10
111.8357655948
 20
258.1944952449
 11
111.983344035
 21
258.3748828978
  0
LINE
  5
333
100
AcDbEntity
  8
0
100
AcDbLine
 62
7
  6
CONTINUOUS
 10
113.0485542443
 20
259.6769075651
 11
113.1961326846
 21
259.8572952181
  0
LINE
  5
334
100
AcDbEntity
  8
0
100
AcDbLine
 62
7
  6
CONTINUOUS
 10
113.1009821166
 20
259.5636179609
 11
112.8599429288
 21
259.2689916369
  0
LINE
  5
335
100
AcDbEntity
  8
0
100
AcDbLine
 62
7
  6
CONTINUOUS
 10
114.1057117977
 20
254.6938367529
 11
113.5496419904
 21
254.72790198
  0
LINE
  5
336
100
AcDbEntity
  8
0
100
AcDbLine
 62
7
  6
CONTINUOUS
 10
114.1774777074
 20
254.8307573131
 11
113.5646183896
 21
254.8683015055
  0
LINE
  5
337
100
AcDbEntity
  8
0
100
AcDbLine
 62
7
  6
CONTINUOUS
 10
114.2667591867
 20
255.7265402172
 11
114.332305529
 21
255.7225248023
  0
LINE
  5
338
100
AcDbEntity
  8
0
100
AcDbLine
 62
7
  6
CONTINUOUS
 10
108.6394304545
 20
261.2419568992
 11
108.6618950578
 21
261.4525561873
  0
LINE
  5
339
100
AcDbEntity
  8
0
100
AcDbLine
 62
7
  6
CONTINUOUS
 10
112.7743744768
 20
258.6139692659
 11
113.0778494486
 21
258.9849119172
  0
LINE
  5
33A
100
AcDbEntity
  8
0
100
AcDbLine
 62
7
  6
CONTINUOUS
 10
114.1097288113
 20
260.2461957204
 11
114.5001890684
 21
260.7234619743
  0
LINE
  5
33B
100
AcDbEntity
  8
0
100
AcDbLine
 62
7
  6
CONTINUOUS
 10
112.6631900082
 20
258.414516856
 11
113.0841320188
 21
258.9290414789
  0
LINE
  5
33C
100
AcDbEntity
  8
0
100
AcDbLine
 62
7
  6
CONTINUOUS
 10
114.0305286362
 20
260.0858382597
 11
114.4637302659
 21
260.6153480249
  0
LINE
  5
33D
100
AcDbEntity
  8
0
100
AcDbLine
 62
7
  6
CONTINUOUS
 10
94.8111643571
 20
236.2204029053
 11
95.628200921
 21
237.2190806789
  0
LINE
  5
33E
100
AcDbEntity
  8
0
100
AcDbLine
 62
7
  6
CONTINUOUS
 10
96.4435911328
 20
236.1954622623
 11
96.3851116489
 21
236.1239817884
  0
LINE
  5
33F
100
AcDbEntity
  8
0
100
AcDbLine
 62
7
  6
CONTINUOUS
 10
114.7774070391
 20
256.3507138258
 11
114.8429533814
 21
256.3466984108
  0
LINE
  5
340
100
AcDbEntity
  8
0
100
AcDbLine
 62
7
  6
CONTINUOUS
 10
116.0877076374
 20
257.1061506153
 11
115.4284830509
 21
257.1465351766
  0
LINE
  5
341
100
AcDbEntity
  8
0
100
AcDbLine
 62
7
  6
CONTINUOUS
 10
96.5375643728
 20
235.9769340997
 11
96.5052372755
 21
235.9374201355
  0
LINE
  5
342
100
AcDbEntity
  8
0
100
AcDbLine
 62
7
  6
CONTINUOUS
 10
114.4396618136
 20
256.6709105833
 11
113.9290139612
 21
256.0467369748
  0
LINE
  5
343
100
AcDbEntity
  8
0
100
AcDbLine
 62
7
  6
CONTINUOUS
 10
115.1431656978
 20
257.35344233
 11
114.4920896859
 21
256.5576209792
  0
LINE
  5
344
100
AcDbEntity
  8
0
100
AcDbLine
 62
7
  6
CONTINUOUS
 10
113.9814418335
 20
255.9334473707
 11
113.2793010364
 21
255.075208659
  0
LINE
  5
345
100
AcDbEntity
  8
0
100
AcDbLine
 62
7
  6
CONTINUOUS
 10
115.4284830509
 20
257.1465351766
 11
114.7774070391
 21
256.3507138258
  0
LINE
  5
346
100
AcDbEntity
  8
0
100
AcDbLine
 62
7
  6
CONTINUOUS
 10
114.2667591867
 20
255.7265402172
 11
113.5646183896
 21
254.8683015055
  0
LINE
  5
347
100
AcDbEntity
  8
0
100
AcDbLine
 62
7
  6
CONTINUOUS
 10
114.28716738
 20
254.9053194469
 11
114.7081093982
 21
255.4198440791
  0
LINE
  5
348
100
AcDbEntity
  8
0
100
AcDbLine
 62
7
  6
CONTINUOUS
 10
115.6545060004
 20
256.5766408412
 11
116.0877076377
 21
257.1061506157
  0
LINE
  5
349
100
AcDbEntity
  8
0
100
AcDbLine
 62
7
  6
CONTINUOUS
 10
114.5034644086
 20
254.8776377048
 11
114.8069393804
 21
255.2485803561
  0
LINE
  5
34A
100
AcDbEntity
  8
0
100
AcDbLine
 62
7
  6
CONTINUOUS
 10
115.8388187431
 20
256.5098641593
 11
116.2292790002
 21
256.9871304132
  0
LINE
  5
34B
100
AcDbEntity
  8
0
100
AcDbLine
 62
7
  6
CONTINUOUS
 10
111.9406410177
 20
258.3774989147
 11
112.5031886409
 21
258.343036852
  0
LINE
  5
34C
100
AcDbEntity
  8
0
100
AcDbLine
 62
7
  6
CONTINUOUS
 10
111.8534878465
 20
258.3930637185
 11
112.4095576538
 21
258.3589984914
  0
LINE
  5
34D
100
AcDbEntity
  8
0
100
AcDbLine
 62
7
  6
CONTINUOUS
 10
113.1534296673
 20
259.8599112349
 11
113.2189760096
 21
259.8558958199
  0
LINE
  5
34E
100
AcDbEntity
  8
0
100
AcDbLine
 62
7
  6
CONTINUOUS
 10
111.8534878465
 20
258.3930637185
 11
111.9406410177
 21
258.3774989147
  0
LINE
  5
34F
100
AcDbEntity
  8
0
100
AcDbLine
 62
7
  6
CONTINUOUS
 10
114.4637302659
 20
260.6153480249
 11
114.5001890684
 21
260.7234619743
  0
LINE
  5
350
100
AcDbEntity
  8
0
100
AcDbLine
 62
7
  6
CONTINUOUS
 10
121.4607108621
 20
264.7910820155
 11
119.0714149359
 21
261.4696418368
  0
LINE
  5
351
100
AcDbEntity
  8
0
100
AcDbLine
 62
7
  6
CONTINUOUS
 10
112.2585378228
 20
251.7548249908
 11
109.32941748
 21
248.174511071
  0
LINE
  5
352
100
AcDbEntity
  8
GIANNI_ASSI
100
AcDbLine
 62
7
  6
CONTINUOUS
 10
108.6554920919
 20
246.5611310152
 11
107.887652449
 21
245.62258748
  0
LINE
  5
353
100
AcDbEntity
  8
0
100
AcDbLine
 62
7
  6
CONTINUOUS
 10
118.5790556241
 20
256.7167987351
 11
115.1374744492
 21
252.5100951706
  0
LINE
  5
354
100
AcDbEntity
  8
0
100
AcDbLine
 62
7
  6
CONTINUOUS
 10
114.1055950865
 20
251.2488113675
 11
113.7406672224
 21
250.8027537944
  0
LINE
  5
355
100
AcDbEntity
  8
0
100
AcDbLine
 62
7
  6
CONTINUOUS
 10
109.8490280604
 20
261.1678561
 11
108.6394304545
 21
261.2419568992
  0
LINE
  5
356
100
AcDbEntity
  8
0
100
AcDbLine
 62
7
  6
CONTINUOUS
 10
109.9297428602
 20
261.37488694
 11
108.6618950533
 21
261.4525561875
  0
LINE
  5
357
100
AcDbEntity
  8
0
100
AcDbLine
 62
7
  6
CONTINUOUS
 10
108.1829226894
 20
261.5730083447
 11
107.6235527058
 21
262.7817318967
  0
LINE
  5
358
100
AcDbEntity
  8
0
100
AcDbLine
 62
7
  6
CONTINUOUS
 10
108.3765777001
 20
261.6594633409
 11
107.790270317
 21
262.9263950024
  0
LINE
  5
359
100
AcDbEntity
  8
0
100
AcDbLine
 62
7
  6
CONTINUOUS
 10
113.5496419904
 20
254.72790198
 11
113.5646183943
 21
254.8683015054
  0
LINE
  5
35A
100
AcDbEntity
  8
0_COMPONENTS
100
AcDbLine
 62
7
  6
CONTINUOUS
 10
104.9850589567
 20
239.7058092196
 11
103.7091337758
 21
238.1462240366
  0
LINE
  5
35B
100
AcDbEntity
  8
0_COMPONENTS
100
AcDbLine
 62
7
  6
CONTINUOUS
 10
107.0478252877
 20
242.0297564252
 11
105.4009615385
 21
240.0167666822
  0
LINE
  5
35C
100
AcDbEntity
  8
0_COMPONENTS
100
AcDbLine
 62
7
  6
CONTINUOUS
 10
103.2307081657
 20
237.364028846
 11
101.1483495627
 21
234.8187262911
  0
LINE
  5
35D
100
AcDbEntity
  8
0_COMPONENTS
100
AcDbLine
 62
7
  6
CONTINUOUS
 10
100.2803397283
 20
232.7707061149
 11
99.0565994133
 21
231.2749073866
  0
LINE
  5
35E
100
AcDbEntity
  8
0_COMPONENTS
100
AcDbLine
 62
7
  6
CONTINUOUS
 10
104.7444855534
 20
239.3914798181
 11
104.7021294767
 21
239.3599796746
  0
LINE
  5
35F
100
AcDbEntity
  8
0
100
AcDbLine
 62
7
  6
CONTINUOUS
 10
109.8169451928
 20
262.2502765419
 11
109.3775227354
 21
262.2771958704
  0
LINE
  5
360
100
AcDbEntity
  8
0
100
AcDbLine
 62
7
  6
CONTINUOUS
 10
110.3275930453
 20
262.8744501504
 11
109.8881705878
 21
262.9013694789
  0
LINE
  5
361
100
AcDbEntity
  8
0
100
AcDbLine
 62
7
  6
CONTINUOUS
 10
109.8613551711
 20
262.9186768153
 11
110.3826304036
 21
262.8867431283
  0
LINE
  5
362
100
AcDbEntity
  8
0
100
AcDbLine
 62
7
  6
CONTINUOUS
 10
108.8319340583
 20
262.9645893858
 11
109.0351419116
 21
262.5254844545
  0
LINE
  5
363
100
AcDbEntity
  8
0
100
AcDbLine
 62
7
  6
CONTINUOUS
 10
113.150197696
 20
255.0175719948
 11
111.7066622543
 21
258.1368585807
  0
LINE
  5
364
100
AcDbEntity
  8
0
100
AcDbLine
 62
7
  6
CONTINUOUS
 10
113.2793010364
 20
255.075208659
 11
111.8357655948
 21
258.1944952449
  0
LINE
  5
365
100
AcDbEntity
  8
0
100
AcDbLine
 62
7
  6
CONTINUOUS
 10
109.3425819107
 20
263.5887629943
 11
109.545789764
 21
263.149658063
  0
LINE
  5
366
100
AcDbEntity
  8
0
100
AcDbLine
 62
7
  6
CONTINUOUS
 10
116.0877076377
 20
257.1061506157
 11
116.2292790002
 21
256.9871304132
  0
LINE
  5
367
100
AcDbEntity
  8
0
100
AcDbLine
 62
7
  6
CONTINUOUS
 10
113.9814418335
 20
255.9334473707
 11
113.9290139612
 21
256.0467369748
  0
LINE
  5
368
100
AcDbEntity
  8
0
100
AcDbLine
 62
7
  6
CONTINUOUS
 10
114.4920896859
 20
256.5576209792
 11
114.4396618136
 21
256.6709105833
  0
LINE
  5
369
100
AcDbEntity
  8
0
100
AcDbLine
 62
7
  6
CONTINUOUS
 10
113.1009821166
 20
259.5636179609
 11
113.0485542443
 21
259.6769075651
  0
LINE
  5
36A
100
AcDbEntity
  8
0
100
AcDbLine
 62
7
  6
CONTINUOUS
 10
119.5536132662
 20
271.6297985889
 11
119.5556729024
 21
271.5316236268
  0
LINE
  5
36B
100
AcDbEntity
  8
0
100
AcDbLine
 62
7
  6
CONTINUOUS
 10
121.269531251
 20
267.2638075111
 11
121.0250401625
 21
267.3093342856
  0
LINE
  5
36C
100
AcDbEntity
  8
0
100
AcDbLine
 62
7
  6
CONTINUOUS
 10
121.8268421152
 20
266.8243748746
 11
121.8380383354
 21
266.7985186835
  0
LINE
  5
36D
100
AcDbEntity
  8
0
100
AcDbLine
 62
7
  6
CONTINUOUS
 10
119.7070042207
 20
271.4032577102
 11
119.6959149243
 21
271.4290228871
  0
LINE
  5
36E
100
AcDbEntity
  8
0
100
AcDbLine
 62
7
  6
CONTINUOUS
 10
119.7069090495
 20
271.40363835
 11
119.7706227368
 21
271.2457336184
  0
LINE
  5
36F
100
AcDbEntity
  8
0
100
AcDbLine
 62
7
  6
CONTINUOUS
 10
121.8380870213
 20
266.798398025
 11
121.9540011887
 21
266.5111223037
  0
LINE
  5
370
100
AcDbEntity
  8
0
100
AcDbLine
 62
7
  6
CONTINUOUS
 10
121.9540011887
 20
266.5111223037
 11
121.9679356141
 21
266.4743069039
  0
LINE
  5
371
100
AcDbEntity
  8
0
100
AcDbLine
 62
7
  6
CONTINUOUS
 10
119.7615256799
 20
271.2420630061
 11
119.8229819929
 21
271.1159691262
  0
ARC
  5
372
100
AcDbEntity
  8
0
100
AcDbCircle
 62
7
  6
CONTINUOUS
 10
63.9170075783
 20
94.2577613722
 40
84.7514287884
100
AcDbArc
 50
59.9988266741
 51
60.2259395244
  0
ARC
  5
373
100
AcDbEntity
  8
0
100
AcDbCircle
 62
7
  6
CONTINUOUS
 10
85.2745005083
 20
147.9376343177
 40
28.0196244501
100
AcDbArc
 50
40.7413425355
 51
41.3941430949
  0
ARC
  5
374
100
AcDbEntity
  8
GIANNI_ASSI
100
AcDbCircle
 62
7
  6
CONTINUOUS
 10
63.9129616217
 20
141.6248408485
 40
20.2100620991
100
AcDbArc
 50
5.1578563832
 51
6.2484676427
  0
ARC
  5
375
100
AcDbEntity
  8
GIANNI_ASSI
100
AcDbCircle
 62
7
  6
CONTINUOUS
 10
64.4132549314
 20
141.666650113
 40
19.7080362083
100
AcDbArc
 50
0.0226676839
 51
5.1675561134
  0
ARC
  5
376
100
AcDbEntity
  8
GIANNI_ASSI
100
AcDbCircle
 62
7
  6
CONTINUOUS
 10
64.5554489801
 20
141.6772895291
 40
19.5658654132
100
AcDbArc
 50
355.5781789859
 51
359.4300528709
  0
ARC
  5
377
100
AcDbEntity
  8
GIANNI_ASSI
100
AcDbCircle
 62
7
  6
CONTINUOUS
 10
64.7290068578
 20
141.6739273231
 40
19.3922827465
100
AcDbArc
 50
359.4348853862
 51
0.0015357708
  0
ARC
  5
378
100
AcDbEntity
  8
0_COMPONENTS
100
AcDbCircle
 62
8
  6
HIDDEN
 10
82.3227646865
 20
107.17450985
 40
1.0
100
AcDbArc
 50
191.3099325163
 51
270.0000001922
  0
ARC
  5
379
100
AcDbEntity
  8
0_COMPONENTS
100
AcDbCircle
 62
8
  6
HIDDEN
 10
81.8029607838
 20
106.97450985
 40
0.8
100
AcDbArc
 50
180.0
 51
270.0
  0
ARC
  5
37A
100
AcDbEntity
  8
0_COMPONENTS
100
AcDbCircle
 62
7
  6
CONTINUOUS
 10
82.210067565
 20
103.47450985
 40
0.5
100
AcDbArc
 50
225.0000001101
 51
270.0000001476
  0
ARC
  5
37B
100
AcDbEntity
  8
0_COMPONENTS
100
AcDbCircle
 62
7
  6
CONTINUOUS
 10
80.0029607838
 20
105.6816166311
 40
0.5
100
AcDbArc
 50
180.0000000115
 51
225.000000349
  0
ARC
  5
37C
100
AcDbEntity
  8
0_COMPONENTS
100
AcDbCircle
 62
7
  6
CONTINUOUS
 10
81.0529607838
 20
138.87450985
 40
0.3
100
AcDbArc
 50
89.9999965194
 51
180.0
  0
ARC
  5
37D
100
AcDbEntity
  8
0
100
AcDbCircle
 62
7
  6
CONTINUOUS
 10
40.4464458394
 20
231.7058419629
 40
92.6944696266
100
AcDbArc
 50
315.0101454045
 51
315.26536787
  0
ARC
  5
37E
100
AcDbEntity
  8
0
100
AcDbCircle
 62
7
  6
CONTINUOUS
 10
42.8071465423
 20
229.8938569579
 40
90.0614303987
100
AcDbArc
 50
314.7626403045
 51
315.0123570544
  0
ARC
  5
37F
100
AcDbEntity
  8
0
100
AcDbCircle
 62
7
  6
CONTINUOUS
 10
63.9170075761
 20
245.0912583315
 40
84.7514287928
100
AcDbArc
 50
299.7740604756
 51
300.0011733259
  0
ARC
  5
380
100
AcDbEntity
  8
0
100
AcDbCircle
 62
7
  6
CONTINUOUS
 10
81.5029607838
 20
170.7223074107
 40
8.0
100
AcDbArc
 50
0.0
 51
56.740072298
  0
ARC
  5
381
100
AcDbEntity
  8
0
100
AcDbCircle
 62
7
  6
CONTINUOUS
 10
81.5029607838
 20
170.7223074107
 40
7.5
100
AcDbArc
 50
0.0
 51
57.7690473645
  0
ARC
  5
382
100
AcDbEntity
  8
0
100
AcDbCircle
 62
7
  6
CONTINUOUS
 10
101.5029607838
 20
173.22450985
 40
4.5
100
AcDbArc
 50
0.0000000178
 51
179.9999999825
  0
ARC
  5
383
100
AcDbEntity
  8
0
100
AcDbCircle
 62
7
  6
CONTINUOUS
 10
101.5029607838
 20
173.22450985
 40
4.0
100
AcDbArc
 50
0.0
 51
180.0
  0
CIRCLE
  5
384
100
AcDbEntity
  8
0
100
AcDbCircle
 62
7
  6
CONTINUOUS
 10
101.5029607838
 20
191.67450985
 40
2.3
  0
ARC
  5
385
100
AcDbEntity
  8
0
100
AcDbCircle
 62
7
  6
CONTINUOUS
 10
94.5986691867
 20
202.7098650723
 40
2.2107617999
100
AcDbArc
 50
69.052191791
 51
72.1786035498
  0
ARC
  5
386
100
AcDbEntity
  8
0
100
AcDbCircle
 62
7
  6
CONTINUOUS
 10
98.4779607838
 20
203.07450985
 40
1.0
100
AcDbArc
 50
180.0
 51
270.0
  0
ARC
  5
387
100
AcDbEntity
  8
0
100
AcDbCircle
 62
7
  6
CONTINUOUS
 10
88.057053843
 20
204.77450985
 40
0.8
100
AcDbArc
 50
90.0
 51
177.131578711
  0
ARC
  5
388
100
AcDbEntity
  8
0
100
AcDbCircle
 62
7
  6
CONTINUOUS
 10
86.2529607838
 20
185.92450985
 40
0.4
100
AcDbArc
 50
320.6944192932
 51
360.0
  0
ARC
  5
389
100
AcDbEntity
  8
0
100
AcDbCircle
 62
7
  6
CONTINUOUS
 10
131.6800366241
 20
67.829893977
 40
109.9869598365
100
AcDbArc
 50
113.5261586245
 51
114.8245728874
  0
ARC
  5
38A
100
AcDbEntity
  8
0
100
AcDbCircle
 62
7
  6
CONTINUOUS
 10
139.0889886714
 20
94.2576183557
 40
84.7515899853
100
AcDbArc
 50
119.7740562968
 51
120.0011687051
  0
ARC
  5
38B
100
AcDbEntity
  8
0
100
AcDbCircle
 62
7
  6
CONTINUOUS
 10
117.7314054585
 20
147.9376479117
 40
28.0196037578
100
AcDbArc
 50
138.6058566641
 51
139.2586577056
  0
ARC
  5
38C
100
AcDbEntity
  8
0_COMPONENTS
100
AcDbCircle
 62
8
  6
HIDDEN
 10
120.6831568811
 20
107.17450985
 40
1.0
100
AcDbArc
 50
269.9999998078
 51
348.6900674837
  0
ARC
  5
38D
100
AcDbEntity
  8
0_COMPONENTS
100
AcDbCircle
 62
8
  6
HIDDEN
 10
121.2029607838
 20
106.97450985
 40
0.8
100
AcDbArc
 50
270.0
 51
360.0
  0
ARC
  5
38E
100
AcDbEntity
  8
0_COMPONENTS
100
AcDbCircle
 62
7
  6
CONTINUOUS
 10
120.7958540026
 20
103.47450985
 40
0.5
100
AcDbArc
 50
269.9999998524
 51
314.9999998899
  0
ARC
  5
38F
100
AcDbEntity
  8
0_COMPONENTS
100
AcDbCircle
 62
7
  6
CONTINUOUS
 10
123.0029607838
 20
105.6816166311
 40
0.5
100
AcDbArc
 50
314.999999651
 51
359.9999999885
  0
ARC
  5
390
100
AcDbEntity
  8
0_COMPONENTS
100
AcDbCircle
 62
7
  6
CONTINUOUS
 10
121.9529607838
 20
138.87450985
 40
0.3
100
AcDbArc
 50
0.0
 51
90.0000034806
  0
ARC
  5
391
100
AcDbEntity
  8
0
100
AcDbCircle
 62
7
  6
CONTINUOUS
 10
157.0602911644
 20
255.6695963623
 40
114.5463881246
100
AcDbArc
 50
231.3396991473
 51
231.5001195851
  0
ARC
  5
392
100
AcDbEntity
  8
0
100
AcDbCircle
 62
7
  6
CONTINUOUS
 10
131.6800366241
 20
271.5191257229
 40
109.9869598365
100
AcDbArc
 50
245.1754271126
 51
246.4738413755
  0
ARC
  5
393
100
AcDbEntity
  8
0
100
AcDbCircle
 62
7
  6
CONTINUOUS
 10
163.2050431514
 20
232.3481794089
 40
93.6051549047
100
AcDbArc
 50
224.7358156422
 51
224.9885550983
  0
ARC
  5
394
100
AcDbEntity
  8
0
100
AcDbCircle
 62
7
  6
CONTINUOUS
 10
160.784160961
 20
230.4814046452
 40
90.8908175305
100
AcDbArc
 50
224.9887190424
 51
225.23615801
  0
ARC
  5
395
100
AcDbEntity
  8
0
100
AcDbCircle
 62
7
  6
CONTINUOUS
 10
164.8018883149
 20
205.1732584657
 40
88.2113628333
100
AcDbArc
 50
206.3469842429
 51
206.5646357066
  0
ARC
  5
396
100
AcDbEntity
  8
0
100
AcDbCircle
 62
7
  6
CONTINUOUS
 10
139.0889886714
 20
245.0914013442
 40
84.7515899853
100
AcDbArc
 50
239.9988312949
 51
240.2259437032
  0
ARC
  5
397
100
AcDbEntity
  8
0
100
AcDbCircle
 62
7
  6
CONTINUOUS
 10
140.3678776393
 20
178.67450985
 40
19.5000001236
100
AcDbArc
 50
173.2520457298
 51
186.7479542702
  0
ARC
  5
398
100
AcDbEntity
  8
0
100
AcDbCircle
 62
7
  6
CONTINUOUS
 10
108.4072523809
 20
202.7098650723
 40
2.2107617999
100
AcDbArc
 50
107.8213964503
 51
110.947808209
  0
ARC
  5
399
100
AcDbEntity
  8
0
100
AcDbCircle
 62
7
  6
CONTINUOUS
 10
104.5279607838
 20
203.07450985
 40
1.0
100
AcDbArc
 50
270.0
 51
360.0
  0
ARC
  5
39A
100
AcDbEntity
  8
0
100
AcDbCircle
 62
7
  6
CONTINUOUS
 10
114.9488677247
 20
204.77450985
 40
0.8
100
AcDbArc
 50
2.868421289
 51
90.0
  0
ARC
  5
39B
100
AcDbEntity
  8
0
100
AcDbCircle
 62
7
  6
CONTINUOUS
 10
116.7529607838
 20
185.92450985
 40
0.4
100
AcDbArc
 50
180.0
 51
219.3055807068
  0
ARC
  5
39C
100
AcDbEntity
  8
0
100
AcDbCircle
 62
7
  6
CONTINUOUS
 10
23.4299396118
 20
142.4748671564
 40
145.2180157268
100
AcDbArc
 50
51.0560718979
 51
51.2464579011
  0
ARC
  5
39D
100
AcDbEntity
  8
0
100
AcDbCircle
 62
7
  6
CONTINUOUS
 10
56.2924912263
 20
221.5961964407
 40
67.5012858098
100
AcDbArc
 50
29.9037408822
 51
30.0715793484
  0
ARC
  5
39E
100
AcDbEntity
  8
0
100
AcDbCircle
 62
7
  6
CONTINUOUS
 10
22.9643549274
 20
295.1607014108
 40
93.2976953507
100
AcDbArc
 50
338.6325260267
 51
338.7689883055
  0
ARC
  5
39F
100
AcDbEntity
  8
0
100
AcDbCircle
 62
7
  6
CONTINUOUS
 10
87.9831757461
 20
239.0202647911
 40
31.7490378351
100
AcDbArc
 50
48.9533186881
 51
50.5398028331
  0
ARC
  5
3A0
100
AcDbEntity
  8
0_COMPONENTS
100
AcDbCircle
 62
7
  6
CONTINUOUS
 10
89.2370636124
 20
235.0002187003
 40
12.8595160318
100
AcDbArc
 50
30.0157059755
 51
30.312809414
  0
ARC
  5
3A1
100
AcDbEntity
  8
0_COMPONENTS
100
AcDbCircle
 62
7
  6
CONTINUOUS
 10
89.5359565778
 20
234.2048450081
 40
11.916933938
100
AcDbArc
 50
24.8354562115
 51
25.6779381964
  0
ARC
  5
3A2
100
AcDbEntity
  8
0_COMPONENTS
100
AcDbCircle
 62
7
  6
CONTINUOUS
 10
89.9741952609
 20
234.405551912
 40
11.4349250605
100
AcDbArc
 50
22.9644460859
 51
24.8450825767
  0
ARC
  5
3A3
100
AcDbEntity
  8
0_COMPONENTS
100
AcDbCircle
 62
7
  6
CONTINUOUS
 10
89.973418783
 20
234.6065148499
 40
11.3605847028
100
AcDbArc
 50
23.914417946
 51
24.8354541901
  0
ARC
  5
3A4
100
AcDbEntity
  8
0_COMPONENTS
100
AcDbCircle
 62
7
  6
CONTINUOUS
 10
90.332343922
 20
234.5576716515
 40
11.0458096961
100
AcDbArc
 50
21.9748354883
 51
22.9627416711
  0
ARC
  5
3A5
100
AcDbEntity
  8
0_COMPONENTS
100
AcDbCircle
 62
7
  6
CONTINUOUS
 10
86.9799077453
 20
237.3319924122
 40
11.0178136451
100
AcDbArc
 50
78.4723452611
 51
79.4498854683
  0
ARC
  5
3A6
100
AcDbEntity
  8
0_COMPONENTS
100
AcDbCircle
 62
7
  6
CONTINUOUS
 10
90.4061224507
 20
234.7961064266
 40
10.8881729426
100
AcDbArc
 50
21.9679894859
 51
23.9254174229
  0
ARC
  5
3A7
100
AcDbEntity
  8
0_COMPONENTS
100
AcDbCircle
 62
7
  6
CONTINUOUS
 10
86.3833279309
 20
236.1096958784
 40
7.6794394262
100
AcDbArc
 50
79.4159255414
 51
82.5798748009
  0
ARC
  5
3A8
100
AcDbEntity
  8
0_COMPONENTS
100
AcDbCircle
 62
7
  6
CONTINUOUS
 10
89.3531317521
 20
233.7687688979
 40
7.5998548908
100
AcDbArc
 50
18.1800606848
 51
22.0117399384
  0
ARC
  5
3A9
100
AcDbEntity
  8
0_COMPONENTS
100
AcDbCircle
 62
7
  6
CONTINUOUS
 10
86.4240451609
 20
236.4104681695
 40
7.3759276208
100
AcDbArc
 50
82.5917857547
 51
82.759078928
  0
ARC
  5
3AA
100
AcDbEntity
  8
0_COMPONENTS
100
AcDbCircle
 62
7
  6
CONTINUOUS
 10
89.7629400016
 20
233.9056122615
 40
7.1678085911
100
AcDbArc
 50
17.4776140707
 51
18.1628722919
  0
ARC
  5
3AB
100
AcDbEntity
  8
0_COMPONENTS
100
AcDbCircle
 62
7
  6
CONTINUOUS
 10
89.7342736968
 20
234.1179022521
 40
7.1154613839
100
AcDbArc
 50
17.2326874063
 51
20.5323222643
  0
ARC
  5
3AC
100
AcDbEntity
  8
0_COMPONENTS
100
AcDbCircle
 62
7
  6
CONTINUOUS
 10
86.6632208176
 20
236.6349028121
 40
7.1115722118
100
AcDbArc
 50
80.8919174783
 51
84.2615380862
  0
ARC
  5
3AD
100
AcDbEntity
  8
0_COMPONENTS
100
AcDbCircle
 62
7
  6
CONTINUOUS
 10
86.6952955413
 20
236.9377086834
 40
6.8070769187
100
AcDbArc
 50
84.2753179202
 51
84.4535589481
  0
ARC
  5
3AE
100
AcDbEntity
  8
0_COMPONENTS
100
AcDbCircle
 62
7
  6
CONTINUOUS
 10
90.0927352777
 20
234.2305968739
 40
6.7397053561
100
AcDbArc
 50
16.3692094995
 51
17.2204423301
  0
ARC
  5
3AF
100
AcDbEntity
  8
0_COMPONENTS
100
AcDbCircle
 62
7
  6
CONTINUOUS
 10
90.2300928858
 20
234.2710055054
 40
6.5965272631
100
AcDbArc
 50
15.657562232
 51
16.3686904305
  0
ARC
  5
3B0
100
AcDbEntity
  8
0
100
AcDbCircle
 62
7
  6
CONTINUOUS
 10
87.9560691652
 20
239.694137174
 40
4.025726252
100
AcDbArc
 50
96.8854189102
 51
98.4005422416
  0
ARC
  5
3B1
100
AcDbEntity
  8
0
100
AcDbCircle
 62
7
  6
CONTINUOUS
 10
85.3920132025
 20
239.1612117425
 40
1.8834206091
100
AcDbArc
 50
100.7057707808
 51
101.2025322209
  0
ARC
  5
3B2
100
AcDbEntity
  8
0
100
AcDbCircle
 62
7
  6
CONTINUOUS
 10
85.3558405245
 20
239.3423915507
 40
1.6986653767
100
AcDbArc
 50
101.1929439278
 51
102.2605318924
  0
ARC
  5
3B3
100
AcDbEntity
  8
0
100
AcDbCircle
 62
7
  6
CONTINUOUS
 10
86.1293567109
 20
246.7390718469
 40
14.9508601458
100
AcDbArc
 50
312.8395819068
 51
313.7400455025
  0
ARC
  5
3B4
100
AcDbEntity
  8
0
100
AcDbCircle
 62
7
  6
CONTINUOUS
 10
87.375634217
 20
241.2445076516
 40
2.3463052589
100
AcDbArc
 50
136.3329606173
 51
140.7149222373
  0
ARC
  5
3B5
100
AcDbEntity
  8
0_COMPONENTS
100
AcDbCircle
 62
7
  6
CONTINUOUS
 10
87.4222827054
 20
241.3103668044
 40
2.3407193352
100
AcDbArc
 50
138.7719285714
 51
139.7406708681
  0
ARC
  5
3B6
100
AcDbEntity
  8
0_COMPONENTS
100
AcDbCircle
 62
7
  6
CONTINUOUS
 10
87.4203150956
 20
241.3120391231
 40
2.3381370655
100
AcDbArc
 50
139.7407842677
 51
140.2342210075
  0
ARC
  5
3B7
100
AcDbEntity
  8
0_COMPONENTS
100
AcDbCircle
 62
7
  6
CONTINUOUS
 10
94.9249857315
 20
238.2829730785
 40
8.6902263866
100
AcDbArc
 50
264.796297172
 51
268.7276966586
  0
ARC
  5
3B8
100
AcDbEntity
  8
0_COMPONENTS
100
AcDbCircle
 62
7
  6
CONTINUOUS
 10
94.9095877292
 20
237.3811701125
 40
7.7883052293
100
AcDbArc
 50
268.6936392349
 51
272.6612916751
  0
ARC
  5
3B9
100
AcDbEntity
  8
0
100
AcDbCircle
 62
7
  6
CONTINUOUS
 10
93.4864884293
 20
239.6501183257
 40
6.38225291
100
AcDbArc
 50
259.4506370002
 51
260.4992033855
  0
ARC
  5
3BA
100
AcDbEntity
  8
0_COMPONENTS
100
AcDbCircle
 62
7
  6
CONTINUOUS
 10
95.051819011
 20
235.8276654242
 40
6.2270666757
100
AcDbArc
 50
277.7588822715
 51
281.343246061
  0
ARC
  5
3BB
100
AcDbEntity
  8
0_COMPONENTS
100
AcDbCircle
 62
7
  6
CONTINUOUS
 10
95.34408912
 20
234.7017551027
 40
5.0625215144
100
AcDbArc
 50
288.8566574585
 51
290.731477028
  0
ARC
  5
3BC
100
AcDbEntity
  8
0
100
AcDbCircle
 62
7
  6
CONTINUOUS
 10
94.1151771848
 20
235.7304214912
 40
2.3458265794
100
AcDbArc
 50
320.7171023377
 51
322.6705099514
  0
ARC
  5
3BD
100
AcDbEntity
  8
0_COMPONENTS
100
AcDbCircle
 62
7
  6
CONTINUOUS
 10
94.1696234899
 20
235.7904490946
 40
2.3417036777
100
AcDbArc
 50
321.7022214209
 51
323.3391416848
  0
ARC
  5
3BE
100
AcDbEntity
  8
0
100
AcDbCircle
 62
7
  6
CONTINUOUS
 10
93.5852009294
 20
237.9554769381
 40
2.2645909071
100
AcDbArc
 50
351.7593162859
 51
354.5678798386
  0
ARC
  5
3BF
100
AcDbEntity
  8
0_COMPONENTS
100
AcDbCircle
 62
7
  6
CONTINUOUS
 10
94.1327180838
 20
244.7959192854
 40
11.9722497792
100
AcDbArc
 50
73.891866857
 51
74.1107094851
  0
ARC
  5
3C0
100
AcDbEntity
  8
0_COMPONENTS
100
AcDbCircle
 62
7
  6
CONTINUOUS
 10
94.2349391861
 20
244.9611851803
 40
11.8344430378
100
AcDbArc
 50
74.1439255911
 51
74.5654955903
  0
ARC
  5
3C1
100
AcDbEntity
  8
0_COMPONENTS
100
AcDbCircle
 62
7
  6
CONTINUOUS
 10
95.4523833903
 20
244.320529009
 40
10.7688977368
100
AcDbArc
 50
222.4481963965
 51
223.3043164448
  0
ARC
  5
3C2
100
AcDbEntity
  8
0
100
AcDbCircle
 62
7
  6
CONTINUOUS
 10
95.4642826834
 20
244.33974703
 40
10.7507534483
100
AcDbArc
 50
222.4997932112
 51
223.3143249665
  0
ARC
  5
3C3
100
AcDbEntity
  8
0_COMPONENTS
100
AcDbCircle
 62
7
  6
CONTINUOUS
 10
91.8874809741
 20
242.37951309
 40
10.6476563414
100
AcDbArc
 50
204.8342083019
 51
205.3137244481
  0
ARC
  5
3C4
100
AcDbEntity
  8
0
100
AcDbCircle
 62
7
  6
CONTINUOUS
 10
95.4003227424
 20
244.2606306671
 40
10.5899044805
100
AcDbArc
 50
222.6402070989
 51
223.1309521614
  0
ARC
  5
3C5
100
AcDbEntity
  8
0
100
AcDbCircle
 62
7
  6
CONTINUOUS
 10
95.3481346807
 20
244.2125319831
 40
10.5189321181
100
AcDbArc
 50
222.3115986149
 51
222.6400401413
  0
ARC
  5
3C6
100
AcDbEntity
  8
0_COMPONENTS
100
AcDbCircle
 62
7
  6
CONTINUOUS
 10
91.6303633173
 20
242.1635411499
 40
10.2550021931
100
AcDbArc
 50
204.3521112554
 51
204.834132079
  0
ARC
  5
3C7
100
AcDbEntity
  8
0_COMPONENTS
100
AcDbCircle
 62
7
  6
CONTINUOUS
 10
91.4112471296
 20
242.1644998791
 40
10.1251582457
100
AcDbArc
 50
201.9835049399
 51
204.8618517977
  0
ARC
  5
3C8
100
AcDbEntity
  8
0_COMPONENTS
100
AcDbCircle
 62
7
  6
CONTINUOUS
 10
91.2682107461
 20
242.0014202699
 40
9.8582215409
100
AcDbArc
 50
201.3674967444
 51
204.3616101203
  0
ARC
  5
3C9
100
AcDbEntity
  8
0_COMPONENTS
100
AcDbCircle
 62
7
  6
CONTINUOUS
 10
92.3570093909
 20
242.5190998651
 40
8.8902997109
100
AcDbArc
 50
204.8369126069
 51
205.9639209666
  0
ARC
  5
3CA
100
AcDbEntity
  8
0_COMPONENTS
100
AcDbCircle
 62
7
  6
CONTINUOUS
 10
92.0899598231
 20
242.3953609348
 40
8.595975436
100
AcDbArc
 50
203.3156019311
 51
204.8360907642
  0
ARC
  5
3CB
100
AcDbEntity
  8
0_COMPONENTS
100
AcDbCircle
 62
7
  6
CONTINUOUS
 10
91.9202022541
 20
242.1177296501
 40
8.3346708093
100
AcDbArc
 50
203.5835554366
 51
204.8369847981
  0
ARC
  5
3CC
100
AcDbEntity
  8
0_COMPONENTS
100
AcDbCircle
 62
7
  6
CONTINUOUS
 10
91.663705241
 20
242.0056761914
 40
8.0547660224
100
AcDbArc
 50
201.9805008183
 51
203.5830317706
  0
ARC
  5
3CD
100
AcDbEntity
  8
0_COMPONENTS
100
AcDbCircle
 62
7
  6
CONTINUOUS
 10
92.7647891275
 20
242.6918456492
 40
7.5829794106
100
AcDbArc
 50
204.878568685
 51
206.1587063802
  0
ARC
  5
3CE
100
AcDbEntity
  8
0_COMPONENTS
100
AcDbCircle
 62
7
  6
CONTINUOUS
 10
92.5097772161
 20
242.573600318
 40
7.3018864753
100
AcDbArc
 50
203.531458835
 51
204.8372501118
  0
ARC
  5
3CF
100
AcDbEntity
  8
0_COMPONENTS
100
AcDbCircle
 62
7
  6
CONTINUOUS
 10
92.5511520836
 20
242.5914402161
 40
7.2762420188
100
AcDbArc
 50
203.5315409032
 51
204.8354567683
  0
ARC
  5
3D0
100
AcDbEntity
  8
0
100
AcDbCircle
 62
7
  6
CONTINUOUS
 10
92.9976295173
 20
243.0457553051
 40
7.1178740062
100
AcDbArc
 50
204.3696875549
 51
204.8340878088
  0
ARC
  5
3D1
100
AcDbEntity
  8
0
100
AcDbCircle
 62
7
  6
CONTINUOUS
 10
92.9482862461
 20
243.0233474784
 40
7.0636811426
100
AcDbArc
 50
204.2326023179
 51
204.3692723483
  0
ARC
  5
3D2
100
AcDbEntity
  8
0_COMPONENTS
100
AcDbCircle
 62
7
  6
CONTINUOUS
 10
92.304844756
 20
242.4837991915
 40
7.0074414193
100
AcDbArc
 50
201.9719943246
 51
203.5286751024
  0
ARC
  5
3D3
100
AcDbEntity
  8
0_COMPONENTS
100
AcDbCircle
 62
7
  6
CONTINUOUS
 10
92.1137170747
 20
242.4056395698
 40
6.8009523291
100
AcDbArc
 50
201.6406299277
 51
201.9638090845
  0
ARC
  5
3D4
100
AcDbEntity
  8
0_COMPONENTS
100
AcDbCircle
 62
7
  6
CONTINUOUS
 10
91.8160944999
 20
242.0769395586
 40
6.4726611644
100
AcDbArc
 50
199.8591585445
 51
201.9624625377
  0
ARC
  5
3D5
100
AcDbEntity
  8
0_COMPONENTS
100
AcDbCircle
 62
7
  6
CONTINUOUS
 10
94.8105745113
 20
248.6860993461
 40
7.4098689506
100
AcDbArc
 50
87.9944062528
 51
90.8234921233
  0
ARC
  5
3D6
100
AcDbEntity
  8
0_COMPONENTS
100
AcDbCircle
 62
7
  6
CONTINUOUS
 10
92.2732825648
 20
250.7813631669
 40
3.7745306206
100
AcDbArc
 50
148.8093912941
 51
154.7995569813
  0
ARC
  5
3D7
100
AcDbEntity
  8
0_COMPONENTS
100
AcDbCircle
 62
7
  6
CONTINUOUS
 10
92.171356162
 20
250.8417289382
 40
3.6560753087
100
AcDbArc
 50
140.7319372513
 51
148.7914241951
  0
ARC
  5
3D8
100
AcDbEntity
  8
0
100
AcDbCircle
 62
7
  6
CONTINUOUS
 10
99.3321315664
 20
243.9191424781
 40
21.117807482
100
AcDbArc
 50
58.2533611968
 51
60.2318449372
  0
ARC
  5
3D9
100
AcDbEntity
  8
0
100
AcDbCircle
 62
7
  6
CONTINUOUS
 10
97.6020498513
 20
244.2565323923
 40
13.0702530961
100
AcDbArc
 50
216.3326966058
 51
217.3175858566
  0
ARC
  5
3DA
100
AcDbEntity
  8
0_COMPONENTS
100
AcDbCircle
 62
7
  6
CONTINUOUS
 10
97.0016079368
 20
243.4233272189
 40
11.143035225
100
AcDbArc
 50
24.833815923
 51
25.0990791477
  0
ARC
  5
3DB
100
AcDbEntity
  8
0_COMPONENTS
100
AcDbCircle
 62
7
  6
CONTINUOUS
 10
97.1068270073
 20
243.5333589062
 40
11.0481121075
100
AcDbArc
 50
24.5252811048
 51
24.8338367417
  0
ARC
  5
3DC
100
AcDbEntity
  8
0
100
AcDbCircle
 62
7
  6
CONTINUOUS
 10
97.6394508642
 20
246.8546155535
 40
7.6806161737
100
AcDbArc
 50
236.210461984
 51
242.3744531198
  0
ARC
  5
3DD
100
AcDbEntity
  8
0_COMPONENTS
100
AcDbCircle
 62
7
  6
CONTINUOUS
 10
103.1711631665
 20
244.684936315
 40
4.7634972872
100
AcDbArc
 50
350.4695106343
 51
351.7930514514
  0
ARC
  5
3DE
100
AcDbEntity
  8
0_COMPONENTS
100
AcDbCircle
 62
7
  6
CONTINUOUS
 10
103.8816018256
 20
244.5069374243
 40
4.0299626044
100
AcDbArc
 50
337.2980482943
 51
341.2774715005
  0
ARC
  5
3DF
100
AcDbEntity
  8
0_COMPONENTS
100
AcDbCircle
 62
7
  6
CONTINUOUS
 10
104.0654508246
 20
244.4300844972
 40
3.8306968933
100
AcDbArc
 50
329.5971024356
 51
337.2972185574
  0
ARC
  5
3E0
100
AcDbEntity
  8
0_COMPONENTS
100
AcDbCircle
 62
7
  6
CONTINUOUS
 10
102.4928004112
 20
242.4205601816
 40
3.774306923
100
AcDbArc
 50
306.6254830485
 51
312.6203822383
  0
ARC
  5
3E1
100
AcDbEntity
  8
0_COMPONENTS
100
AcDbCircle
 62
7
  6
CONTINUOUS
 10
104.2158205601
 20
244.3450407954
 40
3.6579671287
100
AcDbArc
 50
320.7325401761
 51
329.5540355515
  0
ARC
  5
3E2
100
AcDbEntity
  8
0_COMPONENTS
100
AcDbCircle
 62
7
  6
CONTINUOUS
 10
102.5717205973
 20
242.3330256749
 40
3.6564544657
100
AcDbArc
 50
312.6391704377
 51
320.6933051167
  0
ARC
  5
3E3
100
AcDbEntity
  8
0
100
AcDbCircle
 62
7
  6
CONTINUOUS
 10
100.5564903851
 20
258.7611891183
 40
14.4775707904
100
AcDbArc
 50
343.799747744
 51
344.4400758052
  0
ARC
  5
3E4
100
AcDbEntity
  8
0
100
AcDbCircle
 62
7
  6
CONTINUOUS
 10
106.486972514
 20
260.8584056616
 40
10.0212672648
100
AcDbArc
 50
78.4373650674
 51
79.4507390231
  0
ARC
  5
3E5
100
AcDbEntity
  8
0
100
AcDbCircle
 62
7
  6
CONTINUOUS
 10
105.9938686816
 20
258.1600375117
 40
7.1318441719
100
AcDbArc
 50
6.1900554714
 51
6.6417372276
  0
ARC
  5
3E6
100
AcDbEntity
  8
0
100
AcDbCircle
 62
7
  6
CONTINUOUS
 10
103.8328209585
 20
260.6552043223
 40
6.3451120289
100
AcDbArc
 50
186.4737332218
 51
187.3809324049
  0
ARC
  5
3E7
100
AcDbEntity
  8
0
100
AcDbCircle
 62
7
  6
CONTINUOUS
 10
102.4210665355
 20
262.9195240395
 40
3.5663959166
100
AcDbArc
 50
140.7861675141
 51
153.9109383849
  0
ARC
  5
3E8
100
AcDbEntity
  8
0
100
AcDbCircle
 62
7
  6
CONTINUOUS
 10
100.9915262157
 20
261.231229094
 40
3.5289977286
100
AcDbArc
 50
131.4864897005
 51
140.68977485
  0
ARC
  5
3E9
100
AcDbEntity
  8
GIANNI_ASSI
100
AcDbCircle
 62
7
  6
CONTINUOUS
 10
97.2160453064
 20
256.3566115503
 40
0.2179264056
100
AcDbArc
 50
16.0543771125
 51
24.8158318795
  0
ARC
  5
3EA
100
AcDbEntity
  8
0
100
AcDbCircle
 62
7
  6
CONTINUOUS
 10
91.9694426944
 20
273.6122050816
 40
29.1190499507
100
AcDbArc
 50
319.4817336784
 51
319.6565094357
  0
ARC
  5
3EB
100
AcDbEntity
  8
0
100
AcDbCircle
 62
7
  6
CONTINUOUS
 10
106.8915069176
 20
278.537563481
 40
16.0354644744
100
AcDbArc
 50
282.5747214325
 51
286.5054280754
  0
ARC
  5
3EC
100
AcDbEntity
  8
0
100
AcDbCircle
 62
7
  6
CONTINUOUS
 10
162.1170304864
 20
200.1488904898
 40
83.0205513311
100
AcDbArc
 50
130.8724466919
 51
131.0247819685
  0
ARC
  5
3ED
100
AcDbEntity
  8
0
100
AcDbCircle
 62
7
  6
CONTINUOUS
 10
192.6225684624
 20
274.5439852037
 40
83.9974586145
100
AcDbArc
 50
186.6656815113
 51
187.4940514486
  0
ARC
  5
3EE
100
AcDbEntity
  8
0
100
AcDbCircle
 62
7
  6
CONTINUOUS
 10
138.1528678374
 20
318.3874331388
 40
65.7780383547
100
AcDbArc
 50
249.999121499
 51
250.1698786234
  0
ARC
  5
3EF
100
AcDbEntity
  8
0
100
AcDbCircle
 62
7
  6
CONTINUOUS
 10
156.8776649045
 20
277.3935736666
 40
61.9178123583
100
AcDbArc
 50
196.3837272001
 51
196.5164236578
  0
ARC
  5
3F0
100
AcDbEntity
  8
0
100
AcDbCircle
 62
7
  6
CONTINUOUS
 10
121.1974794479
 20
308.0403922741
 40
53.5825184447
100
AcDbArc
 50
262.5901646118
 51
262.8233376264
  0
ARC
  5
3F1
100
AcDbEntity
  8
0
100
AcDbCircle
 62
7
  6
CONTINUOUS
 10
121.0405406416
 20
305.2311679426
 40
50.9361043338
100
AcDbArc
 50
262.24041474
 51
262.5761747568
  0
ARC
  5
3F2
100
AcDbEntity
  8
0
100
AcDbCircle
 62
7
  6
CONTINUOUS
 10
149.5772296506
 20
249.0354685308
 40
32.6555682319
100
AcDbArc
 50
147.7595419705
 51
147.9152719673
  0
ARC
  5
3F3
100
AcDbEntity
  8
0
100
AcDbCircle
 62
7
  6
CONTINUOUS
 10
110.9675315079
 20
263.2013075502
 40
11.9316377091
100
AcDbArc
 50
44.4541745571
 51
49.9008338314
  0
ARC
  5
3F4
100
AcDbEntity
  8
0
100
AcDbCircle
 62
7
  6
CONTINUOUS
 10
111.2166946008
 20
263.4515114186
 40
11.5785557037
100
AcDbArc
 50
43.2379255357
 51
44.4338874403
  0
ARC
  5
3F5
100
AcDbEntity
  8
0
100
AcDbCircle
 62
7
  6
CONTINUOUS
 10
111.2951428876
 20
263.5257138949
 40
11.4705740435
100
AcDbArc
 50
43.1072605936
 51
43.2363358505
  0
ARC
  5
3F6
100
AcDbEntity
  8
0
100
AcDbCircle
 62
7
  6
CONTINUOUS
 10
111.332545418
 20
263.5606590186
 40
11.4193870458
100
AcDbArc
 50
42.6689765162
 51
43.1074966303
  0
ARC
  5
3F7
100
AcDbEntity
  8
0
100
AcDbCircle
 62
7
  6
CONTINUOUS
 10
108.8049856298
 20
258.0174967344
 40
10.8407160298
100
AcDbArc
 50
24.835839707
 51
25.7589268782
  0
ARC
  5
3F8
100
AcDbEntity
  8
0
100
AcDbCircle
 62
7
  6
CONTINUOUS
 10
109.1999091667
 20
258.1986794435
 40
10.4062167953
100
AcDbArc
 50
23.0592955648
 51
24.8438216692
  0
ARC
  5
3F9
100
AcDbEntity
  8
0
100
AcDbCircle
 62
7
  6
CONTINUOUS
 10
109.2417262938
 20
258.4188378582
 40
10.285159672
100
AcDbArc
 50
23.8188524151
 51
24.835831785
  0
ARC
  5
3FA
100
AcDbEntity
  8
0
100
AcDbCircle
 62
7
  6
CONTINUOUS
 10
109.5237149755
 20
258.336682367
 40
10.0542295991
100
AcDbArc
 50
21.9743573301
 51
23.0584574074
  0
ARC
  5
3FB
100
AcDbEntity
  8
0
100
AcDbCircle
 62
7
  6
CONTINUOUS
 10
109.6289385967
 20
258.5880141877
 40
9.8626063568
100
AcDbArc
 50
21.9637346514
 51
23.8281893971
  0
ARC
  5
3FC
100
AcDbEntity
  8
0
100
AcDbCircle
 62
7
  6
CONTINUOUS
 10
112.1914574557
 20
250.7023900078
 40
7.9330245563
100
AcDbArc
 50
85.7861200425
 51
86.6544095291
  0
ARC
  5
3FD
100
AcDbEntity
  8
0
100
AcDbCircle
 62
7
  6
CONTINUOUS
 10
118.0179657495
 20
269.5757597243
 40
4.5127183094
100
AcDbArc
 50
262.826034584
 51
266.4460650781
  0
ARC
  5
3FE
100
AcDbEntity
  8
0
100
AcDbCircle
 62
7
  6
CONTINUOUS
 10
118.2862478658
 20
266.5331671819
 40
3.6913171179
100
AcDbArc
 50
356.0529342155
 51
358.612682853
  0
ARC
  5
3FF
100
AcDbEntity
  8
0
100
AcDbCircle
 62
7
  6
CONTINUOUS
 10
111.0072623179
 20
253.0370679713
 40
3.530383208
100
AcDbArc
 50
320.7370679379
 51
329.9168122671
  0
ARC
  5
400
100
AcDbEntity
  8
0
100
AcDbCircle
 62
7
  6
CONTINUOUS
 10
121.7101654762
 20
271.2812524497
 40
2.5595476029
100
AcDbArc
 50
201.4726512247
 51
206.6259259456
  0
ARC
  5
401
100
AcDbEntity
  8
0
100
AcDbCircle
 62
7
  6
CONTINUOUS
 10
112.2880150211
 20
272.0932577562
 40
2.5168588308
100
AcDbArc
 50
133.1486523447
 51
137.1043117878
  0
ARC
  5
402
100
AcDbEntity
  8
0
100
AcDbCircle
 62
7
  6
CONTINUOUS
 10
121.3799085729
 20
271.1176561385
 40
2.1909967265
100
AcDbArc
 50
206.6720022404
 51
209.6092892925
  0
ARC
  5
403
100
AcDbEntity
  8
0
100
AcDbCircle
 62
7
  6
CONTINUOUS
 10
118.4086962404
 20
270.5247180855
 40
1.5312515233
100
AcDbArc
 50
27.9350063297
 51
30.4303061132
  0
ARC
  5
404
100
AcDbEntity
  8
0
100
AcDbCircle
 62
7
  6
CONTINUOUS
 10
118.526378118
 20
270.594694056
 40
1.3943388772
100
AcDbArc
 50
30.4002348305
 51
34.445546945
  0
ARC
  5
405
100
AcDbEntity
  8
0
100
AcDbCircle
 62
7
  6
CONTINUOUS
 10
120.3206403085
 20
265.4487188896
 40
1.314585828
100
AcDbArc
 50
33.7328300445
 51
36.5006214749
  0
ARC
  5
406
100
AcDbEntity
  8
0
100
AcDbCircle
 62
7
  6
CONTINUOUS
 10
118.6548632583
 20
265.1207298468
 40
1.1759273169
100
AcDbArc
 50
153.0682426789
 51
153.351985405
  0
ARC
  5
407
100
AcDbEntity
  8
0
100
AcDbCircle
 62
7
  6
CONTINUOUS
 10
118.5460494647
 20
264.9935883979
 40
1.1142016089
100
AcDbArc
 50
154.7159235786
 51
157.9983600774
  0
ARC
  5
408
100
AcDbEntity
  8
0
100
AcDbCircle
 62
7
  6
CONTINUOUS
 10
118.473562134
 20
265.0272946296
 40
1.0342624303
100
AcDbArc
 50
153.4920430598
 51
154.689188731
  0
ARC
  5
409
100
AcDbEntity
  8
0
100
AcDbCircle
 62
7
  6
CONTINUOUS
 10
118.1637750594
 20
265.2615047984
 40
0.6433068631
100
AcDbArc
 50
129.3763589057
 51
130.8233372463
  0
ARC
  5
40A
100
AcDbEntity
  8
0
100
AcDbCircle
 62
7
  6
CONTINUOUS
 10
121.6037917723
 20
266.3558394612
 40
0.3829298533
100
AcDbArc
 50
13.2792064627
 51
18.0213361714
  0
ARC
  5
40B
100
AcDbEntity
  8
0
100
AcDbCircle
 62
7
  6
CONTINUOUS
 10
111.8372077453
 20
258.1309158865
 40
0.262652865
100
AcDbArc
 50
86.4463384038
 51
91.422795948
  0
LINE
  5
40C
100
AcDbEntity
  8
0_COMPONENTS
100
AcDbLine
 62
7
  6
CONTINUOUS
 10
80.7542441677
 20
137.8881217892
 11
80.7529607839
 21
137.9245098521
  0
SPLINE
  5
40D
100
AcDbEntity
  8
0_COMPONENTS
100
AcDbSpline
 62
7
  6
CONTINUOUS
 70
0
 71
3
 72
14
 73
10
 74
0
 42
0.0000001
 43
0.0000001
 44
0.0000000001
 40
0.0
 40
0.0
 40
0.0
 40
0.0
 40
0.3826550407
 40
0.5554938353
 40
0.7069852316
 40
0.8313935042
 40
0.9238249098
 40
0.9807457844
 40
1.0
 40
1.0
 40
1.0
 40
1.0
 10
80.7665194305
 20
137.17450985
 30
0.0
 10
80.7665194305
 20
137.078825606
 30
0.0
 10
80.7655458322
 20
136.9399198324
 30
0.0
 10
80.7625748534
 20
136.7631603718
 30
0.0
 10
80.7599476331
 20
136.6509804356
 30
0.0
 10
80.7575704359
 20
136.5589129739
 30
0.0
 10
80.75496658
 20
136.4904930232
 30
0.0
 10
80.7543006208
 20
136.4483563374
 30
0.0
 10
80.7527955994
 20
136.4293215994
 30
0.0
 10
80.7529607842
 20
136.4245098493
 30
0.0
  0
LINE
  5
40E
100
AcDbEntity
  8
0_COMPONENTS
100
AcDbLine
 62
7
  6
CONTINUOUS
 10
80.7529607842
 20
136.4245098492
 11
80.7542525772
 21
136.4611430799
  0
SPLINE
  5
40F
100
AcDbEntity
  8
0_COMPONENTS
100
AcDbSpline
 62
7
  6
CONTINUOUS
 70
0
 71
3
 72
22
 73
18
 74
0
 42
0.0000001
 43
0.0000001
 44
0.0000000001
 40
0.0
 40
0.0
 40
0.0
 40
0.0
 40
0.0012124357
 40
0.004837228
 40
0.0108556236
 40
0.0192488704
 40
0.0299982175
 40
0.0430849152
 40
0.0761708219
 40
0.1181540748
 40
0.1686037935
 40
0.2270801621
 40
0.2930086544
 40
0.4444968253
 40
0.6173374318
 40
0.8051073691
 40
1.0
 40
1.0
 40
1.0
 40
1.0
 10
80.7529607839
 20
137.9245098521
 30
0.0
 10
80.7532609988
 20
137.9244675929
 30
0.0
 10
80.7526030786
 20
137.9226253015
 30
0.0
 10
80.7533780081
 20
137.9205226877
 30
0.0
 10
80.7531561721
 20
137.9156691791
 30
0.0
 10
80.7535485795
 20
137.9095338664
 30
0.0
 10
80.7537665301
 20
137.9014210733
 30
0.0
 10
80.7542911521
 20
137.8872238544
 30
0.0
 10
80.7550213317
 20
137.8651748494
 30
0.0
 10
80.756054751
 20
137.8338128072
 30
0.0
 10
80.757218518
 20
137.7960925896
 30
0.0
 10
80.7584857865
 20
137.7523886965
 30
0.0
 10
80.7603309718
 20
137.6834247729
 30
0.0
 10
80.7625580702
 20
137.5858644413
 30
0.0
 10
80.7647320511
 20
137.4578295709
 30
0.0
 10
80.766176008
 20
137.3189302339
 30
0.0
 10
80.7665194305
 20
137.2232435565
 30
0.0
 10
80.7665194305
 20
137.17450985
 30
0.0
  0
LINE
  5
410
100
AcDbEntity
  8
0
100
AcDbLine
 62
7
  6
CONTINUOUS
 10
121.484195512
 20
173.26214665
 11
121.5029607838
 21
173.17450985
  0
SPLINE
  5
411
100
AcDbEntity
  8
0
100
AcDbSpline
 62
7
  6
CONTINUOUS
 70
0
 71
3
 72
23
 73
19
 74
0
 42
0.0000001
 43
0.0000001
 44
0.0000000001
 40
0.0
 40
0.0
 40
0.0
 40
0.0
 40
0.2020821601
 40
0.3903358672
 40
0.5607783075
 40
0.6381021204
 40
0.7094377988
 40
0.7742188059
 40
0.8318815174
 40
0.8818669176
 40
0.9236273695
 40
0.9566955736
 40
0.9698338667
 40
0.9806382281
 40
0.9890778315
 40
0.9951318467
 40
0.9987794972
 40
1.0
 40
1.0
 40
1.0
 40
1.0
 10
121.0029607838
 20
180.9657976974
 30
0.0
 10
121.0233416093
 20
181.1837232734
 30
0.0
 10
121.068210627
 20
181.6041671854
 30
0.0
 10
121.1473685864
 20
182.2064204427
 30
0.0
 10
121.2191677929
 20
182.6732233175
 30
0.0
 10
121.2767132753
 20
183.0140244381
 30
0.0
 10
121.3171766021
 20
183.2416365513
 30
0.0
 10
121.3555246712
 20
183.4479919541
 30
0.0
 10
121.3909173939
 20
183.6313593253
 30
0.0
 10
121.4225698295
 20
183.7900864759
 30
0.0
 10
121.4496279041
 20
183.9224623097
 30
0.0
 10
121.4691805788
 20
184.0158905187
 30
0.0
 10
121.4818593454
 20
184.0760476513
 30
0.0
 10
121.4893869765
 20
184.1108901878
 30
0.0
 10
121.4945221728
 20
184.1362904475
 30
0.0
 10
121.4999938436
 20
184.1586747767
 30
0.0
 10
121.5001140972
 20
184.1646464961
 30
0.0
 10
121.503695152
 20
184.1756090382
 30
0.0
 10
121.5029607838
 20
184.17450985
 30
0.0
  0
SPLINE
  5
412
100
AcDbEntity
  8
0
100
AcDbSpline
 62
7
  6
CONTINUOUS
 70
0
 71
3
 72
21
 73
17
 74
0
 42
0.0000001
 43
0.0000001
 44
0.0000000001
 40
0.0
 40
0.0
 40
0.0
 40
0.0
 40
0.0012205051
 40
0.0048681607
 40
0.010922184
 40
0.0193617988
 40
0.0433044827
 40
0.0763727333
 40
0.1181332437
 40
0.1681187135
 40
0.2257815051
 40
0.2905626024
 40
0.4392209094
 40
0.6096635879
 40
0.7979175579
 40
1.0
 40
1.0
 40
1.0
 40
1.0
 10
121.5029607838
 20
173.17450985
 30
0.0
 10
121.5024589211
 20
173.1757328164
 30
0.0
 10
121.5018813455
 20
173.1810535364
 30
0.0
 10
121.498869994
 20
173.1924565678
 30
0.0
 10
121.4950367336
 20
173.2117583766
 30
0.0
 10
121.4861596189
 20
173.2524147514
 30
0.0
 10
121.4715717133
 20
173.3218003881
 30
0.0
 10
121.4496319518
 20
173.4265003384
 30
0.0
 10
121.422568386
 20
173.5589535729
 30
0.0
 10
121.3909178787
 20
173.7176535246
 30
0.0
 10
121.3555245162
 20
173.9010300128
 30
0.0
 10
121.3018749675
 20
174.1897214049
 30
0.0
 10
121.2309137469
 20
174.5994283295
 30
0.0
 10
121.1473687863
 20
175.1425984897
 30
0.0
 10
121.0682105628
 20
175.7448527607
 30
0.0
 10
121.0233416093
 20
176.1652964265
 30
0.0
 10
121.0029607838
 20
176.3832220025
 30
0.0
  0
SPLINE
  5
413
100
AcDbEntity
  8
0
100
AcDbSpline
 62
7
  6
CONTINUOUS
 70
0
 71
3
 72
9
 73
5
 74
0
 42
0.0000001
 43
0.0000001
 44
0.0000000001
 40
0.0
 40
0.0
 40
0.0
 40
0.0
 40
0.2364937701
 40
1.0
 40
1.0
 40
1.0
 40
1.0
 10
95.0821649573
 20
205.5639793128
 30
0.0
 10
95.1228548375
 20
205.5639793128
 30
0.0
 10
95.2949041657
 20
205.5662932837
 30
0.0
 10
95.4668508412
 20
205.57450985
 30
0.0
 10
95.5982157267
 20
205.57450985
 30
0.0
  0
SPLINE
  5
414
100
AcDbEntity
  8
0
100
AcDbSpline
 62
7
  6
CONTINUOUS
 70
0
 71
3
 72
34
 73
30
 74
0
 42
0.0000001
 43
0.0000001
 44
0.0000000001
 40
0.0
 40
0.0
 40
0.0
 40
0.0
 40
0.0640646975
 40
0.1271453268
 40
0.1891504412
 40
0.2499269067
 40
0.3092136453
 40
0.3381660763
 40
0.3665328773
 40
0.3941554218
 40
0.4207564481
 40
0.433532032
 40
0.4458260246
 40
0.4575191689
 40
0.469010054
 40
0.4835372646
 40
0.4924559999
 40
0.5016312505
 40
0.5198455168
 40
0.5377535005
 40
0.5553662814
 40
0.5727440226
 40
0.6069719636
 40
0.6406980858
 40
0.674071934
 40
0.740107899
 40
0.805534
 40
0.8705830345
 40
1.0
 40
1.0
 40
1.0
 40
1.0
 10
94.7699556198
 20
204.9038851458
 30
0.0
 10
94.676807809
 20
204.9038851458
 30
0.0
 10
94.4919290515
 20
204.9066707321
 30
0.0
 10
94.2171665454
 20
204.9195710692
 30
0.0
 10
93.9477672658
 20
204.9416414017
 30
0.0
 10
93.6849349871
 20
204.9738216179
 30
0.0
 10
93.471286253
 20
205.0106590457
 30
0.0
 10
93.3058549911
 20
205.0479189957
 30
0.0
 10
93.1865715571
 20
205.0801324677
 30
0.0
 10
93.0725159942
 20
205.1178855815
 30
0.0
 10
92.9825871372
 20
205.1559351989
 30
0.0
 10
92.9168751616
 20
205.1925117505
 30
0.0
 10
92.8732890474
 20
205.2238396375
 30
0.0
 10
92.836928925
 20
205.2606340561
 30
0.0
 10
92.8164154768
 20
205.3167766925
 30
0.0
 10
92.8484454624
 20
205.3643526899
 30
0.0
 10
92.8868966133
 20
205.3913224068
 30
0.0
 10
92.9337619124
 20
205.4162120772
 30
0.0
 10
92.9957460914
 20
205.4388882592
 30
0.0
 10
93.0711618896
 20
205.4594883053
 30
0.0
 10
93.1464066265
 20
205.47555558
 30
0.0
 10
93.245571476
 20
205.4928217763
 30
0.0
 10
93.3686316211
 20
205.5089846838
 30
0.0
 10
93.5152912634
 20
205.5231510146
 30
0.0
 10
93.7083709827
 20
205.5371773934
 30
0.0
 10
93.9477994181
 20
205.548506073
 30
0.0
 10
94.2334140764
 20
205.5565499238
 30
0.0
 10
94.611244573
 20
205.5626462063
 30
0.0
 10
94.8939972535
 20
205.5639793128
 30
0.0
 10
95.0821649573
 20
205.5639793128
 30
0.0
  0
SPLINE
  5
415
100
AcDbEntity
  8
0
100
AcDbSpline
 62
7
  6
CONTINUOUS
 70
0
 71
3
 72
9
 73
5
 74
0
 42
0.0000001
 43
0.0000001
 44
0.0000000001
 40
0.0
 40
0.0
 40
0.0
 40
0.0
 40
0.5030357349
 40
1.0
 40
1.0
 40
1.0
 40
1.0
 10
95.2752747046
 20
204.8145438386
 30
0.0
 10
95.1930860145
 20
204.8409089651
 30
0.0
 10
95.0271031183
 20
204.8861588427
 30
0.0
 10
94.8552278054
 20
204.9038851458
 30
0.0
 10
94.7699556198
 20
204.9038851458
 30
0.0
  0
SPLINE
  5
416
100
AcDbEntity
  8
0
100
AcDbSpline
 62
7
  6
CONTINUOUS
 70
0
 71
3
 72
34
 73
30
 74
0
 42
0.0000001
 43
0.0000001
 44
0.0000000001
 40
0.0
 40
0.0
 40
0.0
 40
0.0
 40
0.1294172769
 40
0.1944664912
 40
0.2598927309
 40
0.325928863
 40
0.3593027564
 40
0.3930289356
 40
0.4272568591
 40
0.4446350502
 40
0.4622476791
 40
0.4801586104
 40
0.4983726866
 40
0.5075617835
 40
0.5164489408
 40
0.5309747531
 40
0.5424791356
 40
0.5541766602
 40
0.5664697448
 40
0.5792458775
 40
0.6058467677
 40
0.633469173
 40
0.6618358658
 40
0.6907881708
 40
0.750074711
 40
0.8108509272
 40
0.87285576
 40
0.9359358982
 40
1.0
 40
1.0
 40
1.0
 40
1.0
 10
107.9237566103
 20
205.5639793128
 30
0.0
 10
108.1119220387
 20
205.5639793128
 30
0.0
 10
108.3946713403
 20
205.5626466421
 30
0.0
 10
108.7724972597
 20
205.5565497534
 30
0.0
 10
109.0581085116
 20
205.5485070016
 30
0.0
 10
109.297533953
 20
205.537177399
 30
0.0
 10
109.4906113287
 20
205.5231532079
 30
0.0
 10
109.6372691824
 20
205.5089865071
 30
0.0
 10
109.7603274406
 20
205.4928239838
 30
0.0
 10
109.8594938604
 20
205.475564439
 30
0.0
 10
109.9347353959
 20
205.4594839647
 30
0.0
 10
110.0101810176
 20
205.4389372138
 30
0.0
 10
110.0721063733
 20
205.4161025324
 30
0.0
 10
110.1190799999
 20
205.3914475991
 30
0.0
 10
110.157322156
 20
205.3642335574
 30
0.0
 10
110.1894503724
 20
205.3168462825
 30
0.0
 10
110.1690326708
 20
205.2605900247
 30
0.0
 10
110.1325902774
 20
205.2238361776
 30
0.0
 10
110.0890191659
 20
205.1924880235
 30
0.0
 10
110.0232988115
 20
205.1559240343
 30
0.0
 10
109.9333744144
 20
205.1178723634
 30
0.0
 10
109.8193188788
 20
205.080123579
 30
0.0
 10
109.700037643
 20
205.04791206
 30
0.0
 10
109.5346089649
 20
205.0106542499
 30
0.0
 10
109.3209640154
 20
204.9738187294
 30
0.0
 10
109.0581365419
 20
204.9416394182
 30
0.0
 10
108.7887425592
 20
204.919570742
 30
0.0
 10
108.5139860485
 20
204.9066702967
 30
0.0
 10
108.329111542
 20
204.9038851458
 30
0.0
 10
108.2359659478
 20
204.9038851458
 30
0.0
  0
SPLINE
  5
417
100
AcDbEntity
  8
0
100
AcDbSpline
 62
7
  6
CONTINUOUS
 70
0
 71
3
 72
9
 73
5
 74
0
 42
0.0000001
 43
0.0000001
 44
0.0000000001
 40
0.0
 40
0.0
 40
0.0
 40
0.0
 40
0.2587242668
 40
1.0
 40
1.0
 40
1.0
 40
1.0
 10
107.4077058409
 20
205.57450985
 30
0.0
 10
107.4522204417
 20
205.57450985
 30
0.0
 10
107.6242630261
 20
205.5716899971
 30
0.0
 10
107.7962169955
 20
205.5639793128
 30
0.0
 10
107.9237566103
 20
205.5639793128
 30
0.0
  0
SPLINE
  5
418
100
AcDbEntity
  8
0
100
AcDbSpline
 62
7
  6
CONTINUOUS
 70
0
 71
3
 72
9
 73
5
 74
0
 42
0.0000001
 43
0.0000001
 44
0.0000000001
 40
0.0
 40
0.0
 40
0.0
 40
0.0
 40
0.4969579708
 40
1.0
 40
1.0
 40
1.0
 40
1.0
 10
108.2359659478
 20
204.9038851458
 30
0.0
 10
108.150694811
 20
204.9038851458
 30
0.0
 10
107.9788191302
 20
204.8861613649
 30
0.0
 10
107.8128366115
 20
204.8409093046
 30
0.0
 10
107.730646863
 20
204.8145438386
 30
0.0
  0
SPLINE
  5
419
100
AcDbEntity
  8
0
100
AcDbSpline
 62
7
  6
CONTINUOUS
 70
0
 71
3
 72
10
 73
6
 74
0
 42
0.0000001
 43
0.0000001
 44
0.0000000001
 40
0.0
 40
0.0
 40
0.0
 40
0.0
 40
0.2496939517
 40
0.4996988076
 40
1.0
 40
1.0
 40
1.0
 40
1.0
 10
95.0558726158
 20
203.07450985
 30
0.0
 10
95.0943793104
 20
203.2135258208
 30
0.0
 10
95.1614296053
 20
203.4944891931
 30
0.0
 10
95.2749838535
 20
204.0609619756
 30
0.0
 10
95.3454282126
 20
204.4887927823
 30
0.0
 10
95.3890549648
 20
204.77450985
 30
0.0
  0
SPLINE
  5
41A
100
AcDbEntity
  8
0
100
AcDbSpline
 62
7
  6
CONTINUOUS
 70
0
 71
3
 72
10
 73
6
 74
0
 42
0.0000001
 43
0.0000001
 44
0.0000000001
 40
0.0
 40
0.0
 40
0.0
 40
0.0
 40
0.5003012048
 40
0.7503060586
 40
1.0
 40
1.0
 40
1.0
 40
1.0
 10
107.6168666028
 20
204.77450985
 30
0.0
 10
107.6604933561
 20
204.4887927752
 30
0.0
 10
107.7309377306
 20
204.0609619654
 30
0.0
 10
107.8444919594
 20
203.494489179
 30
0.0
 10
107.9115422588
 20
203.213525815
 30
0.0
 10
107.9500489518
 20
203.07450985
 30
0.0
  0
SPLINE
  5
41B
100
AcDbEntity
  8
0
100
AcDbSpline
 62
7
  6
CONTINUOUS
 70
0
 71
3
 72
21
 73
17
 74
0
 42
0.0000001
 43
0.0000001
 44
0.0000000001
 40
0.0
 40
0.0
 40
0.0
 40
0.0
 40
0.0625968508
 40
0.1252283292
 40
0.187817332
 40
0.2503528021
 40
0.3128611722
 40
0.37539433
 40
0.4999986963
 40
0.6246063124
 40
0.6871393318
 40
0.7496471413
 40
0.8121828039
 40
0.8747718455
 40
0.9374039347
 40
1.0
 40
1.0
 40
1.0
 40
1.0
 10
98.7117869316
 20
191.6952160274
 30
0.0
 10
98.7134029942
 20
191.8770812016
 30
0.0
 10
98.7519232673
 20
192.2417118445
 30
0.0
 10
98.9158706999
 20
192.765477327
 30
0.0
 10
99.1732418513
 20
193.2502590935
 30
0.0
 10
99.5214155693
 20
193.6744895068
 30
0.0
 10
99.9465932128
 20
194.0213710565
 30
0.0
 10
100.5906206336
 20
194.3630937377
 30
0.0
 10
101.5029952455
 20
194.5477564651
 30
0.0
 10
102.4151917138
 20
194.3627810943
 30
0.0
 10
103.0594165328
 20
194.021450687
 30
0.0
 10
103.4847354858
 20
193.6747121868
 30
0.0
 10
103.832788515
 20
193.2503433903
 30
0.0
 10
104.0897712473
 20
192.7653769903
 30
0.0
 10
104.2539923041
 20
192.2417313052
 30
0.0
 10
104.2926067245
 20
191.8770796811
 30
0.0
 10
104.294134636
 20
191.6952160274
 30
0.0
  0
SPLINE
  5
41C
100
AcDbEntity
  8
0
100
AcDbSpline
 62
7
  6
CONTINUOUS
 70
0
 71
3
 72
22
 73
18
 74
0
 42
0.0000001
 43
0.0000001
 44
0.0000000001
 40
0.0
 40
0.0
 40
0.0
 40
0.0
 40
0.0626964117
 40
0.125227381
 40
0.1876035909
 40
0.2499090717
 40
0.3122668446
 40
0.3747832433
 40
0.4374837465
 40
0.5003009667
 40
0.6252172262
 40
0.6877335836
 40
0.7500907663
 40
0.8123964307
 40
0.8747730004
 40
0.9373042989
 40
1.0
 40
1.0
 40
1.0
 40
1.0
 10
104.294134636
 20
191.6952160274
 30
0.0
 10
104.2956816697
 20
191.5110762982
 30
0.0
 10
104.2635631452
 20
191.1418099735
 30
0.0
 10
104.1061146284
 20
190.6102720719
 30
0.0
 10
103.8515417891
 20
190.1189615399
 30
0.0
 10
103.5043167976
 20
189.688401103
 30
0.0
 10
103.0776100006
 20
189.3358753812
 30
0.0
 10
102.5885822056
 20
189.0745557755
 30
0.0
 10
102.0568245783
 20
188.9124783545
 30
0.0
 10
101.3211867833
 20
188.8376473302
 30
0.0
 10
100.5785965827
 20
188.9882885231
 30
0.0
 10
99.9284227
 20
189.3357813063
 30
0.0
 10
99.5013211802
 20
189.6881842877
 30
0.0
 10
99.1542877509
 20
190.1188796449
 30
0.0
 10
98.9000788529
 20
190.6103674191
 30
0.0
 10
98.7423623824
 20
191.141790379
 30
0.0
 10
98.7101506826
 20
191.5110791565
 30
0.0
 10
98.7117869316
 20
191.6952160274
 30
0.0
  0
LINE
  5
41D
100
AcDbEntity
  8
0
100
AcDbLine
 62
7
  6
CONTINUOUS
 10
106.102255244
 20
165.8252280255
 11
106.225828705
 21
165.947535733
  0
LINE
  5
41E
100
AcDbEntity
  8
0
100
AcDbLine
 62
7
  6
CONTINUOUS
 10
96.7800946064
 20
165.9475360068
 11
96.9036669473
 21
165.8252290068
  0
SPLINE
  5
41F
100
AcDbEntity
  8
0
100
AcDbSpline
 62
7
  6
CONTINUOUS
 70
0
 71
3
 72
18
 73
14
 74
0
 42
0.0000001
 43
0.0000001
 44
0.0000000001
 40
0.0
 40
0.0
 40
0.0
 40
0.0
 40
0.0335435723
 40
0.0664066798
 40
0.0986264914
 40
0.1301665305
 40
0.1925500857
 40
0.2545436522
 40
0.37814283
 40
0.5017222527
 40
0.6255298414
 40
0.7497763226
 40
1.0
 40
1.0
 40
1.0
 40
1.0
 10
107.9500489518
 20
203.07450985
 30
0.0
 10
107.9565249444
 20
203.0511303728
 30
0.0
 10
107.9609630488
 20
203.0019371015
 30
0.0
 10
107.9408335594
 20
202.932232155
 30
0.0
 10
107.9046361881
 20
202.8719967046
 30
0.0
 10
107.8479120173
 20
202.8003922329
 30
0.0
 10
107.7673103807
 20
202.7210601319
 30
0.0
 10
107.6297723975
 20
202.6058731126
 30
0.0
 10
107.4464581862
 20
202.4770761568
 30
0.0
 10
107.2138811174
 20
202.3426953347
 30
0.0
 10
106.9690634815
 20
202.2304906946
 30
0.0
 10
106.6273513131
 20
202.115067323
 30
0.0
 10
106.3553083729
 20
202.07450985
 30
0.0
 10
106.174338407
 20
202.07450985
 30
0.0
  0
SPLINE
  5
420
100
AcDbEntity
  8
0
100
AcDbSpline
 62
7
  6
CONTINUOUS
 70
0
 71
3
 72
18
 73
14
 74
0
 42
0.0000001
 43
0.0000001
 44
0.0000000001
 40
0.0
 40
0.0
 40
0.0
 40
0.0
 40
0.2502120358
 40
0.3744546699
 40
0.4982587841
 40
0.621834624
 40
0.7454296505
 40
0.8074213128
 40
0.8697987169
 40
0.9013422971
 40
0.9335583641
 40
0.9664390839
 40
1.0
 40
1.0
 40
1.0
 40
1.0
 10
96.8315831606
 20
202.07450985
 30
0.0
 10
96.6506225817
 20
202.07450985
 30
0.0
 10
96.3785923237
 20
202.1150631847
 30
0.0
 10
96.0368936601
 20
202.230477072
 30
0.0
 10
95.7920819943
 20
202.3426733817
 30
0.0
 10
95.5595136194
 20
202.4770471876
 30
0.0
 10
95.376194847
 20
202.6058298868
 30
0.0
 10
95.2386779835
 20
202.7210172681
 30
0.0
 10
95.1580320653
 20
202.8003155611
 30
0.0
 10
95.1013858095
 20
202.8719580175
 30
0.0
 10
95.0650087888
 20
202.9321214086
 30
0.0
 10
95.0450918832
 20
203.0019045938
 30
0.0
 10
95.0493933094
 20
203.0511184094
 30
0.0
 10
95.0558726158
 20
203.07450985
 30
0.0
  0
SPLINE
  5
421
100
AcDbEntity
  8
0
100
AcDbSpline
 62
7
  6
CONTINUOUS
 70
0
 71
3
 72
16
 73
12
 74
0
 42
0.0000001
 43
0.0000001
 44
0.0000000001
 40
0.0
 40
0.0
 40
0.0
 40
0.0
 40
0.1235071593
 40
0.1866505884
 40
0.2504475117
 40
0.3770483913
 40
0.5007611657
 40
0.6249853594
 40
0.751557046
 40
0.8776082338
 40
1.0
 40
1.0
 40
1.0
 40
1.0
 10
96.7116965531
 20
173.2245098513
 30
0.0
 10
96.7120590822
 20
173.5342595651
 30
0.0
 10
96.7567871546
 20
174.0040547124
 30
0.0
 10
96.9084058654
 20
174.6143704781
 30
0.0
 10
97.1208688798
 20
175.2146733087
 30
0.0
 10
97.494945609
 20
175.9144558474
 30
0.0
 10
98.0947442679
 20
176.6448455188
 30
0.0
 10
98.8251617115
 20
177.2449158792
 30
0.0
 10
99.6647013036
 20
177.692658411
 30
0.0
 10
100.5712982216
 20
177.9643991217
 30
0.0
 10
101.1960082098
 20
178.0245241127
 30
0.0
 10
101.5029607838
 20
178.02450985
 30
0.0
  0
SPLINE
  5
422
100
AcDbEntity
  8
0
100
AcDbSpline
 62
7
  6
CONTINUOUS
 70
0
 71
3
 72
16
 73
12
 74
0
 42
0.0000001
 43
0.0000001
 44
0.0000000001
 40
0.0
 40
0.0
 40
0.0
 40
0.0
 40
0.1226075833
 40
0.2487698734
 40
0.3752904643
 40
0.4993616264
 40
0.6231972938
 40
0.7498569832
 40
0.8136048911
 40
0.876670518
 40
1.0
 40
1.0
 40
1.0
 40
1.0
 10
101.5029607838
 20
178.02450985
 30
0.0
 10
101.8104545147
 20
178.0244955621
 30
0.0
 10
102.4359927674
 20
177.9642261457
 30
0.0
 10
103.3431493117
 20
177.6918763608
 30
0.0
 10
104.1822638889
 20
177.2438509882
 30
0.0
 10
104.912319189
 20
176.643691274
 30
0.0
 10
105.5119641158
 20
175.9130620853
 30
0.0
 10
105.885886492
 20
175.2128140848
 30
0.0
 10
106.0980499367
 20
174.6125880093
 30
0.0
 10
106.2492529041
 20
174.0029588294
 30
0.0
 10
106.2938698361
 20
173.5338138646
 30
0.0
 10
106.2942250145
 20
173.2245098514
 30
0.0
  0
SPLINE
  5
423
100
AcDbEntity
  8
0
100
AcDbSpline
 62
7
  6
CONTINUOUS
 70
0
 71
3
 72
14
 73
10
 74
0
 42
0.0000001
 43
0.0000001
 44
0.0000000001
 40
0.0
 40
0.0
 40
0.0
 40
0.0
 40
0.3176233309
 40
0.4597368955
 40
0.5821933856
 40
0.6883915871
 40
0.7885421084
 40
0.8911952906
 40
1.0
 40
1.0
 40
1.0
 40
1.0
 10
85.5029607838
 20
177.0665961809
 30
0.0
 10
85.5029607838
 20
177.1377432488
 30
0.0
 10
85.5139400909
 20
177.24254014
 30
0.0
 10
85.5668069214
 20
177.3630236934
 30
0.0
 10
85.6217433368
 20
177.4275874006
 30
0.0
 10
85.6892475525
 20
177.4619946256
 30
0.0
 10
85.7599443926
 20
177.4664122137
 30
0.0
 10
85.8281604091
 20
177.4479902693
 30
0.0
 10
85.8700860841
 20
177.4252030991
 30
0.0
 10
85.8904657878
 20
177.4118365302
 30
0.0
  0
SPLINE
  5
424
100
AcDbEntity
  8
0
100
AcDbSpline
 62
2
  6
CONTINUOUS
 70
0
 71
3
 72
60
 73
56
 74
0
 42
0.0000001
 43
0.0000001
 44
0.0000000001
 40
0.0
 40
0.0
 40
0.0
 40
0.0
 40
0.0625
 40
0.09375
 40
0.125
 40
0.140625
 40
0.15625
 40
0.1640625
 40
0.171875
 40
0.1796875
 40
0.1875
 40
0.21875
 40
0.25
 40
0.28125
 40
0.3125
 40
0.3203125
 40
0.328125
 40
0.33203125
 40
0.3359375
 40
0.34375
 40
0.359375
 40
0.375
 40
0.40625
 40
0.4375
 40
0.453125
 40
0.46875
 40
0.484375
 40
0.4921875
 40
0.5
 40
0.5078125
 40
0.515625
 40
0.53125
 40
0.5625
 40
0.625
 40
0.640625
 40
0.65625
 40
0.6640625
 40
0.66796875
 40
0.671875
 40
0.6796875
 40
0.6875
 40
0.71875
 40
0.75
 40
0.78125
 40
0.8125
 40
0.8203125
 40
0.828125
 40
0.83203125
 40
0.8359375
 40
0.84375
 40
0.859375
 40
0.875
 40
0.90625
 40
0.9375
 40
1.0
 40
1.0
 40
1.0
 40
1.0
 10
97.1126312745
 20
256.8622325618
 30
0.0
 10
97.1326566892
 20
256.8589697269
 30
0.0
 10
97.162689197
 20
256.8540704694
 30
0.0
 10
97.2027549979
 20
256.8475581469
 30
0.0
 10
97.2277493376
 20
256.8434462352
 30
0.0
 10
97.2478514812
 20
256.8402518049
 30
0.0
 10
97.2601720343
 20
256.8380383934
 30
0.0
 10
97.2705856968
 20
256.8367644316
 30
0.0
 10
97.2768702556
 20
256.8344487937
 30
0.0
 10
97.2827272997
 20
256.8317520201
 30
0.0
 10
97.294661225
 20
256.826554473
 30
0.0
 10
97.3124709178
 20
256.818676668
 30
0.0
 10
97.3362638748
 20
256.8082155109
 30
0.0
 10
97.3600645816
 20
256.7977578557
 30
0.0
 10
97.3778568374
 20
256.7898721714
 30
0.0
 10
97.3898130432
 20
256.7846846924
 30
0.0
 10
97.3946531464
 20
256.7824189594
 30
0.0
 10
97.398855717
 20
256.7808496889
 30
0.0
 10
97.4018496547
 20
256.7783905815
 30
0.0
 10
97.4065274782
 20
256.7736736999
 30
0.0
 10
97.4135031362
 20
256.7671510395
 30
0.0
 10
97.4245000937
 20
256.7565940538
 30
0.0
 10
97.4383047937
 20
256.7434403217
 30
0.0
 10
97.4520806004
 20
256.7302675008
 30
0.0
 10
97.4631237872
 20
256.7197410573
 30
0.0
 10
97.4713558887
 20
256.7118222383
 30
0.0
 10
97.4783742098
 20
256.7052982551
 30
0.0
 10
97.4836342435
 20
256.6999109832
 30
0.0
 10
97.4885481963
 20
256.6963297658
 30
0.0
 10
97.4897637504
 20
256.690995645
 30
0.0
 10
97.4926744907
 20
256.6844948933
 30
0.0
 10
97.4971676662
 20
256.6728339415
 30
0.0
 10
97.5065889498
 20
256.6497177748
 30
0.0
 10
97.5158031177
 20
256.6265057322
 30
0.0
 10
97.5238341292
 20
256.606668189
 30
0.0
 10
97.5270570883
 20
256.5983507124
 30
0.0
 10
97.5295604297
 20
256.5926322112
 30
0.0
 10
97.5306040078
 20
256.5892022193
 30
0.0
 10
97.5301903102
 20
256.5851610178
 30
0.0
 10
97.5301713022
 20
256.5803184325
 30
0.0
 10
97.5297156161
 20
256.5685242568
 30
0.0
 10
97.5292057233
 20
256.5509055604
 30
0.0
 10
97.5284199391
 20
256.527370882
 30
0.0
 10
97.5276874389
 20
256.5038537267
 30
0.0
 10
97.5270576572
 20
256.4861956034
 30
0.0
 10
97.5267551625
 20
256.4744518065
 30
0.0
 10
97.5264558586
 20
256.4695170426
 30
0.0
 10
97.5266205141
 20
256.4656660394
 30
0.0
 10
97.5253073868
 20
256.4614610167
 30
0.0
 10
97.5223228029
 20
256.4539377416
 30
0.0
 10
97.5184173514
 20
256.4432760261
 30
0.0
 10
97.5119684239
 20
256.4261693199
 30
0.0
 10
97.5039758443
 20
256.4048023662
 30
0.0
 10
97.491149216
 20
256.370606017
 30
0.0
 10
97.4815379075
 20
256.3449608304
 30
0.0
 10
97.4751284435
 20
256.3278635781
 30
0.0
  0
SPLINE
  5
425
100
AcDbEntity
  8
0
100
AcDbSpline
 62
2
  6
CONTINUOUS
 70
0
 71
3
 72
37
 73
33
 74
0
 42
0.0000001
 43
0.0000001
 44
0.0000000001
 40
0.0
 40
0.0
 40
0.0
 40
0.0
 40
0.0625
 40
0.125
 40
0.15625
 40
0.171875
 40
0.1875
 40
0.25
 40
0.3125
 40
0.328125
 40
0.34375
 40
0.375
 40
0.4375
 40
0.46875
 40
0.484375
 40
0.5
 40
0.515625
 40
0.53125
 40
0.5625
 40
0.625
 40
0.65625
 40
0.671875
 40
0.6875
 40
0.75
 40
0.78125
 40
0.8125
 40
0.828125
 40
0.84375
 40
0.859375
 40
0.875
 40
0.9375
 40
1.0
 40
1.0
 40
1.0
 40
1.0
 10
96.2093377503
 20
256.6085030612
 30
0.0
 10
96.2276593446
 20
256.6183741217
 30
0.0
 10
96.2642861932
 20
256.6381460628
 30
0.0
 10
96.3101514534
 20
256.6627118893
 30
0.0
 10
96.3421070129
 20
256.6801819387
 30
0.0
 10
96.3606001759
 20
256.6897398898
 30
0.0
 10
96.3896131418
 20
256.701749699
 30
0.0
 10
96.4325448364
 20
256.7208634187
 30
0.0
 10
96.4759177158
 20
256.7390717912
 30
0.0
 10
96.5044894968
 20
256.7519869475
 30
0.0
 10
96.5242571938
 20
256.7589294515
 30
0.0
 10
96.5591993863
 20
256.7702882809
 30
0.0
 10
96.5989634888
 20
256.783546683
 30
0.0
 10
96.6338541643
 20
256.7952115202
 30
0.0
 10
96.6537101762
 20
256.8016294394
 30
0.0
 10
96.6688189973
 20
256.8071677748
 30
0.0
 10
96.6831013279
 20
256.8099303774
 30
0.0
 10
96.702432331
 20
256.8145799501
 30
0.0
 10
96.7361313991
 20
256.8222876891
 30
0.0
 10
96.7746736458
 20
256.831140031
 30
0.0
 10
96.8084521058
 20
256.8392006629
 30
0.0
 10
96.8276470085
 20
256.8432452764
 30
0.0
 10
96.8558512625
 20
256.8462311013
 30
0.0
 10
96.8889314877
 20
256.8507234931
 30
0.0
 10
96.9267246605
 20
256.855479564
 30
0.0
 10
96.9501770907
 20
256.8582442741
 30
0.0
 10
96.9693461614
 20
256.861049367
 30
0.0
 10
96.9826025664
 20
256.8614979126
 30
0.0
 10
96.9955448492
 20
256.8614817452
 30
0.0
 10
97.0215910378
 20
256.8616885158
 30
0.0
 10
97.0605918915
 20
256.8618974376
 30
0.0
 10
97.0952871231
 20
256.8621242822
 30
0.0
 10
97.1126312632
 20
256.8622325625
 30
0.0
  0
SPLINE
  5
426
100
AcDbEntity
  8
0_COMPONENTS
100
AcDbSpline
 62
7
  6
CONTINUOUS
 70
0
 71
3
 72
9
 73
5
 74
0
 42
0.0000001
 43
0.0000001
 44
0.0000000001
 40
0.0
 40
0.0
 40
0.0
 40
0.0
 40
0.259718805
 40
1.0
 40
1.0
 40
1.0
 40
1.0
 10
85.7922688253
 20
239.8969036735
 30
0.0
 10
85.7561906482
 20
239.986323509
 30
0.0
 10
85.6245341176
 20
240.3334483089
 30
0.0
 10
85.5229290072
 20
240.6923789382
 30
0.0
 10
85.4696672112
 20
240.9620070533
 30
0.0
  0
SPLINE
  5
427
100
AcDbEntity
  8
0_COMPONENTS
100
AcDbSpline
 62
7
  6
CONTINUOUS
 70
0
 71
3
 72
9
 73
5
 74
0
 42
0.0000001
 43
0.0000001
 44
0.0000000001
 40
0.0
 40
0.0
 40
0.0
 40
0.0
 40
0.4832549727
 40
1.0
 40
1.0
 40
1.0
 40
1.0
 10
85.9478334284
 20
239.5353183838
 30
0.0
 10
86.1431737498
 20
239.1132141342
 30
0.0
 10
86.62918304
 20
238.2766122712
 30
0.0
 10
87.2342841816
 20
237.5236836722
 30
0.0
 10
87.5710108936
 20
237.1576677409
 30
0.0
  0
LINE
  5
428
100
AcDbEntity
  8
0_COMPONENTS
100
AcDbLine
 62
7
  6
CONTINUOUS
 10
87.5710108936
 20
237.1576677409
 11
87.5767012587
 21
237.1514871332
  0
SPLINE
  5
429
100
AcDbEntity
  8
0_COMPONENTS
100
AcDbSpline
 62
7
  6
CONTINUOUS
 70
0
 71
3
 72
9
 73
5
 74
0
 42
0.0000001
 43
0.0000001
 44
0.0000000001
 40
0.0
 40
0.0
 40
0.0
 40
0.0
 40
0.2598626161
 40
1.0
 40
1.0
 40
1.0
 40
1.0
 10
85.7921284733
 20
239.8975586027
 30
0.0
 10
85.756682417
 20
239.986901092
 30
0.0
 10
85.6276234358
 20
240.3335209989
 30
0.0
 10
85.5290049424
 20
240.6918976701
 30
0.0
 10
85.47828667
 20
240.9609180606
 30
0.0
  0
SPLINE
  5
42A
100
AcDbEntity
  8
0_COMPONENTS
100
AcDbSpline
 62
7
  6
CONTINUOUS
 70
0
 71
3
 72
9
 73
5
 74
0
 42
0.0000001
 43
0.0000001
 44
0.0000000001
 40
0.0
 40
0.0
 40
0.0
 40
0.0
 40
0.2629735974
 40
1.0
 40
1.0
 40
1.0
 40
1.0
 10
86.0648912612
 20
239.5281473387
 30
0.0
 10
86.0096351509
 20
239.6475483862
 30
0.0
 10
85.8120109395
 20
240.1070876206
 30
0.0
 10
85.6659609371
 20
240.5901795136
 30
0.0
 10
85.5999567483
 20
240.9529617165
 30
0.0
  0
SPLINE
  5
42B
100
AcDbEntity
  8
0_COMPONENTS
100
AcDbSpline
 62
7
  6
CONTINUOUS
 70
0
 71
3
 72
9
 73
5
 74
0
 42
0.0000001
 43
0.0000001
 44
0.0000000001
 40
0.0
 40
0.0
 40
0.0
 40
0.0
 40
0.2627301574
 40
1.0
 40
1.0
 40
1.0
 40
1.0
 10
86.1294429315
 20
239.5569656708
 30
0.0
 10
86.0754786261
 20
239.6735753009
 30
0.0
 10
85.8820973419
 20
240.1227082812
 30
0.0
 10
85.7382971407
 20
240.5944589368
 30
0.0
 10
85.6720702059
 20
240.9488945931
 30
0.0
  0
SPLINE
  5
42C
100
AcDbEntity
  8
0_COMPONENTS
100
AcDbSpline
 62
7
  6
CONTINUOUS
 70
0
 71
3
 72
9
 73
5
 74
0
 42
0.0000001
 43
0.0000001
 44
0.0000000001
 40
0.0
 40
0.0
 40
0.0
 40
0.0
 40
0.4833511815
 40
1.0
 40
1.0
 40
1.0
 40
1.0
 10
86.0648912612
 20
239.5281473387
 30
0.0
 10
86.2538420722
 20
239.1198499647
 30
0.0
 10
86.7229909953
 20
238.3103820734
 30
0.0
 10
87.3064115838
 20
237.5808818321
 30
0.0
 10
87.6309374085
 20
237.226001154
 30
0.0
  0
SPLINE
  5
42D
100
AcDbEntity
  8
0_COMPONENTS
100
AcDbSpline
 62
7
  6
CONTINUOUS
 70
0
 71
3
 72
9
 73
5
 74
0
 42
0.0000001
 43
0.0000001
 44
0.0000000001
 40
0.0
 40
0.0
 40
0.0
 40
0.0
 40
0.4833873849
 40
1.0
 40
1.0
 40
1.0
 40
1.0
 10
86.1294429315
 20
239.5569656708
 30
0.0
 10
86.3162048093
 20
239.1533982878
 30
0.0
 10
86.7795649509
 20
238.3532238993
 30
0.0
 10
87.3555322061
 20
237.6317357562
 30
0.0
 10
87.6758614548
 20
237.2806603565
 30
0.0
  0
SPLINE
  5
42E
100
AcDbEntity
  8
0
100
AcDbSpline
 62
7
  6
CONTINUOUS
 70
0
 71
3
 72
9
 73
5
 74
0
 42
0.0000001
 43
0.0000001
 44
0.0000000001
 40
0.0
 40
0.0
 40
0.0
 40
0.0
 40
0.5043826508
 40
1.0
 40
1.0
 40
1.0
 40
1.0
 10
94.6252523697
 20
235.8784995287
 30
0.0
 10
94.5920312324
 20
235.7889425893
 30
0.0
 10
94.512152655
 20
235.6162054036
 30
0.0
 10
94.4046092374
 20
235.4590801393
 30
0.0
 10
94.34518323
 20
235.386428418
 30
0.0
  0
SPLINE
  5
42F
100
AcDbEntity
  8
0
100
AcDbSpline
 62
7
  6
CONTINUOUS
 70
0
 71
3
 72
11
 73
7
 74
0
 42
0.0000001
 43
0.0000001
 44
0.0000000001
 40
0.0
 40
0.0
 40
0.0
 40
0.0
 40
0.2578776351
 40
0.535930003
 40
0.7905633361
 40
1.0
 40
1.0
 40
1.0
 40
1.0
 10
95.628200921
 20
237.2190806789
 30
0.0
 10
95.6532897601
 20
237.2497471962
 30
0.0
 10
95.6998603327
 20
237.317989878
 30
0.0
 10
95.7583909539
 20
237.4246186396
 30
0.0
 10
95.8027114112
 20
237.5298531192
 30
0.0
 10
95.821789515
 20
237.5990435773
 30
0.0
 10
95.8264092688
 20
237.630889267
 30
0.0
  0
SPLINE
  5
430
100
AcDbEntity
  8
0
100
AcDbSpline
 62
7
  6
CONTINUOUS
 70
0
 71
3
 72
14
 73
10
 74
0
 42
0.0000001
 43
0.0000001
 44
0.0000000001
 40
0.0
 40
0.0
 40
0.0
 40
0.0
 40
0.2892290421
 40
0.4226031935
 40
0.5486640735
 40
0.6681121872
 40
0.7820702226
 40
0.8920720151
 40
1.0
 40
1.0
 40
1.0
 40
1.0
 10
92.4320185792
 20
233.354506632
 30
0.0
 10
92.7906883521
 20
233.2877284075
 30
0.0
 10
93.3254116337
 20
233.2325660551
 30
0.0
 10
94.0174434648
 20
233.2746310542
 30
0.0
 10
94.4889057364
 20
233.360654346
 30
0.0
 10
94.9215191261
 20
233.5013626045
 30
0.0
 10
95.3106401594
 20
233.6957111108
 30
0.0
 10
95.6515400102
 20
233.9419100803
 30
0.0
 10
95.8447176853
 20
234.1397856984
 30
0.0
 10
95.9309155362
 20
234.2451617227
 30
0.0
  0
SPLINE
  5
431
100
AcDbEntity
  8
0
100
AcDbSpline
 62
7
  6
CONTINUOUS
 70
0
 71
3
 72
11
 73
7
 74
0
 42
0.0000001
 43
0.0000001
 44
0.0000000001
 40
0.0
 40
0.0
 40
0.0
 40
0.0
 40
0.2791669637
 40
0.5283817481
 40
0.7612072945
 40
1.0
 40
1.0
 40
1.0
 40
1.0
 10
96.4435911328
 20
236.1954622623
 30
0.0
 10
96.4297707018
 20
236.2001063606
 30
0.0
 10
96.4042975032
 20
236.2114059395
 30
0.0
 10
96.372962581
 20
236.2368614084
 30
0.0
 10
96.3531543836
 20
236.2699018556
 30
0.0
 10
96.3495091438
 20
236.2949651998
 30
0.0
 10
96.3498089511
 20
236.3074328467
 30
0.0
  0
SPLINE
  5
432
100
AcDbEntity
  8
0
100
AcDbSpline
 62
7
  6
CONTINUOUS
 70
0
 71
3
 72
9
 73
5
 74
0
 42
0.0000001
 43
0.0000001
 44
0.0000000001
 40
0.0
 40
0.0
 40
0.0
 40
0.0
 40
0.2037977242
 40
1.0
 40
1.0
 40
1.0
 40
1.0
 10
87.5934801539
 20
237.1774109717
 30
0.0
 10
87.5920411669
 20
237.1742025532
 30
0.0
 10
87.5846295239
 20
237.1586171549
 30
0.0
 10
87.5762693014
 20
237.1435034239
 30
0.0
 10
87.5694386655
 20
237.1315842211
 30
0.0
  0
SPLINE
  5
433
100
AcDbEntity
  8
0
100
AcDbSpline
 62
7
  6
CONTINUOUS
 70
0
 71
3
 72
9
 73
5
 74
0
 42
0.0000001
 43
0.0000001
 44
0.0000000001
 40
0.0
 40
0.0
 40
0.0
 40
0.0
 40
0.2475508966
 40
1.0
 40
1.0
 40
1.0
 40
1.0
 10
96.4435911328
 20
236.1954622623
 30
0.0
 10
96.4493381114
 20
236.1888898961
 30
0.0
 10
96.4733258815
 20
236.1630234655
 30
0.0
 10
96.5002710551
 20
236.1399188513
 30
0.0
 10
96.5217541203
 20
236.1243397082
 30
0.0
  0
SPLINE
  5
434
100
AcDbEntity
  8
0
100
AcDbSpline
 62
7
  6
CONTINUOUS
 70
0
 71
3
 72
14
 73
10
 74
0
 42
0.0000001
 43
0.0000001
 44
0.0000000001
 40
0.0
 40
0.0
 40
0.0
 40
0.0
 40
0.0795231686
 40
0.1655655614
 40
0.2714244911
 40
0.4005082732
 40
0.5472241021
 40
0.7019788724
 40
1.0
 40
1.0
 40
1.0
 40
1.0
 10
87.6607216391
 20
237.1364632735
 30
0.0
 10
87.6721979757
 20
237.1238969746
 30
0.0
 10
87.6901291655
 20
237.0910059797
 30
0.0
 10
87.6860089231
 20
237.0306357216
 30
0.0
 10
87.6535443633
 20
236.9687008592
 30
0.0
 10
87.5975659253
 20
236.908362553
 30
0.0
 10
87.5227867044
 20
236.8537115808
 30
0.0
 10
87.4086865633
 20
236.7945345749
 30
0.0
 10
87.3140919559
 20
236.766908294
 30
0.0
 10
87.2508560546
 20
236.758615672
 30
0.0
  0
SPLINE
  5
435
100
AcDbEntity
  8
0
100
AcDbSpline
 62
7
  6
CONTINUOUS
 70
0
 71
3
 72
10
 73
6
 74
0
 42
0.0000001
 43
0.0000001
 44
0.0000000001
 40
0.0
 40
0.0
 40
0.0
 40
0.0
 40
0.5182246866
 40
0.7616705953
 40
1.0
 40
1.0
 40
1.0
 40
1.0
 10
84.9852601413
 20
241.0378811849
 30
0.0
 10
84.990985344
 20
241.3515919999
 30
0.0
 10
85.0612131068
 20
241.8175087822
 30
0.0
 10
85.3041613333
 20
242.3748214264
 30
0.0
 10
85.468218717
 20
242.6184490294
 30
0.0
 10
85.5595818806
 20
242.7301395977
 30
0.0
  0
SPLINE
  5
436
100
AcDbEntity
  8
0
100
AcDbSpline
 62
7
  6
CONTINUOUS
 70
0
 71
3
 72
11
 73
7
 74
0
 42
0.0000001
 43
0.0000001
 44
0.0000000001
 40
0.0
 40
0.0
 40
0.0
 40
0.0
 40
0.2608677369
 40
0.5205606588
 40
0.7696479945
 40
1.0
 40
1.0
 40
1.0
 40
1.0
 10
87.2074416387
 20
236.3329198258
 30
0.0
 10
87.5658743054
 20
235.9549967437
 30
0.0
 10
88.3372347397
 20
235.2522322061
 30
0.0
 10
89.6104818527
 20
234.3828374793
 30
0.0
 10
90.9420695756
 20
233.7343205888
 30
0.0
 10
91.8658442451
 20
233.4599259286
 30
0.0
 10
92.3180091134
 20
233.3757412015
 30
0.0
  0
LINE
  5
437
100
AcDbEntity
  8
0
100
AcDbLine
 62
7
  6
CONTINUOUS
 10
84.9852601413
 20
241.0378811849
 11
84.9951165324
 21
241.0023139174
  0
SPLINE
  5
438
100
AcDbEntity
  8
0
100
AcDbSpline
 62
7
  6
CONTINUOUS
 70
0
 71
3
 72
9
 73
5
 74
0
 42
0.0000001
 43
0.0000001
 44
0.0000000001
 40
0.0
 40
0.0
 40
0.0
 40
0.0
 40
0.4833842006
 40
1.0
 40
1.0
 40
1.0
 40
1.0
 10
86.5379612134
 20
240.0563045576
 30
0.0
 10
86.7245463311
 20
239.6531191296
 30
0.0
 10
87.187397455
 20
238.8536627672
 30
0.0
 10
87.7626865417
 20
238.1327499545
 30
0.0
 10
88.0826268982
 20
237.7819204432
 30
0.0
  0
SPLINE
  5
439
100
AcDbEntity
  8
0
100
AcDbSpline
 62
7
  6
CONTINUOUS
 70
0
 71
3
 72
9
 73
5
 74
0
 42
0.0000001
 43
0.0000001
 44
0.0000000001
 40
0.0
 40
0.0
 40
0.0
 40
0.0
 40
0.2432086933
 40
1.0
 40
1.0
 40
1.0
 40
1.0
 10
86.2101757579
 20
240.9156500042
 30
0.0
 10
86.2297639162
 20
240.8499457165
 30
0.0
 10
86.3152083022
 20
240.5812632538
 30
0.0
 10
86.4194440234
 20
240.3186618936
 30
0.0
 10
86.5070092531
 20
240.124116204
 30
0.0
  0
SPLINE
  5
43A
100
AcDbEntity
  8
0
100
AcDbSpline
 62
7
  6
CONTINUOUS
 70
0
 71
3
 72
16
 73
12
 74
0
 42
0.0000001
 43
0.0000001
 44
0.0000000001
 40
0.0
 40
0.0
 40
0.0
 40
0.0
 40
0.0458100015
 40
0.0924274349
 40
0.1906582114
 40
0.2992703902
 40
0.4201048495
 40
0.5528944952
 40
0.6958278845
 40
0.8460284837
 40
1.0
 40
1.0
 40
1.0
 40
1.0
 10
86.992119831
 20
241.4016208197
 30
0.0
 10
87.0505505188
 20
241.4730557053
 30
0.0
 10
87.1808136261
 20
241.6075463723
 30
0.0
 10
87.4907676384
 20
241.8368692034
 30
0.0
 10
87.9688358564
 20
242.0378340113
 30
0.0
 10
88.62855713
 20
242.1277925466
 30
0.0
 10
89.3606805467
 20
242.074707827
 30
0.0
 10
90.1393581864
 20
241.8824193728
 30
0.0
 10
90.9368885191
 20
241.5588958602
 30
0.0
 10
91.7238776421
 20
241.1164137472
 30
0.0
 10
92.2202741548
 20
240.7543373976
 30
0.0
 10
92.4599492072
 20
240.5574294076
 30
0.0
  0
SPLINE
  5
43B
100
AcDbEntity
  8
0
100
AcDbSpline
 62
7
  6
CONTINUOUS
 70
0
 71
3
 72
13
 73
9
 74
0
 42
0.0000001
 43
0.0000001
 44
0.0000000001
 40
0.0
 40
0.0
 40
0.0
 40
0.0
 40
0.2677641073
 40
0.5301027629
 40
0.6558930996
 40
0.776180081
 40
0.8905246811
 40
1.0
 40
1.0
 40
1.0
 40
1.0
 10
89.4750104737
 20
238.0199804197
 30
0.0
 10
89.5057587882
 20
237.9900506561
 30
0.0
 10
89.5597962441
 20
237.9234467252
 30
0.0
 10
89.6057578606
 20
237.8274009649
 30
0.0
 10
89.6232100373
 20
237.7474428705
 30
0.0
 10
89.6246242368
 20
237.6892424422
 30
0.0
 10
89.6125213583
 20
237.634795256
 30
0.0
 10
89.5944692178
 20
237.6029703207
 30
0.0
 10
89.5833604263
 20
237.5893918547
 30
0.0
  0
SPLINE
  5
43C
100
AcDbEntity
  8
0
100
AcDbSpline
 62
7
  6
CONTINUOUS
 70
0
 71
3
 72
9
 73
5
 74
0
 42
0.0000001
 43
0.0000001
 44
0.0000000001
 40
0.0
 40
0.0
 40
0.0
 40
0.0
 40
0.2533454051
 40
1.0
 40
1.0
 40
1.0
 40
1.0
 10
93.2923377737
 20
240.474363799
 30
0.0
 10
93.3639144747
 20
240.4258009348
 30
0.0
 10
93.6495858103
 20
240.2388081301
 30
0.0
 10
93.9477146182
 20
240.0707152438
 30
0.0
 10
94.1762254
 20
239.9577248353
 30
0.0
  0
SPLINE
  5
43D
100
AcDbEntity
  8
0
100
AcDbSpline
 62
7
  6
CONTINUOUS
 70
0
 71
3
 72
15
 73
11
 74
0
 42
0.0000001
 43
0.0000001
 44
0.0000000001
 40
0.0
 40
0.0
 40
0.0
 40
0.0
 40
0.1508228205
 40
0.2900076978
 40
0.4181823194
 40
0.5372764871
 40
0.6505932777
 40
0.7624888982
 40
0.8776291021
 40
1.0
 40
1.0
 40
1.0
 40
1.0
 10
92.4330253476
 20
233.3554088214
 30
0.0
 10
92.6924747826
 20
233.3120008605
 30
0.0
 10
93.1974814663
 20
233.2595682662
 30
0.0
 10
93.929172733
 20
233.294245688
 30
0.0
 10
94.5902367424
 20
233.4460287472
 30
0.0
 10
95.1651167737
 20
233.714056642
 30
0.0
 10
95.637912932
 20
234.0945736449
 30
0.0
 10
95.9934900871
 20
234.5782926276
 30
0.0
 10
96.2213519312
 20
235.1498178436
 30
0.0
 10
96.2835384679
 20
235.5630848406
 30
0.0
 10
96.2951645849
 20
235.7761995331
 30
0.0
  0
SPLINE
  5
43E
100
AcDbEntity
  8
0
100
AcDbSpline
 62
7
  6
CONTINUOUS
 70
0
 71
3
 72
9
 73
5
 74
0
 42
0.0000001
 43
0.0000001
 44
0.0000000001
 40
0.0
 40
0.0
 40
0.0
 40
0.0
 40
0.5043826508
 40
1.0
 40
1.0
 40
1.0
 40
1.0
 10
86.7120506914
 20
240.9095497091
 30
0.0
 10
86.7452718286
 20
240.9991066485
 30
0.0
 10
86.825150406
 20
241.1718438342
 30
0.0
 10
86.9326938236
 20
241.3289690985
 30
0.0
 10
86.992119831
 20
241.4016208197
 30
0.0
  0
SPLINE
  5
43F
100
AcDbEntity
  8
0
100
AcDbSpline
 62
7
  6
CONTINUOUS
 70
0
 71
3
 72
9
 73
5
 74
0
 42
0.0000001
 43
0.0000001
 44
0.0000000001
 40
0.0
 40
0.0
 40
0.0
 40
0.0
 40
0.4337745185
 40
1.0
 40
1.0
 40
1.0
 40
1.0
 10
96.3498089511
 20
236.3074328467
 30
0.0
 10
96.3504585019
 20
236.3344447656
 30
0.0
 10
96.3742478474
 20
236.3955012906
 30
0.0
 10
96.4173619644
 20
236.4414152421
 30
0.0
 10
96.4439304511
 20
236.4646120835
 30
0.0
  0
SPLINE
  5
440
100
AcDbEntity
  8
0
100
AcDbSpline
 62
7
  6
CONTINUOUS
 70
0
 71
3
 72
9
 73
5
 74
0
 42
0.0000001
 43
0.0000001
 44
0.0000000001
 40
0.0
 40
0.0
 40
0.0
 40
0.0
 40
0.4368361182
 40
1.0
 40
1.0
 40
1.0
 40
1.0
 10
87.7091219424
 20
241.9140075888
 30
0.0
 10
87.7107677691
 20
241.9034883291
 30
0.0
 10
87.7112220845
 20
241.8789427239
 30
0.0
 10
87.7086501595
 20
241.8546905821
 30
0.0
 10
87.7066795577
 20
241.8411064874
 30
0.0
  0
SPLINE
  5
441
100
AcDbEntity
  8
0
100
AcDbSpline
 62
7
  6
CONTINUOUS
 70
0
 71
3
 72
16
 73
12
 74
0
 42
0.0000001
 43
0.0000001
 44
0.0000000001
 40
0.0
 40
0.0
 40
0.0
 40
0.0
 40
0.1244418522
 40
0.2417960139
 40
0.3555356751
 40
0.4698286241
 40
0.5887059609
 40
0.7154369211
 40
0.7825259937
 40
0.8522806924
 40
1.0
 40
1.0
 40
1.0
 40
1.0
 10
85.0421384762
 20
241.0118497047
 30
0.0
 10
85.0530905013
 20
241.2126078315
 30
0.0
 10
85.1095526127
 20
241.6022263949
 30
0.0
 10
85.3125802628
 20
242.1446766742
 30
0.0
 10
85.6284641904
 20
242.6113736993
 30
0.0
 10
86.0494612905
 20
242.9895147485
 30
0.0
 10
86.5639407564
 20
243.2703616194
 30
0.0
 10
87.0508363307
 20
243.4170559623
 30
0.0
 10
87.4715425842
 20
243.4854711109
 30
0.0
 10
87.9303042255
 20
243.5216773838
 30
0.0
 10
88.2829899786
 20
243.508306432
 30
0.0
 10
88.5204459996
 20
243.4843117093
 30
0.0
  0
LINE
  5
442
100
AcDbEntity
  8
0
100
AcDbLine
 62
7
  6
CONTINUOUS
 10
96.5052372755
 20
235.9374201355
 11
96.4661951687
 21
235.9373132033
  0
SPLINE
  5
443
100
AcDbEntity
  8
0
100
AcDbSpline
 62
7
  6
CONTINUOUS
 70
0
 71
3
 72
9
 73
5
 74
0
 42
0.0000001
 43
0.0000001
 44
0.0000000001
 40
0.0
 40
0.0
 40
0.0
 40
0.0
 40
0.2721800656
 40
1.0
 40
1.0
 40
1.0
 40
1.0
 10
87.5934801539
 20
237.1774109717
 30
0.0
 10
87.6002886511
 20
237.1751231031
 30
0.0
 10
87.6248465513
 20
237.1655880933
 30
0.0
 10
87.6477695245
 20
237.1506455119
 30
0.0
 10
87.6607216391
 20
237.1364632735
 30
0.0
  0
SPLINE
  5
444
100
AcDbEntity
  8
0
100
AcDbSpline
 62
7
  6
CONTINUOUS
 70
0
 71
3
 72
10
 73
6
 74
0
 42
0.0000001
 43
0.0000001
 44
0.0000000001
 40
0.0
 40
0.0
 40
0.0
 40
0.0
 40
0.2381701208
 40
0.4818627751
 40
1.0
 40
1.0
 40
1.0
 40
1.0
 10
95.9804881059
 20
234.307917534
 30
0.0
 10
96.0641149463
 20
234.4175754787
 30
0.0
 10
96.2139248584
 20
234.6550253569
 30
0.0
 10
96.4353481039
 20
235.1923431994
 30
0.0
 10
96.4997629253
 20
235.6374547066
 30
0.0
 10
96.5052372755
 20
235.9374201355
 30
0.0
  0
SPLINE
  5
445
100
AcDbEntity
  8
0
100
AcDbSpline
 62
7
  6
CONTINUOUS
 70
0
 71
3
 72
10
 73
6
 74
0
 42
0.0000001
 43
0.0000001
 44
0.0000000001
 40
0.0
 40
0.0
 40
0.0
 40
0.0
 40
0.2353054637
 40
0.4779343448
 40
1.0
 40
1.0
 40
1.0
 40
1.0
 10
85.6784003545
 20
242.8645525842
 30
0.0
 10
85.7815532514
 20
242.9726211626
 30
0.0
 10
86.0127593196
 20
243.1724696973
 30
0.0
 10
86.5626987574
 20
243.4949749224
 30
0.0
 10
87.0400392813
 20
243.6282211975
 30
0.0
 10
87.3679411918
 20
243.6766712094
 30
0.0
  0
SPLINE
  5
446
100
AcDbEntity
  8
0
100
AcDbSpline
 62
7
  6
CONTINUOUS
 70
0
 71
3
 72
9
 73
5
 74
0
 42
0.0000001
 43
0.0000001
 44
0.0000000001
 40
0.0
 40
0.0
 40
0.0
 40
0.0
 40
0.2785006914
 40
1.0
 40
1.0
 40
1.0
 40
1.0
 10
88.0597130402
 20
239.9630809715
 30
0.0
 10
87.9846793849
 20
240.1252186425
 30
0.0
 10
87.7462584989
 20
240.7187688497
 30
0.0
 10
87.6402321692
 20
241.3830597975
 30
0.0
 10
87.7066795577
 20
241.8411064874
 30
0.0
  0
SPLINE
  5
447
100
AcDbEntity
  8
0
100
AcDbSpline
 62
7
  6
CONTINUOUS
 70
0
 71
3
 72
9
 73
5
 74
0
 42
0.0000001
 43
0.0000001
 44
0.0000000001
 40
0.0
 40
0.0
 40
0.0
 40
0.0
 40
0.5181879895
 40
1.0
 40
1.0
 40
1.0
 40
1.0
 10
89.4750104737
 20
238.0199804197
 30
0.0
 10
89.1762605118
 20
238.3107773587
 30
0.0
 10
88.6428052508
 20
238.9182822895
 30
0.0
 10
88.2225177034
 20
239.6112819182
 30
0.0
 10
88.0597130402
 20
239.9630809715
 30
0.0
  0
SPLINE
  5
448
100
AcDbEntity
  8
0
100
AcDbSpline
 62
7
  6
CONTINUOUS
 70
0
 71
3
 72
16
 73
12
 74
0
 42
0.0000001
 43
0.0000001
 44
0.0000000001
 40
0.0
 40
0.0
 40
0.0
 40
0.0
 40
0.0458100015
 40
0.0924274349
 40
0.1906582114
 40
0.2992703902
 40
0.4201048495
 40
0.5528944952
 40
0.6958278845
 40
0.8460284837
 40
1.0
 40
1.0
 40
1.0
 40
1.0
 10
94.34518323
 20
235.386428418
 30
0.0
 10
94.2867525423
 20
235.3149935325
 30
0.0
 10
94.156489435
 20
235.1805028655
 30
0.0
 10
93.8465354227
 20
234.9511800344
 30
0.0
 10
93.3684672047
 20
234.7502152265
 30
0.0
 10
92.7087459311
 20
234.6602566912
 30
0.0
 10
91.9766225144
 20
234.7133414108
 30
0.0
 10
91.1979448746
 20
234.905629865
 30
0.0
 10
90.4004145419
 20
235.2291533775
 30
0.0
 10
89.613425419
 20
235.6716354906
 30
0.0
 10
89.1170289063
 20
236.0337118401
 30
0.0
 10
88.8773538538
 20
236.2306198302
 30
0.0
  0
SPLINE
  5
449
100
AcDbEntity
  8
0_COMPONENTS
100
AcDbSpline
 62
7
  6
CONTINUOUS
 70
0
 71
3
 72
15
 73
11
 74
0
 42
0.0000001
 43
0.0000001
 44
0.0000000001
 40
0.0
 40
0.0
 40
0.0
 40
0.0
 40
0.1147418054
 40
0.2372032193
 40
0.3653177069
 40
0.4965998778
 40
0.6283463693
 40
0.7578256727
 40
0.8824501001
 40
1.0
 40
1.0
 40
1.0
 40
1.0
 10
87.7938730315
 20
243.6584807091
 30
0.0
 10
88.2112720718
 20
243.5807466852
 30
0.0
 10
89.0623251059
 20
243.3523780673
 30
0.0
 10
90.3147120464
 20
242.8355546995
 30
0.0
 10
91.5524774617
 20
242.1478584247
 30
0.0
 10
92.7365998951
 20
241.3109150873
 30
0.0
 10
93.8301003963
 20
240.3509786144
 30
0.0
 10
94.7986570652
 20
239.2980491358
 30
0.0
 10
95.6118346704
 20
238.1853905205
 30
0.0
 10
96.0485875225
 20
237.3992704401
 30
0.0
 10
96.231266856
 20
237.0045248882
 30
0.0
  0
SPLINE
  5
44A
100
AcDbEntity
  8
0_COMPONENTS
100
AcDbSpline
 62
7
  6
CONTINUOUS
 70
0
 71
3
 72
12
 73
8
 74
0
 42
0.0000001
 43
0.0000001
 44
0.0000000001
 40
0.0
 40
0.0
 40
0.0
 40
0.0
 40
0.2864444171
 40
0.5461251444
 40
0.781456571
 40
0.8922682263
 40
1.0
 40
1.0
 40
1.0
 40
1.0
 10
92.5361616407
 20
232.1663138305
 30
0.0
 10
92.9177672495
 20
232.0952641302
 30
0.0
 10
93.6574048481
 20
232.0130923206
 30
0.0
 10
94.7202085965
 20
232.0919919583
 30
0.0
 10
95.5133114118
 20
232.3396082553
 30
0.0
 10
96.0506984182
 20
232.6425447073
 30
0.0
 10
96.2855718175
 20
232.8251504669
 30
0.0
 10
96.3935277122
 20
232.9234261874
 30
0.0
  0
SPLINE
  5
44B
100
AcDbEntity
  8
0_COMPONENTS
100
AcDbSpline
 62
7
  6
CONTINUOUS
 70
0
 71
3
 72
12
 73
8
 74
0
 42
0.0000001
 43
0.0000001
 44
0.0000000001
 40
0.0
 40
0.0
 40
0.0
 40
0.0
 40
0.2858554147
 40
0.5455187745
 40
0.7812484029
 40
0.8922282881
 40
1.0
 40
1.0
 40
1.0
 40
1.0
 10
84.1944297795
 20
238.990849537
 30
0.0
 10
84.0521169374
 20
239.3435883464
 30
0.0
 10
83.8284125959
 20
240.0382074346
 30
0.0
 10
83.6915105886
 20
241.0750319194
 30
0.0
 10
83.765087927
 20
241.8877021172
 30
0.0
 10
83.9410550577
 20
242.468047237
 30
0.0
 10
84.0648669214
 20
242.7328682041
 30
0.0
 10
84.135258716
 20
242.85780615
 30
0.0
  0
SPLINE
  5
44C
100
AcDbEntity
  8
0_COMPONENTS
100
AcDbSpline
 62
7
  6
CONTINUOUS
 70
0
 71
3
 72
15
 73
11
 74
0
 42
0.0000001
 43
0.0000001
 44
0.0000000001
 40
0.0
 40
0.0
 40
0.0
 40
0.0
 40
0.1147407402
 40
0.2372014395
 40
0.3653155701
 40
0.496597802
 40
0.6283450468
 40
0.7578243553
 40
0.882449435
 40
1.0
 40
1.0
 40
1.0
 40
1.0
 10
89.1879969008
 20
248.1280267094
 30
0.0
 10
89.7368785632
 20
248.0258144779
 30
0.0
 10
90.8560245943
 20
247.725541703
 30
0.0
 10
92.5029318956
 20
247.0459419307
 30
0.0
 10
94.1306224518
 20
246.1416463243
 30
0.0
 10
95.6877813081
 20
245.0410809472
 30
0.0
 10
97.1257569563
 20
243.7787542007
 30
0.0
 10
98.3994336842
 20
242.3941397353
 30
0.0
 10
99.4687806351
 20
240.9309765525
 30
0.0
 10
100.0431239667
 20
239.897214934
 30
0.0
 10
100.2833510627
 20
239.3781163817
 30
0.0
  0
SPLINE
  5
44D
100
AcDbEntity
  8
0_COMPONENTS
100
AcDbSpline
 62
7
  6
CONTINUOUS
 70
0
 71
3
 72
15
 73
11
 74
0
 42
0.0000001
 43
0.0000001
 44
0.0000000001
 40
0.0
 40
0.0
 40
0.0
 40
0.0
 40
0.1180668194
 40
0.242712645
 40
0.3718679336
 40
0.5031266332
 40
0.6339621909
 40
0.7618712813
 40
0.884537075
 40
1.0
 40
1.0
 40
1.0
 40
1.0
 10
84.3640084345
 20
238.6268813897
 30
0.0
 10
84.5489542227
 20
238.2470247682
 30
0.0
 10
84.9837076819
 20
237.4919501416
 30
0.0
 10
85.7806396591
 20
236.4230561502
 30
0.0
 10
86.7202388572
 20
235.4116891483
 30
0.0
 10
87.7751201462
 20
234.4875317004
 30
0.0
 10
88.9144871953
 20
233.6774390107
 30
0.0
 10
90.1052528328
 20
233.005038757
 30
0.0
 10
91.3125035261
 20
232.4899819621
 30
0.0
 10
92.1341718045
 20
232.2532469611
 30
0.0
 10
92.538487284
 20
232.1681672257
 30
0.0
  0
SPLINE
  5
44E
100
AcDbEntity
  8
0_COMPONENTS
100
AcDbSpline
 62
7
  6
CONTINUOUS
 70
0
 71
3
 72
15
 73
11
 74
0
 42
0.0000001
 43
0.0000001
 44
0.0000000001
 40
0.0
 40
0.0
 40
0.0
 40
0.0
 40
0.1181854072
 40
0.2430037772
 40
0.372367337
 40
0.5038157169
 40
0.6347384426
 40
0.7625633741
 40
0.8849469054
 40
1.0
 40
1.0
 40
1.0
 40
1.0
 10
82.2622109358
 20
237.8268476888
 30
0.0
 10
82.4853699806
 20
237.3550314425
 30
0.0
 10
83.0148470346
 20
236.4173418958
 30
0.0
 10
83.9942660234
 20
235.0921233677
 30
0.0
 10
85.1548609427
 20
233.8411710857
 30
0.0
 10
86.4612890963
 20
232.7023208911
 30
0.0
 10
87.8738996796
 20
231.7099098618
 30
0.0
 10
89.3501872723
 20
230.8941462823
 30
0.0
 10
90.8456588463
 20
230.2799583711
 30
0.0
 10
91.8625586147
 20
230.008088414
 30
0.0
 10
92.3620690391
 20
229.9150743533
 30
0.0
  0
SPLINE
  5
44F
100
AcDbEntity
  8
0_COMPONENTS
100
AcDbSpline
 62
7
  6
CONTINUOUS
 70
0
 71
3
 72
14
 73
10
 74
0
 42
0.0000001
 43
0.0000001
 44
0.0000000001
 40
0.0
 40
0.0
 40
0.0
 40
0.0
 40
0.1098546013
 40
0.221475502
 40
0.3365191649
 40
0.4563799918
 40
0.5821419677
 40
0.7145191323
 40
1.0
 40
1.0
 40
1.0
 40
1.0
 10
82.0290087888
 20
245.2054909179
 30
0.0
 10
81.8820343865
 20
245.0258415915
 30
0.0
 10
81.6168712991
 20
244.63690363
 30
0.0
 10
81.321141485
 20
243.9868324527
 30
0.0
 10
81.1284660366
 20
243.2773590609
 30
0.0
 10
81.0396815654
 20
242.5179729372
 30
0.0
 10
81.0539133293
 20
241.7172105101
 30
0.0
 10
81.2118616355
 20
240.5774556883
 30
0.0
 10
81.4763372836
 20
239.7272691517
 30
0.0
 10
81.7020403077
 20
239.1678982433
 30
0.0
  0
SPLINE
  5
450
100
AcDbEntity
  8
0_COMPONENTS
100
AcDbSpline
 62
7
  6
CONTINUOUS
 70
0
 71
3
 72
14
 73
10
 74
0
 42
0.0000001
 43
0.0000001
 44
0.0000000001
 40
0.0
 40
0.0
 40
0.0
 40
0.0
 40
0.2854808882
 40
0.4178580146
 40
0.5436199503
 40
0.6634807433
 40
0.7785243869
 40
0.8901453357
 40
1.0
 40
1.0
 40
1.0
 40
1.0
 10
93.2034246492
 20
229.7584052191
 30
0.0
 10
93.796421021
 20
229.647983195
 30
0.0
 10
94.6821504744
 20
229.5571658632
 30
0.0
 10
95.8306072641
 20
229.6281266613
 30
0.0
 10
96.6183199473
 20
229.7728033952
 30
0.0
 10
97.3450693878
 20
230.0102584479
 30
0.0
 10
98.0023152674
 20
230.3396581622
 30
0.0
 10
98.5809216333
 20
230.7583031281
 30
0.0
 10
98.9096249329
 20
231.0952579635
 30
0.0
 10
99.0565994188
 20
231.2749073934
 30
0.0
  0
SPLINE
  5
451
100
AcDbEntity
  8
0_COMPONENTS
100
AcDbSpline
 62
7
  6
CONTINUOUS
 70
0
 71
3
 72
14
 73
10
 74
0
 42
0.0000001
 43
0.0000001
 44
0.0000000001
 40
0.0
 40
0.0
 40
0.0
 40
0.0
 40
0.1079268121
 40
0.2179297021
 40
0.331886997
 40
0.4513351141
 40
0.5773969866
 40
0.7107705383
 40
1.0
 40
1.0
 40
1.0
 40
1.0
 10
83.2527526058
 20
246.7012867697
 30
0.0
 10
83.3942888226
 20
246.8742749718
 30
0.0
 10
83.711414494
 20
247.1991744453
 30
0.0
 10
84.2711353023
 20
247.6033365229
 30
0.0
 10
84.9099699207
 20
247.9224508847
 30
0.0
 10
85.6202345972
 20
248.153467098
 30
0.0
 10
86.3942813882
 20
248.2946762696
 30
0.0
 10
87.5304525125
 20
248.3637625094
 30
0.0
 10
88.4083595797
 20
248.2731980936
 30
0.0
 10
88.9972195453
 20
248.1635514237
 30
0.0
  0
SPLINE
  5
452
100
AcDbEntity
  8
0_COMPONENTS
100
AcDbSpline
 62
7
  6
CONTINUOUS
 70
0
 71
3
 72
12
 73
8
 74
0
 42
0.0000001
 43
0.0000001
 44
0.0000000001
 40
0.0
 40
0.0
 40
0.0
 40
0.0
 40
0.1115029001
 40
0.2245687386
 40
0.4604905377
 40
0.7173699892
 40
1.0
 40
1.0
 40
1.0
 40
1.0
 10
96.1130710161
 20
232.5332210477
 30
0.0
 10
96.1997711447
 20
232.639202998
 30
0.0
 10
96.3587362398
 20
232.8660344985
 30
0.0
 10
96.612893401
 20
233.3730887512
 30
0.0
 10
96.7991810283
 20
234.1034572607
 30
0.0
 10
96.804328445
 20
235.0628881913
 30
0.0
 10
96.6754997417
 20
235.7171279035
 30
0.0
 10
96.5818356238
 20
236.0513246124
 30
0.0
  0
SPLINE
  5
453
100
AcDbEntity
  8
0_COMPONENTS
100
AcDbSpline
 62
7
  6
CONTINUOUS
 70
0
 71
3
 72
14
 73
10
 74
0
 42
0.0000001
 43
0.0000001
 44
0.0000000001
 40
0.0
 40
0.0
 40
0.0
 40
0.0
 40
0.1079239182
 40
0.2179234616
 40
0.3318774375
 40
0.4513223903
 40
0.5773820787
 40
0.7107464777
 40
1.0
 40
1.0
 40
1.0
 40
1.0
 10
100.2803362207
 20
232.7707089847
 30
0.0
 10
100.4218688113
 20
232.9436927547
 30
0.0
 10
100.677466309
 20
233.3189105912
 30
0.0
 10
100.9627685867
 20
233.9475631552
 30
0.0
 10
101.1490165028
 20
234.6369339251
 30
0.0
 10
101.2347422464
 20
235.3788705555
 30
0.0
 10
101.2198210952
 20
236.1655196176
 30
0.0
 10
101.0625338049
 20
237.2928992215
 30
0.0
 10
100.7997920347
 20
238.1354863982
 30
0.0
 10
100.5756566961
 20
238.6910062924
 30
0.0
  0
SPLINE
  5
454
100
AcDbEntity
  8
0_COMPONENTS
100
AcDbSpline
 62
7
  6
CONTINUOUS
 70
0
 71
3
 72
12
 73
8
 74
0
 42
0.0000001
 43
0.0000001
 44
0.0000000001
 40
0.0
 40
0.0
 40
0.0
 40
0.0
 40
0.1108105742
 40
0.2232821343
 40
0.4585935204
 40
0.7159204348
 40
1.0
 40
1.0
 40
1.0
 40
1.0
 10
83.8454828434
 20
242.5695594471
 30
0.0
 10
83.9352041783
 20
242.67923451
 30
0.0
 10
84.1334177396
 20
242.8866069648
 30
0.0
 10
84.5994376093
 20
243.2456829776
 30
0.0
 10
85.3109696969
 20
243.5760180904
 30
0.0
 10
86.2948697898
 20
243.7601361154
 30
0.0
 10
86.9916514415
 20
243.7480262149
 30
0.0
 10
87.353216806
 20
243.7129161183
 30
0.0
  0
SPLINE
  5
455
100
AcDbEntity
  8
0_COMPONENTS
100
AcDbSpline
 62
7
  6
CONTINUOUS
 70
0
 71
3
 72
20
 73
16
 74
0
 42
0.0000001
 43
0.0000001
 44
0.0000000001
 40
0.0
 40
0.0
 40
0.0
 40
0.0
 40
0.1498516054
 40
0.2193145872
 40
0.2850955032
 40
0.4063110459
 40
0.4629894097
 40
0.5179204447
 40
0.5720199445
 40
0.6262790848
 40
0.6816741664
 40
0.7390806585
 40
0.7992107997
 40
0.862584617
 40
1.0
 40
1.0
 40
1.0
 40
1.0
 10
97.5549078331
 20
236.971432385
 30
0.0
 10
97.780217903
 20
236.4845675265
 30
0.0
 10
98.0574289825
 20
235.7442292564
 30
0.0
 10
98.2708340847
 20
234.7443654321
 30
0.0
 10
98.365308989
 20
233.8300852742
 30
0.0
 10
98.3007525916
 20
232.9475060457
 30
0.0
 10
98.0537733932
 20
232.148279177
 30
0.0
 10
97.7894517972
 20
231.6141239802
 30
0.0
 10
97.4444993443
 20
231.138698045
 30
0.0
 10
97.0228007995
 20
230.7274432984
 30
0.0
 10
96.5293453078
 20
230.384901358
 30
0.0
 10
95.9698912897
 20
230.1144147674
 30
0.0
 10
95.3504819851
 20
229.9182096458
 30
0.0
 10
94.4290784384
 20
229.7532254629
 30
0.0
 10
93.7031214565
 20
229.7538193776
 30
0.0
 10
93.2130951391
 20
229.7972809151
 30
0.0
  0
SPLINE
  5
456
100
AcDbEntity
  8
0_COMPONENTS
100
AcDbSpline
 62
7
  6
CONTINUOUS
 70
0
 71
3
 72
9
 73
5
 74
0
 42
0.0000001
 43
0.0000001
 44
0.0000000001
 40
0.0
 40
0.0
 40
0.0
 40
0.0
 40
0.2450939124
 40
1.0
 40
1.0
 40
1.0
 40
1.0
 10
93.2130951391
 20
229.7972809151
 30
0.0
 10
93.1431641959
 20
229.8034832479
 30
0.0
 10
92.8581687299
 20
229.8324065092
 30
0.0
 10
92.5746502052
 20
229.875495862
 30
0.0
 10
92.3620667874
 20
229.9150812025
 30
0.0
  0
SPLINE
  5
457
100
AcDbEntity
  8
0_COMPONENTS
100
AcDbSpline
 62
7
  6
CONTINUOUS
 70
0
 71
3
 72
27
 73
23
 74
0
 42
0.0000001
 43
0.0000001
 44
0.0000000001
 40
0.0
 40
0.0
 40
0.0
 40
0.0
 40
0.0634502448
 40
0.0929062394
 40
0.1208298739
 40
0.1723474959
 40
0.1964330764
 40
0.2197487063
 40
0.2426615961
 40
0.2655738715
 40
0.2888877069
 40
0.3129703866
 40
0.3644798171
 40
0.4217718239
 40
0.4852111673
 40
0.554253731
 40
0.6277128705
 40
0.7039813867
 40
0.7812132298
 40
0.8574847893
 40
0.9309479035
 40
1.0
 40
1.0
 40
1.0
 40
1.0
 10
97.3795625309
 20
236.9341794884
 30
0.0
 10
97.597057138
 20
236.4642027971
 30
0.0
 10
97.8655864993
 20
235.7497287631
 30
0.0
 10
98.0760782697
 20
234.7846398933
 30
0.0
 10
98.1736812891
 20
233.9002773003
 30
0.0
 10
98.1210224737
 20
233.0454053264
 30
0.0
 10
97.8956573336
 20
232.2672916893
 30
0.0
 10
97.6514275725
 20
231.7451916007
 30
0.0
 10
97.3304783478
 20
231.2778871276
 30
0.0
 10
96.9362301537
 20
230.870528586
 30
0.0
 10
96.4730775688
 20
230.5275199743
 30
0.0
 10
95.7551992404
 20
230.1521519965
 30
0.0
 10
94.6939805299
 20
229.8684526885
 30
0.0
 10
93.2791857827
 20
229.8299759161
 30
0.0
 10
91.7425584471
 20
230.0772378648
 30
0.0
 10
90.1388302446
 20
230.5992055997
 30
0.0
 10
88.525601361
 20
231.3755942755
 30
0.0
 10
86.9624647625
 20
232.377519788
 30
0.0
 10
85.5076963873
 20
233.5674611028
 30
0.0
 10
84.2156560848
 20
234.9010540061
 30
0.0
 10
83.1348750453
 20
236.3280306008
 30
0.0
 10
82.5603640241
 20
237.3450445314
 30
0.0
 10
82.3236674024
 20
237.8565142022
 30
0.0
  0
SPLINE
  5
458
100
AcDbEntity
  8
0_COMPONENTS
100
AcDbSpline
 62
7
  6
CONTINUOUS
 70
0
 71
3
 72
26
 73
22
 74
0
 42
0.0000001
 43
0.0000001
 44
0.0000000001
 40
0.0
 40
0.0
 40
0.0
 40
0.0
 40
0.062117557
 40
0.1186102309
 40
0.1699864634
 40
0.1942112058
 40
0.2177553353
 40
0.2409225427
 40
0.2640432505
 40
0.2874512744
 40
0.3114595608
 40
0.3622166483
 40
0.4179529473
 40
0.4792860784
 40
0.546072176
 40
0.6175950992
 40
0.692733343
 40
0.770096588
 40
0.8481432293
 40
0.9252871068
 40
1.0
 40
1.0
 40
1.0
 40
1.0
 10
82.0876171649
 20
238.4095915647
 30
0.0
 10
81.9227852635
 20
238.8315828074
 30
0.0
 10
81.6652866264
 20
239.6622199805
 30
0.0
 10
81.5145554355
 20
240.9002778082
 30
0.0
 10
81.6107351044
 20
241.8695557178
 30
0.0
 10
81.8253880492
 20
242.5622369999
 30
0.0
 10
82.047262534
 20
243.031639734
 30
0.0
 10
82.3314753294
 20
243.4565575574
 30
0.0
 10
82.6755971756
 20
243.8332707068
 30
0.0
 10
83.0766492961
 20
244.1584561029
 30
0.0
 10
83.6932813772
 20
244.5265612237
 30
0.0
 10
84.6033824988
 20
244.8406379549
 30
0.0
 10
85.8285175468
 20
244.9709527133
 30
0.0
 10
87.1716553281
 20
244.8656166329
 30
0.0
 10
88.5934474579
 20
244.5300328538
 30
0.0
 10
90.0522865063
 20
243.9754751426
 30
0.0
 10
91.5043364497
 20
243.2189760359
 30
0.0
 10
92.9054462287
 20
242.283720689
 30
0.0
 10
94.2127909835
 20
241.1983073984
 30
0.0
 10
95.3860755115
 20
239.9962940786
 30
0.0
 10
96.0704450076
 20
239.1218534019
 30
0.0
 10
96.3795468002
 20
238.6731054815
 30
0.0
  0
SPLINE
  5
459
100
AcDbEntity
  8
0_COMPONENTS
100
AcDbSpline
 62
7
  6
CONTINUOUS
 70
0
 71
3
 72
9
 73
5
 74
0
 42
0.0000001
 43
0.0000001
 44
0.0000000001
 40
0.0
 40
0.0
 40
0.0
 40
0.0
 40
0.2578268446
 40
1.0
 40
1.0
 40
1.0
 40
1.0
 10
96.3795468002
 20
238.6731054815
 30
0.0
 10
96.4774053134
 20
238.5310364112
 30
0.0
 10
96.8461940301
 20
237.9727481648
 30
0.0
 10
97.171004655
 20
237.3848451012
 30
0.0
 10
97.3795625309
 20
236.9341794884
 30
0.0
  0
SPLINE
  5
45A
100
AcDbEntity
  8
0_COMPONENTS
100
AcDbSpline
 62
7
  6
CONTINUOUS
 70
0
 71
3
 72
15
 73
11
 74
0
 42
0.0000001
 43
0.0000001
 44
0.0000000001
 40
0.0
 40
0.0
 40
0.0
 40
0.0
 40
0.1175505754
 40
0.2421759019
 40
0.3716561241
 40
0.5034033221
 40
0.6346857586
 40
0.7627998742
 40
0.8852601444
 40
1.0
 40
1.0
 40
1.0
 40
1.0
 10
84.3564340661
 20
238.616851432
 30
0.0
 10
84.5335338728
 20
238.2341624897
 30
0.0
 10
84.9569497051
 20
237.4720531106
 30
0.0
 10
85.7452990142
 20
236.3933824419
 30
0.0
 10
86.6842849342
 20
235.3726212542
 30
0.0
 10
87.7443992398
 20
234.4420195859
 30
0.0
 10
88.8923654404
 20
233.6306629669
 30
0.0
 10
90.0923310652
 20
232.9640045951
 30
0.0
 10
91.3064635398
 20
232.4630103077
 30
0.0
 10
92.1315168075
 20
232.2416531166
 30
0.0
 10
92.5361616407
 20
232.1663138305
 30
0.0
  0
SPLINE
  5
45B
100
AcDbEntity
  8
0_COMPONENTS
100
AcDbSpline
 62
7
  6
CONTINUOUS
 70
0
 71
3
 72
9
 73
5
 74
0
 42
0.0000001
 43
0.0000001
 44
0.0000000001
 40
0.0
 40
0.0
 40
0.0
 40
0.0
 40
0.258330534
 40
1.0
 40
1.0
 40
1.0
 40
1.0
 10
83.4719630773
 20
237.7861688023
 30
0.0
 10
83.4262301989
 20
237.8849914221
 30
0.0
 10
83.2563848177
 20
238.2707775939
 30
0.0
 10
83.1159012054
 20
238.669816577
 30
0.0
 10
83.032858689
 20
238.971214891
 30
0.0
  0
SPLINE
  5
45C
100
AcDbEntity
  8
0_COMPONENTS
100
AcDbSpline
 62
7
  6
CONTINUOUS
 70
0
 71
3
 72
15
 73
11
 74
0
 42
0.0000001
 43
0.0000001
 44
0.0000000001
 40
0.0
 40
0.0
 40
0.0
 40
0.0
 40
0.146911498
 40
0.284833835
 40
0.4143989785
 40
0.536846195
 40
0.6540620391
 40
0.7684815546
 40
0.8828709846
 40
1.0
 40
1.0
 40
1.0
 40
1.0
 10
83.032858689
 20
238.971214891
 30
0.0
 10
82.9690845894
 20
239.2026795297
 30
0.0
 10
82.8693450852
 20
239.6586357751
 30
0.0
 10
82.8081672253
 20
240.3350395825
 30
0.0
 10
82.8414113571
 20
240.973872777
 30
0.0
 10
82.9696060966
 20
241.5664879506
 30
0.0
 10
83.1919902773
 20
242.1043368394
 30
0.0
 10
83.5061648506
 20
242.5789345827
 30
0.0
 10
83.9072161361
 20
242.9823520274
 30
0.0
 10
84.2225761447
 20
243.1960185571
 30
0.0
 10
84.3898534304
 20
243.2890725092
 30
0.0
  0
SPLINE
  5
45D
100
AcDbEntity
  8
0_COMPONENTS
100
AcDbSpline
 62
7
  6
CONTINUOUS
 70
0
 71
3
 72
11
 73
7
 74
0
 42
0.0000001
 43
0.0000001
 44
0.0000000001
 40
0.0
 40
0.0
 40
0.0
 40
0.0
 40
0.2249419908
 40
0.4650738433
 40
0.7230741451
 40
1.0
 40
1.0
 40
1.0
 40
1.0
 10
84.3898534304
 20
243.2890725092
 30
0.0
 10
84.5892450759
 20
243.3999912185
 30
0.0
 10
85.026350958
 20
243.5864795531
 30
0.0
 10
85.7449284231
 20
243.7488075651
 30
0.0
 10
86.5321198355
 20
243.8007354198
 30
0.0
 10
87.0750646627
 20
243.7629765416
 30
0.0
 10
87.3537201871
 20
243.7275722834
 30
0.0
  0
SPLINE
  5
45E
100
AcDbEntity
  8
0_COMPONENTS
100
AcDbSpline
 62
7
  6
CONTINUOUS
 70
0
 71
3
 72
14
 73
10
 74
0
 42
0.0000001
 43
0.0000001
 44
0.0000000001
 40
0.0
 40
0.0
 40
0.0
 40
0.0
 40
0.2922486205
 40
0.4265273459
 40
0.5529276831
 40
0.6720798027
 40
0.7851298346
 40
0.8937391699
 40
1.0
 40
1.0
 40
1.0
 40
1.0
 10
83.7947214284
 20
237.9302604627
 30
0.0
 10
83.5949476815
 20
238.3619447504
 30
0.0
 10
83.3541380361
 20
239.0195411111
 30
0.0
 10
83.1892676877
 20
239.9059710937
 30
0.0
 10
83.1516472464
 20
240.5248726174
 30
0.0
 10
83.1975692514
 20
241.1088317585
 30
0.0
 10
83.3272233183
 20
241.6507924324
 30
0.0
 10
83.5396094867
 20
242.1433986337
 30
0.0
 10
83.7359724964
 20
242.4356943614
 30
0.0
 10
83.8454828434
 20
242.5695594471
 30
0.0
  0
SPLINE
  5
45F
100
AcDbEntity
  8
0_COMPONENTS
100
AcDbSpline
 62
7
  6
CONTINUOUS
 70
0
 71
3
 72
23
 73
19
 74
0
 42
0.0000001
 43
0.0000001
 44
0.0000000001
 40
0.0
 40
0.0
 40
0.0
 40
0.0
 40
0.0668730418
 40
0.1373860155
 40
0.2106185824
 40
0.2855020353
 40
0.3608816037
 40
0.4355780542
 40
0.5084462985
 40
0.5784363726
 40
0.6446591854
 40
0.7064614785
 40
0.7635145107
 40
0.8159181996
 40
0.8643082923
 40
0.909917409
 40
0.9544929169
 40
1.0
 40
1.0
 40
1.0
 40
1.0
 10
83.4719630773
 20
237.7861688023
 30
0.0
 10
83.6296069651
 20
237.4455214926
 30
0.0
 10
83.9983950963
 20
236.7658929292
 30
0.0
 10
84.6734914581
 20
235.7930013013
 30
0.0
 10
85.4714814916
 20
234.8581562969
 30
0.0
 10
86.3733678753
 20
233.9836422026
 30
0.0
 10
87.3578140826
 20
233.1901040759
 30
0.0
 10
88.4014664124
 20
232.4963757341
 30
0.0
 10
89.4796193621
 20
231.9188933951
 30
0.0
 10
90.5668535903
 20
231.471329167
 30
0.0
 10
91.6377389593
 20
231.1643082464
 30
0.0
 10
92.6675389002
 20
231.0053076355
 30
0.0
 10
93.6328231159
 20
230.9987982635
 30
0.0
 10
94.5117258379
 20
231.1467100538
 30
0.0
 10
95.2832969473
 20
231.4487549655
 30
0.0
 10
95.9260866252
 20
231.9016243389
 30
0.0
 10
96.4182336124
 20
232.494357134
 30
0.0
 10
96.6306449564
 20
232.9602401465
 30
0.0
 10
96.7086146283
 20
233.2034788273
 30
0.0
  0
SPLINE
  5
460
100
AcDbEntity
  8
0_COMPONENTS
100
AcDbSpline
 62
7
  6
CONTINUOUS
 70
0
 71
3
 72
11
 73
7
 74
0
 42
0.0000001
 43
0.0000001
 44
0.0000000001
 40
0.0
 40
0.0
 40
0.0
 40
0.0
 40
0.2260308979
 40
0.4665601824
 40
0.7241568655
 40
1.0
 40
1.0
 40
1.0
 40
1.0
 10
96.7086146283
 20
233.2034788273
 30
0.0
 10
96.7752890553
 20
233.411480211
 30
0.0
 10
96.869912277
 20
233.8554580358
 30
0.0
 10
96.8946762442
 20
234.5577213017
 30
0.0
 10
96.8073106697
 20
235.3030197567
 30
0.0
 10
96.6798944439
 20
235.8040844942
 30
0.0
 10
96.5998421659
 20
236.0583428054
 30
0.0
  0
SPLINE
  5
461
100
AcDbEntity
  8
0_COMPONENTS
100
AcDbSpline
 62
7
  6
CONTINUOUS
 70
0
 71
3
 72
19
 73
15
 74
0
 42
0.0000001
 43
0.0000001
 44
0.0000000001
 40
0.0
 40
0.0
 40
0.0
 40
0.0
 40
0.1329253458
 40
0.2760277602
 40
0.4223854789
 40
0.5645216098
 40
0.6319127603
 40
0.6958577783
 40
0.7558598417
 40
0.811663937
 40
0.8633261539
 40
0.9112858199
 40
0.9564158025
 40
1.0
 40
1.0
 40
1.0
 40
1.0
 10
83.7947214284
 20
237.9302604627
 30
0.0
 10
84.0781348143
 20
237.3178421268
 30
0.0
 10
84.8164483338
 20
236.1133670203
 30
0.0
 10
86.2544458549
 20
234.5098675189
 30
0.0
 10
87.9724300156
 20
233.1345243406
 30
0.0
 10
89.5590031224
 20
232.248806293
 30
0.0
 10
90.8567628928
 20
231.7499808394
 30
0.0
 10
91.7964551678
 20
231.4963177525
 30
0.0
 10
92.7013272944
 20
231.361580488
 30
0.0
 10
93.55431772
 20
231.3488710194
 30
0.0
 10
94.3392771292
 20
231.4594088359
 30
0.0
 10
95.0410345684
 20
231.692963521
 30
0.0
 10
95.6441424209
 20
232.0468871848
 30
0.0
 10
95.9729711827
 20
232.3619634749
 30
0.0
 10
96.1130710161
 20
232.5332210477
 30
0.0
  0
SPLINE
  5
462
100
AcDbEntity
  8
0_COMPONENTS
100
AcDbSpline
 62
7
  6
CONTINUOUS
 70
0
 71
3
 72
14
 73
10
 74
0
 42
0.0000001
 43
0.0000001
 44
0.0000000001
 40
0.0
 40
0.0
 40
0.0
 40
0.0
 40
0.289880172
 40
0.423238427
 40
0.5491048996
 40
0.6682587821
 40
0.7819436529
 40
0.8918450905
 40
1.0
 40
1.0
 40
1.0
 40
1.0
 10
81.7020510576
 20
239.1679025808
 30
0.0
 10
81.4737660743
 20
239.7336870636
 30
0.0
 10
81.2079525632
 20
240.5922293068
 30
0.0
 10
81.0564596084
 20
241.7401613265
 30
0.0
 10
81.050747216
 20
242.5388745399
 30
0.0
 10
81.1505217938
 20
243.289920523
 30
0.0
 10
81.3555542423
 20
243.9848670869
 30
0.0
 10
81.6641165675
 20
244.6149280426
 30
0.0
 10
81.9374785604
 20
244.9871777699
 30
0.0
 10
82.0881068542
 20
245.1578438873
 30
0.0
  0
SPLINE
  5
463
100
AcDbEntity
  8
0_COMPONENTS
100
AcDbSpline
 62
7
  6
CONTINUOUS
 70
0
 71
3
 72
14
 73
10
 74
0
 42
0.0000001
 43
0.0000001
 44
0.0000000001
 40
0.0
 40
0.0
 40
0.0
 40
0.0
 40
0.1064866975
 40
0.2155673979
 40
0.3291200347
 40
0.4486275082
 40
0.5751161194
 40
0.7091677109
 40
1.0
 40
1.0
 40
1.0
 40
1.0
 10
82.0881068542
 20
245.1578438873
 30
0.0
 10
82.2397960234
 20
245.3297120066
 30
0.0
 10
82.5791505813
 20
245.650473936
 30
0.0
 10
83.1737097643
 20
246.0417051521
 30
0.0
 10
83.8494572788
 20
246.3422665158
 30
0.0
 10
84.5978790744
 20
246.5492662421
 30
0.0
 10
85.4105432968
 20
246.6612535166
 30
0.0
 10
86.5993150831
 20
246.6835036915
 30
0.0
 10
87.5121175651
 20
246.5526198794
 30
0.0
 10
88.1227404215
 20
246.4143819692
 30
0.0
  0
SPLINE
  5
464
100
AcDbEntity
  8
0_COMPONENTS
100
AcDbSpline
 62
7
  6
CONTINUOUS
 70
0
 71
3
 72
15
 73
11
 74
0
 42
0.0000001
 43
0.0000001
 44
0.0000000001
 40
0.0
 40
0.0
 40
0.0
 40
0.0
 40
0.1163635917
 40
0.2397656789
 40
0.3681783752
 40
0.4992327832
 40
0.6303912064
 40
0.7591110197
 40
0.8829977535
 40
1.0
 40
1.0
 40
1.0
 40
1.0
 10
88.1227404215
 20
246.4143819692
 30
0.0
 10
88.6678356692
 20
246.2909787471
 30
0.0
 10
89.7734906281
 20
245.955182346
 30
0.0
 10
91.3939724909
 20
245.2383439704
 30
0.0
 10
92.9867221501
 20
244.3121416287
 30
0.0
 10
94.5046218658
 20
243.2038934875
 30
0.0
 10
95.9031682948
 20
241.9461867588
 30
0.0
 10
97.1412202288
 20
240.5758939068
 30
0.0
 10
98.1822984649
 20
239.1335922026
 30
0.0
 10
98.7436188025
 20
238.1174768972
 30
0.0
 10
98.9796321242
 20
237.6074837462
 30
0.0
  0
SPLINE
  5
465
100
AcDbEntity
  8
0_COMPONENTS
100
AcDbSpline
 62
7
  6
CONTINUOUS
 70
0
 71
3
 72
22
 73
18
 74
0
 42
0.0000001
 43
0.0000001
 44
0.0000000001
 40
0.0
 40
0.0
 40
0.0
 40
0.0
 40
0.0435648011
 40
0.0886746718
 40
0.1366130673
 40
0.1882522903
 40
0.2440316324
 40
0.3040068583
 40
0.367923345
 40
0.4352842505
 40
0.5054116795
 40
0.5774964963
 40
0.7237893203
 40
0.7962420701
 40
0.8669657013
 40
0.9351233186
 40
1.0
 40
1.0
 40
1.0
 40
1.0
 10
82.0290163778
 20
245.2054847083
 30
0.0
 10
82.2234842044
 20
245.44318704
 30
0.0
 10
82.6798912727
 20
245.8805278038
 30
0.0
 10
83.5170194051
 20
246.3717760786
 30
0.0
 10
84.4910700522
 20
246.6959496004
 30
0.0
 10
85.5806084745
 20
246.8493748784
 30
0.0
 10
86.7645680867
 20
246.8317267936
 30
0.0
 10
88.0205583027
 20
246.644712433
 30
0.0
 10
89.3248008625
 20
246.2926088864
 30
0.0
 10
90.6522564985
 20
245.7825336523
 30
0.0
 10
91.9774061214
 20
245.1244498014
 30
0.0
 10
93.7140280144
 20
244.0621894819
 30
0.0
 10
95.3236192891
 20
242.773755352
 30
0.0
 10
96.7465786727
 20
241.3085436128
 30
0.0
 10
97.6892345738
 20
240.1520933155
 30
0.0
 10
98.4915794586
 20
238.9582204673
 30
0.0
 10
98.9349622394
 20
238.1293879811
 30
0.0
 10
99.1270451731
 20
237.7143225099
 30
0.0
  0
SPLINE
  5
466
100
AcDbEntity
  8
0_COMPONENTS
100
AcDbSpline
 62
7
  6
CONTINUOUS
 70
0
 71
3
 72
13
 73
9
 74
0
 42
0.0000001
 43
0.0000001
 44
0.0000000001
 40
0.0
 40
0.0
 40
0.0
 40
0.0
 40
0.2923767448
 40
0.552699366
 40
0.6719120614
 40
0.7850204045
 40
0.8936849833
 40
1.0
 40
1.0
 40
1.0
 40
1.0
 10
99.1270451731
 20
237.7143225099
 30
0.0
 10
99.4043167458
 20
237.1151758091
 30
0.0
 10
99.836620826
 20
235.9357023231
 30
0.0
 10
100.0433217156
 20
234.4153226978
 30
0.0
 10
99.9559368927
 20
233.3024783544
 30
0.0
 10
99.7759559159
 20
232.5501972529
 30
0.0
 10
99.4811402564
 20
231.8664637224
 30
0.0
 10
99.2086094317
 20
231.460729553
 30
0.0
 10
99.0566012563
 20
231.2749251253
 30
0.0
  0
SPLINE
  5
467
100
AcDbEntity
  8
0_COMPONENTS
100
AcDbSpline
 62
7
  6
CONTINUOUS
 70
0
 71
3
 72
13
 73
9
 74
0
 42
0.0000001
 43
0.0000001
 44
0.0000000001
 40
0.0
 40
0.0
 40
0.0
 40
0.0
 40
0.2916270985
 40
0.552114892
 40
0.671617929
 40
0.7850243703
 40
0.8938430833
 40
1.0
 40
1.0
 40
1.0
 40
1.0
 10
98.9796321242
 20
237.6074837462
 30
0.0
 10
99.2485668959
 20
237.0263517548
 30
0.0
 10
99.6704558527
 20
235.8817576123
 30
0.0
 10
99.8835686503
 20
234.4067987277
 30
0.0
 10
99.8161341769
 20
233.3220302251
 30
0.0
 10
99.6571580137
 20
232.5854272943
 30
0.0
 10
99.3895801818
 20
231.912218983
 30
0.0
 10
99.1386608265
 20
231.5087939787
 30
0.0
 10
98.997892556
 20
231.3230044292
 30
0.0
  0
SPLINE
  5
468
100
AcDbEntity
  8
0_COMPONENTS
100
AcDbSpline
 62
7
  6
CONTINUOUS
 70
0
 71
3
 72
11
 73
7
 74
0
 42
0.0000001
 43
0.0000001
 44
0.0000000001
 40
0.0
 40
0.0
 40
0.0
 40
0.0
 40
0.2429737576
 40
0.4885230074
 40
0.7399073748
 40
1.0
 40
1.0
 40
1.0
 40
1.0
 10
98.997892556
 20
231.3230044292
 30
0.0
 10
98.8838204872
 20
231.1724492068
 30
0.0
 10
98.6315479824
 20
230.886356866
 30
0.0
 10
98.1900893441
 20
230.514550276
 30
0.0
 10
97.6890627344
 20
230.202297242
 30
0.0
 10
97.3252634889
 20
230.0386268787
 30
0.0
 10
97.1361645426
 20
229.9670333829
 30
0.0
  0
SPLINE
  5
469
100
AcDbEntity
  8
0_COMPONENTS
100
AcDbSpline
 62
7
  6
CONTINUOUS
 70
0
 71
3
 72
9
 73
5
 74
0
 42
0.0000001
 43
0.0000001
 44
0.0000000001
 40
0.0
 40
0.0
 40
0.0
 40
0.0
 40
0.2452675744
 40
1.0
 40
1.0
 40
1.0
 40
1.0
 10
96.9803043777
 20
229.9109385006
 30
0.0
 10
96.9239152336
 20
229.8916740767
 30
0.0
 10
96.6926543556
 20
229.8171206268
 30
0.0
 10
96.4563740828
 20
229.7583391236
 30
0.0
 10
96.2765973586
 20
229.7222352688
 30
0.0
  0
SPLINE
  5
46A
100
AcDbEntity
  8
0_COMPONENTS
100
AcDbSpline
 62
7
  6
CONTINUOUS
 70
0
 71
3
 72
9
 73
5
 74
0
 42
0.0000001
 43
0.0000001
 44
0.0000000001
 40
0.0
 40
0.0
 40
0.0
 40
0.0
 40
0.2459778866
 40
1.0
 40
1.0
 40
1.0
 40
1.0
 10
95.8925012677
 20
229.657607667
 30
0.0
 10
95.8418142317
 20
229.6506678611
 30
0.0
 10
95.6354246328
 20
229.624871676
 30
0.0
 10
95.4278657627
 20
229.6085940783
 30
0.0
 10
95.27121122
 20
229.601264792
 30
0.0
  0
SPLINE
  5
46B
100
AcDbEntity
  8
0_COMPONENTS
100
AcDbSpline
 62
7
  6
CONTINUOUS
 70
0
 71
3
 72
9
 73
5
 74
0
 42
0.0000001
 43
0.0000001
 44
0.0000000001
 40
0.0
 40
0.0
 40
0.0
 40
0.0
 40
0.2451674361
 40
1.0
 40
1.0
 40
1.0
 40
1.0
 10
94.1368087854
 20
229.6285631187
 30
0.0
 10
94.0600912809
 20
229.6354784685
 30
0.0
 10
93.7475316956
 20
229.6675900398
 30
0.0
 10
93.4365846711
 20
229.7149959993
 30
0.0
 10
93.2034333084
 20
229.758410535
 30
0.0
  0
SPLINE
  5
46C
100
AcDbEntity
  8
0_COMPONENTS
100
AcDbSpline
 62
7
  6
CONTINUOUS
 70
0
 71
3
 72
9
 73
5
 74
0
 42
0.0000001
 43
0.0000001
 44
0.0000000001
 40
0.0
 40
0.0
 40
0.0
 40
0.0
 40
0.2549191574
 40
1.0
 40
1.0
 40
1.0
 40
1.0
 10
82.0222701067
 20
238.3742935643
 30
0.0
 10
81.9949970174
 20
238.4418897905
 30
0.0
 10
81.8909944082
 20
238.7082460957
 30
0.0
 10
81.7991670923
 20
238.9793990869
 30
0.0
 10
81.7386413609
 20
239.1836668237
 30
0.0
  0
SPLINE
  5
46D
100
AcDbEntity
  8
0_COMPONENTS
100
AcDbSpline
 62
7
  6
CONTINUOUS
 70
0
 71
3
 72
27
 73
23
 74
0
 42
0.0000001
 43
0.0000001
 44
0.0000000001
 40
0.0
 40
0.0
 40
0.0
 40
0.0
 40
0.0584357498
 40
0.1112373223
 40
0.1358892082
 40
0.1596415121
 40
0.182793571
 40
0.205689528
 40
0.2286939289
 40
0.2521625871
 40
0.2764157437
 40
0.3017181078
 40
0.3561194334
 40
0.4162968909
 40
0.4821737698
 40
0.553001814
 40
0.627563898
 40
0.7043377843
 40
0.7816364436
 40
0.857735443
 40
0.9309946546
 40
1.0
 40
1.0
 40
1.0
 40
1.0
 10
81.7386413609
 20
239.1836668237
 30
0.0
 10
81.6081809927
 20
239.6239563262
 30
0.0
 10
81.4277952465
 20
240.4851479368
 30
0.0
 10
81.4336590169
 20
241.5639248063
 30
0.0
 10
81.5954172553
 20
242.3449775585
 30
0.0
 10
81.7865529344
 20
242.8759748136
 30
0.0
 10
82.048870611
 20
243.3601813414
 30
0.0
 10
82.3801362052
 20
243.7928295359
 30
0.0
 10
82.7771193924
 20
244.1696637498
 30
0.0
 10
83.2358255602
 20
244.4871808153
 30
0.0
 10
83.7517875818
 20
244.7426889624
 30
0.0
 10
84.5279046373
 20
245.0043658967
 30
0.0
 10
85.6269066436
 20
245.1562765606
 30
0.0
 10
87.04938005
 20
245.0687761525
 30
0.0
 10
88.5635711578
 20
244.7235690804
 30
0.0
 10
90.1201505929
 20
244.1330859792
 30
0.0
 10
91.668247793
 20
243.3173920464
 30
0.0
 10
93.1562004158
 20
242.3038277111
 30
0.0
 10
94.5340781899
 20
241.1265232354
 30
0.0
 10
95.7555649208
 20
239.8249009451
 30
0.0
 10
96.77947851
 20
238.4430621302
 30
0.0
 10
97.3271621824
 20
237.4635602073
 30
0.0
 10
97.5549078331
 20
236.971432385
 30
0.0
  0
SPLINE
  5
46E
100
AcDbEntity
  8
0_COMPONENTS
100
AcDbSpline
 62
7
  6
CONTINUOUS
 70
0
 71
3
 72
15
 73
11
 74
0
 42
0.0000001
 43
0.0000001
 44
0.0000000001
 40
0.0
 40
0.0
 40
0.0
 40
0.0
 40
0.1152652004
 40
0.2378703667
 40
0.3658281694
 40
0.4967782077
 40
0.6281657918
 40
0.7574096976
 40
0.8820589218
 40
1.0
 40
1.0
 40
1.0
 40
1.0
 10
89.1817174053
 20
248.1275587122
 30
0.0
 10
89.7304207068
 20
248.0156711197
 30
0.0
 10
90.8464848009
 20
247.7001256533
 30
0.0
 10
92.4869730265
 20
247.0065628506
 30
0.0
 10
94.1059536098
 20
246.0965444484
 30
0.0
 10
95.6550310236
 20
244.9971836313
 30
0.0
 10
97.0883182997
 20
243.7411616111
 30
0.0
 10
98.3631794412
 20
242.3657124778
 30
0.0
 10
99.4416755803
 20
240.9120017684
 30
0.0
 10
100.0277516566
 20
239.885012723
 30
0.0
 10
100.2760210184
 20
239.3685965799
 30
0.0
  0
SPLINE
  5
46F
100
AcDbEntity
  8
0_COMPONENTS
100
AcDbSpline
 62
7
  6
CONTINUOUS
 70
0
 71
3
 72
8
 73
4
 74
0
 42
0.0000001
 43
0.0000001
 44
0.0000000001
 40
0.0
 40
0.0
 40
0.0
 40
0.0
 40
1.0
 40
1.0
 40
1.0
 40
1.0
 10
95.1780403669
 20
256.2061760938
 30
0.0
 10
95.1700005491
 20
256.2087760523
 30
0.0
 10
95.161794773
 20
256.2108954335
 30
0.0
 10
95.1535193899
 20
256.2126032068
 30
0.0
  0
SPLINE
  5
470
100
AcDbEntity
  8
0_COMPONENTS
100
AcDbSpline
 62
7
  6
CONTINUOUS
 70
0
 71
3
 72
9
 73
5
 74
0
 42
0.0000001
 43
0.0000001
 44
0.0000000001
 40
0.0
 40
0.0
 40
0.0
 40
0.0
 40
0.2415565804
 40
1.0
 40
1.0
 40
1.0
 40
1.0
 10
95.1535193899
 20
256.2126032068
 30
0.0
 10
95.1503063069
 20
256.2132662839
 30
0.0
 10
95.1369524495
 20
256.2157554186
 30
0.0
 10
95.1234202772
 20
256.217254272
 30
0.0
 10
95.1131402472
 20
256.2179124013
 30
0.0
  0
SPLINE
  5
471
100
AcDbEntity
  8
0_COMPONENTS
100
AcDbSpline
 62
7
  6
CONTINUOUS
 70
0
 71
3
 72
11
 73
7
 74
0
 42
0.0000001
 43
0.0000001
 44
0.0000000001
 40
0.0
 40
0.0
 40
0.0
 40
0.0
 40
0.2321803865
 40
0.4951160708
 40
0.7609480121
 40
1.0
 40
1.0
 40
1.0
 40
1.0
 10
95.1131402472
 20
256.2179124013
 30
0.0
 10
95.0709410474
 20
256.2206140012
 30
0.0
 10
94.9799476188
 20
256.2100770204
 30
0.0
 10
94.8485365701
 20
256.1635931107
 30
0.0
 10
94.727311126
 20
256.0923576743
 30
0.0
 10
94.6581463342
 20
256.030125825
 30
0.0
 10
94.6305782968
 20
255.996428941
 30
0.0
  0
SPLINE
  5
472
100
AcDbEntity
  8
0_COMPONENTS
100
AcDbSpline
 62
7
  6
CONTINUOUS
 70
0
 71
3
 72
11
 73
7
 74
0
 42
0.0000001
 43
0.0000001
 44
0.0000000001
 40
0.0
 40
0.0
 40
0.0
 40
0.0
 40
0.2097828999
 40
0.439227662
 40
0.7014073223
 40
1.0
 40
1.0
 40
1.0
 40
1.0
 10
95.1809806825
 20
256.3143820025
 30
0.0
 10
95.186659594
 20
256.3021114378
 30
0.0
 10
95.1934110563
 20
256.2737947017
 30
0.0
 10
95.1876450329
 20
256.2282223101
 30
0.0
 10
95.167587288
 20
256.1808964324
 30
0.0
 10
95.1468003939
 20
256.1510461017
 30
0.0
 10
95.1346143218
 20
256.1361508573
 30
0.0
  0
SPLINE
  5
473
100
AcDbEntity
  8
0_COMPONENTS
100
AcDbSpline
 62
7
  6
CONTINUOUS
 70
0
 71
3
 72
9
 73
5
 74
0
 42
0.0000001
 43
0.0000001
 44
0.0000000001
 40
0.0
 40
0.0
 40
0.0
 40
0.0
 40
0.2608485606
 40
1.0
 40
1.0
 40
1.0
 40
1.0
 10
85.7283591504
 20
239.8781169503
 30
0.0
 10
85.695330992
 20
239.9696402403
 30
0.0
 10
85.5769395981
 20
240.3233486333
 30
0.0
 10
85.4928045558
 20
240.6890845865
 30
0.0
 10
85.4560092703
 20
240.9623328715
 30
0.0
  0
SPLINE
  5
474
100
AcDbEntity
  8
0_COMPONENTS
100
AcDbSpline
 62
7
  6
CONTINUOUS
 70
0
 71
3
 72
15
 73
11
 74
0
 42
0.0000001
 43
0.0000001
 44
0.0000000001
 40
0.0
 40
0.0
 40
0.0
 40
0.0
 40
0.1314493352
 40
0.2769729622
 40
0.4283946487
 40
0.5764452316
 40
0.7120899456
 40
0.8282711075
 40
0.9223336146
 40
1.0
 40
1.0
 40
1.0
 40
1.0
 10
95.1346143218
 20
256.1361508573
 30
0.0
 10
95.1146886226
 20
256.1117953341
 30
0.0
 10
95.066253584
 20
256.06568602
 30
0.0
 10
94.9803827256
 20
256.0089158487
 30
0.0
 10
94.8833069808
 20
255.9640802132
 30
0.0
 10
94.7830646818
 20
255.9344366258
 30
0.0
 10
94.6876625674
 20
255.9218823462
 30
0.0
 10
94.6044005785
 20
255.9273619868
 30
0.0
 10
94.5380502774
 20
255.9507866711
 30
0.0
 10
94.5081892823
 20
255.9824726678
 30
0.0
 10
94.5003805833
 20
255.9993460613
 30
0.0
  0
SPLINE
  5
475
100
AcDbEntity
  8
0_COMPONENTS
100
AcDbSpline
 62
7
  6
CONTINUOUS
 70
0
 71
3
 72
9
 73
5
 74
0
 42
0.0000001
 43
0.0000001
 44
0.0000000001
 40
0.0
 40
0.0
 40
0.0
 40
0.0
 40
0.2662770778
 40
1.0
 40
1.0
 40
1.0
 40
1.0
 10
94.6305782968
 20
255.996428941
 30
0.0
 10
94.626561145
 20
255.9915187077
 30
0.0
 10
94.6119198061
 20
255.9727295744
 30
0.0
 10
94.599092237
 20
255.9524466489
 30
0.0
 10
94.5913846742
 20
255.9367563985
 30
0.0
  0
SPLINE
  5
476
100
AcDbEntity
  8
0_COMPONENTS
100
AcDbSpline
 62
7
  6
CONTINUOUS
 70
0
 71
3
 72
15
 73
11
 74
0
 42
0.0000001
 43
0.0000001
 44
0.0000000001
 40
0.0
 40
0.0
 40
0.0
 40
0.0
 40
0.1164756178
 40
0.2393965183
 40
0.3670057728
 40
0.4972229922
 40
0.6278163912
 40
0.7565293882
 40
0.881219419
 40
1.0
 40
1.0
 40
1.0
 40
1.0
 10
107.1333158525
 20
248.1734346144
 30
0.0
 10
106.9212595342
 20
248.6316598923
 30
0.0
 10
106.4212983679
 20
249.5446519262
 30
0.0
 10
105.4999707937
 20
250.8452834654
 30
0.0
 10
104.4080450992
 20
252.0868614121
 30
0.0
 10
103.1743641983
 20
253.2366937031
 30
0.0
 10
101.8314481456
 20
254.2646756762
 30
0.0
 10
100.414538417
 20
255.1437100152
 30
0.0
 10
98.96105145
 20
255.8504944715
 30
0.0
 10
97.9636826304
 20
256.2046600261
 30
0.0
 10
97.4683672865
 20
256.3453401658
 30
0.0
  0
SPLINE
  5
477
100
AcDbEntity
  8
0_COMPONENTS
100
AcDbSpline
 62
7
  6
CONTINUOUS
 70
0
 71
3
 72
13
 73
9
 74
0
 42
0.0000001
 43
0.0000001
 44
0.0000000001
 40
0.0
 40
0.0
 40
0.0
 40
0.0
 40
0.2919443012
 40
0.5522464599
 40
0.6715194923
 40
0.7847230198
 40
0.8935232736
 40
1.0
 40
1.0
 40
1.0
 40
1.0
 10
97.3845183594
 20
256.3688226678
 30
0.0
 10
96.7402867076
 20
256.5466862995
 30
0.0
 10
95.4895317132
 20
256.7821028104
 30
0.0
 10
93.9349792203
 20
256.7301171751
 30
0.0
 10
92.8385662998
 20
256.4474729585
 30
0.0
 10
92.1197472971
 20
256.131625963
 30
0.0
 10
91.4928357648
 20
255.7088799837
 30
0.0
 10
91.1420327159
 20
255.3574591096
 30
0.0
 10
90.9876869728
 20
255.1687996666
 30
0.0
  0
SPLINE
  5
478
100
AcDbEntity
  8
0_COMPONENTS
100
AcDbSpline
 62
7
  6
CONTINUOUS
 70
0
 71
3
 72
14
 73
10
 74
0
 42
0.0000001
 43
0.0000001
 44
0.0000000001
 40
0.0
 40
0.0
 40
0.0
 40
0.0
 40
0.1077498148
 40
0.2176016421
 40
0.3314615116
 40
0.450892967
 40
0.5770285933
 40
0.7105403044
 40
1.0
 40
1.0
 40
1.0
 40
1.0
 10
107.0478008626
 20
242.0297265696
 30
0.0
 10
107.1935418977
 20
242.2078683309
 30
0.0
 10
107.4548432387
 20
242.5960663988
 30
0.0
 10
107.7383939711
 20
243.248692784
 30
0.0
 10
107.91263872
 20
243.9640805233
 30
0.0
 10
107.9768283935
 20
244.7319010305
 30
0.0
 10
107.9318813973
 20
245.542780881
 30
0.0
 10
107.7233833542
 20
246.6992566953
 30
0.0
 10
107.4148141241
 20
247.5568452797
 30
0.0
 10
107.1581585944
 20
248.1193718222
 30
0.0
  0
SPLINE
  5
479
100
AcDbEntity
  8
0_COMPONENTS
100
AcDbSpline
 62
7
  6
CONTINUOUS
 70
0
 71
3
 72
10
 73
6
 74
0
 42
0.0000001
 43
0.0000001
 44
0.0000000001
 40
0.0
 40
0.0
 40
0.0
 40
0.0
 40
0.5202048888
 40
0.7631820006
 40
1.0
 40
1.0
 40
1.0
 40
1.0
 10
87.2834046204
 20
243.7166056028
 30
0.0
 10
86.9649599914
 20
243.6578931506
 30
0.0
 10
86.5030054016
 20
243.5092480193
 30
0.0
 10
85.9777918776
 20
243.1703024985
 30
0.0
 10
85.7589990586
 20
242.9639043121
 30
0.0
 10
85.6618461826
 20
242.8530366509
 30
0.0
  0
LINE
  5
47A
100
AcDbEntity
  8
0_COMPONENTS
100
AcDbLine
 62
7
  6
CONTINUOUS
 10
85.8832817582
 20
239.5065000518
 11
85.8854993017
 21
239.5017126998
  0
SPLINE
  5
47B
100
AcDbEntity
  8
0_COMPONENTS
100
AcDbSpline
 62
7
  6
CONTINUOUS
 70
0
 71
3
 72
9
 73
5
 74
0
 42
0.0000001
 43
0.0000001
 44
0.0000000001
 40
0.0
 40
0.0
 40
0.0
 40
0.0
 40
0.4848568303
 40
1.0
 40
1.0
 40
1.0
 40
1.0
 10
85.9584862663
 20
239.3488203571
 30
0.0
 10
86.1531005201
 20
238.9525179912
 30
0.0
 10
86.6240361426
 20
238.1684273332
 30
0.0
 10
87.1991109828
 20
237.4586727939
 30
0.0
 10
87.5166185968
 20
237.1133726147
 30
0.0
  0
LINE
  5
47C
100
AcDbEntity
  8
0_COMPONENTS
100
AcDbLine
 62
7
  6
CONTINUOUS
 10
87.5166185968
 20
237.1133726147
 11
87.5293051836
 21
237.0995987795
  0
LINE
  5
47D
100
AcDbEntity
  8
0_COMPONENTS
100
AcDbLine
 62
7
  6
CONTINUOUS
 10
87.5293051836
 20
237.0995987795
 11
87.5387312442
 21
237.0893948985
  0
SPLINE
  5
47E
100
AcDbEntity
  8
0_COMPONENTS
100
AcDbSpline
 62
7
  6
CONTINUOUS
 70
0
 71
3
 72
14
 73
10
 74
0
 42
0.0000001
 43
0.0000001
 44
0.0000000001
 40
0.0
 40
0.0
 40
0.0
 40
0.0
 40
0.1079249607
 40
0.2179256991
 40
0.3318810513
 40
0.4513268087
 40
0.5773857938
 40
0.7107568714
 40
1.0
 40
1.0
 40
1.0
 40
1.0
 10
103.2307080847
 20
237.3640289122
 30
0.0
 10
103.3641952224
 20
237.527189808
 30
0.0
 10
103.6052860493
 20
237.8810821466
 30
0.0
 10
103.8743668289
 20
238.4740309336
 30
0.0
 10
104.0500226441
 20
239.1242410601
 30
0.0
 10
104.1308866337
 20
239.824023098
 30
0.0
 10
104.1168273988
 20
240.5659911818
 30
0.0
 10
103.9684310003
 20
241.6292996825
 30
0.0
 10
103.7206528823
 20
242.4240131696
 30
0.0
 10
103.5092525476
 20
242.947947526
 30
0.0
  0
SPLINE
  5
47F
100
AcDbEntity
  8
0_COMPONENTS
100
AcDbSpline
 62
7
  6
CONTINUOUS
 70
0
 71
3
 72
14
 73
10
 74
0
 42
0.0000001
 43
0.0000001
 44
0.0000000001
 40
0.0
 40
0.0
 40
0.0
 40
0.0
 40
0.1079267471
 40
0.2179294319
 40
0.3318868229
 40
0.4513351775
 40
0.5773963778
 40
0.7107695163
 40
1.0
 40
1.0
 40
1.0
 40
1.0
 10
87.1705943569
 20
250.5031018767
 30
0.0
 10
87.304083654
 20
250.6662654119
 30
0.0
 10
87.6032042001
 20
250.9726921359
 30
0.0
 10
88.1311124707
 20
251.3539020432
 30
0.0
 10
88.733653724
 20
251.654882162
 30
0.0
 10
89.4035648621
 20
251.8727621539
 30
0.0
 10
90.1336280478
 20
252.0059587974
 30
0.0
 10
91.2052450759
 20
252.0711302406
 30
0.0
 10
92.0332717696
 20
251.985694825
 30
0.0
 10
92.5886758751
 20
251.8822760506
 30
0.0
  0
LINE
  5
480
100
AcDbEntity
  8
0_COMPONENTS
100
AcDbLine
 62
7
  6
CONTINUOUS
 10
96.0032503556
 20
234.3339503623
 11
96.0073934716
 21
234.3391815078
  0
SPLINE
  5
481
100
AcDbEntity
  8
0_COMPONENTS
100
AcDbSpline
 62
7
  6
CONTINUOUS
 70
0
 71
3
 72
10
 73
6
 74
0
 42
0.0000001
 43
0.0000001
 44
0.0000000001
 40
0.0
 40
0.0
 40
0.0
 40
0.0
 40
0.2369192152
 40
0.480084935
 40
1.0
 40
1.0
 40
1.0
 40
1.0
 10
96.0481000701
 20
234.3922710474
 30
0.0
 10
96.1342491239
 20
234.508013656
 30
0.0
 10
96.2873334053
 20
234.7594346152
 30
0.0
 10
96.507451598
 20
235.3298631656
 30
0.0
 10
96.56090866
 20
235.8011196062
 30
0.0
 10
96.5565441177
 20
236.117719284
 30
0.0
  0
SPLINE
  5
482
100
AcDbEntity
  8
0_COMPONENTS
100
AcDbSpline
 62
7
  6
CONTINUOUS
 70
0
 71
3
 72
11
 73
7
 74
0
 42
0.0000001
 43
0.0000001
 44
0.0000000001
 40
0.0
 40
0.0
 40
0.0
 40
0.0
 40
0.2150725051
 40
0.4556221118
 40
0.7191407369
 40
1.0
 40
1.0
 40
1.0
 40
1.0
 10
85.0619181613
 20
240.994743294
 30
0.0
 10
85.0685560447
 20
240.6422257295
 30
0.0
 10
85.186730881
 20
239.8963121722
 30
0.0
 10
85.6081507904
 20
238.7888842124
 30
0.0
 10
86.2619208143
 20
237.6746586088
 30
0.0
 10
86.8212259232
 20
236.975126451
 30
0.0
 10
87.131161173
 20
236.6346356883
 30
0.0
  0
LINE
  5
483
100
AcDbEntity
  8
0_COMPONENTS
100
AcDbLine
 62
7
  6
CONTINUOUS
 10
87.131161173
 20
236.6346356883
 11
87.1415071551
 21
236.6232860996
  0
SPLINE
  5
484
100
AcDbEntity
  8
0_COMPONENTS
100
AcDbSpline
 62
7
  6
CONTINUOUS
 70
0
 71
3
 72
11
 73
7
 74
0
 42
0.0000001
 43
0.0000001
 44
0.0000000001
 40
0.0
 40
0.0
 40
0.0
 40
0.0
 40
0.2207030344
 40
0.4633183041
 40
0.7247607902
 40
1.0
 40
1.0
 40
1.0
 40
1.0
 10
85.2095027176
 20
240.9808217449
 30
0.0
 10
85.2617201482
 20
240.6320750733
 30
0.0
 10
85.4524897118
 20
239.9112107632
 30
0.0
 10
85.936244344
 20
238.8544363567
 30
0.0
 10
86.6130523736
 20
237.8048700304
 30
0.0
 10
87.1668319776
 20
237.1469515481
 30
0.0
 10
87.4689981803
 20
236.8274300139
 30
0.0
  0
SPLINE
  5
485
100
AcDbEntity
  8
0_COMPONENTS
100
AcDbSpline
 62
7
  6
CONTINUOUS
 70
0
 71
3
 72
10
 73
6
 74
0
 42
0.0000001
 43
0.0000001
 44
0.0000000001
 40
0.0
 40
0.0
 40
0.0
 40
0.0
 40
0.2773365705
 40
0.5366195284
 40
1.0
 40
1.0
 40
1.0
 40
1.0
 10
107.1142440219
 20
248.1032658332
 30
0.0
 10
107.2779713543
 20
247.7494730154
 30
0.0
 10
107.5593678734
 20
247.0469281612
 30
0.0
 10
107.9202983772
 20
245.6876933279
 30
0.0
 10
107.9788858378
 20
244.6496328237
 30
0.0
 10
107.8858771269
 20
244.004951994
 30
0.0
  0
SPLINE
  5
486
100
AcDbEntity
  8
0_COMPONENTS
100
AcDbSpline
 62
7
  6
CONTINUOUS
 70
0
 71
3
 72
9
 73
5
 74
0
 42
0.0000001
 43
0.0000001
 44
0.0000000001
 40
0.0
 40
0.0
 40
0.0
 40
0.0
 40
0.2544897013
 40
1.0
 40
1.0
 40
1.0
 40
1.0
 10
107.8689129183
 20
243.8962325209
 30
0.0
 10
107.8590185638
 20
243.8373150258
 30
0.0
 10
107.8157469339
 20
243.6065712988
 30
0.0
 10
107.7545139766
 20
243.3791214696
 30
0.0
 10
107.6983154955
 20
243.2133782434
 30
0.0
  0
SPLINE
  5
487
100
AcDbEntity
  8
0_COMPONENTS
100
AcDbSpline
 62
7
  6
CONTINUOUS
 70
0
 71
3
 72
15
 73
11
 74
0
 42
0.0000001
 43
0.0000001
 44
0.0000000001
 40
0.0
 40
0.0
 40
0.0
 40
0.0
 40
0.1023307563
 40
0.2077269574
 40
0.3188106987
 40
0.4374845637
 40
0.5648586133
 40
0.7013113283
 40
0.8466038512
 40
1.0
 40
1.0
 40
1.0
 40
1.0
 10
89.3408477297
 20
253.1558397129
 30
0.0
 10
89.5087379079
 20
253.3610513336
 30
0.0
 10
89.8970507771
 20
253.7410053056
 30
0.0
 10
90.6016661285
 20
254.1826799829
 30
0.0
 10
91.4177697596
 20
254.4937463482
 30
0.0
 10
92.3300766146
 20
254.6705930399
 30
0.0
 10
93.3234613688
 20
254.7121557837
 30
0.0
 10
94.3819884736
 20
254.6188071881
 30
0.0
 10
95.4886430422
 20
254.3926957319
 30
0.0
 10
96.2287171283
 20
254.1616639472
 30
0.0
 10
96.6024329663
 20
254.0263751867
 30
0.0
  0
SPLINE
  5
488
100
AcDbEntity
  8
0_COMPONENTS
100
AcDbSpline
 62
7
  6
CONTINUOUS
 70
0
 71
3
 72
15
 73
11
 74
0
 42
0.0000001
 43
0.0000001
 44
0.0000000001
 40
0.0
 40
0.0
 40
0.0
 40
0.0
 40
0.1215713757
 40
0.2478512515
 40
0.3770612183
 40
0.5072759266
 40
0.6365210058
 40
0.7628705183
 40
0.8845376998
 40
1.0
 40
1.0
 40
1.0
 40
1.0
 10
96.6024329663
 20
254.0263751867
 30
0.0
 10
97.0664441541
 20
253.8583986332
 30
0.0
 10
97.9939780409
 20
253.4631778231
 30
0.0
 10
99.3378728994
 20
252.7261432071
 30
0.0
 10
100.6366167025
 20
251.8478159608
 30
0.0
 10
101.8601540091
 20
250.8484513652
 30
0.0
 10
102.9804234576
 20
249.7510207537
 30
0.0
 10
103.9716934453
 20
248.5806468083
 30
0.0
 10
104.8111421407
 20
247.3643735088
 30
0.0
 10
105.2705652627
 20
246.515649579
 30
0.0
 10
105.4674046979
 20
246.0903059457
 30
0.0
  0
SPLINE
  5
489
100
AcDbEntity
  8
0_COMPONENTS
100
AcDbSpline
 62
7
  6
CONTINUOUS
 70
0
 71
3
 72
11
 73
7
 74
0
 42
0.0000001
 43
0.0000001
 44
0.0000000001
 40
0.0
 40
0.0
 40
0.0
 40
0.0
 40
0.2033980669
 40
0.430064941
 40
0.6945614339
 40
1.0
 40
1.0
 40
1.0
 40
1.0
 10
94.5003805833
 20
255.9993460613
 30
0.0
 10
94.4950209178
 20
256.0109274714
 30
0.0
 10
94.4889656113
 20
256.0380939713
 30
0.0
 10
94.4957875794
 20
256.0818532168
 30
0.0
 10
94.5164322821
 20
256.1278191637
 30
0.0
 10
94.5371905895
 20
256.1571737924
 30
0.0
 10
94.5493251577
 20
256.1720060827
 30
0.0
  0
SPLINE
  5
48A
100
AcDbEntity
  8
0_COMPONENTS
100
AcDbSpline
 62
7
  6
CONTINUOUS
 70
0
 71
3
 72
9
 73
5
 74
0
 42
0.0000001
 43
0.0000001
 44
0.0000000001
 40
0.0
 40
0.0
 40
0.0
 40
0.0
 40
0.4834187729
 40
1.0
 40
1.0
 40
1.0
 40
1.0
 10
85.9507161831
 20
239.3385049078
 30
0.0
 10
86.1369970217
 20
238.9359769863
 30
0.0
 10
86.5989290807
 20
238.1378192713
 30
0.0
 10
87.1730054414
 20
237.4179596979
 30
0.0
 10
87.4922184736
 20
237.0676037195
 30
0.0
  0
LINE
  5
48B
100
AcDbEntity
  8
0_COMPONENTS
100
AcDbLine
 62
7
  6
CONTINUOUS
 10
87.4922184736
 20
237.0676037195
 11
87.5061444219
 21
237.0523487193
  0
SPLINE
  5
48C
100
AcDbEntity
  8
0_COMPONENTS
100
AcDbSpline
 62
7
  6
CONTINUOUS
 70
0
 71
3
 72
15
 73
11
 74
0
 42
0.0000001
 43
0.0000001
 44
0.0000000001
 40
0.0
 40
0.0
 40
0.0
 40
0.0
 40
0.1310779833
 40
0.2762892778
 40
0.4268370152
 40
0.5734054251
 40
0.707512474
 40
0.8231094508
 40
0.9186344618
 40
1.0
 40
1.0
 40
1.0
 40
1.0
 10
94.5493251577
 20
256.1720060827
 30
0.0
 10
94.56931946
 20
256.1964454606
 30
0.0
 10
94.617370052
 20
256.2431815962
 30
0.0
 10
94.7019278589
 20
256.3022760042
 30
0.0
 10
94.797523939
 20
256.35021655
 30
0.0
 10
94.8966149171
 20
256.3827365988
 30
0.0
 10
94.9915927517
 20
256.3969547183
 30
0.0
 10
95.0753827358
 20
256.3913569095
 30
0.0
 10
95.1427066852
 20
256.3656010371
 30
0.0
 10
95.1727482641
 20
256.3321699928
 30
0.0
 10
95.1809806825
 20
256.3143820025
 30
0.0
  0
SPLINE
  5
48D
100
AcDbEntity
  8
0_COMPONENTS
100
AcDbSpline
 62
7
  6
CONTINUOUS
 70
0
 71
3
 72
11
 73
7
 74
0
 42
0.0000001
 43
0.0000001
 44
0.0000000001
 40
0.0
 40
0.0
 40
0.0
 40
0.0
 40
0.2330862747
 40
0.4735714108
 40
0.7277242962
 40
1.0
 40
1.0
 40
1.0
 40
1.0
 10
89.118440495
 20
252.6865801657
 30
0.0
 10
89.2894058857
 20
252.8955506086
 30
0.0
 10
89.6867374153
 20
253.2816517471
 30
0.0
 10
90.4104468141
 20
253.7255137963
 30
0.0
 10
91.2498408353
 20
254.0317443152
 30
0.0
 10
91.8535052318
 20
254.1378778307
 30
0.0
 10
92.1672858982
 20
254.1697092353
 30
0.0
  0
SPLINE
  5
48E
100
AcDbEntity
  8
0_COMPONENTS
100
AcDbSpline
 62
7
  6
CONTINUOUS
 70
0
 71
3
 72
15
 73
11
 74
0
 42
0.0000001
 43
0.0000001
 44
0.0000000001
 40
0.0
 40
0.0
 40
0.0
 40
0.0
 40
0.1037153772
 40
0.2191365799
 40
0.3445628271
 40
0.4770194282
 40
0.6127731613
 40
0.7477644375
 40
0.8780072124
 40
1.0
 40
1.0
 40
1.0
 40
1.0
 10
92.1672858982
 20
254.1697092353
 30
0.0
 10
92.7253782968
 20
254.2263247852
 30
0.0
 10
93.9215869736
 20
254.1934881713
 30
0.0
 10
95.7482486283
 20
253.7842641561
 30
0.0
 10
97.6310538747
 20
253.0343833459
 30
0.0
 10
99.486279786
 20
251.9773823742
 30
0.0
 10
101.2319466497
 20
250.6606849661
 30
0.0
 10
102.7897867681
 20
249.1430858287
 30
0.0
 10
104.0896593139
 20
247.4932890721
 30
0.0
 10
104.7735904166
 20
246.3049734238
 30
0.0
 10
105.0507015961
 20
245.7061733113
 30
0.0
  0
SPLINE
  5
48F
100
AcDbEntity
  8
0_COMPONENTS
100
AcDbSpline
 62
7
  6
CONTINUOUS
 70
0
 71
3
 72
15
 73
11
 74
0
 42
0.0000001
 43
0.0000001
 44
0.0000000001
 40
0.0
 40
0.0
 40
0.0
 40
0.0
 40
0.1136211057
 40
0.2343822333
 40
0.3606319984
 40
0.4903747232
 40
0.621412767
 40
0.7514761038
 40
0.878350163
 40
1.0
 40
1.0
 40
1.0
 40
1.0
 10
92.5886758751
 20
251.8822760506
 30
0.0
 10
93.0703616587
 20
251.7925839636
 30
0.0
 10
94.0515943478
 20
251.5366502734
 30
0.0
 10
95.501716336
 20
250.9664877013
 30
0.0
 10
96.9438181267
 20
250.211818882
 30
0.0
 10
98.3399526476
 20
249.2924806846
 30
0.0
 10
99.653694704
 20
248.2325408147
 30
0.0
 10
100.8506274715
 20
247.0597095907
 30
0.0
 10
101.8992285432
 20
245.8049567993
 30
0.0
 10
102.4968646238
 20
244.9121290707
 30
0.0
 10
102.7617895544
 20
244.4593525723
 30
0.0
  0
SPLINE
  5
490
100
AcDbEntity
  8
0_COMPONENTS
100
AcDbSpline
 62
7
  6
CONTINUOUS
 70
0
 71
3
 72
9
 73
5
 74
0
 42
0.0000001
 43
0.0000001
 44
0.0000000001
 40
0.0
 40
0.0
 40
0.0
 40
0.0
 40
0.2547211013
 40
1.0
 40
1.0
 40
1.0
 40
1.0
 10
102.7617895544
 20
244.4593525723
 30
0.0
 10
102.8112632066
 20
244.3747984046
 30
0.0
 10
103.0017004715
 20
244.0406551714
 30
0.0
 10
103.1767707387
 20
243.6976944199
 30
0.0
 10
103.2971513251
 20
243.4375681095
 30
0.0
  0
SPLINE
  5
491
100
AcDbEntity
  8
0_COMPONENTS
100
AcDbSpline
 62
7
  6
CONTINUOUS
 70
0
 71
3
 72
11
 73
7
 74
0
 42
0.0000001
 43
0.0000001
 44
0.0000000001
 40
0.0
 40
0.0
 40
0.0
 40
0.0
 40
0.2173724232
 40
0.4542786429
 40
0.714923515
 40
1.0
 40
1.0
 40
1.0
 40
1.0
 10
101.213453507
 20
235.3697891442
 30
0.0
 10
101.3529273359
 20
235.7186582929
 30
0.0
 10
101.5389247312
 20
236.4925225094
 30
0.0
 10
101.5316067383
 20
237.7373727982
 30
0.0
 10
101.2570577832
 20
239.0692761895
 30
0.0
 10
100.917137739
 20
239.9535217971
 30
0.0
 10
100.7101948505
 20
240.4006976389
 30
0.0
  0
SPLINE
  5
492
100
AcDbEntity
  8
0_COMPONENTS
100
AcDbSpline
 62
7
  6
CONTINUOUS
 70
0
 71
3
 72
15
 73
11
 74
0
 42
0.0000001
 43
0.0000001
 44
0.0000000001
 40
0.0
 40
0.0
 40
0.0
 40
0.0
 40
0.1136764642
 40
0.2345269811
 40
0.360877535
 40
0.4907055975
 40
0.6217854688
 40
0.7518206951
 40
0.8785748857
 40
1.0
 40
1.0
 40
1.0
 40
1.0
 10
92.6839764392
 20
251.8645301534
 30
0.0
 10
93.1626282635
 20
251.7754030034
 30
0.0
 10
94.1377379316
 20
251.5206425907
 30
0.0
 10
95.5784709383
 20
250.9525300812
 30
0.0
 10
97.0107558329
 20
250.2003072106
 30
0.0
 10
98.3964854228
 20
249.2839644406
 30
0.0
 10
99.6991026958
 20
248.227755397
 30
0.0
 10
100.8841070044
 20
247.0596004908
 30
0.0
 10
101.9199469382
 20
245.8106826486
 30
0.0
 10
102.5085934001
 20
244.9223355815
 30
0.0
 10
102.7688217619
 20
244.4720572364
 30
0.0
  0
SPLINE
  5
493
100
AcDbEntity
  8
0_COMPONENTS
100
AcDbSpline
 62
7
  6
CONTINUOUS
 70
0
 71
3
 72
9
 73
5
 74
0
 42
0.0000001
 43
0.0000001
 44
0.0000000001
 40
0.0
 40
0.0
 40
0.0
 40
0.0
 40
0.2544787668
 40
1.0
 40
1.0
 40
1.0
 40
1.0
 10
102.7688217619
 20
244.4720572364
 30
0.0
 10
102.8143094095
 20
244.3933490489
 30
0.0
 10
102.9897178173
 20
244.0821450111
 30
0.0
 10
103.151583064
 20
243.7632608041
 30
0.0
 10
103.2634341126
 20
243.5215656815
 30
0.0
  0
SPLINE
  5
494
100
AcDbEntity
  8
0_COMPONENTS
100
AcDbSpline
 62
7
  6
CONTINUOUS
 70
0
 71
3
 72
9
 73
5
 74
0
 42
0.0000001
 43
0.0000001
 44
0.0000000001
 40
0.0
 40
0.0
 40
0.0
 40
0.0
 40
0.513365586
 40
1.0
 40
1.0
 40
1.0
 40
1.0
 10
96.6439352009
 20
235.7737221518
 30
0.0
 10
96.6419204152
 20
235.6000003399
 30
0.0
 10
96.6146215706
 20
235.2612729348
 30
0.0
 10
96.5333583067
 20
234.9308418046
 30
0.0
 10
96.4798154838
 20
234.7751015974
 30
0.0
  0
SPLINE
  5
495
100
AcDbEntity
  8
0_COMPONENTS
100
AcDbSpline
 62
7
  6
CONTINUOUS
 70
0
 71
3
 72
22
 73
18
 74
0
 42
0.0000001
 43
0.0000001
 44
0.0000000001
 40
0.0
 40
0.0
 40
0.0
 40
0.0
 40
0.045258401
 40
0.089775064
 40
0.1355677784
 40
0.1843801968
 40
0.2373947081
 40
0.2951731102
 40
0.3577343256
 40
0.4246696813
 40
0.4952506401
 40
0.5685196599
 40
0.7184358034
 40
0.7928410369
 40
0.8652484462
 40
0.9345958617
 40
1.0
 40
1.0
 40
1.0
 40
1.0
 10
96.4798154838
 20
234.7751015974
 30
0.0
 10
96.4083912942
 20
234.5673497932
 30
0.0
 10
96.2154763565
 20
234.1701689274
 30
0.0
 10
95.7750774455
 20
233.6707440898
 30
0.0
 10
95.2046061229
 20
233.2956817924
 30
0.0
 10
94.5239044144
 20
233.0537261788
 30
0.0
 10
93.7519958333
 20
232.9471525617
 30
0.0
 10
92.907578824
 20
232.9758206441
 30
0.0
 10
92.0102994822
 20
233.1376114027
 30
0.0
 10
91.0812670865
 20
233.4280369827
 30
0.0
 10
90.14249479
 20
233.8399164359
 30
0.0
 10
88.8996642057
 20
234.5425569219
 30
0.0
 10
87.7478256663
 20
235.4310673523
 30
0.0
 10
86.7390658611
 20
236.4613489133
 30
0.0
 10
86.0799531551
 20
237.2801952421
 30
0.0
 10
85.5331359416
 20
238.1262330867
 30
0.0
 10
85.2426401554
 20
238.7145072023
 30
0.0
 10
85.1217243549
 20
239.0080541716
 30
0.0
  0
SPLINE
  5
496
100
AcDbEntity
  8
0_COMPONENTS
100
AcDbSpline
 62
7
  6
CONTINUOUS
 70
0
 71
3
 72
13
 73
9
 74
0
 42
0.0000001
 43
0.0000001
 44
0.0000000001
 40
0.0
 40
0.0
 40
0.0
 40
0.0
 40
0.1061315236
 40
0.2158274137
 40
0.4504658565
 40
0.5775659675
 40
0.7115702402
 40
1.0
 40
1.0
 40
1.0
 40
1.0
 10
101.1698948405
 20
234.9363619093
 30
0.0
 10
101.2687650944
 20
235.1138156747
 30
0.0
 10
101.4405011872
 20
235.4918175518
 30
0.0
 10
101.6736152773
 20
236.3246928873
 30
0.0
 10
101.7245642407
 20
237.2376607688
 30
0.0
 10
101.6170244404
 20
238.1813904245
 30
0.0
 10
101.3902075322
 20
239.2101699882
 30
0.0
 10
101.1034315278
 20
239.9717304879
 30
0.0
 10
100.871574026
 20
240.4727434691
 30
0.0
  0
SPLINE
  5
497
100
AcDbEntity
  8
0_COMPONENTS
100
AcDbSpline
 62
7
  6
CONTINUOUS
 70
0
 71
3
 72
11
 73
7
 74
0
 42
0.0000001
 43
0.0000001
 44
0.0000000001
 40
0.0
 40
0.0
 40
0.0
 40
0.0
 40
0.2330707451
 40
0.4735477022
 40
0.7277046336
 40
1.0
 40
1.0
 40
1.0
 40
1.0
 10
104.9850588767
 20
239.705809285
 30
0.0
 10
105.1561188103
 20
239.9148952875
 30
0.0
 10
105.4559991135
 20
240.3811306528
 30
0.0
 10
105.7477353914
 20
241.1789537722
 30
0.0
 10
105.8814696018
 20
242.0629808806
 30
0.0
 10
105.8657114479
 20
242.6761110013
 30
0.0
 10
105.8346249296
 20
242.9901856327
 30
0.0
  0
SPLINE
  5
498
100
AcDbEntity
  8
0_COMPONENTS
100
AcDbSpline
 62
7
  6
CONTINUOUS
 70
0
 71
3
 72
9
 73
5
 74
0
 42
0.0000001
 43
0.0000001
 44
0.0000000001
 40
0.0
 40
0.0
 40
0.0
 40
0.0
 40
0.4775484948
 40
1.0
 40
1.0
 40
1.0
 40
1.0
 10
105.8346249296
 20
242.9901856327
 30
0.0
 10
105.7901493014
 20
243.4395336871
 30
0.0
 10
105.5987398408
 20
244.3717524682
 30
0.0
 10
105.2581748038
 20
245.2578515208
 30
0.0
 10
105.0507015961
 20
245.7061733113
 30
0.0
  0
SPLINE
  5
499
100
AcDbEntity
  8
0_COMPONENTS
100
AcDbSpline
 62
7
  6
CONTINUOUS
 70
0
 71
3
 72
19
 73
15
 74
0
 42
0.0000001
 43
0.0000001
 44
0.0000000001
 40
0.0
 40
0.0
 40
0.0
 40
0.0
 40
0.0438883724
 40
0.0899042669
 40
0.138889823
 40
0.1913731662
 40
0.2475825908
 40
0.3074880257
 40
0.3708482831
 40
0.4372548312
 40
0.5768465123
 40
0.7211036031
 40
0.8640793515
 40
1.0
 40
1.0
 40
1.0
 40
1.0
 10
85.1869285489
 20
247.9916146304
 30
0.0
 10
85.3880695326
 20
248.1652331686
 30
0.0
 10
85.8395905333
 20
248.4772345985
 30
0.0
 10
86.61579843
 20
248.8123134
 30
0.0
 10
87.4885756275
 20
249.0191337457
 30
0.0
 10
88.4432992305
 20
249.0957692991
 30
0.0
 10
89.4652277567
 20
249.0422617337
 30
0.0
 10
90.5385781488
 20
248.8600605874
 30
0.0
 10
91.6468229876
 20
248.5523624234
 30
0.0
 10
93.1727521982
 20
247.9717628669
 30
0.0
 10
95.0501449031
 20
246.9644502845
 30
0.0
 10
97.1247092611
 20
245.4083380349
 30
0.0
 10
98.9321530348
 20
243.5800490839
 30
0.0
 10
99.9231344734
 20
242.2010696411
 30
0.0
 10
100.3384617648
 20
241.4906818296
 30
0.0
  0
SPLINE
  5
49A
100
AcDbEntity
  8
0_COMPONENTS
100
AcDbSpline
 62
7
  6
CONTINUOUS
 70
0
 71
3
 72
9
 73
5
 74
0
 42
0.0000001
 43
0.0000001
 44
0.0000000001
 40
0.0
 40
0.0
 40
0.0
 40
0.0
 40
0.2544714089
 40
1.0
 40
1.0
 40
1.0
 40
1.0
 10
100.3719682263
 20
241.4330292688
 30
0.0
 10
100.4179083358
 20
241.3535084522
 30
0.0
 10
100.5950712044
 20
241.0390862902
 30
0.0
 10
100.7585743545
 20
240.7169206119
 30
0.0
 10
100.871574026
 20
240.4727434691
 30
0.0
  0
SPLINE
  5
49B
100
AcDbEntity
  8
0_COMPONENTS
100
AcDbSpline
 62
7
  6
CONTINUOUS
 70
0
 71
3
 72
14
 73
10
 74
0
 42
0.0000001
 43
0.0000001
 44
0.0000000001
 40
0.0
 40
0.0
 40
0.0
 40
0.0
 40
0.1062609664
 40
0.2148699369
 40
0.3279205331
 40
0.4470714626
 40
0.5734725583
 40
0.7077581692
 40
1.0
 40
1.0
 40
1.0
 40
1.0
 10
105.4009614575
 20
240.0167667484
 30
0.0
 10
105.5443340176
 20
240.192010564
 30
0.0
 10
105.8013728407
 20
240.574689799
 30
0.0
 10
106.0794360258
 20
241.2195739308
 30
0.0
 10
106.2491719966
 20
241.9290812221
 30
0.0
 10
106.3092876638
 20
242.6935708798
 30
0.0
 10
106.2600294185
 20
243.5038184741
 30
0.0
 10
106.0441908062
 20
244.6642893766
 30
0.0
 10
105.7289322108
 20
245.5251800477
 30
0.0
 10
105.4674046979
 20
246.0903059457
 30
0.0
  0
SPLINE
  5
49C
100
AcDbEntity
  8
0_COMPONENTS
100
AcDbSpline
 62
7
  6
CONTINUOUS
 70
0
 71
3
 72
18
 73
14
 74
0
 42
0.0000001
 43
0.0000001
 44
0.0000000001
 40
0.0
 40
0.0
 40
0.0
 40
0.0
 40
0.0445909952
 40
0.0917477752
 40
0.1420589408
 40
0.1958413535
 40
0.2531686489
 40
0.3139103745
 40
0.4442016414
 40
0.5830991912
 40
0.7256205777
 40
0.8663253979
 40
1.0
 40
1.0
 40
1.0
 40
1.0
 10
85.644556216
 20
248.1496311597
 30
0.0
 10
85.8630518354
 20
248.2899715115
 30
0.0
 10
86.3422215633
 20
248.5345123172
 30
0.0
 10
87.1369651788
 20
248.7767111058
 30
0.0
 10
88.0121539805
 20
248.9009962132
 30
0.0
 10
88.9546725066
 20
248.9064275131
 30
0.0
 10
89.95122828
 20
248.7937162502
 30
0.0
 10
91.3656294208
 20
248.4811066215
 30
0.0
 10
93.1734647037
 20
247.7994200735
 30
0.0
 10
95.2640422043
 20
246.6084633813
 30
0.0
 10
97.2098715233
 20
245.092038725
 30
0.0
 10
98.8993331892
 20
243.33741493
 30
0.0
 10
99.8260511649
 20
242.0252030623
 30
0.0
 10
100.2155824998
 20
241.3511891938
 30
0.0
  0
SPLINE
  5
49D
100
AcDbEntity
  8
0_COMPONENTS
100
AcDbSpline
 62
7
  6
CONTINUOUS
 70
0
 71
3
 72
9
 73
5
 74
0
 42
0.0000001
 43
0.0000001
 44
0.0000000001
 40
0.0
 40
0.0
 40
0.0
 40
0.0
 40
0.2544787668
 40
1.0
 40
1.0
 40
1.0
 40
1.0
 10
100.2155824998
 20
241.3511891938
 30
0.0
 10
100.2610701474
 20
241.2724810063
 30
0.0
 10
100.4364785552
 20
240.9612769685
 30
0.0
 10
100.5983438018
 20
240.6423927615
 30
0.0
 10
100.7101948505
 20
240.4006976389
 30
0.0
  0
SPLINE
  5
49E
100
AcDbEntity
  8
0_COMPONENTS
100
AcDbSpline
 62
7
  6
CONTINUOUS
 70
0
 71
3
 72
11
 73
7
 74
0
 42
0.0000001
 43
0.0000001
 44
0.0000000001
 40
0.0
 40
0.0
 40
0.0
 40
0.0
 40
0.2145807317
 40
0.4549853386
 40
0.7187111206
 40
1.0
 40
1.0
 40
1.0
 40
1.0
 10
85.0358863868
 20
240.9988997023
 30
0.0
 10
85.0392268722
 20
240.6432837186
 30
0.0
 10
85.1536930762
 20
239.8891623732
 30
0.0
 10
85.5762911015
 20
238.7688601413
 30
0.0
 10
86.2370078829
 20
237.6411821207
 30
0.0
 10
86.8039085324
 20
236.9336981645
 30
0.0
 10
87.1183285634
 20
236.5894998499
 30
0.0
  0
SPLINE
  5
49F
100
AcDbEntity
  8
0_COMPONENTS
100
AcDbSpline
 62
7
  6
CONTINUOUS
 70
0
 71
3
 72
14
 73
10
 74
0
 42
0.0000001
 43
0.0000001
 44
0.0000000001
 40
0.0
 40
0.0
 40
0.0
 40
0.0
 40
0.1047849834
 40
0.2121754404
 40
0.3244609025
 40
0.443401574
 40
0.5701486384
 40
0.7052655025
 40
1.0
 40
1.0
 40
1.0
 40
1.0
 10
90.9876942704
 20
255.1687936964
 30
0.0
 10
91.1400879134
 20
255.3550650002
 30
0.0
 10
91.487525528
 20
255.7021466199
 30
0.0
 10
92.110549872
 20
256.1186773941
 30
0.0
 10
92.8279830274
 20
256.4288997002
 30
0.0
 10
93.6286070951
 20
256.6293896931
 30
0.0
 10
94.5013868362
 20
256.7186895715
 30
0.0
 10
95.7818771167
 20
256.6879767018
 30
0.0
 10
96.7593992091
 20
256.496069945
 30
0.0
 10
97.410474035
 20
256.3107393318
 30
0.0
  0
SPLINE
  5
4A0
100
AcDbEntity
  8
0_COMPONENTS
100
AcDbSpline
 62
7
  6
CONTINUOUS
 70
0
 71
3
 72
15
 73
11
 74
0
 42
0.0000001
 43
0.0000001
 44
0.0000000001
 40
0.0
 40
0.0
 40
0.0
 40
0.0
 40
0.1187630057
 40
0.2434676391
 40
0.3722002779
 40
0.5028103013
 40
0.6330418605
 40
0.7606617552
 40
0.8835773973
 40
1.0
 40
1.0
 40
1.0
 40
1.0
 10
97.4544311551
 20
256.2981359
 30
0.0
 10
97.9473770599
 20
256.1557796036
 30
0.0
 10
98.9400254497
 20
255.7992815782
 30
0.0
 10
100.3869526541
 20
255.0914754373
 30
0.0
 10
101.7980588938
 20
254.2134662664
 30
0.0
 10
103.1361549534
 20
253.1883103129
 30
0.0
 10
104.366304519
 20
252.0428570534
 30
0.0
 10
105.4562990504
 20
250.8069872421
 30
0.0
 10
106.3775666967
 20
249.5132486975
 30
0.0
 10
106.8791145253
 20
248.6055198356
 30
0.0
 10
107.0924689313
 20
248.1500341502
 30
0.0
  0
SPLINE
  5
4A1
100
AcDbEntity
  8
0_COMPONENTS
100
AcDbSpline
 62
7
  6
CONTINUOUS
 70
0
 71
3
 72
15
 73
11
 74
0
 42
0.0000001
 43
0.0000001
 44
0.0000000001
 40
0.0
 40
0.0
 40
0.0
 40
0.0
 40
0.1516965367
 40
0.2911334133
 40
0.4188744079
 40
0.5370119227
 40
0.6492616258
 40
0.7605591906
 40
0.8760509937
 40
1.0
 40
1.0
 40
1.0
 40
1.0
 10
85.1217243549
 20
239.0080541716
 30
0.0
 10
85.0074282081
 20
239.2855306252
 30
0.0
 10
84.8218958373
 20
239.8332158546
 30
0.0
 10
84.68091939
 20
240.6537125494
 30
0.0
 10
84.6936480032
 20
241.4211726816
 30
0.0
 10
84.8634933055
 20
242.1160602069
 30
0.0
 10
85.1900966526
 20
242.7172354065
 30
0.0
 10
85.6650463869
 20
243.2028207637
 30
0.0
 10
86.2702237511
 20
243.5567393523
 30
0.0
 10
86.7279614422
 20
243.6945420605
 30
0.0
 10
86.968421855
 20
243.7425343164
 30
0.0
  0
SPLINE
  5
4A2
100
AcDbEntity
  8
0
100
AcDbSpline
 62
7
  6
CONTINUOUS
 70
0
 71
3
 72
11
 73
7
 74
0
 42
0.0000001
 43
0.0000001
 44
0.0000000001
 40
0.0
 40
0.0
 40
0.0
 40
0.0
 40
0.2421071757
 40
0.5033325892
 40
0.7627746287
 40
1.0
 40
1.0
 40
1.0
 40
1.0
 10
121.8268421152
 20
266.8243748746
 30
0.0
 10
121.8020431708
 20
266.8779355044
 30
0.0
 10
121.7338242355
 20
266.9817696778
 30
0.0
 10
121.5994944685
 20
267.1121402161
 30
0.0
 10
121.4425447123
 20
267.2119653377
 30
0.0
 10
121.3268970927
 20
267.2530556916
 30
0.0
 10
121.2700519811
 20
267.2636993695
 30
0.0
  0
SPLINE
  5
4A3
100
AcDbEntity
  8
0
100
AcDbSpline
 62
7
  6
CONTINUOUS
 70
0
 71
3
 72
9
 73
5
 74
0
 42
0.0000001
 43
0.0000001
 44
0.0000000001
 40
0.0
 40
0.0
 40
0.0
 40
0.0
 40
0.4920362612
 40
1.0
 40
1.0
 40
1.0
 40
1.0
 10
113.0778494486
 20
258.9849119172
 30
0.0
 10
112.7094860132
 20
259.5118013408
 30
0.0
 10
111.8867089852
 20
260.5320462403
 30
0.0
 10
110.9462510765
 20
261.4440110745
 30
0.0
 10
110.443562419
 20
261.8773689288
 30
0.0
  0
SPLINE
  5
4A4
100
AcDbEntity
  8
0
100
AcDbSpline
 62
7
  6
CONTINUOUS
 70
0
 71
3
 72
15
 73
11
 74
0
 42
0.0000001
 43
0.0000001
 44
0.0000000001
 40
0.0
 40
0.0
 40
0.0
 40
0.0
 40
0.1558462127
 40
0.3050190693
 40
0.4453915183
 40
0.5754579386
 40
0.6946168631
 40
0.8034606407
 40
0.9040553853
 40
1.0
 40
1.0
 40
1.0
 40
1.0
 10
108.1610235937
 20
263.5326261562
 30
0.0
 10
107.7024141436
 20
263.8086837537
 30
0.0
 10
106.7769915999
 20
264.3045489338
 30
0.0
 10
105.3552936983
 20
264.8778995976
 30
0.0
 10
103.9597755732
 20
265.2536503578
 30
0.0
 10
102.6271302535
 20
265.4210411157
 30
0.0
 10
101.3917044893
 20
265.3741435428
 30
0.0
 10
100.2852752434
 20
265.1102915485
 30
0.0
 10
99.3401059088
 20
264.6310963039
 30
0.0
 10
98.834636464
 20
264.1680360763
 30
0.0
 10
98.6259723916
 20
263.9129739089
 30
0.0
  0
SPLINE
  5
4A5
100
AcDbEntity
  8
0
100
AcDbSpline
 62
7
  6
CONTINUOUS
 70
0
 71
3
 72
13
 73
9
 74
0
 42
0.0000001
 43
0.0000001
 44
0.0000000001
 40
0.0
 40
0.0
 40
0.0
 40
0.0
 40
0.2566223346
 40
0.527511429
 40
0.6579869831
 40
0.7808565046
 40
0.8947690879
 40
1.0
 40
1.0
 40
1.0
 40
1.0
 10
117.8890593189
 20
263.9933666145
 30
0.0
 10
117.9804665672
 20
264.1339219287
 30
0.0
 10
118.1201657142
 20
264.4547364077
 30
0.0
 10
118.185066701
 20
264.8860923638
 30
0.0
 10
118.1522102083
 20
265.2287235357
 30
0.0
 10
118.0837618706
 20
265.4605471515
 30
0.0
 10
117.9735032423
 20
265.6572498266
 30
0.0
 10
117.8719115861
 20
265.7613164769
 30
0.0
 10
117.8168964981
 20
265.8025502999
 30
0.0
  0
SPLINE
  5
4A6
100
AcDbEntity
  8
GIANNI_ASSI
100
AcDbSpline
 62
7
  6
CONTINUOUS
 70
0
 71
3
 72
9
 73
5
 74
0
 42
0.0000001
 43
0.0000001
 44
0.0000000001
 40
0.0
 40
0.0
 40
0.0
 40
0.0
 40
0.2438674734
 40
1.0
 40
1.0
 40
1.0
 40
1.0
 10
97.4254725095
 20
256.4168789945
 30
0.0
 10
97.4272224695
 20
256.4108015318
 30
0.0
 10
97.4333307781
 20
256.3855769884
 30
0.0
 10
97.4351011944
 20
256.3593696396
 30
0.0
 10
97.4343258283
 20
256.3397756471
 30
0.0
  0
SPLINE
  5
4A7
100
AcDbEntity
  8
0
100
AcDbSpline
 62
7
  6
CONTINUOUS
 70
0
 71
3
 72
11
 73
7
 74
0
 42
0.0000001
 43
0.0000001
 44
0.0000000001
 40
0.0
 40
0.0
 40
0.0
 40
0.0
 40
0.2752626719
 40
0.5301458664
 40
0.7693719831
 40
1.0
 40
1.0
 40
1.0
 40
1.0
 10
97.4740809634
 20
259.9284791771
 30
0.0
 10
97.422924598
 20
260.2666798697
 30
0.0
 10
97.3731566785
 20
260.9272248418
 30
0.0
 10
97.4776269656
 20
261.8837611018
 30
0.0
 10
97.7650919354
 20
262.7450542441
 30
0.0
 10
98.0795793664
 20
263.2451041781
 30
0.0
 10
98.2610448161
 20
263.4669160791
 30
0.0
  0
SPLINE
  5
4A8
100
AcDbEntity
  8
0
100
AcDbSpline
 62
7
  6
CONTINUOUS
 70
0
 71
3
 72
8
 73
4
 74
0
 42
0.0000001
 43
0.0000001
 44
0.0000000001
 40
0.0
 40
0.0
 40
0.0
 40
0.0
 40
1.0
 40
1.0
 40
1.0
 40
1.0
 10
113.2189760096
 20
259.8558958199
 30
0.0
 10
113.4895368116
 20
259.9323904552
 30
0.0
 10
113.7600511832
 20
260.009049431
 30
0.0
 10
114.0305286362
 20
260.0858382597
 30
0.0
  0
LINE
  5
4A9
100
AcDbEntity
  8
0
100
AcDbLine
 62
7
  6
CONTINUOUS
 10
112.6631900082
 20
258.414516856
 11
112.6081049964
 21
258.3770913185
  0
LINE
  5
4AA
100
AcDbEntity
  8
0
100
AcDbLine
 62
7
  6
CONTINUOUS
 10
112.6081049964
 20
258.3770913185
 11
112.5535000452
 21
258.3399547401
  0
SPLINE
  5
4AB
100
AcDbEntity
  8
0
100
AcDbSpline
 62
7
  6
CONTINUOUS
 70
0
 71
3
 72
9
 73
5
 74
0
 42
0.0000001
 43
0.0000001
 44
0.0000000001
 40
0.0
 40
0.0
 40
0.0
 40
0.0
 40
0.2644683579
 40
1.0
 40
1.0
 40
1.0
 40
1.0
 10
119.5536132662
 20
271.6297985889
 30
0.0
 10
119.5687403679
 20
271.6141734065
 30
0.0
 10
119.6238655
 20
271.5532096578
 30
0.0
 10
119.6705225571
 20
271.4839196173
 30
0.0
 10
119.6959149243
 20
271.4290228871
 30
0.0
  0
SPLINE
  5
4AC
100
AcDbEntity
  8
0
100
AcDbSpline
 62
7
  6
CONTINUOUS
 70
0
 71
3
 72
9
 73
5
 74
0
 42
0.0000001
 43
0.0000001
 44
0.0000000001
 40
0.0
 40
0.0
 40
0.0
 40
0.0
 40
0.2665358766
 40
1.0
 40
1.0
 40
1.0
 40
1.0
 10
121.9855057981
 20
266.2810804541
 30
0.0
 10
121.9860805496
 20
266.2885484726
 30
0.0
 10
121.9878792614
 20
266.3165907045
 30
0.0
 10
121.9881669247
 20
266.3447520021
 30
0.0
 10
121.9871747328
 20
266.3653396727
 30
0.0
  0
SPLINE
  5
4AD
100
AcDbEntity
  8
0
100
AcDbSpline
 62
7
  6
CONTINUOUS
 70
0
 71
3
 72
9
 73
5
 74
0
 42
0.0000001
 43
0.0000001
 44
0.0000000001
 40
0.0
 40
0.0
 40
0.0
 40
0.0
 40
0.263961709
 40
1.0
 40
1.0
 40
1.0
 40
1.0
 10
121.9871747328
 20
266.3653396727
 30
0.0
 10
121.9868390899
 20
266.3723041582
 30
0.0
 10
121.9850439484
 20
266.3986579948
 30
0.0
 10
121.9809584145
 20
266.4248767268
 30
0.0
 10
121.976482961
 20
266.4437971236
 30
0.0
  0
SPLINE
  5
4AE
100
AcDbEntity
  8
0
100
AcDbSpline
 62
7
  6
CONTINUOUS
 70
0
 71
3
 72
13
 73
9
 74
0
 42
0.0000001
 43
0.0000001
 44
0.0000000001
 40
0.0
 40
0.0
 40
0.0
 40
0.0
 40
0.1063358574
 40
0.2150211066
 40
0.4466830878
 40
0.573169624
 40
0.7075433513
 40
1.0
 40
1.0
 40
1.0
 40
1.0
 10
108.6554814891
 20
246.5611396898
 30
0.0
 10
108.7764032483
 20
246.7089308963
 30
0.0
 10
108.993153319
 20
247.0317453055
 30
0.0
 10
109.3125180355
 20
247.7716383142
 30
0.0
 10
109.4341395039
 20
248.6177088942
 30
0.0
 10
109.3799521118
 20
249.5017690288
 30
0.0
 10
109.1980203548
 20
250.4808717662
 30
0.0
 10
108.9321000244
 20
251.206767529
 30
0.0
 10
108.7115284914
 20
251.6833930447
 30
0.0
  0
SPLINE
  5
4AF
100
AcDbEntity
  8
0
100
AcDbSpline
 62
7
  6
CONTINUOUS
 70
0
 71
3
 72
9
 73
5
 74
0
 42
0.0000001
 43
0.0000001
 44
0.0000000001
 40
0.0
 40
0.0
 40
0.0
 40
0.0
 40
0.2545376421
 40
1.0
 40
1.0
 40
1.0
 40
1.0
 10
114.4637302659
 20
260.6153480249
 30
0.0
 10
114.4762286663
 20
260.6305852234
 30
0.0
 10
114.526373484
 20
260.6895794787
 30
0.0
 10
114.5808862281
 20
260.7449027196
 30
0.0
 10
114.6238893164
 20
260.7833992236
 30
0.0
  0
SPLINE
  5
4B0
100
AcDbEntity
  8
0
100
AcDbSpline
 62
7
  6
CONTINUOUS
 70
0
 71
3
 72
9
 73
5
 74
0
 42
0.0000001
 43
0.0000001
 44
0.0000000001
 40
0.0
 40
0.0
 40
0.0
 40
0.0
 40
0.5134701398
 40
1.0
 40
1.0
 40
1.0
 40
1.0
 10
114.6238893164
 20
260.7833992236
 30
0.0
 10
114.7449755745
 20
260.8917960344
 30
0.0
 10
115.0214275047
 20
261.063683117
 30
0.0
 10
115.3447792039
 20
261.1108782328
 30
0.0
 10
115.4984773974
 20
261.1014005219
 30
0.0
  0
SPLINE
  5
4B1
100
AcDbEntity
  8
0
100
AcDbSpline
 62
7
  6
CONTINUOUS
 70
0
 71
3
 72
11
 73
7
 74
0
 42
0.0000001
 43
0.0000001
 44
0.0000000001
 40
0.0
 40
0.0
 40
0.0
 40
0.0
 40
0.2226840823
 40
0.4649115426
 40
0.7250429678
 40
1.0
 40
1.0
 40
1.0
 40
1.0
 10
121.304701745
 20
266.1765405554
 30
0.0
 10
121.2683091439
 20
266.4756544715
 30
0.0
 10
121.1321988085
 20
267.0935205864
 30
0.0
 10
120.7759928464
 20
268.0108484757
 30
0.0
 10
120.2692983275
 20
268.9355448239
 30
0.0
 10
119.8494373048
 20
269.5275029964
 30
0.0
 10
119.6188353948
 20
269.8194707145
 30
0.0
  0
SPLINE
  5
4B2
100
AcDbEntity
  8
0
100
AcDbSpline
 62
7
  6
CONTINUOUS
 70
0
 71
3
 72
9
 73
5
 74
0
 42
0.0000001
 43
0.0000001
 44
0.0000000001
 40
0.0
 40
0.0
 40
0.0
 40
0.0
 40
0.242084313
 40
1.0
 40
1.0
 40
1.0
 40
1.0
 10
111.8373709872
 20
258.340842404
 30
0.0
 10
111.8402822461
 20
258.3444060066
 30
0.0
 10
111.8534644949
 20
258.3581881939
 30
0.0
 10
111.8710193552
 20
258.3673970796
 30
0.0
 10
111.8847824951
 20
258.3716547012
 30
0.0
  0
SPLINE
  5
4B3
100
AcDbEntity
  8
0
100
AcDbSpline
 62
7
  6
CONTINUOUS
 70
0
 71
3
 72
9
 73
5
 74
0
 42
0.0000001
 43
0.0000001
 44
0.0000000001
 40
0.0
 40
0.0
 40
0.0
 40
0.0
 40
0.2350785306
 40
1.0
 40
1.0
 40
1.0
 40
1.0
 10
111.8847824951
 20
258.3716547012
 30
0.0
 10
111.8890001315
 20
258.3729594252
 30
0.0
 10
111.9072455267
 20
258.3775236034
 30
0.0
 10
111.9263024792
 20
258.3783773039
 30
0.0
 10
111.9406410177
 20
258.3774989147
 30
0.0
  0
SPLINE
  5
4B4
100
AcDbEntity
  8
0
100
AcDbSpline
 62
7
  6
CONTINUOUS
 70
0
 71
3
 72
9
 73
5
 74
0
 42
0.0000001
 43
0.0000001
 44
0.0000000001
 40
0.0
 40
0.0
 40
0.0
 40
0.0
 40
0.4600673056
 40
1.0
 40
1.0
 40
1.0
 40
1.0
 10
113.0502056551
 20
259.8233110115
 30
0.0
 10
113.0611517807
 20
259.8366871893
 30
0.0
 10
113.0946129014
 20
259.8582111147
 30
0.0
 10
113.1331831003
 20
259.8611515538
 30
0.0
 10
113.1534296673
 20
259.8599112349
 30
0.0
  0
SPLINE
  5
4B5
100
AcDbEntity
  8
0
100
AcDbSpline
 62
7
  6
CONTINUOUS
 70
0
 71
3
 72
9
 73
5
 74
0
 42
0.0000001
 43
0.0000001
 44
0.0000000001
 40
0.0
 40
0.0
 40
0.0
 40
0.0
 40
0.4339700277
 40
1.0
 40
1.0
 40
1.0
 40
1.0
 10
121.3924112291
 20
265.8776212996
 30
0.0
 10
121.3699877591
 20
265.9169597746
 30
0.0
 10
121.3313636051
 20
266.0149816544
 30
0.0
 10
121.3118264965
 20
266.1179559212
 30
0.0
 10
121.3046934196
 20
266.1765832934
 30
0.0
  0
SPLINE
  5
4B6
100
AcDbEntity
  8
0
100
AcDbSpline
 62
7
  6
CONTINUOUS
 70
0
 71
3
 72
12
 73
8
 74
0
 42
0.0000001
 43
0.0000001
 44
0.0000000001
 40
0.0
 40
0.0
 40
0.0
 40
0.0
 40
0.2895504709
 40
0.5488064876
 40
0.7818290334
 40
0.8919536766
 40
1.0
 40
1.0
 40
1.0
 40
1.0
 10
108.3216744165
 20
270.7102921064
 30
0.0
 10
107.786346007
 20
270.8099628717
 30
0.0
 10
106.7524595405
 20
270.9164668714
 30
0.0
 10
105.2781000856
 20
270.7564947162
 30
0.0
 10
104.2070694394
 20
270.3326280078
 30
0.0
 10
103.516466839
 20
269.8335580976
 30
0.0
 10
103.228096096
 20
269.5382275508
 30
0.0
 10
103.0994384378
 20
269.3809568552
 30
0.0
  0
SPLINE
  5
4B7
100
AcDbEntity
  8
0
100
AcDbSpline
 62
7
  6
CONTINUOUS
 70
0
 71
3
 72
9
 73
5
 74
0
 42
0.0000001
 43
0.0000001
 44
0.0000000001
 40
0.0
 40
0.0
 40
0.0
 40
0.0
 40
0.2570912259
 40
1.0
 40
1.0
 40
1.0
 40
1.0
 10
117.6372832082
 20
265.634032879
 30
0.0
 10
117.6453279622
 20
265.6447096271
 30
0.0
 10
117.6776086004
 20
265.6854749447
 30
0.0
 10
117.7139936929
 20
265.7230609802
 30
0.0
 10
117.7432267824
 20
265.7483136592
 30
0.0
  0
SPLINE
  5
4B8
100
AcDbEntity
  8
0
100
AcDbSpline
 62
7
  6
CONTINUOUS
 70
0
 71
3
 72
9
 73
5
 74
0
 42
0.0000001
 43
0.0000001
 44
0.0000000001
 40
0.0
 40
0.0
 40
0.0
 40
0.0
 40
0.5148272243
 40
1.0
 40
1.0
 40
1.0
 40
1.0
 10
117.7556537116
 20
265.7587780489
 30
0.0
 10
117.8079094403
 20
265.8016627487
 30
0.0
 10
117.9237367767
 20
265.8699883504
 30
0.0
 10
118.057706988
 20
265.8890668626
 30
0.0
 10
118.1212936979
 20
265.8851671901
 30
0.0
  0
SPLINE
  5
4B9
100
AcDbEntity
  8
0
100
AcDbSpline
 62
7
  6
CONTINUOUS
 70
0
 71
3
 72
11
 73
7
 74
0
 42
0.0000001
 43
0.0000001
 44
0.0000000001
 40
0.0
 40
0.0
 40
0.0
 40
0.0
 40
0.2898698408
 40
0.5492640504
 40
0.7824625767
 40
1.0
 40
1.0
 40
1.0
 40
1.0
 10
119.8229704414
 20
271.1159704944
 30
0.0
 10
119.8421369581
 20
271.068491536
 30
0.0
 10
119.8712295737
 20
270.9752316916
 30
0.0
 10
119.8838354523
 20
270.8363191636
 30
0.0
 10
119.8615871146
 20
270.7110584471
 30
0.0
 10
119.8220799218
 20
270.639789183
 30
0.0
 10
119.7977415567
 20
270.6100548525
 30
0.0
  0
SPLINE
  5
4BA
100
AcDbEntity
  8
0
100
AcDbSpline
 62
7
  6
CONTINUOUS
 70
0
 71
3
 72
15
 73
11
 74
0
 42
0.0000001
 43
0.0000001
 44
0.0000000001
 40
0.0
 40
0.0
 40
0.0
 40
0.0
 40
0.1175498999
 40
0.2421743273
 40
0.3716536307
 40
0.5034001222
 40
0.6346822931
 40
0.7627967807
 40
0.8852581946
 40
1.0
 40
1.0
 40
1.0
 40
1.0
 10
118.5756627986
 20
262.738807627
 30
0.0
 10
118.3577883641
 20
263.2096050741
 30
0.0
 10
117.8368904671
 20
264.147179482
 30
0.0
 10
116.8670456169
 20
265.4742035186
 30
0.0
 10
115.7118862871
 20
266.7299909702
 30
0.0
 10
114.4077113773
 20
267.8748693323
 30
0.0
 10
112.9954552641
 20
268.8730586338
 30
0.0
 10
111.5192212825
 20
269.6932468514
 30
0.0
 10
110.0255487847
 20
270.3096416938
 30
0.0
 10
109.0105314046
 20
270.5820079353
 30
0.0
 10
108.5127160354
 20
270.674718239
 30
0.0
  0
SPLINE
  5
4BB
100
AcDbEntity
  8
0
100
AcDbSpline
 62
7
  6
CONTINUOUS
 70
0
 71
3
 72
9
 73
5
 74
0
 42
0.0000001
 43
0.0000001
 44
0.0000000001
 40
0.0
 40
0.0
 40
0.0
 40
0.0
 40
0.25729275
 40
1.0
 40
1.0
 40
1.0
 40
1.0
 10
117.5480292438
 20
265.4889088018
 30
0.0
 10
117.5545568156
 20
265.501994337
 30
0.0
 10
117.5810213696
 20
265.5522948912
 30
0.0
 10
117.6118809618
 20
265.6003198051
 30
0.0
 10
117.6372832082
 20
265.634032879
 30
0.0
  0
SPLINE
  5
4BC
100
AcDbEntity
  8
0
100
AcDbSpline
 62
7
  6
CONTINUOUS
 70
0
 71
3
 72
9
 73
5
 74
0
 42
0.0000001
 43
0.0000001
 44
0.0000000001
 40
0.0
 40
0.0
 40
0.0
 40
0.0
 40
0.2604324703
 40
1.0
 40
1.0
 40
1.0
 40
1.0
 10
117.4500867529
 20
264.6243825786
 30
0.0
 10
117.4428605185
 20
264.6982205871
 30
0.0
 10
117.4273521288
 20
264.9824711208
 30
0.0
 10
117.4640089569
 20
265.2721318453
 30
0.0
 10
117.5310892058
 20
265.4718521375
 30
0.0
  0
SPLINE
  5
4BD
100
AcDbEntity
  8
0
100
AcDbSpline
 62
7
  6
CONTINUOUS
 70
0
 71
3
 72
9
 73
5
 74
0
 42
0.0000001
 43
0.0000001
 44
0.0000000001
 40
0.0
 40
0.0
 40
0.0
 40
0.0
 40
0.2464196385
 40
1.0
 40
1.0
 40
1.0
 40
1.0
 10
119.6188686295
 20
269.8194246828
 30
0.0
 10
119.6056618808
 20
269.8361458985
 30
0.0
 10
119.5536085686
 20
269.9052171434
 30
0.0
 10
119.5072483417
 20
269.9784868695
 30
0.0
 10
119.4750235135
 20
270.0351222749
 30
0.0
  0
SPLINE
  5
4BE
100
AcDbEntity
  8
0
100
AcDbSpline
 62
7
  6
CONTINUOUS
 70
0
 71
3
 72
9
 73
5
 74
0
 42
0.0000001
 43
0.0000001
 44
0.0000000001
 40
0.0
 40
0.0
 40
0.0
 40
0.0
 40
0.2400375415
 40
1.0
 40
1.0
 40
1.0
 40
1.0
 10
118.1597187651
 20
265.1515384285
 30
0.0
 10
118.1045288502
 20
265.1513773233
 30
0.0
 10
117.8746027666
 20
265.1558208041
 30
0.0
 10
117.6452035742
 20
265.1799200767
 30
0.0
 10
117.4726323352
 20
265.207319603
 30
0.0
  0
SPLINE
  5
4BF
100
AcDbEntity
  8
0
100
AcDbSpline
 62
7
  6
CONTINUOUS
 70
0
 71
3
 72
9
 73
5
 74
0
 42
0.0000001
 43
0.0000001
 44
0.0000000001
 40
0.0
 40
0.0
 40
0.0
 40
0.0
 40
0.4582140703
 40
1.0
 40
1.0
 40
1.0
 40
1.0
 10
121.9163989534
 20
265.7803668251
 30
0.0
 10
121.9354783079
 20
265.8552323077
 30
0.0
 10
121.9616740589
 20
266.02228987
 30
0.0
 10
121.9784961305
 20
266.1900005241
 30
0.0
 10
121.9855057981
 20
266.2810804541
 30
0.0
  0
SPLINE
  5
4C0
100
AcDbEntity
  8
0
100
AcDbSpline
 62
7
  6
CONTINUOUS
 70
0
 71
3
 72
9
 73
5
 74
0
 42
0.0000001
 43
0.0000001
 44
0.0000000001
 40
0.0
 40
0.0
 40
0.0
 40
0.0
 40
0.4948626867
 40
1.0
 40
1.0
 40
1.0
 40
1.0
 10
121.4601422655
 20
264.7903813744
 30
0.0
 10
121.5656803645
 20
264.9369481903
 30
0.0
 10
121.7499990776
 20
265.2549819582
 30
0.0
 10
121.8708627758
 20
265.6017343096
 30
0.0
 10
121.9164042662
 20
265.7803812026
 30
0.0
  0
SPLINE
  5
4C1
100
AcDbEntity
  8
0
100
AcDbSpline
 62
7
  6
CONTINUOUS
 70
0
 71
3
 72
12
 73
8
 74
0
 42
0.0000001
 43
0.0000001
 44
0.0000000001
 40
0.0
 40
0.0
 40
0.0
 40
0.0
 40
0.1138225218
 40
0.2371443512
 40
0.4895607674
 40
0.7443580741
 40
1.0
 40
1.0
 40
1.0
 40
1.0
 10
118.747620643
 20
272.4413225471
 30
0.0
 10
118.7807933329
 20
272.4133364358
 30
0.0
 10
118.8458254964
 20
272.3503530781
 30
0.0
 10
118.9787417177
 20
272.2193575831
 30
0.0
 10
119.1472731893
 20
272.0478349646
 30
0.0
 10
119.3503325202
 20
271.8395769857
 30
0.0
 10
119.4858116029
 20
271.699832715
 30
0.0
 10
119.5536132662
 20
271.6297985889
 30
0.0
  0
SPLINE
  5
4C2
100
AcDbEntity
  8
0
100
AcDbSpline
 62
7
  6
CONTINUOUS
 70
0
 71
3
 72
11
 73
7
 74
0
 42
0.0000001
 43
0.0000001
 44
0.0000000001
 40
0.0
 40
0.0
 40
0.0
 40
0.0
 40
0.2688703619
 40
0.5298630542
 40
0.7752799742
 40
1.0
 40
1.0
 40
1.0
 40
1.0
 10
118.7476241067
 20
272.4413225257
 30
0.0
 10
118.3322427353
 20
272.7915064404
 30
0.0
 10
117.4649589334
 20
273.4261752175
 30
0.0
 10
116.0782409348
 20
274.1668985642
 30
0.0
 10
114.6774317734
 20
274.655481145
 30
0.0
 10
113.7303840471
 20
274.8008610416
 30
0.0
 10
113.2765362708
 20
274.8154764506
 30
0.0
  0
SPLINE
  5
4C3
100
AcDbEntity
  8
0
100
AcDbSpline
 62
7
  6
CONTINUOUS
 70
0
 71
3
 72
11
 73
7
 74
0
 42
0.0000001
 43
0.0000001
 44
0.0000000001
 40
0.0
 40
0.0
 40
0.0
 40
0.0
 40
0.2718677351
 40
0.5262298673
 40
0.7670761906
 40
1.0
 40
1.0
 40
1.0
 40
1.0
 10
113.2765362708
 20
274.8154764506
 30
0.0
 10
112.9958562905
 20
274.8245152802
 30
0.0
 10
112.4498092422
 20
274.8012323821
 30
0.0
 10
111.6726581008
 20
274.621957546
 30
0.0
 10
110.9874068524
 20
274.2965174608
 30
0.0
 10
110.6054311349
 20
273.9804920656
 30
0.0
 10
110.4419449874
 20
273.8039704856
 30
0.0
  0
SPLINE
  5
4C4
100
AcDbEntity
  8
0
100
AcDbSpline
 62
7
  6
CONTINUOUS
 70
0
 71
3
 72
9
 73
5
 74
0
 42
0.0000001
 43
0.0000001
 44
0.0000000001
 40
0.0
 40
0.0
 40
0.0
 40
0.0
 40
0.5124811365
 40
1.0
 40
1.0
 40
1.0
 40
1.0
 10
113.9814418335
 20
255.9334473707
 30
0.0
 10
114.0074848111
 20
255.8771719871
 30
0.0
 10
114.0920723008
 20
255.7841953822
 30
0.0
 10
114.2078806387
 20
255.7301471585
 30
0.0
 10
114.2667591867
 20
255.7265402172
 30
0.0
  0
SPLINE
  5
4C5
100
AcDbEntity
  8
0
100
AcDbSpline
 62
7
  6
CONTINUOUS
 70
0
 71
3
 72
11
 73
7
 74
0
 42
0.0000001
 43
0.0000001
 44
0.0000000001
 40
0.0
 40
0.0
 40
0.0
 40
0.0
 40
0.2295223305
 40
0.4681903601
 40
0.7234235981
 40
1.0
 40
1.0
 40
1.0
 40
1.0
 10
113.7406608752
 20
250.8027586995
 30
0.0
 10
113.5526706139
 20
250.5729637622
 30
0.0
 10
113.1065637343
 20
250.1521609498
 30
0.0
 10
112.2822385993
 20
249.6922369525
 30
0.0
 10
111.3207769872
 20
249.4052870908
 30
0.0
 10
110.6326029034
 20
249.3342887464
 30
0.0
 10
110.2749743132
 20
249.3245981753
 30
0.0
  0
SPLINE
  5
4C6
100
AcDbEntity
  8
0
100
AcDbSpline
 62
7
  6
CONTINUOUS
 70
0
 71
3
 72
11
 73
7
 74
0
 42
0.0000001
 43
0.0000001
 44
0.0000000001
 40
0.0
 40
0.0
 40
0.0
 40
0.0
 40
0.2272658217
 40
0.4648270819
 40
0.7207755772
 40
1.0
 40
1.0
 40
1.0
 40
1.0
 10
114.1055897268
 20
251.2488164843
 30
0.0
 10
114.3068143745
 20
251.4947918905
 30
0.0
 10
114.6500579289
 20
252.0577657962
 30
0.0
 10
114.9352202508
 20
253.0347452845
 30
0.0
 10
114.9946149796
 20
254.1215697358
 30
0.0
 10
114.8905295625
 20
254.867179082
 30
0.0
 10
114.8069393804
 20
255.2485803561
 30
0.0
  0
SPLINE
  5
4C7
100
AcDbEntity
  8
0
100
AcDbSpline
 62
7
  6
CONTINUOUS
 70
0
 71
3
 72
9
 73
5
 74
0
 42
0.0000001
 43
0.0000001
 44
0.0000000001
 40
0.0
 40
0.0
 40
0.0
 40
0.0
 40
0.2488299872
 40
1.0
 40
1.0
 40
1.0
 40
1.0
 10
115.1374689086
 20
252.5101000681
 30
0.0
 10
115.0941639438
 20
252.4571644336
 30
0.0
 10
114.913943519
 20
252.2495452368
 30
0.0
 10
114.7091413828
 20
252.0634075155
 30
0.0
 10
114.5451794338
 20
251.937934413
 30
0.0
  0
SPLINE
  5
4C8
100
AcDbEntity
  8
0
100
AcDbSpline
 62
7
  6
CONTINUOUS
 70
0
 71
3
 72
12
 73
8
 74
0
 42
0.0000001
 43
0.0000001
 44
0.0000000001
 40
0.0
 40
0.0
 40
0.0
 40
0.0
 40
0.1080426412
 40
0.2181639322
 40
0.4511759366
 40
0.7104142394
 40
1.0
 40
1.0
 40
1.0
 40
1.0
 10
118.5790449649
 20
256.7168074554
 30
0.0
 10
118.7076985288
 20
256.874073146
 30
0.0
 10
118.940079912
 20
257.2151979563
 30
0.0
 10
119.2923892328
 20
257.9909770218
 30
0.0
 10
119.4957523263
 20
259.1246644153
 30
0.0
 10
119.3605322009
 20
260.6015296923
 30
0.0
 10
119.0512783957
 20
261.5938494873
 30
0.0
 10
118.8475190363
 20
262.0988905841
 30
0.0
  0
SPLINE
  5
4C9
100
AcDbEntity
  8
0
100
AcDbSpline
 62
7
  6
CONTINUOUS
 70
0
 71
3
 72
19
 73
15
 74
0
 42
0.0000001
 43
0.0000001
 44
0.0000000001
 40
0.0
 40
0.0
 40
0.0
 40
0.0
 40
0.1329263387
 40
0.2760277447
 40
0.4223854548
 40
0.5645216219
 40
0.6319124991
 40
0.6958572326
 40
0.755859223
 40
0.8116634939
 40
0.8633260019
 40
0.9112858431
 40
0.9564158312
 40
1.0
 40
1.0
 40
1.0
 40
1.0
 10
108.7115284914
 20
251.6833930447
 30
0.0
 10
108.3986091301
 20
252.3595698382
 30
0.0
 10
107.5834352718
 20
253.6894318997
 30
0.0
 10
105.9957368554
 20
255.4598526971
 30
0.0
 10
104.0989213612
 20
256.9783773836
 30
0.0
 10
102.3471816596
 20
257.9562946948
 30
0.0
 10
100.9143224141
 20
258.5070368115
 30
0.0
 10
99.8768096849
 20
258.7871012794
 30
0.0
 10
98.8777410383
 20
258.9358675497
 30
0.0
 10
97.9359518428
 20
258.9499084808
 30
0.0
 10
97.0692712646
 20
258.8278749668
 30
0.0
 10
96.2944582812
 20
258.570008416
 30
0.0
 10
95.6285580642
 20
258.1792427873
 30
0.0
 10
95.2655271199
 20
257.8313419964
 30
0.0
 10
95.1108283298
 20
257.6422683261
 30
0.0
  0
SPLINE
  5
4CA
100
AcDbEntity
  8
0
100
AcDbSpline
 62
7
  6
CONTINUOUS
 70
0
 71
3
 72
15
 73
11
 74
0
 42
0.0000001
 43
0.0000001
 44
0.0000000001
 40
0.0
 40
0.0
 40
0.0
 40
0.0
 40
0.1275055404
 40
0.2519809964
 40
0.3725547024
 40
0.489538381
 40
0.6086816262
 40
0.7341453353
 40
0.8652600388
 40
1.0
 40
1.0
 40
1.0
 40
1.0
 10
114.5001890684
 20
260.7234619743
 30
0.0
 10
114.5770453008
 20
260.8171570047
 30
0.0
 10
114.7493966228
 20
260.9871013199
 30
0.0
 10
115.0593324685
 20
261.1666371879
 30
0.0
 10
115.3969398221
 20
261.2534126435
 30
0.0
 10
115.740084135
 20
261.2444189214
 30
0.0
 10
116.0725056353
 20
261.1420985634
 30
0.0
 10
116.3776492771
 20
260.9488435119
 30
0.0
 10
116.6349626079
 20
260.6755143579
 30
0.0
 10
116.7637534495
 20
260.455612934
 30
0.0
 10
116.8175311511
 20
260.3393918326
 30
0.0
  0
SPLINE
  5
4CB
100
AcDbEntity
  8
0
100
AcDbSpline
 62
7
  6
CONTINUOUS
 70
0
 71
3
 72
11
 73
7
 74
0
 42
0.0000001
 43
0.0000001
 44
0.0000000001
 40
0.0
 40
0.0
 40
0.0
 40
0.0
 40
0.2390241706
 40
0.501266153
 40
0.7644990468
 40
1.0
 40
1.0
 40
1.0
 40
1.0
 10
116.8175311511
 20
260.3393918326
 30
0.0
 10
116.9362945062
 20
260.0827276853
 30
0.0
 10
117.070509977
 20
259.4895308114
 30
0.0
 10
116.9935610052
 20
258.5783777692
 30
0.0
 10
116.7092326722
 20
257.7172061129
 30
0.0
 10
116.405515499
 20
257.2029577649
 30
0.0
 10
116.2292790002
 20
256.9871304132
 30
0.0
  0
SPLINE
  5
4CC
100
AcDbEntity
  8
0
100
AcDbSpline
 62
7
  6
CONTINUOUS
 70
0
 71
3
 72
11
 73
7
 74
0
 42
0.0000001
 43
0.0000001
 44
0.0000000001
 40
0.0
 40
0.0
 40
0.0
 40
0.0
 40
0.2358574396
 40
0.4968158669
 40
0.7616041572
 40
1.0
 40
1.0
 40
1.0
 40
1.0
 10
116.6238761404
 20
260.2529368364
 30
0.0
 10
116.7337658421
 20
260.0154506292
 30
0.0
 10
116.861009647
 20
259.4653904301
 30
0.0
 10
116.7980723709
 20
258.6137150745
 30
0.0
 10
116.5395143671
 20
257.7997980336
 30
0.0
 10
116.2549943755
 20
257.3110224067
 30
0.0
 10
116.0877076377
 20
257.1061506157
 30
0.0
  0
LINE
  5
4CD
100
AcDbEntity
  8
0
100
AcDbLine
 62
7
  6
CONTINUOUS
 10
114.0305286362
 20
260.0858382597
 11
114.1097288113
 21
260.2461957204
  0
LINE
  5
4CE
100
AcDbEntity
  8
0
100
AcDbLine
 62
7
  6
CONTINUOUS
 10
112.7743807695
 20
258.6139721063
 11
112.6631964863
 21
258.4145198434
  0
SPLINE
  5
4CF
100
AcDbEntity
  8
0
100
AcDbSpline
 62
7
  6
CONTINUOUS
 70
0
 71
3
 72
11
 73
7
 74
0
 42
0.0000001
 43
0.0000001
 44
0.0000000001
 40
0.0
 40
0.0
 40
0.0
 40
0.0
 40
0.2289429174
 40
0.4879459464
 40
0.7535230836
 40
1.0
 40
1.0
 40
1.0
 40
1.0
 10
113.5496419904
 20
254.72790198
 30
0.0
 10
113.5106004929
 20
254.7302936887
 30
0.0
 10
113.4284039784
 20
254.7520612325
 30
0.0
 10
113.3156543907
 20
254.8162933841
 30
0.0
 10
113.2176343319
 20
254.9058407915
 30
0.0
 10
113.1678834098
 20
254.9793555381
 30
0.0
 10
113.150197696
 20
255.0175719948
 30
0.0
  0
SPLINE
  5
4D0
100
AcDbEntity
  8
0
100
AcDbSpline
 62
7
  6
CONTINUOUS
 70
0
 71
3
 72
9
 73
5
 74
0
 42
0.0000001
 43
0.0000001
 44
0.0000000001
 40
0.0
 40
0.0
 40
0.0
 40
0.0
 40
0.2595235651
 40
1.0
 40
1.0
 40
1.0
 40
1.0
 10
114.4396618136
 20
256.6709105833
 30
0.0
 10
114.464244519
 20
256.5716790306
 30
0.0
 10
114.5503428434
 20
256.1872940947
 30
0.0
 10
114.6007967522
 20
255.7944606691
 30
0.0
 10
114.6129241167
 20
255.5030254376
 30
0.0
  0
SPLINE
  5
4D1
100
AcDbEntity
  8
0
100
AcDbSpline
 62
7
  6
CONTINUOUS
 70
0
 71
3
 72
9
 73
5
 74
0
 42
0.0000001
 43
0.0000001
 44
0.0000000001
 40
0.0
 40
0.0
 40
0.0
 40
0.0
 40
0.5088291686
 40
1.0
 40
1.0
 40
1.0
 40
1.0
 10
109.8881705878
 20
262.9013694789
 30
0.0
 10
110.5197134302
 20
262.4292733494
 30
0.0
 10
111.6884328845
 20
261.4006644956
 30
0.0
 10
112.6763900347
 20
260.1953134638
 30
0.0
 10
113.1009821166
 20
259.5636179609
 30
0.0
  0
LINE
  5
4D2
100
AcDbEntity
  8
0
100
AcDbLine
 62
7
  6
CONTINUOUS
 10
121.9679356141
 20
266.4743069039
 11
121.9566054269
 21
266.4563541007
  0
SPLINE
  5
4D3
100
AcDbEntity
  8
0
100
AcDbSpline
 62
7
  6
CONTINUOUS
 70
0
 71
3
 72
9
 73
5
 74
0
 42
0.0000001
 43
0.0000001
 44
0.0000000001
 40
0.0
 40
0.0
 40
0.0
 40
0.0
 40
0.2453994946
 40
1.0
 40
1.0
 40
1.0
 40
1.0
 10
121.9093575216
 20
266.3812169551
 30
0.0
 10
121.8806348556
 20
266.3353994059
 30
0.0
 10
121.7641461575
 20
266.1483556232
 30
0.0
 10
121.6496243647
 20
265.9600050932
 30
0.0
 10
121.5673911198
 20
265.815478318
 30
0.0
  0
SPLINE
  5
4D4
100
AcDbEntity
  8
0
100
AcDbSpline
 62
7
  6
CONTINUOUS
 70
0
 71
3
 72
17
 73
13
 74
0
 42
0.0000001
 43
0.0000001
 44
0.0000000001
 40
0.0
 40
0.0
 40
0.0
 40
0.0
 40
0.1329856332
 40
0.2761509508
 40
0.4225737481
 40
0.5647725103
 40
0.6959873536
 40
0.8115829635
 40
0.8632672914
 40
0.9112474177
 40
0.9563967248
 40
1.0
 40
1.0
 40
1.0
 40
1.0
 10
112.3113721423
 20
256.5843863329
 30
0.0
 10
112.016326668
 20
257.2219400526
 30
0.0
 10
111.2476974307
 20
258.4758552309
 30
0.0
 10
109.7507455087
 20
260.1450639442
 30
0.0
 10
107.9620107551
 20
261.5771195132
 30
0.0
 10
106.015283307
 20
262.6633355218
 30
0.0
 10
104.0559439858
 20
263.3231206192
 30
0.0
 10
102.4652871845
 20
263.4796252194
 30
0.0
 10
101.3341683315
 20
263.3206034092
 30
0.0
 10
100.6036205607
 20
263.0773706441
 30
0.0
 10
99.9757995061
 20
262.7088975592
 30
0.0
 10
99.6335365034
 20
262.3808398908
 30
0.0
 10
99.4876911603
 20
262.2025543781
 30
0.0
  0
SPLINE
  5
4D5
100
AcDbEntity
  8
0
100
AcDbSpline
 62
7
  6
CONTINUOUS
 70
0
 71
3
 72
9
 73
5
 74
0
 42
0.0000001
 43
0.0000001
 44
0.0000000001
 40
0.0
 40
0.0
 40
0.0
 40
0.0
 40
0.4993166408
 40
1.0
 40
1.0
 40
1.0
 40
1.0
 10
119.2407410533
 20
270.8430572282
 30
0.0
 10
119.3345247966
 20
270.8991548736
 30
0.0
 10
119.5111709442
 20
271.0296261522
 30
0.0
 10
119.6788882934
 20
271.1700986766
 30
0.0
 10
119.7615256799
 20
271.2420630061
 30
0.0
  0
SPLINE
  5
4D6
100
AcDbEntity
  8
0
100
AcDbSpline
 62
7
  6
CONTINUOUS
 70
0
 71
3
 72
15
 73
11
 74
0
 42
0.0000001
 43
0.0000001
 44
0.0000000001
 40
0.0
 40
0.0
 40
0.0
 40
0.0
 40
0.2612330305
 40
0.5200138269
 40
0.647900509
 40
0.7737002865
 40
0.8350693483
 40
0.8945563416
 40
0.9493699586
 40
1.0
 40
1.0
 40
1.0
 40
1.0
 10
119.3282699229
 20
270.3443119477
 30
0.0
 10
119.3114688638
 20
270.3868644211
 30
0.0
 10
119.2801401771
 20
270.472409019
 30
0.0
 10
119.2463668069
 20
270.580824342
 30
0.0
 10
119.2245131584
 20
270.6678723572
 30
0.0
 10
119.2141036734
 20
270.7221683747
 30
0.0
 10
119.2104951055
 20
270.7652518337
 30
0.0
 10
119.2112635523
 20
270.7961406968
 30
0.0
 10
119.2197768694
 20
270.8244080643
 30
0.0
 10
119.2331317212
 20
270.8385056333
 30
0.0
 10
119.2407410533
 20
270.8430572282
 30
0.0
  0
SPLINE
  5
4D7
100
AcDbEntity
  8
0
100
AcDbSpline
 62
7
  6
CONTINUOUS
 70
0
 71
3
 72
12
 73
8
 74
0
 42
0.0000001
 43
0.0000001
 44
0.0000000001
 40
0.0
 40
0.0
 40
0.0
 40
0.0
 40
0.1063883614
 40
0.2151280707
 40
0.446906976
 40
0.7073994338
 40
1.0
 40
1.0
 40
1.0
 40
1.0
 10
112.2586915128
 20
251.7550332469
 30
0.0
 10
112.3726847281
 20
251.8943818089
 30
0.0
 10
112.5770052
 20
252.1987316689
 30
0.0
 10
112.8781050689
 20
252.8964551653
 30
0.0
 10
113.025204622
 20
253.9218616573
 30
0.0
 10
112.8433080008
 20
255.2496475617
 30
0.0
 10
112.5193278399
 20
256.1350219464
 30
0.0
 10
112.3113721423
 20
256.5843863329
 30
0.0
  0
SPLINE
  5
4D8
100
AcDbEntity
  8
0
100
AcDbSpline
 62
7
  6
CONTINUOUS
 70
0
 71
3
 72
18
 73
14
 74
0
 42
0.0000001
 43
0.0000001
 44
0.0000000001
 40
0.0
 40
0.0
 40
0.0
 40
0.0
 40
0.0565252236
 40
0.1093347756
 40
0.1599143301
 40
0.2099828779
 40
0.2613851132
 40
0.3156293847
 40
0.4354691716
 40
0.5727519088
 40
0.7213042339
 40
0.8687624661
 40
1.0
 40
1.0
 40
1.0
 40
1.0
 10
117.7123365622
 20
265.8223056201
 30
0.0
 10
117.7538923246
 20
265.8764696621
 30
0.0
 10
117.8457858787
 20
265.9734159125
 30
0.0
 10
118.0121985191
 20
266.0756705067
 30
0.0
 10
118.1927630396
 20
266.1277292205
 30
0.0
 10
118.3792332688
 20
266.1232983151
 30
0.0
 10
118.5600976231
 20
266.063000886
 30
0.0
 10
118.7882342365
 20
265.9090831413
 30
0.0
 10
119.0103843033
 20
265.5896524839
 30
0.0
 10
119.1260831669
 20
265.1056576064
 30
0.0
 10
119.1072880237
 20
264.5770790352
 30
0.0
 10
118.9699521932
 20
264.0761817435
 30
0.0
 10
118.8139854482
 20
263.7730438934
 30
0.0
 10
118.7196261571
 20
263.6456878311
 30
0.0
  0
SPLINE
  5
4D9
100
AcDbEntity
  8
0
100
AcDbSpline
 62
7
  6
CONTINUOUS
 70
0
 71
3
 72
9
 73
5
 74
0
 42
0.0000001
 43
0.0000001
 44
0.0000000001
 40
0.0
 40
0.0
 40
0.0
 40
0.0
 40
0.5577015573
 40
1.0
 40
1.0
 40
1.0
 40
1.0
 10
118.7196261571
 20
263.6456878311
 30
0.0
 10
118.6559773147
 20
263.5597814425
 30
0.0
 10
118.5254487056
 20
263.4156334305
 30
0.0
 10
118.3411120684
 20
263.3327724281
 30
0.0
 10
118.2566105686
 20
263.3257540323
 30
0.0
  0
SPLINE
  5
4DA
100
AcDbEntity
  8
0
100
AcDbSpline
 62
7
  6
CONTINUOUS
 70
0
 71
3
 72
9
 73
5
 74
0
 42
0.0000001
 43
0.0000001
 44
0.0000000001
 40
0.0
 40
0.0
 40
0.0
 40
0.0
 40
0.5492031671
 40
1.0
 40
1.0
 40
1.0
 40
1.0
 10
118.4673160871
 20
263.8404430921
 30
0.0
 10
118.4188911867
 20
263.7761205069
 30
0.0
 10
118.3178869165
 20
263.66703479
 30
0.0
 10
118.1804077649
 20
263.6008040068
 30
0.0
 10
118.1152143754
 20
263.5899742086
 30
0.0
  0
SPLINE
  5
4DB
100
AcDbEntity
  8
0
100
AcDbSpline
 62
7
  6
CONTINUOUS
 70
0
 71
3
 72
11
 73
7
 74
0
 42
0.0000001
 43
0.0000001
 44
0.0000000001
 40
0.0
 40
0.0
 40
0.0
 40
0.0
 40
0.2757315617
 40
0.5320434341
 40
0.7718514808
 40
1.0
 40
1.0
 40
1.0
 40
1.0
 10
114.459192416
 20
254.7220144212
 30
0.0
 10
114.525542095
 20
254.4024485905
 30
0.0
 10
114.6131291857
 20
253.7761424096
 30
0.0
 10
114.595025785
 20
252.8583156615
 30
0.0
 10
114.4211261077
 20
252.013504453
 30
0.0
 10
114.1975143072
 20
251.5010914378
 30
0.0
 10
114.0620977581
 20
251.2674391886
 30
0.0
  0
SPLINE
  5
4DC
100
AcDbEntity
  8
0
100
AcDbSpline
 62
7
  6
CONTINUOUS
 70
0
 71
3
 72
19
 73
15
 74
0
 42
0.0000001
 43
0.0000001
 44
0.0000000001
 40
0.0
 40
0.0
 40
0.0
 40
0.0
 40
0.1628479436
 40
0.3144325749
 40
0.4510840879
 40
0.5134470556
 40
0.571933428
 40
0.626996607
 40
0.6793828611
 40
0.7301125757
 40
0.7804003292
 40
0.8315161486
 40
0.8846279904
 40
1.0
 40
1.0
 40
1.0
 40
1.0
 10
107.6235527058
 20
262.7817318967
 30
0.0
 10
106.9984736591
 20
263.1579950109
 30
0.0
 10
105.7384058427
 20
263.8017928778
 30
0.0
 10
103.808633759
 20
264.4302901014
 30
0.0
 10
102.2370752472
 20
264.6315295008
 30
0.0
 10
101.0823188375
 20
264.5656835818
 30
0.0
 10
100.3062236637
 20
264.4130849859
 30
0.0
 10
99.6046887364
 20
264.1570315648
 30
0.0
 10
98.9880081325
 20
263.7998429071
 30
0.0
 10
98.4662136284
 20
263.3457536574
 30
0.0
 10
98.0483221944
 20
262.8015795936
 30
0.0
 10
97.7411568799
 20
262.1762465217
 30
0.0
 10
97.4774292145
 20
261.2237384873
 30
0.0
 10
97.4699050956
 20
260.4534002348
 30
0.0
 10
97.5281675951
 20
259.93980749
 30
0.0
  0
LINE
  5
4DD
100
AcDbEntity
  8
0
100
AcDbLine
 62
7
  6
CONTINUOUS
 10
107.790270317
 20
262.9263950024
 11
107.7960957297
 21
263.0865685831
  0
SPLINE
  5
4DE
100
AcDbEntity
  8
0
100
AcDbSpline
 62
7
  6
CONTINUOUS
 70
0
 71
3
 72
11
 73
7
 74
0
 42
0.0000001
 43
0.0000001
 44
0.0000000001
 40
0.0
 40
0.0
 40
0.0
 40
0.0
 40
0.2651326958
 40
0.5262498254
 40
0.773712372
 40
1.0
 40
1.0
 40
1.0
 40
1.0
 10
110.56433978
 20
266.4702406576
 30
0.0
 10
110.5747534192
 20
266.1563426507
 30
0.0
 10
110.5459307079
 20
265.5306415076
 30
0.0
 10
110.3614846499
 20
264.6289597265
 30
0.0
 10
110.0468432579
 20
263.8128614721
 30
0.0
 10
109.7457728818
 20
263.3330540418
 30
0.0
 10
109.5760378179
 20
263.1255839687
 30
0.0
  0
SPLINE
  5
4DF
100
AcDbEntity
  8
0
100
AcDbSpline
 62
7
  6
CONTINUOUS
 70
0
 71
3
 72
11
 73
7
 74
0
 42
0.0000001
 43
0.0000001
 44
0.0000000001
 40
0.0
 40
0.0
 40
0.0
 40
0.0
 40
0.2654660034
 40
0.5264476028
 40
0.7736883734
 40
1.0
 40
1.0
 40
1.0
 40
1.0
 10
110.9175064404
 20
266.414941478
 30
0.0
 10
110.9246901849
 20
266.0858855612
 30
0.0
 10
110.8882212285
 20
265.4311850091
 30
0.0
 10
110.6884203244
 20
264.4889934733
 30
0.0
 10
110.3550532422
 20
263.636963844
 30
0.0
 10
110.0390266659
 20
263.1358477238
 30
0.0
 10
109.8613551711
 20
262.9186768153
 30
0.0
  0
LINE
  5
4E0
100
AcDbEntity
  8
0
100
AcDbLine
 62
7
  6
CONTINUOUS
 10
110.3275930453
 20
262.8744501504
 11
110.3826304036
 21
262.8867431283
  0
SPLINE
  5
4E1
100
AcDbEntity
  8
0
100
AcDbSpline
 62
7
  6
CONTINUOUS
 70
0
 71
3
 72
11
 73
7
 74
0
 42
0.0000001
 43
0.0000001
 44
0.0000000001
 40
0.0
 40
0.0
 40
0.0
 40
0.0
 40
0.2289429195
 40
0.4879459497
 40
0.7535230912
 40
1.0
 40
1.0
 40
1.0
 40
1.0
 10
108.6394304545
 20
261.2419568992
 30
0.0
 10
108.5948115998
 20
261.2446902806
 30
0.0
 10
108.5008727257
 20
261.2695674743
 30
0.0
 10
108.372016052
 20
261.3429756473
 30
0.0
 10
108.2599931299
 20
261.4453155432
 30
0.0
 10
108.2031349331
 20
261.5293323955
 30
0.0
 10
108.1829226894
 20
261.5730083447
 30
0.0
  0
LINE
  5
4E2
100
AcDbEntity
  8
0
100
AcDbLine
 62
7
  6
CONTINUOUS
 10
110.0786345549
 20
261.4313113557
 11
109.9297428602
 21
261.37488694
  0
SPLINE
  5
4E3
100
AcDbEntity
  8
0
100
AcDbSpline
 62
7
  6
CONTINUOUS
 70
0
 71
3
 72
11
 73
7
 74
0
 42
0.0000001
 43
0.0000001
 44
0.0000000001
 40
0.0
 40
0.0
 40
0.0
 40
0.0
 40
0.2430727805
 40
0.5043581559
 40
0.7632840182
 40
1.0
 40
1.0
 40
1.0
 40
1.0
 10
121.0258412658
 20
267.3071033329
 30
0.0
 10
121.124805635
 20
267.2820509306
 30
0.0
 10
121.3229041394
 20
267.2001659979
 30
0.0
 10
121.587861043
 20
267.0160494832
 30
0.0
 10
121.8086523512
 20
266.7844278565
 30
0.0
 10
121.9167767186
 20
266.6033097738
 30
0.0
 10
121.9539951605
 20
266.5111230175
 30
0.0
  0
SPLINE
  5
4E4
100
AcDbEntity
  8
0
100
AcDbSpline
 62
7
  6
CONTINUOUS
 70
0
 71
3
 72
9
 73
5
 74
0
 42
0.0000001
 43
0.0000001
 44
0.0000000001
 40
0.0
 40
0.0
 40
0.0
 40
0.0
 40
0.5075785814
 40
1.0
 40
1.0
 40
1.0
 40
1.0
 10
110.0786345549
 20
261.4313113557
 30
0.0
 10
110.567951199
 20
261.0094812471
 30
0.0
 10
111.4853238063
 20
260.1226307992
 30
0.0
 10
112.2915839529
 20
259.1329418769
 30
0.0
 10
112.6544160209
 20
258.6218942838
 30
0.0
  0
LINE
  5
4E5
100
AcDbEntity
  8
0
100
AcDbLine
 62
7
  6
CONTINUOUS
 10
112.6544229818
 20
258.6218969672
 11
112.5784571214
 21
258.4841821297
  0
LINE
  5
4E6
100
AcDbEntity
  8
0
100
AcDbLine
 62
7
  6
CONTINUOUS
 10
112.5784571214
 20
258.4841821297
 11
112.5687268665
 21
258.4665275401
  0
LINE
  5
4E7
100
AcDbEntity
  8
0
100
AcDbLine
 62
7
  6
CONTINUOUS
 10
112.5687268665
 20
258.4665275401
 11
112.511692327
 21
258.3629733239
  0
LINE
  5
4E8
100
AcDbEntity
  8
0
100
AcDbLine
 62
7
  6
CONTINUOUS
 10
112.511692327
 20
258.3629733239
 11
112.5035052436
 21
258.3480984794
  0
LINE
  5
4E9
100
AcDbEntity
  8
0
100
AcDbLine
 62
7
  6
CONTINUOUS
 10
112.4095576538
 20
258.3589984914
 11
112.5034985453
 21
258.3480957769
  0
SPLINE
  5
4EA
100
AcDbEntity
  8
0
100
AcDbSpline
 62
7
  6
CONTINUOUS
 70
0
 71
3
 72
9
 73
5
 74
0
 42
0.0000001
 43
0.0000001
 44
0.0000000001
 40
0.0
 40
0.0
 40
0.0
 40
0.0
 40
0.492090898
 40
1.0
 40
1.0
 40
1.0
 40
1.0
 10
112.4095576538
 20
258.3589984914
 30
0.0
 10
112.0511375467
 20
258.8705616215
 30
0.0
 10
111.2511460336
 20
259.8611366928
 30
0.0
 10
110.3373336296
 20
260.746897619
 30
0.0
 10
109.8490280604
 20
261.1678561
 30
0.0
  0
SPLINE
  5
4EB
100
AcDbEntity
  8
0
100
AcDbSpline
 62
7
  6
CONTINUOUS
 70
0
 71
3
 72
16
 73
12
 74
0
 42
0.0000001
 43
0.0000001
 44
0.0000000001
 40
0.0
 40
0.0
 40
0.0
 40
0.0
 40
0.0945285434
 40
0.2022605399
 40
0.32497004
 40
0.4598872089
 40
0.5303345575
 40
0.6016302611
 40
0.7431228491
 40
0.8777266413
 40
1.0
 40
1.0
 40
1.0
 40
1.0
 10
114.7321346713
 20
260.8743410243
 30
0.0
 10
114.8518034319
 20
260.8367971778
 30
0.0
 10
115.0898936002
 20
260.6951345949
 30
0.0
 10
115.3635602512
 20
260.3540026296
 30
0.0
 10
115.5606205627
 20
259.9063646769
 30
0.0
 10
115.6497055837
 20
259.4773233038
 30
0.0
 10
115.6752306153
 20
259.1107497608
 30
0.0
 10
115.6677612915
 20
258.7346112747
 30
0.0
 10
115.5980615793
 20
258.2762602307
 30
0.0
 10
115.4243776879
 20
257.7740110595
 30
0.0
 10
115.245892075
 20
257.4790065388
 30
0.0
 10
115.1431656978
 20
257.35344233
 30
0.0
  0
SPLINE
  5
4EC
100
AcDbEntity
  8
0
100
AcDbSpline
 62
7
  6
CONTINUOUS
 70
0
 71
3
 72
11
 73
7
 74
0
 42
0.0000001
 43
0.0000001
 44
0.0000000001
 40
0.0
 40
0.0
 40
0.0
 40
0.0
 40
0.2616693278
 40
0.5177062504
 40
0.7643532192
 40
1.0
 40
1.0
 40
1.0
 40
1.0
 10
110.9175064404
 20
266.414941478
 30
0.0
 10
111.1072285534
 20
266.1781520329
 30
0.0
 10
111.4363218223
 20
265.6690520855
 30
0.0
 10
111.7227620272
 20
264.8189367108
 30
0.0
 10
111.7512583505
 20
263.9496437736
 30
0.0
 10
111.5779136775
 20
263.4028716965
 30
0.0
 10
111.4472814722
 20
263.1628752202
 30
0.0
  0
SPLINE
  5
4ED
100
AcDbEntity
  8
0
100
AcDbSpline
 62
7
  6
CONTINUOUS
 70
0
 71
3
 72
15
 73
11
 74
0
 42
0.0000001
 43
0.0000001
 44
0.0000000001
 40
0.0
 40
0.0
 40
0.0
 40
0.0
 40
0.1179715594
 40
0.2426101338
 40
0.3718202977
 40
0.503164076
 40
0.6340789913
 40
0.7620265291
 40
0.8846599248
 40
1.0
 40
1.0
 40
1.0
 40
1.0
 10
118.5684655653
 20
262.7287156411
 30
0.0
 10
118.3426958897
 20
263.1966440106
 30
0.0
 10
117.8104234314
 20
264.1270895369
 30
0.0
 10
116.8320362724
 20
265.4442029502
 30
0.0
 10
115.6763941612
 20
266.6904723169
 30
0.0
 10
114.3776393073
 20
267.828829577
 30
0.0
 10
112.9741902066
 20
268.8257551333
 30
0.0
 10
111.5073444568
 20
269.6517854198
 30
0.0
 10
110.0206805833
 20
270.2824555883
 30
0.0
 10
109.0090979796
 20
270.5704280948
 30
0.0
 10
108.5116083869
 20
270.6730204931
 30
0.0
  0
LINE
  5
4EE
100
AcDbEntity
  8
0
100
AcDbLine
 62
7
  6
CONTINUOUS
 10
108.5116083869
 20
270.6730204931
 11
108.4956258529
 21
270.6763030616
  0
SPLINE
  5
4EF
100
AcDbEntity
  8
0
100
AcDbSpline
 62
7
  6
CONTINUOUS
 70
0
 71
3
 72
9
 73
5
 74
0
 42
0.0000001
 43
0.0000001
 44
0.0000000001
 40
0.0
 40
0.0
 40
0.0
 40
0.0
 40
0.2554695572
 40
1.0
 40
1.0
 40
1.0
 40
1.0
 10
117.5310892058
 20
265.4718521375
 30
0.0
 10
117.5362623912
 20
265.487254437
 30
0.0
 10
117.5574608644
 20
265.547217135
 30
0.0
 10
117.582606511
 20
265.6058207225
 30
0.0
 10
117.6038444754
 20
265.6481429418
 30
0.0
  0
SPLINE
  5
4F0
100
AcDbEntity
  8
0
100
AcDbSpline
 62
7
  6
CONTINUOUS
 70
0
 71
3
 72
9
 73
5
 74
0
 42
0.0000001
 43
0.0000001
 44
0.0000000001
 40
0.0
 40
0.0
 40
0.0
 40
0.0
 40
0.2568909429
 40
1.0
 40
1.0
 40
1.0
 40
1.0
 10
117.6064692315
 20
265.6533413555
 30
0.0
 10
117.6142086564
 20
265.6685755214
 30
0.0
 10
117.6456272345
 20
265.727207969
 30
0.0
 10
117.6822489041
 20
265.7830891773
 30
0.0
 10
117.7123365622
 20
265.8223056201
 30
0.0
  0
SPLINE
  5
4F1
100
AcDbEntity
  8
0
100
AcDbSpline
 62
7
  6
CONTINUOUS
 70
0
 71
3
 72
9
 73
5
 74
0
 42
0.0000001
 43
0.0000001
 44
0.0000000001
 40
0.0
 40
0.0
 40
0.0
 40
0.0
 40
0.2533714882
 40
1.0
 40
1.0
 40
1.0
 40
1.0
 10
121.2718254717
 20
266.3572362612
 30
0.0
 10
121.281329099
 20
266.3470621597
 30
0.0
 10
121.3182824085
 20
266.3063933681
 30
0.0
 10
121.3529757429
 20
266.2636610642
 30
0.0
 10
121.3773706635
 20
266.2306759575
 30
0.0
  0
SPLINE
  5
4F2
100
AcDbEntity
  8
0
100
AcDbSpline
 62
7
  6
CONTINUOUS
 70
0
 71
3
 72
9
 73
5
 74
0
 42
0.0000001
 43
0.0000001
 44
0.0000000001
 40
0.0
 40
0.0
 40
0.0
 40
0.0
 40
0.2713191451
 40
1.0
 40
1.0
 40
1.0
 40
1.0
 10
121.4138972922
 20
266.1787360584
 30
0.0
 10
121.433772393
 20
266.1489542707
 30
0.0
 10
121.5022587216
 20
266.036329202
 30
0.0
 10
121.5517861177
 20
265.910364152
 30
0.0
 10
121.5673911198
 20
265.815478318
 30
0.0
  0
SPLINE
  5
4F3
100
AcDbEntity
  8
0
100
AcDbSpline
 62
7
  6
CONTINUOUS
 70
0
 71
3
 72
14
 73
10
 74
0
 42
0.0000001
 43
0.0000001
 44
0.0000000001
 40
0.0
 40
0.0
 40
0.0
 40
0.0
 40
0.1306668937
 40
0.2208742354
 40
0.3328453587
 40
0.4291190676
 40
0.5288363869
 40
0.7480179352
 40
1.0
 40
1.0
 40
1.0
 40
1.0
 10
121.5673911198
 20
265.815478318
 30
0.0
 10
121.5621688742
 20
265.806300104
 30
0.0
 10
121.5524107111
 20
265.791310628
 30
0.0
 10
121.5329045928
 20
265.7720111011
 30
0.0
 10
121.5074476147
 20
265.7664909945
 30
0.0
 10
121.4835980351
 20
265.7755281121
 30
0.0
 10
121.4556333841
 20
265.7942020778
 30
0.0
 10
121.4235721216
 20
265.8280846409
 30
0.0
 10
121.4024957439
 20
265.8599295939
 30
0.0
 10
121.3924112291
 20
265.8776212996
 30
0.0
  0
SPLINE
  5
4F4
100
AcDbEntity
  8
0
100
AcDbSpline
 62
7
  6
CONTINUOUS
 70
0
 71
3
 72
9
 73
5
 74
0
 42
0.0000001
 43
0.0000001
 44
0.0000000001
 40
0.0
 40
0.0
 40
0.0
 40
0.0
 40
0.492264101
 40
1.0
 40
1.0
 40
1.0
 40
1.0
 10
113.2189760096
 20
259.8558958199
 30
0.0
 10
112.8221531036
 20
260.4174698668
 30
0.0
 10
111.9240832387
 20
261.4949755672
 30
0.0
 10
110.8847593639
 20
262.4356007244
 30
0.0
 10
110.3275930453
 20
262.8744501504
 30
0.0
  0
SPLINE
  5
4F5
100
AcDbEntity
  8
0
100
AcDbSpline
 62
7
  6
CONTINUOUS
 70
0
 71
3
 72
8
 73
4
 74
0
 42
0.0000001
 43
0.0000001
 44
0.0000000001
 40
0.0
 40
0.0
 40
0.0
 40
0.0
 40
1.0
 40
1.0
 40
1.0
 40
1.0
 10
115.6545060004
 20
256.5766408412
 30
0.0
 10
115.3840285506
 20
256.4998520131
 30
0.0
 10
115.1135141803
 20
256.4231930452
 30
0.0
 10
114.8429533814
 20
256.3466984108
 30
0.0
  0
SPLINE
  5
4F6
100
AcDbEntity
  8
0
100
AcDbSpline
 62
7
  6
CONTINUOUS
 70
0
 71
3
 72
9
 73
5
 74
0
 42
0.0000001
 43
0.0000001
 44
0.0000000001
 40
0.0
 40
0.0
 40
0.0
 40
0.0
 40
0.5376357736
 40
1.0
 40
1.0
 40
1.0
 40
1.0
 10
119.2407410533
 20
270.8430572282
 30
0.0
 10
119.2973943605
 20
270.7675475957
 30
0.0
 10
119.3890895279
 20
270.616005817
 30
0.0
 10
119.4377082715
 20
270.4433506765
 30
0.0
 10
119.4431292907
 20
270.362348584
 30
0.0
  0
SPLINE
  5
4F7
100
AcDbEntity
  8
0
100
AcDbSpline
 62
7
  6
CONTINUOUS
 70
0
 71
3
 72
9
 73
5
 74
0
 42
0.0000001
 43
0.0000001
 44
0.0000000001
 40
0.0
 40
0.0
 40
0.0
 40
0.0
 40
0.2604259282
 40
1.0
 40
1.0
 40
1.0
 40
1.0
 10
119.4431292907
 20
270.362348584
 30
0.0
 10
119.4438738287
 20
270.3512235283
 30
0.0
 10
119.4454698968
 20
270.3084410372
 30
0.0
 10
119.4417587747
 20
270.2653736376
 30
0.0
 10
119.4354394366
 20
270.2343463172
 30
0.0
  0
SPLINE
  5
4F8
100
AcDbEntity
  8
0
100
AcDbSpline
 62
7
  6
CONTINUOUS
 70
0
 71
3
 72
9
 73
5
 74
0
 42
0.0000001
 43
0.0000001
 44
0.0000000001
 40
0.0
 40
0.0
 40
0.0
 40
0.0
 40
0.2551764023
 40
1.0
 40
1.0
 40
1.0
 40
1.0
 10
119.4354394366
 20
270.2343463172
 30
0.0
 10
119.4341040431
 20
270.2277896681
 30
0.0
 10
119.4282475287
 20
270.2022278501
 30
0.0
 10
119.4198260218
 20
270.1772390933
 30
0.0
 10
119.4120792302
 20
270.1593103332
 30
0.0
  0
SPLINE
  5
4F9
100
AcDbEntity
  8
0
100
AcDbSpline
 62
7
  6
CONTINUOUS
 70
0
 71
3
 72
15
 73
11
 74
0
 42
0.0000001
 43
0.0000001
 44
0.0000000001
 40
0.0
 40
0.0
 40
0.0
 40
0.0
 40
0.0959278199
 40
0.2016263814
 40
0.3209614216
 40
0.4536350996
 40
0.595412107
 40
0.7394360706
 40
0.8770540544
 40
1.0
 40
1.0
 40
1.0
 40
1.0
 10
118.1212936979
 20
265.8851671901
 30
0.0
 10
118.198273282
 20
265.8804461537
 30
0.0
 10
118.3591435605
 20
265.8300054308
 30
0.0
 10
118.5564036753
 20
265.6546530656
 30
0.0
 10
118.6988272266
 20
265.3999488362
 30
0.0
 10
118.7770290312
 20
265.0900714049
 30
0.0
 10
118.7865341513
 20
264.7515314415
 30
0.0
 10
118.7345434098
 20
264.4134089363
 30
0.0
 10
118.6312696081
 20
264.1033076699
 30
0.0
 10
118.5267675242
 20
263.9194121783
 30
0.0
 10
118.4673160871
 20
263.8404430921
 30
0.0
  0
LINE
  5
4FA
100
AcDbEntity
  8
0
100
AcDbLine
 62
7
  6
CONTINUOUS
 10
114.1774777074
 20
254.8307573131
 11
114.28716738
 21
254.9053194469
  0
SPLINE
  5
4FB
100
AcDbEntity
  8
0
100
AcDbSpline
 62
7
  6
CONTINUOUS
 70
0
 71
3
 72
26
 73
22
 74
0
 42
0.0000001
 43
0.0000001
 44
0.0000000001
 40
0.0
 40
0.0
 40
0.0
 40
0.0
 40
0.2648393307
 40
0.3980030168
 40
0.5313317374
 40
0.597936663
 40
0.6643949915
 40
0.7305657112
 40
0.7961911438
 40
0.8607024996
 40
0.8921160506
 40
0.9223779801
 40
0.93671416
 40
0.9501045444
 40
0.9618918578
 40
0.9667467134
 40
0.9704658974
 40
0.9738221554
 40
0.9787126445
 40
0.9881692414
 40
1.0
 40
1.0
 40
1.0
 40
1.0
 10
119.5556729024
 20
271.5316236268
 30
0.0
 10
119.4767808738
 20
271.6131132837
 30
0.0
 10
119.3589315072
 20
271.7362679663
 30
0.0
 10
119.2031531282
 20
271.9021394671
 30
0.0
 10
119.1062314726
 20
272.0068150424
 30
0.0
 10
119.0292632982
 20
272.0910277664
 30
0.0
 10
118.972015745
 20
272.1542984714
 30
0.0
 10
118.915429455
 20
272.2176003373
 30
0.0
 10
118.8598868597
 20
272.2807127079
 30
0.0
 10
118.814736628
 20
272.3331419715
 30
0.0
 10
118.7800519866
 20
272.3745821334
 30
0.0
 10
118.7595176221
 20
272.399852845
 30
0.0
 10
118.7442176871
 20
272.4194006198
 30
0.0
 10
118.7340992395
 20
272.4330091026
 30
0.0
 10
118.7266409827
 20
272.4433765936
 30
0.0
 10
118.7221962501
 20
272.4510908535
 30
0.0
 10
118.7195714964
 20
272.4550369352
 30
0.0
 10
118.7190886052
 20
272.4622005683
 30
0.0
 10
118.7288564566
 20
272.4560694762
 30
0.0
 10
118.7361516484
 20
272.4508060038
 30
0.0
 10
118.7437480002
 20
272.4445896989
 30
0.0
 10
118.747620643
 20
272.4413225471
 30
0.0
  0
SPLINE
  5
4FC
100
AcDbEntity
  8
0
100
AcDbSpline
 62
7
  6
CONTINUOUS
 70
0
 71
3
 72
8
 73
4
 74
0
 42
0.0000001
 43
0.0000001
 44
0.0000000001
 40
0.0
 40
0.0
 40
0.0
 40
0.0
 40
1.0
 40
1.0
 40
1.0
 40
1.0
 10
119.6762393618
 20
271.3833638378
 30
0.0
 10
119.6401609303
 20
271.4358597183
 30
0.0
 10
119.5999790599
 20
271.4858586282
 30
0.0
 10
119.5556729024
 20
271.5316236268
 30
0.0
  0
SPLINE
  5
4FD
100
AcDbEntity
  8
0
100
AcDbSpline
 62
7
  6
CONTINUOUS
 70
0
 71
3
 72
11
 73
7
 74
0
 42
0.0000001
 43
0.0000001
 44
0.0000000001
 40
0.0
 40
0.0
 40
0.0
 40
0.0
 40
0.2234665814
 40
0.4689969712
 40
0.7305216163
 40
1.0
 40
1.0
 40
1.0
 40
1.0
 10
113.2834342064
 20
274.7325200829
 30
0.0
 10
113.7274001999
 20
274.7053224142
 30
0.0
 10
114.6537047868
 20
274.5413951388
 30
0.0
 10
116.0252698681
 20
274.0420561395
 30
0.0
 10
117.3878793887
 20
273.3017438815
 30
0.0
 10
118.2425867606
 20
272.6737149192
 30
0.0
 10
118.6528484746
 20
272.3281844281
 30
0.0
  0
SPLINE
  5
4FE
100
AcDbEntity
  8
0
100
AcDbSpline
 62
7
  6
CONTINUOUS
 70
0
 71
3
 72
9
 73
5
 74
0
 42
0.0000001
 43
0.0000001
 44
0.0000000001
 40
0.0
 40
0.0
 40
0.0
 40
0.0
 40
0.5079764971
 40
1.0
 40
1.0
 40
1.0
 40
1.0
 10
111.4472814722
 20
263.1628752202
 30
0.0
 10
111.9556989018
 20
262.7265249186
 30
0.0
 10
112.9066313154
 20
261.8074789654
 30
0.0
 10
113.7378907886
 20
260.7780550273
 30
0.0
 10
114.1097288113
 20
260.2461957204
 30
0.0
  0
SPLINE
  5
4FF
100
AcDbEntity
  8
0
100
AcDbSpline
 62
7
  6
CONTINUOUS
 70
0
 71
3
 72
9
 73
5
 74
0
 42
0.0000001
 43
0.0000001
 44
0.0000000001
 40
0.0
 40
0.0
 40
0.0
 40
0.0
 40
0.2361054721
 40
1.0
 40
1.0
 40
1.0
 40
1.0
 10
114.9328621195
 20
254.5138024178
 30
0.0
 10
114.952630506
 20
254.657290506
 30
0.0
 10
115.0054064952
 20
255.2692684727
 30
0.0
 10
114.9397878441
 20
255.8881864773
 30
0.0
 10
114.8429533814
 20
256.3466984108
 30
0.0
  0
SPLINE
  5
500
100
AcDbEntity
  8
0
100
AcDbSpline
 62
7
  6
CONTINUOUS
 70
0
 71
3
 72
11
 73
7
 74
0
 42
0.0000001
 43
0.0000001
 44
0.0000000001
 40
0.0
 40
0.0
 40
0.0
 40
0.0
 40
0.2792244287
 40
0.5351729243
 40
0.7727341816
 40
1.0
 40
1.0
 40
1.0
 40
1.0
 10
115.8388187431
 20
256.5098641593
 30
0.0
 10
115.9224089326
 20
256.1284628515
 30
0.0
 10
116.0264943534
 20
255.382853445
 30
0.0
 10
115.9670995918
 20
254.2960289156
 30
0.0
 10
115.6819372026
 20
253.3190493825
 30
0.0
 10
115.3386935882
 20
252.7560754697
 30
0.0
 10
115.1374689086
 20
252.5101000681
 30
0.0
  0
SPLINE
  5
501
100
AcDbEntity
  8
0
100
AcDbSpline
 62
7
  6
CONTINUOUS
 70
0
 71
3
 72
11
 73
7
 74
0
 42
0.0000001
 43
0.0000001
 44
0.0000000001
 40
0.0
 40
0.0
 40
0.0
 40
0.0
 40
0.2335567801
 40
0.4781116172
 40
0.735242422
 40
1.0
 40
1.0
 40
1.0
 40
1.0
 10
115.4984773974
 20
261.1014005219
 30
0.0
 10
115.6132032818
 20
261.0943260161
 30
0.0
 10
115.8471927244
 20
261.0435236392
 30
0.0
 10
116.1671761503
 20
260.8644067932
 30
0.0
 10
116.4364194938
 20
260.5940741221
 30
0.0
 10
116.5691580373
 20
260.3711899081
 30
0.0
 10
116.6238761404
 20
260.2529368364
 30
0.0
  0
SPLINE
  5
502
100
AcDbEntity
  8
0
100
AcDbSpline
 62
7
  6
CONTINUOUS
 70
0
 71
3
 72
15
 73
11
 74
0
 42
0.0000001
 43
0.0000001
 44
0.0000000001
 40
0.0
 40
0.0
 40
0.0
 40
0.0
 40
0.0968438605
 40
0.2072463786
 40
0.3315978448
 40
0.4666841168
 40
0.6071587173
 40
0.746748647
 40
0.8793161645
 40
1.0
 40
1.0
 40
1.0
 40
1.0
 10
115.0863300265
 20
261.0605770199
 30
0.0
 10
115.2134388825
 20
261.0009037427
 30
0.0
 10
115.4586951606
 20
260.814047342
 30
0.0
 10
115.7346951232
 20
260.413840083
 30
0.0
 10
115.9284781517
 20
259.9093728988
 30
0.0
 10
116.0280759321
 20
259.3349182974
 30
0.0
 10
116.0275668674
 20
258.7301353734
 30
0.0
 10
115.9268226186
 20
258.1373387005
 30
0.0
 10
115.7332160268
 20
257.5984569713
 30
0.0
 10
115.539285724
 20
257.28197118
 30
0.0
 10
115.4284830509
 20
257.1465351766
 30
0.0
  0
SPLINE
  5
503
100
AcDbEntity
  8
0
100
AcDbSpline
 62
7
  6
CONTINUOUS
 70
0
 71
3
 72
15
 73
11
 74
0
 42
0.0000001
 43
0.0000001
 44
0.0000000001
 40
0.0
 40
0.0
 40
0.0
 40
0.0
 40
0.1351321787
 40
0.2601118383
 40
0.3776990368
 40
0.4918975973
 40
0.6073687943
 40
0.7285218566
 40
0.8587248416
 40
1.0
 40
1.0
 40
1.0
 40
1.0
 10
110.3322661261
 20
249.3780927675
 30
0.0
 10
110.6724665919
 20
249.402355028
 30
0.0
 10
111.3256320704
 20
249.5013107437
 30
0.0
 10
112.228888443
 20
249.8270038294
 30
0.0
 10
112.9926541084
 20
250.3203536649
 30
0.0
 10
113.593601994
 20
250.9715811005
 30
0.0
 10
114.0131248146
 20
251.7619038923
 30
0.0
 10
114.2418642806
 20
252.6672367563
 30
0.0
 10
114.2788176799
 20
253.6635492864
 30
0.0
 10
114.1815147451
 20
254.3454183781
 30
0.0
 10
114.1057117977
 20
254.6938367529
 30
0.0
  0
SPLINE
  5
504
100
AcDbEntity
  8
0
100
AcDbSpline
 62
7
  6
CONTINUOUS
 70
0
 71
3
 72
9
 73
5
 74
0
 42
0.0000001
 43
0.0000001
 44
0.0000000001
 40
0.0
 40
0.0
 40
0.0
 40
0.0
 40
0.2549650151
 40
1.0
 40
1.0
 40
1.0
 40
1.0
 10
121.9688094411
 20
266.2790760388
 30
0.0
 10
121.9659113229
 20
266.2371905039
 30
0.0
 10
121.951674046
 20
266.0731289143
 30
0.0
 10
121.9256942238
 20
265.9100336271
 30
0.0
 10
121.8991880233
 20
265.7902445175
 30
0.0
  0
SPLINE
  5
505
100
AcDbEntity
  8
0
100
AcDbSpline
 62
7
  6
CONTINUOUS
 70
0
 71
3
 72
9
 73
5
 74
0
 42
0.0000001
 43
0.0000001
 44
0.0000000001
 40
0.0
 40
0.0
 40
0.0
 40
0.0
 40
0.5089543745
 40
1.0
 40
1.0
 40
1.0
 40
1.0
 10
121.8991880233
 20
265.7902445175
 30
0.0
 10
121.858956096
 20
265.6084249185
 30
0.0
 10
121.7470655569
 20
265.2573213732
 30
0.0
 10
121.5651890334
 20
264.9362448574
 30
0.0
 10
121.4602319129
 20
264.7904246533
 30
0.0
  0
SPLINE
  5
506
100
AcDbEntity
  8
0
100
AcDbSpline
 62
7
  6
CONTINUOUS
 70
0
 71
3
 72
12
 73
8
 74
0
 42
0.0000001
 43
0.0000001
 44
0.0000000001
 40
0.0
 40
0.0
 40
0.0
 40
0.0
 40
0.2872938135
 40
0.5543729789
 40
0.6776419341
 40
0.7930765046
 40
1.0
 40
1.0
 40
1.0
 40
1.0
 10
109.3425819107
 20
263.5887629943
 30
0.0
 10
108.6965302426
 20
264.018856811
 30
0.0
 10
107.3836527765
 20
264.7545258015
 30
0.0
 10
105.6462108957
 20
265.3675099311
 30
0.0
 10
104.2982321895
 20
265.6106729282
 30
0.0
 10
103.095714341
 20
265.6824978813
 30
0.0
 10
102.2141824289
 20
265.5600717081
 30
0.0
 10
101.6854532605
 20
265.3786111116
 30
0.0
  0
SPLINE
  5
507
100
AcDbEntity
  8
0
100
AcDbSpline
 62
7
  6
CONTINUOUS
 70
0
 71
3
 72
9
 73
5
 74
0
 42
0.0000001
 43
0.0000001
 44
0.0000000001
 40
0.0
 40
0.0
 40
0.0
 40
0.0
 40
0.2553795298
 40
1.0
 40
1.0
 40
1.0
 40
1.0
 10
117.7382309223
 20
265.0717198748
 30
0.0
 10
117.7743360907
 20
265.0695080468
 30
0.0
 10
117.9158160988
 20
265.0626561418
 30
0.0
 10
118.0576808849
 20
265.0631867697
 30
0.0
 10
118.1630305338
 20
265.0682376695
 30
0.0
  0
SPLINE
  5
508
100
AcDbEntity
  8
0
100
AcDbSpline
 62
7
  6
CONTINUOUS
 70
0
 71
3
 72
9
 73
5
 74
0
 42
0.0000001
 43
0.0000001
 44
0.0000000001
 40
0.0
 40
0.0
 40
0.0
 40
0.0
 40
0.4875189353
 40
1.0
 40
1.0
 40
1.0
 40
1.0
 10
113.5646183896
 20
254.8683015055
 30
0.0
 10
113.5057398333
 20
254.8719084485
 30
0.0
 10
113.3899314992
 20
254.9259566818
 30
0.0
 10
113.3053440101
 20
255.0189332835
 30
0.0
 10
113.2793010364
 20
255.075208659
 30
0.0
  0
SPLINE
  5
509
100
AcDbEntity
  8
0
100
AcDbSpline
 62
7
  6
CONTINUOUS
 70
0
 71
3
 72
9
 73
5
 74
0
 42
0.0000001
 43
0.0000001
 44
0.0000000001
 40
0.0
 40
0.0
 40
0.0
 40
0.0
 40
0.5124811367
 40
1.0
 40
1.0
 40
1.0
 40
1.0
 10
115.1431656978
 20
257.35344233
 30
0.0
 10
115.1692086754
 20
257.2971669465
 30
0.0
 10
115.2537961651
 20
257.2041903418
 30
0.0
 10
115.3696045027
 20
257.1501421174
 30
0.0
 10
115.4284830506
 20
257.1465351762
 30
0.0
  0
SPLINE
  5
50A
100
AcDbEntity
  8
0
100
AcDbSpline
 62
7
  6
CONTINUOUS
 70
0
 71
3
 72
9
 73
5
 74
0
 42
0.0000001
 43
0.0000001
 44
0.0000000001
 40
0.0
 40
0.0
 40
0.0
 40
0.0
 40
0.4875188635
 40
1.0
 40
1.0
 40
1.0
 40
1.0
 10
114.7774070391
 20
256.3507138258
 30
0.0
 10
114.7185284911
 20
256.354320767
 30
0.0
 10
114.6027201532
 20
256.4083689907
 30
0.0
 10
114.5181326635
 20
256.5013455957
 30
0.0
 10
114.4920896859
 20
256.5576209792
 30
0.0
  0
SPLINE
  5
50B
100
AcDbEntity
  8
0
100
AcDbSpline
 62
7
  6
CONTINUOUS
 70
0
 71
3
 72
9
 73
5
 74
0
 42
0.0000001
 43
0.0000001
 44
0.0000000001
 40
0.0
 40
0.0
 40
0.0
 40
0.0
 40
0.5557885749
 40
1.0
 40
1.0
 40
1.0
 40
1.0
 10
113.0485542443
 20
259.6769075651
 30
0.0
 10
113.0367065736
 20
259.7025087933
 30
0.0
 10
113.021001876
 20
259.7526183277
 30
0.0
 10
113.0359268034
 20
259.8058622387
 30
0.0
 10
113.0502056551
 20
259.8233110115
 30
0.0
  0
SPLINE
  5
50C
100
AcDbEntity
  8
0
100
AcDbSpline
 62
7
  6
CONTINUOUS
 70
0
 71
3
 72
9
 73
5
 74
0
 42
0.0000001
 43
0.0000001
 44
0.0000000001
 40
0.0
 40
0.0
 40
0.0
 40
0.0
 40
0.5557704833
 40
1.0
 40
1.0
 40
1.0
 40
1.0
 10
111.8357655948
 20
258.1944952449
 30
0.0
 10
111.823923658
 20
258.2200840827
 30
0.0
 10
111.8082261436
 20
258.2701673521
 30
0.0
 10
111.8231125062
 20
258.3233889372
 30
0.0
 10
111.8373709872
 20
258.340842404
 30
0.0
  0
SPLINE
  5
50D
100
AcDbEntity
  8
0
100
AcDbSpline
 62
7
  6
CONTINUOUS
 70
0
 71
3
 72
9
 73
5
 74
0
 42
0.0000001
 43
0.0000001
 44
0.0000000001
 40
0.0
 40
0.0
 40
0.0
 40
0.0
 40
0.4875189373
 40
1.0
 40
1.0
 40
1.0
 40
1.0
 10
108.6618950533
 20
261.4525561875
 30
0.0
 10
108.6030164967
 20
261.4561631304
 30
0.0
 10
108.4872081627
 20
261.510211364
 30
0.0
 10
108.4026206738
 20
261.6031879657
 30
0.0
 10
108.3765777001
 20
261.6594633409
 30
0.0
  0
SPLINE
  5
50E
100
AcDbEntity
  8
0
100
AcDbSpline
 62
7
  6
CONTINUOUS
 70
0
 71
3
 72
9
 73
5
 74
0
 42
0.0000001
 43
0.0000001
 44
0.0000000001
 40
0.0
 40
0.0
 40
0.0
 40
0.0
 40
0.5124811367
 40
1.0
 40
1.0
 40
1.0
 40
1.0
 10
109.5760378179
 20
263.1255839687
 30
0.0
 10
109.6020807955
 20
263.0693085852
 30
0.0
 10
109.6866682852
 20
262.9763319804
 30
0.0
 10
109.8024766229
 20
262.9222837562
 30
0.0
 10
109.8613551708
 20
262.918676815
 30
0.0
  0
SPLINE
  5
50F
100
AcDbEntity
  8
0
100
AcDbSpline
 62
7
  6
CONTINUOUS
 70
0
 71
3
 72
11
 73
7
 74
0
 42
0.0000001
 43
0.0000001
 44
0.0000000001
 40
0.0
 40
0.0
 40
0.0
 40
0.0
 40
0.2253876217
 40
0.4801846007
 40
0.7454685152
 40
1.0
 40
1.0
 40
1.0
 40
1.0
 10
110.56433978
 20
266.4702406576
 30
0.0
 10
110.5837413557
 20
266.4939555355
 30
0.0
 10
110.6398262225
 20
266.5346235976
 30
0.0
 10
110.7465607266
 20
266.5376834156
 30
0.0
 10
110.8441754269
 20
266.4916418949
 30
0.0
 10
110.8958705131
 20
266.4419449681
 30
0.0
 10
110.9175064404
 20
266.414941478
 30
0.0
  0
LINE
  5
510
100
AcDbEntity
  8
0
100
AcDbLine
 62
7
  6
CONTINUOUS
 10
112.5535000452
 20
258.3399547401
 11
112.5034985453
 21
258.3480957769
  0
LINE
  5
511
100
AcDbEntity
  8
0
100
AcDbLine
 62
7
  6
CONTINUOUS
 10
114.1633175448
 20
254.7614494162
 11
114.1774777074
 21
254.8307573131
  0
SPLINE
  5
512
100
AcDbEntity
  8
GIANNI_ASSI
100
AcDbSpline
 62
7
  6
CONTINUOUS
 70
0
 71
3
 72
11
 73
7
 74
0
 42
0.0000001
 43
0.0000001
 44
0.0000000001
 40
0.0
 40
0.0
 40
0.0
 40
0.0
 40
0.291145632
 40
0.5475187123
 40
0.7786032429
 40
1.0
 40
1.0
 40
1.0
 40
1.0
 10
97.1238635739
 20
256.9675322059
 30
0.0
 10
97.1748533411
 20
256.9644085369
 30
0.0
 10
97.2707091761
 20
256.9493530216
 30
0.0
 10
97.3974985309
 20
256.8935729488
 30
0.0
 10
97.4914029622
 20
256.8082940711
 30
0.0
 10
97.5278705426
 20
256.7354468943
 30
0.0
 10
97.5389018617
 20
256.6981990909
 30
0.0
  0
SPLINE
  5
513
100
AcDbEntity
  8
GIANNI_ASSI
100
AcDbSpline
 62
7
  6
CONTINUOUS
 70
0
 71
3
 72
9
 73
5
 74
0
 42
0.0000001
 43
0.0000001
 44
0.0000000001
 40
0.0
 40
0.0
 40
0.0
 40
0.0
 40
0.2444125334
 40
1.0
 40
1.0
 40
1.0
 40
1.0
 10
97.5389018617
 20
256.6981990909
 30
0.0
 10
97.5418654419
 20
256.6881924133
 30
0.0
 10
97.5520955921
 20
256.6466970266
 30
0.0
 10
97.5546573477
 20
256.6034418454
 30
0.0
 10
97.5528586972
 20
256.5712287852
 30
0.0
  0
SPLINE
  5
514
100
AcDbEntity
  8
GIANNI_ASSI
100
AcDbSpline
 62
7
  6
CONTINUOUS
 70
0
 71
3
 72
9
 73
5
 74
0
 42
0.0000001
 43
0.0000001
 44
0.0000000001
 40
0.0
 40
0.0
 40
0.0
 40
0.0
 40
0.2381256957
 40
1.0
 40
1.0
 40
1.0
 40
1.0
 10
97.5528586972
 20
256.5712287852
 30
0.0
 10
97.5520897542
 20
256.5574573452
 30
0.0
 10
97.5460378226
 20
256.4997860196
 30
0.0
 10
97.529270271
 20
256.4435002089
 30
0.0
 10
97.5123744258
 20
256.4027329028
 30
0.0
  0
SPLINE
  5
515
100
AcDbEntity
  8
GIANNI_ASSI
100
AcDbSpline
 62
7
  6
CONTINUOUS
 70
0
 71
3
 72
9
 73
5
 74
0
 42
0.0000001
 43
0.0000001
 44
0.0000000001
 40
0.0
 40
0.0
 40
0.0
 40
0.0
 40
0.2443883345
 40
1.0
 40
1.0
 40
1.0
 40
1.0
 10
97.5123744258
 20
256.4027329028
 30
0.0
 10
97.5097786952
 20
256.3964697687
 30
0.0
 10
97.4987488796
 20
256.371012295
 30
0.0
 10
97.486137244
 20
256.3462474466
 30
0.0
 10
97.4758668902
 20
256.3279739613
 30
0.0
  0
SPLINE
  5
516
100
AcDbEntity
  8
GIANNI_ASSI
100
AcDbSpline
 62
7
  6
CONTINUOUS
 70
0
 71
3
 72
10
 73
6
 74
0
 42
0.0000001
 43
0.0000001
 44
0.0000000001
 40
0.0
 40
0.0
 40
0.0
 40
0.0
 40
0.5265283722
 40
0.7763562893
 40
1.0
 40
1.0
 40
1.0
 40
1.0
 10
96.1486774762
 20
256.6178941948
 30
0.0
 10
96.298198294
 20
256.7262569295
 30
0.0
 10
96.5400940495
 20
256.8608715943
 30
0.0
 10
96.8781873832
 20
256.9584047037
 30
0.0
 10
97.0455761397
 20
256.9723281491
 30
0.0
 10
97.1238635739
 20
256.9675322059
 30
0.0
  0
SPLINE
  5
517
100
AcDbEntity
  8
0
100
AcDbSpline
 62
7
  6
CONTINUOUS
 70
0
 71
3
 72
11
 73
7
 74
0
 42
0.0000001
 43
0.0000001
 44
0.0000000001
 40
0.0
 40
0.0
 40
0.0
 40
0.0
 40
0.2195482627
 40
0.4626211511
 40
0.7249621233
 40
1.0
 40
1.0
 40
1.0
 40
1.0
 10
103.3288043401
 20
265.3154330008
 30
0.0
 10
103.8177691797
 20
265.335967731
 30
0.0
 10
104.8546208651
 20
265.2538477244
 30
0.0
 10
106.4219218126
 20
264.8335742433
 30
0.0
 10
108.0196831564
 20
264.130517568
 30
0.0
 10
109.0442916348
 20
263.5023285241
 30
0.0
 10
109.545789764
 20
263.149658063
 30
0.0
  0
SPLINE
  5
518
100
AcDbEntity
  8
0
100
AcDbSpline
 62
7
  6
CONTINUOUS
 70
0
 71
3
 72
14
 73
10
 74
0
 42
0.0000001
 43
0.0000001
 44
0.0000000001
 40
0.0
 40
0.0
 40
0.0
 40
0.0
 40
0.0961941304
 40
0.1984477031
 40
0.3092194416
 40
0.4297413295
 40
0.5601553717
 40
0.6997368497
 40
1.0
 40
1.0
 40
1.0
 40
1.0
 10
98.6537648677
 20
263.8748434473
 30
0.0
 10
98.8875977846
 20
264.0817244149
 30
0.0
 10
99.4284650548
 20
264.4458252123
 30
0.0
 10
100.3764074667
 20
264.7978963473
 30
0.0
 10
101.4525157912
 20
264.9643594411
 30
0.0
 10
102.631021117
 20
264.9444387237
 30
0.0
 10
103.8859903411
 20
264.7407524658
 30
0.0
 10
105.6652810745
 20
264.2189787975
 30
0.0
 10
106.96114003
 20
263.589165868
 30
0.0
 10
107.7960957297
 20
263.0865685831
 30
0.0
  0
SPLINE
  5
519
100
AcDbEntity
  8
0
100
AcDbSpline
 62
7
  6
CONTINUOUS
 70
0
 71
3
 72
15
 73
11
 74
0
 42
0.0000001
 43
0.0000001
 44
0.0000000001
 40
0.0
 40
0.0
 40
0.0
 40
0.0
 40
0.0959446218
 40
0.1965393744
 40
0.305383162
 40
0.4245420955
 40
0.5546085124
 40
0.6949809532
 40
0.8441538006
 40
1.0
 40
1.0
 40
1.0
 40
1.0
 10
99.6578519383
 20
265.1742579313
 30
0.0
 10
99.8665160474
 20
265.4293200881
 30
0.0
 10
100.3719855509
 20
265.892380298
 30
0.0
 10
101.317154975
 20
266.371575498
 30
0.0
 10
102.4235843059
 20
266.6354274053
 30
0.0
 10
103.6590100912
 20
266.6823248837
 30
0.0
 10
104.9916553561
 20
266.5149340769
 30
0.0
 10
106.3871733603
 20
266.1391832984
 30
0.0
 10
107.8088711104
 20
265.5658326579
 30
0.0
 10
108.7342935582
 20
265.0699675257
 30
0.0
 10
109.1929029564
 20
264.7939099593
 30
0.0
  0
SPLINE
  5
51A
100
AcDbEntity
  8
0
100
AcDbSpline
 62
7
  6
CONTINUOUS
 70
0
 71
3
 72
9
 73
5
 74
0
 42
0.0000001
 43
0.0000001
 44
0.0000000001
 40
0.0
 40
0.0
 40
0.0
 40
0.0
 40
0.2478340104
 40
1.0
 40
1.0
 40
1.0
 40
1.0
 10
110.5667515259
 20
273.9295121923
 30
0.0
 10
110.595277342
 20
273.9562552155
 30
0.0
 10
110.7128574189
 20
274.061494765
 30
0.0
 10
110.8401606394
 20
274.1558033834
 30
0.0
 10
110.9399140749
 20
274.2200841472
 30
0.0
  0
SPLINE
  5
51B
100
AcDbEntity
  8
0
100
AcDbSpline
 62
7
  6
CONTINUOUS
 70
0
 71
3
 72
11
 73
7
 74
0
 42
0.0000001
 43
0.0000001
 44
0.0000000001
 40
0.0
 40
0.0
 40
0.0
 40
0.0
 40
0.2271924902
 40
0.4677805683
 40
0.7248436451
 40
1.0
 40
1.0
 40
1.0
 40
1.0
 10
110.9399140749
 20
274.2200841472
 30
0.0
 10
111.0950278686
 20
274.3200389317
 30
0.0
 10
111.436003031
 20
274.4936968259
 30
0.0
 10
112.0024473439
 20
274.663512183
 30
0.0
 10
112.6267231877
 20
274.7476195096
 30
0.0
 10
113.0603654782
 20
274.7461854299
 30
0.0
 10
113.2834342064
 20
274.7325200829
 30
0.0
  0
SPLINE
  5
51C
100
AcDbEntity
  8
0
100
AcDbSpline
 62
7
  6
CONTINUOUS
 70
0
 71
3
 72
11
 73
7
 74
0
 42
0.0000001
 43
0.0000001
 44
0.0000000001
 40
0.0
 40
0.0
 40
0.0
 40
0.0
 40
0.2912938835
 40
0.5303364392
 40
0.7497360038
 40
1.0
 40
1.0
 40
1.0
 40
1.0
 10
111.7066622543
 20
258.1368585807
 30
0.0
 10
111.6924360757
 20
258.167599446
 30
0.0
 10
111.6732930196
 20
258.2274789238
 30
0.0
 10
111.6838849375
 20
258.3186246154
 30
0.0
 10
111.7451717805
 20
258.3820588112
 30
0.0
 10
111.8015937986
 20
258.3927395774
 30
0.0
 10
111.8306860952
 20
258.393487773
 30
0.0
  0
SPLINE
  5
51D
100
AcDbEntity
  8
GIANNI_ASSI
100
AcDbSpline
 62
7
  6
CONTINUOUS
 70
0
 71
3
 72
11
 73
7
 74
0
 42
0.0000001
 43
0.0000001
 44
0.0000000001
 40
0.0
 40
0.0
 40
0.0
 40
0.0
 40
0.2987371949
 40
0.5603688922
 40
0.7898352013
 40
1.0
 40
1.0
 40
1.0
 40
1.0
 10
97.0864225759
 20
256.6165333922
 30
0.0
 10
97.1247074201
 20
256.6141880357
 30
0.0
 10
97.1964287028
 20
256.6045059573
 30
0.0
 10
97.2930527143
 20
256.57096878
 30
0.0
 10
97.3685496227
 20
256.5194977177
 30
0.0
 10
97.4025140105
 20
256.4725641796
 30
0.0
 10
97.4138487236
 20
256.4480758951
 30
0.0
  0
SPLINE
  5
51E
100
AcDbEntity
  8
GIANNI_ASSI
100
AcDbSpline
 62
7
  6
CONTINUOUS
 70
0
 71
3
 72
9
 73
5
 74
0
 42
0.0000001
 43
0.0000001
 44
0.0000000001
 40
0.0
 40
0.0
 40
0.0
 40
0.0
 40
0.4711735603
 40
1.0
 40
1.0
 40
1.0
 40
1.0
 10
97.0864225759
 20
256.6165333922
 30
0.0
 10
97.0157722858
 20
256.6208614786
 30
0.0
 10
96.8645540538
 20
256.6100842953
 30
0.0
 10
96.7184276724
 20
256.57239296
 30
0.0
 10
96.6432188957
 20
256.5468010605
 30
0.0
  0
ELLIPSE
  5
51F
100
AcDbEntity
  8
0
100
AcDbEllipse
 62
7
  6
CONTINUOUS
 10
92.2005950878
 20
240.2665454444
 30
0.0
 11
5.5566812005
 21
-0.7046124599
 31
0.0
 40
0.0573895144
 41
1.4652324838
 42
1.5313834393
  0
ELLIPSE
  5
520
100
AcDbEntity
  8
0
100
AcDbEllipse
 62
7
  6
CONTINUOUS
 10
92.2005950878
 20
240.2665454444
 30
0.0
 11
0.844076519
 21
6.6565160165
 31
0.0
 40
0.5526742268
 41
-2.2184546867
 42
-2.1523037311
  0
ELLIPSE
  5
521
100
AcDbEntity
  8
0
100
AcDbEllipse
 62
7
  6
CONTINUOUS
 10
88.1352636421
 20
237.9054173754
 30
0.0
 11
0.1968204421
 21
0.2881391072
 31
0.0
 40
0.0827544703
 41
-2.3790779307
 42
-0.8082816039
  0
ELLIPSE
  5
522
100
AcDbEntity
  8
0
100
AcDbEllipse
 62
7
  6
CONTINUOUS
 10
92.2005950878
 20
240.2665454444
 30
0.0
 11
0.844076519
 21
6.6565160165
 31
0.0
 40
0.5526742268
 41
-4.0590221775
 42
-3.992871222
  0
ELLIPSE
  5
523
100
AcDbEntity
  8
0
100
AcDbEllipse
 62
7
  6
CONTINUOUS
 10
92.2005950878
 20
240.2665454444
 30
0.0
 11
5.5566812005
 21
-0.7046124599
 31
0.0
 40
0.0573895144
 41
-2.9773853326
 42
-2.911234377
  0
ENDSEC
  0
SECTION
  2
OBJECTS
  0
DICTIONARY
  5
C
100
AcDbDictionary
280
0
281
1
  3
ACAD_GROUP
350
D
  3
ACAD_MLINESTYLE
350
17
  3
ACAD_LAYOUT
350
1A
  3
ACAD_PLOTSETTINGS
350
19
  3
ACAD_PLOTSTYLENAME
350
E
  3
ACAD_TABLESTYLE
350
       524
  0
DICTIONARY
  5
D
102
{ACAD_REACTORS
330
C
102
}
100
AcDbDictionary
280
0
281
1
  0
ACDBDICTIONARYWDFLT
  5
E
102
{ACAD_REACTORS
330
C
102
}
100
AcDbDictionary
281
1
  3
Normal
350
F
100
AcDbDictionaryWithDefault
340
F
  0
DICTIONARY
  5
17
102
{ACAD_REACTORS
330
C
102
}
100
AcDbDictionary
280
0
281
1
  3
Standard
350
18
  0
DICTIONARY
  5
524
330
C
100
AcDbDictionary
281
1
  3
Standard
350
       527
  3
Standard1
350
       528
  0
DICTIONARY
  5
19
102
{ACAD_REACTORS
330
C
102
}
100
AcDbDictionary
281
1
  0
DICTIONARY
  5
1A
102
{ACAD_REACTORS
330
C
102
}
100
AcDbDictionary
281
1
  3
Model
350
525
  3
Layout1
350
526
  0
ACDBPLACEHOLDER
  5
F
102
{ACAD_REACTORS
330
E
102
}
  0
MLINESTYLE
  5
18
102
{ACAD_REACTORS
330
17
102
}
100
AcDbMlineStyle
  2
STANDARD
 70
0
  3

 62
256
 51
90.0
 52
90.0
 71
2
 49
0.5
 62
256
  6
BYLAYER
 49
-0.5
 62
256
  6
BYLAYER
  0
LAYOUT
  5
525
102
{ACAD_REACTORS
330
1A
102
}
100
AcDbPlotSettings
  1

  2
none_device
  4

  6

 40
0.0
 41
0.0
 42
0.0
 43
0.0
 44
210.0
 45
297.0
 46
0.0
 47
0.0
 48
0.0
 49
0.0
140
0.0
141
0.0
142
1.0
143
1.0
 70
1024
 72
1
 73
0
 74
0
  7

 75
0
147
1.0
148
0.0
149
0.0
100
AcDbLayout
  1
Model
 70
0
 71
0
 10
0.0
 20
0.0
 11
210.0
 21
297.0
 12
0.0
 22
0.0
 32
0.0
 14
0.0
 24
0.0
 34
0.0
 15
0.0
 25
0.0
 35
0.0
146
0.0
 13
0.0
 23
0.0
 33
0.0
 16
1.0
 26
0.0
 36
0.0
 17
0.0
 27
1.0
 37
0.0
 76
0
330
215
345
0
346
0
  0
LAYOUT
  5
526
102
{ACAD_REACTORS
330
1A
102
}
100
AcDbPlotSettings
  1

  2
none_device
  4

  6

 40
0.0
 41
0.0
 42
0.0
 43
0.0
 44
210.0
 45
297.0
 46
0.0
 47
0.0
 48
0.0
 49
0.0
140
0.0
141
0.0
142
1.0
143
1.0
 70
0
 72
1
 73
0
 74
0
  7

 75
0
147
1.0
148
0.0
149
0.0
100
AcDbLayout
  1
Layout1
 70
0
 71
1
 10
0.0
 20
0.0
 11
210.0
 21
297.0
 12
0.0
 22
0.0
 32
0.0
 14
0.0
 24
0.0
 34
0.0
 15
0.0
 25
0.0
 35
0.0
146
0.0
 13
0.0
 23
0.0
 33
0.0
 16
1.0
 26
0.0
 36
0.0
 17
0.0
 27
1.0
 37
0.0
 76
0
330
216
345
0
346
0
  0
TABLESTYLE
  5
527
102
{ACAD_REACTORS
330
524
102
}
330
524
100
AcDbTableStyle
  3
Standard
 70
0
 71
0
 40
0.06
 41
0.06
280
1
281
1
  7
Standard
140
0.18
170
1
 62
0
 63
7
283
0
  7
Standard
140
0.18
170
1
 62
0
 63
7
283
0
  7
Standard
140
0.18
170
1
 62
0
 63
7
283
0
  0
TABLESTYLE
  5
528
102
{ACAD_REACTORS
330
524
330
26E
102
}
330
524
100
AcDbTableStyle
  3
Standard1
 70
1
 71
0
 40
0.06
 41
0.06
280
1
281
1
  7
Standard
140
0.18
170
1
 62
0
 63
7
283
0
  7
Standard
140
0.18
170
1
 62
0
 63
7
283
0
  7
Standard
140
0.18
170
1
 62
0
 63
7
283
0
  0
ENDSEC
  0
EOF
