999
DXF file: 34400-h100a.dxf
999
Pro/ENGINEER 2019352 by Parametric Technology Corporation
  0
SECTION
  2
HEADER
  9
$ACADVER
  1
AC1027
  9
$DWGCODEPAGE
  3
ANSI_1252
  9
$EXTMAX
 10
210.0
 20
297.0
 30
0.0
  9
$EXTMIN
 10
0.0
 20
0.0
 30
0.0
  9
$LIMMIN
 10
0.0
 20
0.0
  9
$LIMMAX
 10
210.0
 20
297.0
  9
$VIEWCTR
 10
105.0
 20
148.5
  9
$VIEWSIZE
 40
297.0
  9
$CLAYER
  8
0
  9
$LTSCALE
 40
19.36
  9
$CELTYPE
  6
BYLAYER
  9
$DIMSCALE
 40
1.0
  9
$DIMASZ
 40
4.76
  9
$DIMEXO
 40
0.1
  9
$DIMDLI
 40
13.376
  9
$DIMEXE
 40
1.0
  9
$DIMCEN
 40
3.168
  9
$DIMLFAC
 40
1.0
  9
$DIMBLK
  1
_FILLED
  9
$DIMALT
 70
0
  9
$DIMALTF
 40
0.0393700787
  9
$DIMTXT
 40
1.5
  9
$DIMTOL
 70
1
  9
$DIMLIM
 70
0
  9
$DIMTFAC
 40
1.0
  9
$DIMTP
 40
0.001
  9
$DIMTM
 40
0.001
  9
$DIMGAP
 40
0.625
  9
$DIMDSEP
 70
46
  9
$AUNITS
 70
0
  9
$PDMODE
 70
3
  9
$PDSIZE
 40
0.3125
  9
$HANDSEED
  5
345
  9
$TILEMODE
 70
1
  9
$MEASUREMENT
 70
1
  9
$INSUNITS
 70
4
  0
ENDSEC
  0
SECTION
  2
CLASSES
  0
CLASS
  1
ACDBDICTIONARYWDFLT
  2
AcDbDictionaryWithDefault
  3
AutoCAD 2000
 90
0
 91
1
280
0
281
0
  0
CLASS
  1
ACDBPLACEHOLDER
  2
AcDbPlaceHolder
  3
AutoCAD 2000
 90
0
 91
1
280
0
281
0
  0
CLASS
  1
LAYOUT
  2
AcDbLayout
  3
AutoCAD 2000
 90
0
 91
0
280
0
281
0
  0
CLASS
  1
TABLESTYLE
  2
AcDbTableStyle
  3
ObjectDBX Classes
 90
2047
 91
1
280
0
281
0
  0
CLASS
  1
ACAD_TABLE
  2
AcDbTable
  3
ObjectDBX Classes
 90
1025
 91
1
280
0
281
1
  0
ENDSEC
  0
SECTION
  2
TABLES
  0
TABLE
  2
VPORT
  5
8
100
AcDbSymbolTable
 70
2
  0
VPORT
  5
1F4
100
AcDbSymbolTableRecord
100
AcDbViewportTableRecord
  2
*ACTIVE
 70
0
 10
0.0
 20
0.0
 11
1.0
 21
1.0
 12
105.0
 22
148.5
 13
0.0
 23
0.0
 14
1.0
 24
1.0
 15
0.0
 25
0.0
 16
0.0
 26
0.0
 36
1.0
 17
0.0
 27
0.0
 37
0.0
 40
297.0
 41
0.7070707071
 42
50.0
 43
0.0
 44
0.0
 50
0.0
 51
0.0
 71
0
 72
100
 73
1
 74
1
 75
0
 76
0
 77
0
 78
0
  0
ENDTAB
  0
TABLE
  2
LTYPE
  5
5
100
AcDbSymbolTable
 70
6
  0
LTYPE
  5
14
100
AcDbSymbolTableRecord
100
AcDbLinetypeTableRecord
  2
BYBLOCK
 70
0
  3

 72
65
 73
0
 40
0.0
  0
LTYPE
  5
15
100
AcDbSymbolTableRecord
100
AcDbLinetypeTableRecord
  2
BYLAYER
 70
0
  3

 72
65
 73
0
 40
0.0
  0
LTYPE
  5
16
100
AcDbSymbolTableRecord
100
AcDbLinetypeTableRecord
  2
CONTINUOUS
 70
64
  3
Solid line
 72
65
 73
0
 40
0.0
  0
LTYPE
  5
1F5
100
AcDbSymbolTableRecord
100
AcDbLinetypeTableRecord
  2
CENTER
 70
64
  3
____ _ ____ _ ____ _ ____ _ ____ _ ____ _ ____
 72
65
 73
4
 40
0.6
 49
0.375
 74
0
 49
-0.075
 74
0
 49
0.075
 74
0
 49
-0.075
 74
0
  0
LTYPE
  5
1F6
100
AcDbSymbolTableRecord
100
AcDbLinetypeTableRecord
  2
HIDDEN
 70
64
  3
- - - - - - - - - - - - - - - - - - - -
 72
65
 73
2
 40
0.2
 49
0.1
 74
0
 49
-0.1
 74
0
  0
LTYPE
  5
1F7
100
AcDbSymbolTableRecord
100
AcDbLinetypeTableRecord
  2
PHANTOM
 70
64
  3
_____ _ _ _____ _ _ _____ _ _ _____
 72
65
 73
6
 40
0.8
 49
0.45
 74
0
 49
-0.05
 74
0
 49
0.1
 74
0
 49
-0.05
 74
0
 49
0.1
 74
0
 49
-0.05
 74
0
  0
LTYPE
  5
1F8
100
AcDbSymbolTableRecord
100
AcDbLinetypeTableRecord
  2
DOT
 70
64
  3
. . . . . . . . . . . . . . . . . . . .
 72
65
 73
2
 40
0.2
 49
0.1
 74
0
 49
-0.1
 74
0
  0
LTYPE
  5
1F9
100
AcDbSymbolTableRecord
100
AcDbLinetypeTableRecord
  2
DASHED
 70
64
  3
- - - - - - - - - - - - - - - - - - - -
 72
65
 73
2
 40
0.2
 49
0.1
 74
0
 49
-0.1
 74
0
  0
ENDTAB
  0
TABLE
  2
LAYER
  5
2
100
AcDbSymbolTable
 70
36
  0
LAYER
  5
10
100
AcDbSymbolTableRecord
100
AcDbLayerTableRecord
  2
0
 70
0
 62
7
  6
CONTINUOUS
370
-3
390
F
  0
LAYER
  5
1FA
100
AcDbSymbolTableRecord
100
AcDbLayerTableRecord
  2
DEFAULT_1
 70
0
 62
7
  6
CENTER
370
-3
390
F
  0
LAYER
  5
1FB
100
AcDbSymbolTableRecord
100
AcDbLayerTableRecord
  2
DEFAULT_2
 70
0
 62
8
  6
HIDDEN
370
-3
390
F
  0
LAYER
  5
1FC
100
AcDbSymbolTableRecord
100
AcDbLayerTableRecord
  2
DEFAULT_3
 70
0
 62
7
  6
PHANTOM
370
-3
390
F
  0
LAYER
  5
1FD
100
AcDbSymbolTableRecord
100
AcDbLayerTableRecord
  2
0_COMPONENTS
 70
0
 62
7
  6
CONTINUOUS
370
-3
390
F
  0
LAYER
  5
1FE
100
AcDbSymbolTableRecord
100
AcDbLayerTableRecord
  2
1_ALL_PLANES
 70
0
 62
7
  6
CONTINUOUS
370
-3
390
F
  0
LAYER
  5
1FF
100
AcDbSymbolTableRecord
100
AcDbLayerTableRecord
  2
1__DEF_ASM_PLN
 70
0
 62
7
  6
CONTINUOUS
370
-3
390
F
  0
LAYER
  5
200
100
AcDbSymbolTableRecord
100
AcDbLayerTableRecord
  2
1__DEF_PLANES
 70
0
 62
7
  6
CONTINUOUS
370
-3
390
F
  0
LAYER
  5
201
100
AcDbSymbolTableRecord
100
AcDbLayerTableRecord
  2
2_ALL_CSYS
 70
0
 62
7
  6
CONTINUOUS
370
-3
390
F
  0
LAYER
  5
202
100
AcDbSymbolTableRecord
100
AcDbLayerTableRecord
  2
2__DEF_ASM_CSYS
 70
0
 62
7
  6
CONTINUOUS
370
-3
390
F
  0
LAYER
  5
203
100
AcDbSymbolTableRecord
100
AcDbLayerTableRecord
  2
2__DEF_CSYS
 70
0
 62
7
  6
CONTINUOUS
370
-3
390
F
  0
LAYER
  5
204
100
AcDbSymbolTableRecord
100
AcDbLayerTableRecord
  2
3_ALL_AXES
 70
0
 62
7
  6
CONTINUOUS
370
-3
390
F
  0
LAYER
  5
205
100
AcDbSymbolTableRecord
100
AcDbLayerTableRecord
  2
4_ALL_POINTS
 70
0
 62
7
  6
CONTINUOUS
370
-3
390
F
  0
LAYER
  5
206
100
AcDbSymbolTableRecord
100
AcDbLayerTableRecord
  2
5_ALL_CURVES
 70
0
 62
7
  6
CONTINUOUS
370
-3
390
F
  0
LAYER
  5
207
100
AcDbSymbolTableRecord
100
AcDbLayerTableRecord
  2
5_ALL_GTOLS(FREE)
 70
0
 62
7
  6
CONTINUOUS
370
-3
390
F
  0
LAYER
  5
208
100
AcDbSymbolTableRecord
100
AcDbLayerTableRecord
  2
6_ALL_SURFS
 70
0
 62
7
  6
CONTINUOUS
370
-3
390
F
  0
LAYER
  5
209
100
AcDbSymbolTableRecord
100
AcDbLayerTableRecord
  2
CURVA
 70
0
 62
7
  6
CONTINUOUS
370
-3
390
F
  0
LAYER
  5
20A
100
AcDbSymbolTableRecord
100
AcDbLayerTableRecord
  2
CURVE
 70
0
 62
7
  6
CONTINUOUS
370
-3
390
F
  0
LAYER
  5
20B
100
AcDbSymbolTableRecord
100
AcDbLayerTableRecord
  2
GIANNI_ASSI
 70
0
 62
7
  6
CONTINUOUS
370
-3
390
F
  0
LAYER
  5
20C
100
AcDbSymbolTableRecord
100
AcDbLayerTableRecord
  2
GIANNI_CURVE
 70
0
 62
7
  6
CONTINUOUS
370
-3
390
F
  0
LAYER
  5
20D
100
AcDbSymbolTableRecord
100
AcDbLayerTableRecord
  2
LAY0001
 70
0
 62
7
  6
CONTINUOUS
370
-3
390
F
  0
LAYER
  5
20E
100
AcDbSymbolTableRecord
100
AcDbLayerTableRecord
  2
SCHETCK
 70
0
 62
7
  6
CONTINUOUS
370
-3
390
F
  0
LAYER
  5
20F
100
AcDbSymbolTableRecord
100
AcDbLayerTableRecord
  2
XSEC_DATUMS
 70
0
 62
7
  6
CONTINUOUS
370
-3
390
F
  0
ENDTAB
  0
TABLE
  2
STYLE
  5
3
100
AcDbSymbolTable
 70
1
  0
STYLE
  5
11
100
AcDbSymbolTableRecord
100
AcDbTextStyleTableRecord
  2
STANDARD
 70
0
 40
0.0
 41
1.2
 50
0.0
 71
0
 42
0.2
  3
txt
  4

  0
STYLE
  5
210
100
AcDbSymbolTableRecord
100
AcDbTextStyleTableRecord
  2
TEXTSTYLE_1
 70
0
 40
0.0
 41
0.8
 50
0.0
 71
0
 42
0.2
  3
gdt
  4

  0
STYLE
  5
211
100
AcDbSymbolTableRecord
100
AcDbTextStyleTableRecord
  2
TEXTSTYLE_2
 70
0
 40
0.0
 41
1.2
 50
0.0
 71
0
 42
0.2
  3
gdt
  4

  0
STYLE
  5
212
100
AcDbSymbolTableRecord
100
AcDbTextStyleTableRecord
  2
TEXTSTYLE_3
 70
0
 40
0.0
 41
1.0
 50
0.0
 71
0
 42
0.2
  3
txt
  4

  0
STYLE
  5
213
100
AcDbSymbolTableRecord
100
AcDbTextStyleTableRecord
  2
TEXTSTYLE_4
 70
0
 40
0.0
 41
1.0
 50
0.0
 71
0
 42
0.2
  3
txt
  4

  0
STYLE
  5
214
100
AcDbSymbolTableRecord
100
AcDbTextStyleTableRecord
  2
TEXTSTYLE_5
 70
0
 40
0.0
 41
1.0
 50
0.0
 71
0
 42
0.2
  3
txt
  4

  0
STYLE
  5
215
100
AcDbSymbolTableRecord
100
AcDbTextStyleTableRecord
  2
TEXTSTYLE_6
 70
0
 40
0.0
 41
1.0
 50
0.0
 71
0
 42
0.2
  3
bluprnt.ttf
  4

  0
STYLE
  5
216
100
AcDbSymbolTableRecord
100
AcDbTextStyleTableRecord
  2
TEXTSTYLE_7
 70
0
 40
0.0
 41
1.0
 50
0.0
 71
0
 42
0.2
  3
bluprntb.ttf
  4

  0
STYLE
  5
217
100
AcDbSymbolTableRecord
100
AcDbTextStyleTableRecord
  2
TEXTSTYLE_8
 70
0
 40
0.0
 41
1.0
 50
0.0
 71
0
 42
0.2
  3
gdt
  4

  0
ENDTAB
  0
TABLE
  2
VIEW
  5
6
100
AcDbSymbolTable
 70
0
  0
ENDTAB
  0
TABLE
  2
UCS
  5
7
100
AcDbSymbolTable
 70
0
  0
ENDTAB
  0
TABLE
  2
APPID
  5
9
100
AcDbSymbolTable
 70
1
  0
APPID
  5
218
100
AcDbSymbolTableRecord
100
AcDbRegAppTableRecord
  2
ACAD
 70
0
  0
ENDTAB
  0
TABLE
  2
BLOCK_RECORD
  5
1
100
AcDbSymbolTable
 70
0
  0
BLOCK_RECORD
  5
219
100
AcDbSymbolTableRecord
100
AcDbBlockTableRecord
  2
*Model_Space
  0
BLOCK_RECORD
  5
21A
100
AcDbSymbolTableRecord
100
AcDbBlockTableRecord
  2
*Paper_Space
  0
BLOCK_RECORD
  5
21B
100
AcDbSymbolTableRecord
100
AcDbBlockTableRecord
  2
_FILLED
  0
BLOCK_RECORD
  5
21C
100
AcDbSymbolTableRecord
100
AcDbBlockTableRecord
  2
*D0
  0
BLOCK_RECORD
  5
21D
100
AcDbSymbolTableRecord
100
AcDbBlockTableRecord
  2
*D1
  0
BLOCK_RECORD
  5
21E
100
AcDbSymbolTableRecord
100
AcDbBlockTableRecord
  2
*D2
  0
BLOCK_RECORD
  5
21F
100
AcDbSymbolTableRecord
100
AcDbBlockTableRecord
  2
*T1
  0
ENDTAB
  0
TABLE
  2
DIMSTYLE
  5
A
100
AcDbSymbolTable
 70
1
100
AcDbDimStyleTable
 71
0
  0
DIMSTYLE
105
220
100
AcDbSymbolTableRecord
100
AcDbDimStyleTableRecord
  2
STANDARD
 70
0
  3

  4

 40
1.0
 41
4.76
 42
0.1
 43
0.38
 44
1.0
 45
0.0
 46
0.0
 47
0.001
 48
0.001
140
1.5
141
0.09
142
0.0
143
25.4
144
1.0
145
0.0
146
1.0
147
0.625
 71
1.0
 72
0.0
 73
0
 74
0
 75
0
 76
0
 77
1
 78
8
 79
2
170
0
171
2
172
0
173
0
174
0
175
0
176
0
177
0
178
5
270
2
179
3
271
3
272
3
273
2
274
2
275
0
280
0
281
0
282
0
283
1
284
8
285
0
286
0
287
3
288
0
340
11
278
46
341
21B
342
21B
343
21B
344
21B
  0
DIMSTYLE
105
221
100
AcDbSymbolTableRecord
100
AcDbDimStyleTableRecord
  2
DIMSTYLE_1
 70
0
  3

  4

 40
1.0
 41
4.76
 42
0.1
 43
0.38
 44
1.0
 45
0.0
 46
0.0
 47
0.01
 48
0.01
140
1.5
141
0.09
142
0.0
143
25.4
144
1.0
145
0.0
146
1.0
147
0.375
 71
0.0
 72
0.0
 73
0
 74
0
 75
0
 76
0
 77
1
 78
8
 79
2
170
0
171
2
172
0
173
0
174
0
175
0
176
0
177
0
178
5
270
2
179
3
271
3
272
3
273
2
274
2
275
0
280
0
281
0
282
0
283
1
284
8
285
0
286
0
287
3
288
0
340
11
278
46
341
21B
342
21B
343
21B
344
21B
  0
ENDTAB
  0
ENDSEC
  0
SECTION
  2
BLOCKS
  0
BLOCK
  5
20
100
AcDbEntity
  8
0
100
AcDbBlockBegin
  2
*Model_Space
 70
0
 10
0.0
 20
0.0
 30
0.0
  3
*Model_Space
  1

  0
ENDBLK
  5
21
100
AcDbEntity
  8
0
100
AcDbBlockEnd
  0
BLOCK
  5
1C
100
AcDbEntity
  8
0
100
AcDbBlockBegin
  2
*Paper_Space
 70
0
 10
0.0
 20
0.0
 30
0.0
  3
*Paper_Space
  1

  0
ENDBLK
  5
1D
100
AcDbEntity
  8
0
100
AcDbBlockEnd
  0
BLOCK
  5
222
100
AcDbEntity
  8
0
100
AcDbBlockBegin
  2
_FILLED
 70
64
 10
0.0
 20
0.0
  3
_FILLED
  1

  0
SOLID
  5
223
100
AcDbEntity
  8
0
  6
BYBLOCK
 62
0
100
AcDbTrace
 10
0.0
 20
0.0
 11
-1.0
 21
0.1050420168
 12
-1.0
 22
-0.1050420168
 13
-1.0
 23
-0.1050420168
  0
ENDBLK
  5
224
100
AcDbEntity
  8
0
  6
BYBLOCK
 62
0
100
AcDbBlockEnd
  0
BLOCK
  5
225
100
AcDbEntity
  8
0
100
AcDbBlockBegin
 62
2
  6
CONTINUOUS
  2
*D0
 70
65
 10
0.0
 20
0.0
  3
*D0
  1

  0
MTEXT
  5
226
100
AcDbEntity
  8
0
100
AcDbMText
 62
5
  6
CONTINUOUS
  7
TEXTSTYLE_2
 71
2
 72
1
 10
104.7938539533
 20
98.0694490433
 30
0.0
 11
1.0
 21
0.0
 31
0.0
 73
2
 44
0.9
  1
{\fgdt;n}\ftxt;{\W1.2;19}
 40
1.5
 41
9.9428571429
  0
LINE
  5
227
100
AcDbEntity
  8
0
100
AcDbLine
 62
2
  6
CONTINUOUS
 10
114.3358784895
 20
107.3703951367
 11
114.3358784895
 21
94.9265919004
  0
LINE
  5
228
100
AcDbEntity
  8
0
100
AcDbLine
 62
2
  6
CONTINUOUS
 10
95.3358784895
 20
107.3703951367
 11
95.3358784895
 21
94.9265919004
  0
LINE
  5
229
100
AcDbEntity
  8
0
100
AcDbLine
 62
2
  6
CONTINUOUS
 10
114.3358784895
 20
95.9265919004
 11
104.8358784895
 21
95.9265919004
  0
LINE
  5
22A
100
AcDbEntity
  8
0
100
AcDbLine
 62
2
  6
CONTINUOUS
 10
95.3358784895
 20
95.9265919004
 11
104.8358784895
 21
95.9265919004
  0
INSERT
  5
22B
100
AcDbEntity
  8
0
100
AcDbBlockReference
 62
2
  6
CONTINUOUS
  2
_FILLED
 10
114.3358784895
 20
95.9265919004
 41
4.76
 42
4.76
 43
4.76
  0
INSERT
  5
22C
100
AcDbEntity
  8
0
100
AcDbBlockReference
 62
2
  6
CONTINUOUS
  2
_FILLED
 10
95.3358784895
 20
95.9265919004
 41
4.76
 42
4.76
 43
4.76
 50
180.0
  0
ENDBLK
  5
22D
100
AcDbEntity
  8
0
  6
BYBLOCK
 62
0
100
AcDbBlockEnd
  0
BLOCK
  5
22E
100
AcDbEntity
  8
0
100
AcDbBlockBegin
 62
2
  6
CONTINUOUS
  2
*D1
 70
65
 10
0.0
 20
0.0
  3
*D1
  1

  0
MTEXT
  5
22F
100
AcDbEntity
  8
0
100
AcDbMText
 62
5
  6
CONTINUOUS
  7
TEXTSTYLE_2
 71
2
 72
1
 10
104.1197293874
 20
88.9687674047
 30
0.0
 11
1.0
 21
0.0
 31
0.0
 73
2
 44
0.9
  1
{\fgdt;n}\ftxt;{\W1.2;41}
 40
1.5
 41
9.9428571429
  0
LINE
  5
230
100
AcDbEntity
  8
0
100
AcDbLine
 62
2
  6
CONTINUOUS
 10
125.3358784895
 20
111.8219428912
 11
125.3358784895
 21
85.8259102618
  0
LINE
  5
231
100
AcDbEntity
  8
0
100
AcDbLine
 62
2
  6
CONTINUOUS
 10
84.3358784895
 20
112.3778252441
 11
84.3358784895
 21
85.8259102618
  0
LINE
  5
232
100
AcDbEntity
  8
0
100
AcDbLine
 62
2
  6
CONTINUOUS
 10
125.3358784895
 20
86.8259102618
 11
104.8358784895
 21
86.8259102618
  0
LINE
  5
233
100
AcDbEntity
  8
0
100
AcDbLine
 62
2
  6
CONTINUOUS
 10
84.3358784895
 20
86.8259102618
 11
104.8358784895
 21
86.8259102618
  0
INSERT
  5
234
100
AcDbEntity
  8
0
100
AcDbBlockReference
 62
2
  6
CONTINUOUS
  2
_FILLED
 10
125.3358784895
 20
86.8259102618
 41
4.76
 42
4.76
 43
4.76
  0
INSERT
  5
235
100
AcDbEntity
  8
0
100
AcDbBlockReference
 62
2
  6
CONTINUOUS
  2
_FILLED
 10
84.3358784895
 20
86.8259102618
 41
4.76
 42
4.76
 43
4.76
 50
180.0
  0
ENDBLK
  5
236
100
AcDbEntity
  8
0
  6
BYBLOCK
 62
0
100
AcDbBlockEnd
  0
BLOCK
  5
237
100
AcDbEntity
  8
0
100
AcDbBlockBegin
 62
2
  6
CONTINUOUS
  2
*D2
 70
65
 10
0.0
 20
0.0
  3
*D2
  1

  0
MTEXT
  5
238
100
AcDbEntity
  8
0
100
AcDbMText
 62
5
  6
CONTINUOUS
  7
STANDARD
 71
2
 72
1
 10
36.0250721864
 20
147.4703951367
 30
0.0
 11
0.0
 21
1.0
 31
0.0
 73
2
 44
0.9
  1
80
 40
1.5
 41
6.9428571429
  0
LINE
  5
239
100
AcDbEntity
  8
0
100
AcDbLine
 62
2
  6
CONTINUOUS
 10
55.2358784895
 20
187.4703951367
 11
37.1679293293
 21
187.4703951367
  0
LINE
  5
23A
100
AcDbEntity
  8
0
100
AcDbLine
 62
2
  6
CONTINUOUS
 10
85.5556826112
 20
107.4703951367
 11
37.1679293293
 21
107.4703951367
  0
LINE
  5
23B
100
AcDbEntity
  8
0
100
AcDbLine
 62
2
  6
CONTINUOUS
 10
38.1679293293
 20
187.4703951367
 11
38.1679293293
 21
147.4703951367
  0
LINE
  5
23C
100
AcDbEntity
  8
0
100
AcDbLine
 62
2
  6
CONTINUOUS
 10
38.1679293293
 20
107.4703951367
 11
38.1679293293
 21
147.4703951367
  0
INSERT
  5
23D
100
AcDbEntity
  8
0
100
AcDbBlockReference
 62
2
  6
CONTINUOUS
  2
_FILLED
 10
38.1679293293
 20
187.4703951367
 41
4.76
 42
4.76
 43
4.76
 50
90.0
  0
INSERT
  5
23E
100
AcDbEntity
  8
0
100
AcDbBlockReference
 62
2
  6
CONTINUOUS
  2
_FILLED
 10
38.1679293293
 20
107.4703951367
 41
4.76
 42
4.76
 43
4.76
 50
270.0
  0
ENDBLK
  5
23F
100
AcDbEntity
  8
0
  6
BYBLOCK
 62
0
100
AcDbBlockEnd
  0
BLOCK
  5
240
100
AcDbEntity
  8
0
100
AcDbBlockBegin
  2
*T1
 70
1
 10
0.0
 20
0.0
  3
*T1
  1

  0
LINE
  5
241
100
AcDbEntity
  8
0
100
AcDbLine
 62
2
  6
CONTINUOUS
 10
200.0
 20
0.0
 11
0.0
 21
0.0
  0
LINE
  5
242
100
AcDbEntity
  8
0
100
AcDbLine
 62
2
  6
CONTINUOUS
 10
200.0
 20
0.0
 11
200.0
 21
40.0
  0
LINE
  5
243
100
AcDbEntity
  8
0
100
AcDbLine
 62
2
  6
CONTINUOUS
 10
110.5
 20
5.0
 11
0.0
 21
5.0
  0
LINE
  5
244
100
AcDbEntity
  8
0
100
AcDbLine
 62
2
  6
CONTINUOUS
 10
200.0
 20
10.0
 11
0.0
 21
10.0
  0
LINE
  5
245
100
AcDbEntity
  8
0
100
AcDbLine
 62
2
  6
CONTINUOUS
 10
28.5
 20
15.0
 11
0.0
 21
15.0
  0
LINE
  5
246
100
AcDbEntity
  8
0
100
AcDbLine
 62
2
  6
CONTINUOUS
 10
162.5
 20
20.0
 11
0.0
 21
20.0
  0
LINE
  5
247
100
AcDbEntity
  8
0
100
AcDbLine
 62
2
  6
CONTINUOUS
 10
28.5
 20
25.0
 11
0.0
 21
25.0
  0
LINE
  5
248
100
AcDbEntity
  8
0
100
AcDbLine
 62
2
  6
CONTINUOUS
 10
162.5
 20
30.0
 11
0.0
 21
30.0
  0
LINE
  5
249
100
AcDbEntity
  8
0
100
AcDbLine
 62
2
  6
CONTINUOUS
 10
200.0
 20
35.0
 11
162.5
 21
35.0
  0
LINE
  5
24A
100
AcDbEntity
  8
0
100
AcDbLine
 62
2
  6
CONTINUOUS
 10
128.5
 20
35.0
 11
0.0
 21
35.0
  0
LINE
  5
24B
100
AcDbEntity
  8
0
100
AcDbLine
 62
2
  6
CONTINUOUS
 10
200.0
 20
40.0
 11
0.0
 21
40.0
  0
LINE
  5
24C
100
AcDbEntity
  8
0
100
AcDbLine
 62
2
  6
CONTINUOUS
 10
191.5
 20
0.0
 11
191.5
 21
10.0
  0
LINE
  5
24D
100
AcDbEntity
  8
0
100
AcDbLine
 62
2
  6
CONTINUOUS
 10
180.5
 20
10.0
 11
180.5
 21
35.0
  0
LINE
  5
24E
100
AcDbEntity
  8
0
100
AcDbLine
 62
2
  6
CONTINUOUS
 10
162.5
 20
10.0
 11
162.5
 21
40.0
  0
LINE
  5
24F
100
AcDbEntity
  8
0
100
AcDbLine
 62
2
  6
CONTINUOUS
 10
145.5
 20
0.0
 11
145.5
 21
40.0
  0
LINE
  5
250
100
AcDbEntity
  8
0
100
AcDbLine
 62
2
  6
CONTINUOUS
 10
128.5
 20
0.0
 11
128.5
 21
10.0
  0
LINE
  5
251
100
AcDbEntity
  8
0
100
AcDbLine
 62
2
  6
CONTINUOUS
 10
128.5
 20
20.0
 11
128.5
 21
40.0
  0
LINE
  5
252
100
AcDbEntity
  8
0
100
AcDbLine
 62
2
  6
CONTINUOUS
 10
110.5
 20
0.0
 11
110.5
 21
10.0
  0
LINE
  5
253
100
AcDbEntity
  8
0
100
AcDbLine
 62
2
  6
CONTINUOUS
 10
108.5
 20
10.0
 11
108.5
 21
20.0
  0
LINE
  5
254
100
AcDbEntity
  8
0
100
AcDbLine
 62
2
  6
CONTINUOUS
 10
100.5
 20
10.0
 11
100.5
 21
20.0
  0
LINE
  5
255
100
AcDbEntity
  8
0
100
AcDbLine
 62
2
  6
CONTINUOUS
 10
56.5
 20
10.0
 11
56.5
 21
20.0
  0
LINE
  5
256
100
AcDbEntity
  8
0
100
AcDbLine
 62
2
  6
CONTINUOUS
 10
28.5
 20
0.0
 11
28.5
 21
40.0
  0
LINE
  5
257
100
AcDbEntity
  8
0
100
AcDbLine
 62
2
  6
CONTINUOUS
 10
23.5
 20
5.0
 11
23.5
 21
40.0
  0
LINE
  5
258
100
AcDbEntity
  8
0
100
AcDbLine
 62
2
  6
CONTINUOUS
 10
8.5
 20
5.0
 11
8.5
 21
40.0
  0
LINE
  5
259
100
AcDbEntity
  8
0
100
AcDbLine
 62
2
  6
CONTINUOUS
 10
0.0
 20
0.0
 11
0.0
 21
40.0
  0
MTEXT
  5
25A
100
AcDbEntity
  8
0
100
AcDbMText
 62
5
  6
CONTINUOUS
  7
TEXTSTYLE_3
 71
3
 72
1
 10
190.0
 20
4.5
 30
0.0
 11
1.0
 21
0.0
 31
0.0
 73
2
 44
0.9
  1
34400/H100A
 40
3.0
 41
50.4285714286
  0
MTEXT
  5
25B
100
AcDbEntity
  8
0
100
AcDbMText
 62
5
  6
CONTINUOUS
  7
TEXTSTYLE_4
 71
1
 72
1
 10
130.0
 20
6.8125
 30
0.0
 11
1.0
 21
0.0
 31
0.0
 73
2
 44
0.9
  1
Peso finito \P2.339
 40
1.3
 41
29.6
  0
MTEXT
  5
25C
100
AcDbEntity
  8
0
100
AcDbMText
 62
5
  6
CONTINUOUS
  7
TEXTSTYLE_5
 71
2
 72
1
 10
119.5
 20
6.5
 30
0.0
 11
1.0
 21
0.0
 31
0.0
 73
2
 44
0.9
  1
A4 V
 40
3.0
 41
24.0
  0
MTEXT
  5
25D
100
AcDbEntity
  8
0
100
AcDbMText
 62
5
  6
CONTINUOUS
  7
TEXTSTYLE_4
 71
1
 72
1
 10
30.0
 20
2.8076923077
 30
0.0
 11
1.0
 21
0.0
 31
0.0
 73
2
 44
0.9
  1
La ditta tutela i propri disegni a norma di legge
 40
1.2
 41
113.1692307692
  0
MTEXT
  5
25E
100
AcDbEntity
  8
0
100
AcDbMText
 62
5
  6
CONTINUOUS
  7
TEXTSTYLE_4
 71
2
 72
1
 10
14.25
 20
2.9230769231
 30
0.0
 11
1.0
 21
0.0
 31
0.0
 73
2
 44
0.9
  1
Modifica
 40
2.0
 41
30.1538461538
  0
MTEXT
  5
25F
100
AcDbEntity
  8
0
100
AcDbMText
 62
5
  6
CONTINUOUS
  7
TEXTSTYLE_4
 71
2
 72
1
 10
195.75
 20
7.75
 30
0.0
 11
1.0
 21
0.0
 31
0.0
 73
2
 44
0.9
  1
esp.
 40
1.3
 41
10.6
  0
MTEXT
  5
260
100
AcDbEntity
  8
0
100
AcDbMText
 62
5
  6
CONTINUOUS
  7
TEXTSTYLE_4
 71
2
 72
1
 10
168.5
 20
7.75
 30
0.0
 11
1.0
 21
0.0
 31
0.0
 73
2
 44
0.9
  1
cod.disegno
 40
1.3
 41
28.4
  0
MTEXT
  5
261
100
AcDbEntity
  8
0
100
AcDbMText
 62
5
  6
CONTINUOUS
  7
TEXTSTYLE_4
 71
1
 72
1
 10
30.0
 20
7.5769230769
 30
0.0
 11
1.0
 21
0.0
 31
0.0
 73
2
 44
0.9
  1
Cod.Cad 34400-H100A
 40
1.6
 41
73.3538461538
  0
MTEXT
  5
262
100
AcDbEntity
  8
0
100
AcDbMText
 62
5
  6
CONTINUOUS
  7
TEXTSTYLE_4
 71
2
 72
1
 10
26.0
 20
7.75
 30
0.0
 11
1.0
 21
0.0
 31
0.0
 73
2
 44
0.9
  1
Esp
 40
1.3
 41
8.6
  0
MTEXT
  5
263
100
AcDbEntity
  8
0
100
AcDbMText
 62
5
  6
CONTINUOUS
  7
TEXTSTYLE_4
 71
2
 72
1
 10
16.0
 20
7.75
 30
0.0
 11
1.0
 21
0.0
 31
0.0
 73
2
 44
0.9
  1
DATA
 40
1.3
 41
14.0
  0
MTEXT
  5
264
100
AcDbEntity
  8
0
100
AcDbMText
 62
5
  6
CONTINUOUS
  7
TEXTSTYLE_4
 71
2
 72
1
 10
4.25
 20
7.75
 30
0.0
 11
1.0
 21
0.0
 31
0.0
 73
2
 44
0.9
  1
N°
 40
1.3
 41
5.8
  0
MTEXT
  5
265
100
AcDbEntity
  8
0
100
AcDbMText
 62
5
  6
CONTINUOUS
  7
TEXTSTYLE_4
 71
1
 72
1
 10
147.0
 20
17.7115384615
 30
0.0
 11
1.0
 21
0.0
 31
0.0
 73
2
 44
0.9
  1
Peso grezzo Kg. 
 40
1.0
 41
34.6153846154
  0
MTEXT
  5
266
100
AcDbEntity
  8
0
100
AcDbMText
 62
5
  6
CONTINUOUS
  7
TEXTSTYLE_4
 71
1
 72
1
 10
110.0
 20
17.775
 30
0.0
 11
1.0
 21
0.0
 31
0.0
 73
2
 44
0.9
  1
Dimens.grezze 
 40
1.3
 41
37.8
  0
MTEXT
  5
267
100
AcDbEntity
  8
0
100
AcDbMText
 62
5
  6
CONTINUOUS
  7
TEXTSTYLE_4
 71
1
 72
1
 10
58.0
 20
17.8173076923
 30
0.0
 11
1.0
 21
0.0
 31
0.0
 73
2
 44
0.9
  1
Tratt.termici
 40
1.5
 41
35.0769230769
  0
MTEXT
  5
268
100
AcDbEntity
  8
0
100
AcDbMText
 62
5
  6
CONTINUOUS
  7
TEXTSTYLE_4
 71
1
 72
1
 10
30.0
 20
17.775
 30
0.0
 11
1.0
 21
0.0
 31
0.0
 73
2
 44
0.9
  1
Materiale 
 40
1.3
 41
24.4
  0
MTEXT
  5
269
100
AcDbEntity
  8
0
100
AcDbMText
 62
5
  6
CONTINUOUS
  7
TEXTSTYLE_4
 71
1
 72
1
 10
147.0
 20
27.75
 30
0.0
 11
1.0
 21
0.0
 31
0.0
 73
2
 44
1.2
  1
Scala\P1:1
 40
1.3
 41
12.8
  0
MTEXT
  5
26A
100
AcDbEntity
  8
0
100
AcDbMText
 62
5
  6
CONTINUOUS
  7
TEXTSTYLE_4
 71
1
 72
1
 10
130.0
 20
27.75
 30
0.0
 11
1.0
 21
0.0
 31
0.0
 73
2
 44
1.2
  1
Visto
 40
1.3
 41
12.0
  0
MTEXT
  5
26B
100
AcDbEntity
  8
0
100
AcDbMText
 62
5
  6
CONTINUOUS
  7
TEXTSTYLE_4
 71
1
 72
1
 10
30.0
 20
22.9
 30
0.0
 11
1.0
 21
0.0
 31
0.0
 73
2
 44
0.9
  1
Maschiatore con doppia compensazione gr1 attacco Hsk100A DIN 69893
 40
1.4
 41
197.1846153846
  0
MTEXT
  5
26C
100
AcDbEntity
  8
0
100
AcDbMText
 62
5
  6
CONTINUOUS
  7
TEXTSTYLE_4
 71
1
 72
1
 10
30.0
 20
27.8076923077
 30
0.0
 11
1.0
 21
0.0
 31
0.0
 73
2
 44
0.9
  1
Descrizione
 40
1.2
 41
24.5538461538
  0
MTEXT
  5
26D
100
AcDbEntity
  8
0
100
AcDbMText
 62
5
  6
CONTINUOUS
  7
TEXTSTYLE_4
 71
1
 72
1
 10
147.0
 20
37.75
 30
0.0
 11
1.0
 21
0.0
 31
0.0
 73
2
 44
1.2
  1
Data\P11-May-10
 40
1.3
 41
22.1
  0
MTEXT
  5
26E
100
AcDbEntity
  8
0
100
AcDbMText
 62
5
  6
CONTINUOUS
  7
TEXTSTYLE_4
 71
1
 72
1
 10
130.0
 20
37.75
 30
0.0
 11
1.0
 21
0.0
 31
0.0
 73
2
 44
1.2
  1
Firma\Pcalvo
 40
1.3
 41
13.4
  0
MTEXT
  5
26F
100
AcDbEntity
  8
0
100
AcDbMText
 62
5
  6
CONTINUOUS
  7
TEXTSTYLE_4
 71
1
 72
1
 10
30.0
 20
32.775
 30
0.0
 11
1.0
 21
0.0
 31
0.0
 73
2
 44
0.9
  1
Macchina o codice prenotante:   34400
 40
1.3
 41
103.6
  0
MTEXT
  5
270
100
AcDbEntity
  8
0
100
AcDbMText
 62
5
  6
CONTINUOUS
  7
TEXTSTYLE_4
 71
1
 72
1
 10
164.0
 20
37.75
 30
0.0
 11
1.0
 21
0.0
 31
0.0
 73
2
 44
0.9
  1
Rugosita' \fgdt;{\fgdt;a}\ftxt;0.8=rettifica
 40
1.3
 41
60.575
  0
MTEXT
  5
271
100
AcDbEntity
  8
0
100
AcDbMText
 62
5
  6
CONTINUOUS
  7
TEXTSTYLE_4
 71
1
 72
1
 10
30.0
 20
37.75
 30
0.0
 11
1.0
 21
0.0
 31
0.0
 73
2
 44
0.9
  1
Tolleranze generali per quote senza valori:\fgdt;{\fgdt;n}\ftxt;=H11-h11 - lineari\fgdt;{\fgdt;`}\ftxt;0.2
 40
1.3
 41
162.2
  0
ENDBLK
  5
272
100
AcDbEntity
  8
0
  6
BYBLOCK
 62
0
100
AcDbBlockEnd
  0
ENDSEC
  0
SECTION
  2
ENTITIES
  0
DIMENSION
  5
273
100
AcDbEntity
  8
0
100
AcDbDimension
 62
2
  6
CONTINUOUS
  2
*D0
 10
95.3358784895
 20
95.9265919004
 11
104.7938539533
 21
95.9265919004
 70
160
 71
2
 72
2
 41
0.9
 42
19.0
  1
%%c<>
  3
DIMSTYLE_1
100
AcDbAlignedDimension
 13
114.3358784895
 23
107.4703951367
 14
95.3358784895
 24
107.4703951367
 50
180.0
100
AcDbRotatedDimension
  0
DIMENSION
  5
274
100
AcDbEntity
  8
0
100
AcDbDimension
 62
2
  6
CONTINUOUS
  2
*D1
 10
84.3358784895
 20
86.8259102618
 11
104.1197293874
 21
86.8259102618
 70
160
 71
2
 72
2
 41
0.9
 42
41.0
  1
%%c<>
  3
DIMSTYLE_1
100
AcDbAlignedDimension
 13
125.3358784895
 23
111.9219428912
 14
84.3358784895
 24
112.4778252441
 50
180.0
100
AcDbRotatedDimension
  0
DIMENSION
  5
275
100
AcDbEntity
  8
0
100
AcDbDimension
 62
2
  6
CONTINUOUS
  2
*D2
 10
38.1679293293
 20
107.4703951367
 11
38.1679293293
 21
147.0846851853
 70
160
 71
2
 72
2
 41
0.9
 42
80.0
  3
DIMSTYLE_1
100
AcDbAlignedDimension
 13
55.3358784895
 23
187.4703951367
 14
85.6556826112
 24
107.4703951367
 50
270.0
100
AcDbRotatedDimension
  0
ACAD_TABLE
  5
276
100
AcDbEntity
  8
0
 62
2
  6
CONTINUOUS
100
AcDbBlockReference
  2
*T1
 10
6.0002816947
 20
8.0000065579
 30
0.0
100
AcDbTable
342
       344
343
21F
 11
1.0
 21
0.0
 31
0.0
 90
6
 91
8
 92
15
 93
4
 94
0
 95
0
 96
0
 70
1
141
5.0
141
5.0
141
5.0
141
5.0
141
5.0
141
5.0
141
5.0
141
5.0
142
8.5
142
15.0
142
5.0
142
28.0
142
44.0
142
8.0
142
2.0
142
18.0
142
8.5
142
8.5
142
17.0
142
9.0
142
9.0
142
11.0
142
8.5
171
1
172
0
173
0
174
0
175
3
176
1
 91
49
178
0
145
0.0
  7
TEXTSTYLE_4
301
CELL_VALUE
 90
4
  1
Modifica
304
ACVALUE_END
170
5
140
2.0
171
1
172
0
173
1
174
0
175
1
176
1
 91
1
178
0
145
0.0
170
1
171
1
172
0
173
1
174
0
175
1
176
1
 91
1
178
0
145
0.0
170
5
171
1
172
0
173
0
174
0
175
4
176
1
 91
49
178
0
145
0.0
  7
TEXTSTYLE_4
301
CELL_VALUE
 90
4
  1
La ditta tutela i propri disegni a norma di legge
304
ACVALUE_END
170
1
140
1.2
171
1
172
0
173
1
174
0
175
1
176
1
 91
1
178
0
145
0.0
170
1
171
1
172
0
173
1
174
0
175
1
176
1
 91
1
178
0
145
0.0
170
1
171
1
172
0
173
1
174
0
175
1
176
1
 91
1
178
0
145
0.0
170
1
171
1
172
0
173
0
174
0
175
1
176
2
 91
57
178
0
145
0.0
  7
TEXTSTYLE_5
301
CELL_VALUE
 90
4
  1
A4 V
304
ACVALUE_END
170
5
140
3.0
 64
5
171
1
172
0
173
0
174
0
175
2
176
2
 91
49
178
0
145
0.0
  7
TEXTSTYLE_4
301
CELL_VALUE
 90
4
  1
Peso finito \P2.339
304
ACVALUE_END
170
4
140
1.3
171
1
172
0
173
1
174
0
175
1
176
1
 91
1
178
0
145
0.0
170
4
171
1
172
0
173
0
174
0
175
4
176
1
 91
49
178
0
145
0.0
  7
TEXTSTYLE_3
301
CELL_VALUE
 90
4
  1
34400/H100A
304
ACVALUE_END
170
9
140
3.0
171
1
172
0
173
1
174
0
175
1
176
1
 91
1
178
0
145
0.0
170
1
171
1
172
0
173
1
174
0
175
1
176
1
 91
1
178
0
145
0.0
170
1
171
1
172
0
173
1
174
0
175
1
176
1
 91
1
178
0
145
0.0
170
9
171
1
172
0
173
0
174
0
175
1
176
1
 91
33
178
0
145
0.0
301
CELL_VALUE
 90
4
  1
 
304
ACVALUE_END
170
1
140
3.0
171
1
172
0
173
0
174
0
175
1
176
1
 91
57
178
0
145
0.0
  7
TEXTSTYLE_4
301
CELL_VALUE
 90
4
  1
N°
304
ACVALUE_END
170
2
140
1.3
 64
5
171
1
172
0
173
0
174
0
175
1
176
1
 91
57
178
0
145
0.0
  7
TEXTSTYLE_4
301
CELL_VALUE
 90
4
  1
DATA
304
ACVALUE_END
170
2
140
1.3
 64
5
171
1
172
0
173
0
174
0
175
1
176
1
 91
57
178
0
145
0.0
  7
TEXTSTYLE_4
301
CELL_VALUE
 90
4
  1
Esp
304
ACVALUE_END
170
2
140
1.3
 64
5
171
1
172
0
173
0
174
0
175
4
176
1
 91
49
178
0
145
0.0
  7
TEXTSTYLE_4
301
CELL_VALUE
 90
4
  1
Cod.Cad 34400-H100A
304
ACVALUE_END
170
1
140
1.6
171
1
172
0
173
1
174
0
175
1
176
1
 91
1
178
0
145
0.0
170
1
171
1
172
0
173
1
174
0
175
1
176
1
 91
1
178
0
145
0.0
170
1
171
1
172
0
173
1
174
0
175
1
176
1
 91
1
178
0
145
0.0
170
1
171
1
172
0
173
1
174
0
175
1
176
1
 91
1
178
0
145
0.0
170
1
171
1
172
0
173
1
174
0
175
1
176
1
 91
1
178
0
145
0.0
170
1
171
1
172
0
173
1
174
0
175
1
176
1
 91
1
178
0
145
0.0
170
1
171
1
172
0
173
0
174
0
175
4
176
1
 91
49
178
0
145
0.0
  7
TEXTSTYLE_4
301
CELL_VALUE
 90
4
  1
cod.disegno
304
ACVALUE_END
170
2
140
1.3
171
1
172
0
173
1
174
0
175
1
176
1
 91
1
178
0
145
0.0
170
1
171
1
172
0
173
1
174
0
175
1
176
1
 91
1
178
0
145
0.0
170
1
171
1
172
0
173
1
174
0
175
1
176
1
 91
1
178
0
145
0.0
170
2
171
1
172
0
173
0
174
0
175
1
176
1
 91
57
178
0
145
0.0
  7
TEXTSTYLE_4
301
CELL_VALUE
 90
4
  1
esp.
304
ACVALUE_END
170
2
140
1.3
 64
5
171
1
172
0
173
0
174
0
175
1
176
1
 91
33
178
0
145
0.0
301
CELL_VALUE
 90
4
  1
 
304
ACVALUE_END
170
1
140
3.0
171
1
172
0
173
0
174
0
175
1
176
1
 91
33
178
0
145
0.0
301
CELL_VALUE
 90
4
  1
 
304
ACVALUE_END
170
1
140
3.0
171
1
172
0
173
0
174
0
175
1
176
1
 91
33
178
0
145
0.0
301
CELL_VALUE
 90
4
  1
 
304
ACVALUE_END
170
1
140
3.0
171
1
172
0
173
0
174
0
175
1
176
1
 91
41
178
0
145
0.0
301
CELL_VALUE
 90
4
  1
 
304
ACVALUE_END
170
4
140
3.0
 64
5
171
1
172
0
173
0
174
0
175
1
176
1
 91
41
178
0
145
0.0
301
CELL_VALUE
 90
4
  1
 
304
ACVALUE_END
170
4
140
3.0
 64
5
171
1
172
0
173
0
174
0
175
1
176
2
 91
41
178
0
145
0.0
301
CELL_VALUE
 90
4
  1
 
304
ACVALUE_END
170
5
140
3.0
 64
5
171
1
172
0
173
0
174
0
175
4
176
1
 91
33
178
0
145
0.0
301
CELL_VALUE
 90
4
  1
 
304
ACVALUE_END
170
4
140
3.0
171
1
172
0
173
1
174
0
175
1
176
1
 91
1
178
0
145
0.0
170
1
171
1
172
0
173
1
174
0
175
1
176
1
 91
1
178
0
145
0.0
170
1
171
1
172
0
173
1
174
0
175
1
176
1
 91
1
178
0
145
0.0
170
4
171
1
172
0
173
0
174
0
175
1
176
1
 91
41
178
0
145
0.0
301
CELL_VALUE
 90
4
  1
 
304
ACVALUE_END
170
4
140
3.0
 64
5
171
1
172
0
173
0
174
0
175
2
176
5
 91
33
178
0
145
0.0
301
CELL_VALUE
 90
4
  1
 
304
ACVALUE_END
170
1
140
3.0
171
1
172
0
173
1
174
0
175
1
176
1
 91
1
178
0
145
0.0
170
1
171
1
172
0
173
0
174
0
175
2
176
3
 91
33
178
0
145
0.0
301
CELL_VALUE
 90
4
  1
 
304
ACVALUE_END
170
2
140
3.0
171
1
172
0
173
1
174
0
175
1
176
1
 91
1
178
0
145
0.0
170
2
171
1
172
0
173
0
174
0
175
1
176
1
 91
33
178
0
145
0.0
301
CELL_VALUE
 90
4
  1
 
304
ACVALUE_END
170
1
140
3.0
171
1
172
0
173
0
174
0
175
1
176
1
 91
33
178
0
145
0.0
301
CELL_VALUE
 90
4
  1
 
304
ACVALUE_END
170
1
140
3.0
171
1
172
0
173
0
174
0
175
1
176
1
 91
33
178
0
145
0.0
301
CELL_VALUE
 90
4
  1
 
304
ACVALUE_END
170
1
140
3.0
171
1
172
0
173
0
174
0
175
1
176
1
 91
57
178
0
145
0.0
  7
TEXTSTYLE_4
301
CELL_VALUE
 90
4
  1
Materiale 
304
ACVALUE_END
170
4
140
1.3
 64
5
171
1
172
0
173
0
174
0
175
1
176
1
 91
57
178
0
145
0.0
  7
TEXTSTYLE_4
301
CELL_VALUE
 90
4
  1
Tratt.termici
304
ACVALUE_END
170
4
140
1.5
 64
5
171
1
172
0
173
1
174
0
175
1
176
1
 91
1
178
0
145
0.0
170
1
171
1
172
0
173
0
174
0
175
4
176
1
 91
49
178
0
145
0.0
  7
TEXTSTYLE_4
301
CELL_VALUE
 90
4
  1
Dimens.grezze 
304
ACVALUE_END
170
4
140
1.3
171
1
172
0
173
1
174
0
175
1
176
1
 91
1
178
0
145
0.0
170
1
171
1
172
0
173
1
174
0
175
1
176
1
 91
1
178
0
145
0.0
170
1
171
1
172
0
173
1
174
0
175
1
176
1
 91
1
178
0
145
0.0
170
4
171
1
172
0
173
0
174
0
175
1
176
1
 91
57
178
0
145
0.0
  7
TEXTSTYLE_4
301
CELL_VALUE
 90
4
  1
Peso grezzo Kg. 
304
ACVALUE_END
170
4
140
1.0
 64
5
171
1
172
0
173
1
174
0
175
1
176
1
 91
1
178
0
145
0.0
170
1
171
1
172
0
173
1
174
0
175
1
176
1
 91
1
178
0
145
0.0
170
1
171
1
172
0
173
1
174
0
175
1
176
1
 91
1
178
0
145
0.0
170
1
171
1
172
0
173
1
174
0
175
1
176
1
 91
1
178
0
145
0.0
170
1
171
1
172
0
173
0
174
0
175
1
176
1
 91
33
178
0
145
0.0
301
CELL_VALUE
 90
4
  1
 
304
ACVALUE_END
170
1
140
3.0
171
1
172
0
173
0
174
0
175
1
176
1
 91
33
178
0
145
0.0
301
CELL_VALUE
 90
4
  1
 
304
ACVALUE_END
170
1
140
3.0
171
1
172
0
173
0
174
0
175
1
176
1
 91
33
178
0
145
0.0
301
CELL_VALUE
 90
4
  1
 
304
ACVALUE_END
170
1
140
3.0
171
1
172
0
173
0
174
0
175
1
176
1
 91
57
178
0
145
0.0
  7
TEXTSTYLE_4
301
CELL_VALUE
 90
4
  1
Maschiatore con doppia compensazione gr1 attacco Hsk100A DIN 69893
304
ACVALUE_END
170
7
140
1.4
 64
5
171
1
172
0
173
0
174
0
175
4
176
1
 91
33
178
0
145
0.0
301
CELL_VALUE
 90
4
  1
 
304
ACVALUE_END
170
1
140
3.0
171
1
172
0
173
1
174
0
175
1
176
1
 91
1
178
0
145
0.0
170
1
171
1
172
0
173
1
174
0
175
1
176
1
 91
1
178
0
145
0.0
170
1
171
1
172
0
173
1
174
0
175
1
176
1
 91
1
178
0
145
0.0
170
1
171
1
172
0
173
0
174
0
175
2
176
2
 91
49
178
0
145
0.0
  7
TEXTSTYLE_4
301
CELL_VALUE
 90
4
  1
Visto
304
ACVALUE_END
170
1
140
1.3
171
1
172
0
173
1
174
0
175
1
176
1
 91
1
178
0
145
0.0
170
1
171
1
172
0
173
0
174
0
175
1
176
2
 91
57
178
0
145
0.0
  7
TEXTSTYLE_4
301
CELL_VALUE
 90
4
  1
Scala\P1:1
304
ACVALUE_END
170
1
140
1.3
 64
5
171
1
172
0
173
1
174
0
175
1
176
1
 91
1
178
0
145
0.0
170
1
171
1
172
0
173
1
174
0
175
1
176
1
 91
1
178
0
145
0.0
170
1
171
1
172
0
173
1
174
0
175
1
176
1
 91
1
178
0
145
0.0
170
1
171
1
172
0
173
1
174
0
175
1
176
1
 91
1
178
0
145
0.0
170
1
171
1
172
0
173
0
174
0
175
1
176
1
 91
33
178
0
145
0.0
301
CELL_VALUE
 90
4
  1
 
304
ACVALUE_END
170
1
140
3.0
171
1
172
0
173
0
174
0
175
1
176
1
 91
33
178
0
145
0.0
301
CELL_VALUE
 90
4
  1
 
304
ACVALUE_END
170
1
140
3.0
171
1
172
0
173
0
174
0
175
1
176
1
 91
33
178
0
145
0.0
301
CELL_VALUE
 90
4
  1
 
304
ACVALUE_END
170
1
140
3.0
171
1
172
0
173
0
174
0
175
1
176
1
 91
57
178
0
145
0.0
  7
TEXTSTYLE_4
301
CELL_VALUE
 90
4
  1
Descrizione
304
ACVALUE_END
170
1
140
1.2
 64
5
171
1
172
0
173
0
174
0
175
1
176
1
 91
33
178
0
145
0.0
301
CELL_VALUE
 90
4
  1
 
304
ACVALUE_END
170
1
140
3.0
171
1
172
0
173
0
174
0
175
1
176
1
 91
33
178
0
145
0.0
301
CELL_VALUE
 90
4
  1
 
304
ACVALUE_END
170
1
140
3.0
171
1
172
0
173
0
174
0
175
1
176
1
 91
33
178
0
145
0.0
301
CELL_VALUE
 90
4
  1
 
304
ACVALUE_END
170
1
140
3.0
171
1
172
0
173
0
174
0
175
1
176
1
 91
33
178
0
145
0.0
301
CELL_VALUE
 90
4
  1
 
304
ACVALUE_END
170
1
140
3.0
171
1
172
0
173
1
174
0
175
1
176
1
 91
1
178
0
145
0.0
170
1
171
1
172
0
173
1
174
0
175
1
176
1
 91
1
178
0
145
0.0
170
1
171
1
172
0
173
1
174
0
175
1
176
1
 91
1
178
0
145
0.0
170
1
171
1
172
0
173
1
174
0
175
1
176
1
 91
1
178
0
145
0.0
170
1
171
1
172
0
173
1
174
0
175
1
176
1
 91
1
178
0
145
0.0
170
1
171
1
172
0
173
0
174
0
175
2
176
2
 91
33
178
0
145
0.0
301
CELL_VALUE
 90
4
  1
 
304
ACVALUE_END
170
5
140
3.0
171
1
172
0
173
1
174
0
175
1
176
1
 91
1
178
0
145
0.0
170
5
171
1
172
0
173
0
174
0
175
1
176
1
 91
33
178
0
145
0.0
301
CELL_VALUE
 90
4
  1
 
304
ACVALUE_END
170
1
140
3.0
171
1
172
0
173
0
174
0
175
1
176
1
 91
33
178
0
145
0.0
301
CELL_VALUE
 90
4
  1
 
304
ACVALUE_END
170
1
140
3.0
171
1
172
0
173
0
174
0
175
1
176
1
 91
33
178
0
145
0.0
301
CELL_VALUE
 90
4
  1
 
304
ACVALUE_END
170
1
140
3.0
171
1
172
0
173
0
174
0
175
5
176
1
 91
49
178
0
145
0.0
  7
TEXTSTYLE_4
301
CELL_VALUE
 90
4
  1
Macchina o codice prenotante:   34400
304
ACVALUE_END
170
4
140
1.3
171
1
172
0
173
1
174
0
175
1
176
1
 91
1
178
0
145
0.0
170
1
171
1
172
0
173
1
174
0
175
1
176
1
 91
1
178
0
145
0.0
170
1
171
1
172
0
173
1
174
0
175
1
176
1
 91
1
178
0
145
0.0
170
1
171
1
172
0
173
1
174
0
175
1
176
1
 91
1
178
0
145
0.0
170
4
171
1
172
0
173
0
174
0
175
2
176
2
 91
49
178
0
145
0.0
  7
TEXTSTYLE_4
301
CELL_VALUE
 90
4
  1
Firma\Pcalvo
304
ACVALUE_END
170
1
140
1.3
171
1
172
0
173
1
174
0
175
1
176
1
 91
1
178
0
145
0.0
170
1
171
1
172
0
173
0
174
0
175
1
176
2
 91
57
178
0
145
0.0
  7
TEXTSTYLE_4
301
CELL_VALUE
 90
4
  1
Data\P11-May-10
304
ACVALUE_END
170
1
140
1.3
 64
5
171
1
172
0
173
1
174
0
175
1
176
1
 91
1
178
0
145
0.0
170
1
171
1
172
0
173
1
174
0
175
1
176
1
 91
1
178
0
145
0.0
170
1
171
1
172
0
173
1
174
0
175
1
176
1
 91
1
178
0
145
0.0
170
1
171
1
172
0
173
1
174
0
175
1
176
1
 91
1
178
0
145
0.0
170
1
171
1
172
0
173
0
174
0
175
1
176
1
 91
33
178
0
145
0.0
301
CELL_VALUE
 90
4
  1
 
304
ACVALUE_END
170
1
140
3.0
171
1
172
0
173
0
174
0
175
1
176
1
 91
33
178
0
145
0.0
301
CELL_VALUE
 90
4
  1
 
304
ACVALUE_END
170
1
140
3.0
171
1
172
0
173
0
174
0
175
1
176
1
 91
33
178
0
145
0.0
301
CELL_VALUE
 90
4
  1
 
304
ACVALUE_END
170
1
140
3.0
171
1
172
0
173
0
174
0
175
5
176
1
 91
49
178
0
145
0.0
  7
TEXTSTYLE_4
301
CELL_VALUE
 90
4
  1
Tolleranze generali per quote senza valori:\fgdt;{\fgdt;n}\ftxt;=H11-h11 - lineari\fgdt;{\fgdt;`}\ftxt;0.2
304
ACVALUE_END
170
1
140
1.3
171
1
172
0
173
1
174
0
175
1
176
1
 91
1
178
0
145
0.0
170
1
171
1
172
0
173
1
174
0
175
1
176
1
 91
1
178
0
145
0.0
170
1
171
1
172
0
173
1
174
0
175
1
176
1
 91
1
178
0
145
0.0
170
1
171
1
172
0
173
1
174
0
175
1
176
1
 91
1
178
0
145
0.0
170
1
171
1
172
0
173
1
174
0
175
1
176
1
 91
1
178
0
145
0.0
170
1
171
1
172
0
173
1
174
0
175
1
176
1
 91
1
178
0
145
0.0
170
1
171
1
172
0
173
1
174
0
175
1
176
1
 91
1
178
0
145
0.0
170
1
171
1
172
0
173
0
174
0
175
4
176
1
 91
49
178
0
145
0.0
  7
TEXTSTYLE_4
301
CELL_VALUE
 90
4
  1
Rugosita' \fgdt;{\fgdt;a}\ftxt;0.8=rettifica
304
ACVALUE_END
170
1
140
1.3
171
1
172
0
173
1
174
0
175
1
176
1
 91
1
178
0
145
0.0
170
1
171
1
172
0
173
1
174
0
175
1
176
1
 91
1
178
0
145
0.0
170
1
171
1
172
0
173
1
174
0
175
1
176
1
 91
1
178
0
145
0.0
170
1
  0
LINE
  5
277
100
AcDbEntity
  8
0
100
AcDbLine
 62
7
  6
CONTINUOUS
 10
0.0
 20
0.0
 11
210.0
 21
0.0
  0
LINE
  5
278
100
AcDbEntity
  8
0
100
AcDbLine
 62
7
  6
CONTINUOUS
 10
0.0
 20
0.0
 11
0.0
 21
297.0
  0
LINE
  5
279
100
AcDbEntity
  8
0
100
AcDbLine
 62
7
  6
CONTINUOUS
 10
210.0
 20
0.0
 11
210.0
 21
297.0
  0
LINE
  5
27A
100
AcDbEntity
  8
0
100
AcDbLine
 62
7
  6
CONTINUOUS
 10
0.0
 20
297.0
 11
210.0
 21
297.0
  0
LINE
  5
27B
100
AcDbEntity
  8
0_COMPONENTS
100
AcDbLine
 62
7
  6
CONTINUOUS
 10
124.0160745835
 20
107.4703951367
 11
85.655873001
 21
107.4703951367
  0
LINE
  5
27C
100
AcDbEntity
  8
0_COMPONENTS
100
AcDbLine
 62
7
  6
CONTINUOUS
 10
84.6751017166
 20
108.2742790012
 11
124.9966552624
 21
108.2742790012
  0
LINE
  5
27D
100
AcDbEntity
  8
0_COMPONENTS
100
AcDbLine
 62
7
  6
CONTINUOUS
 10
84.3552978146
 20
109.8732985133
 11
125.3164591645
 21
109.8732985133
  0
LINE
  5
27E
100
AcDbEntity
  8
0_COMPONENTS
100
AcDbLine
 62
7
  6
CONTINUOUS
 10
84.3358784899
 20
110.0694146501
 11
125.3358784892
 21
110.0694146501
  0
LINE
  5
27F
100
AcDbEntity
  8
0_COMPONENTS
100
AcDbLine
 62
7
  6
CONTINUOUS
 10
125.3358784895
 20
110.604369733
 11
84.3358784895
 21
110.604369733
  0
LINE
  5
280
100
AcDbEntity
  8
0_COMPONENTS
100
AcDbLine
 62
7
  6
CONTINUOUS
 10
84.7019038933
 20
111.9703951367
 11
124.9698530858
 21
111.9703951367
  0
LINE
  5
281
100
AcDbEntity
  8
0_COMPONENTS
100
AcDbLine
 62
7
  6
CONTINUOUS
 10
125.3358784895
 20
112.604369733
 11
84.3358784895
 21
112.604369733
  0
LINE
  5
282
100
AcDbEntity
  8
0_COMPONENTS
100
AcDbLine
 62
7
  6
CONTINUOUS
 10
84.3358784895
 20
115.4703951367
 11
125.3358784895
 21
115.4703951367
  0
LINE
  5
283
100
AcDbEntity
  8
0_COMPONENTS
100
AcDbLine
 62
7
  6
CONTINUOUS
 10
84.0858784895
 20
115.7203951367
 11
125.5858784895
 21
115.7203951367
  0
LINE
  5
284
100
AcDbEntity
  8
0_COMPONENTS
100
AcDbLine
 62
7
  6
CONTINUOUS
 10
84.0858784895
 20
115.7203951367
 11
84.3358784895
 21
115.4703951367
  0
LINE
  5
285
100
AcDbEntity
  8
0
100
AcDbLine
 62
7
  6
CONTINUOUS
 10
54.8358784895
 20
186.9703951367
 11
54.8358784895
 21
170.7179904009
  0
LINE
  5
286
100
AcDbEntity
  8
0
100
AcDbLine
 62
7
  6
CONTINUOUS
 10
54.8358784895
 20
164.2227998725
 11
54.8358784895
 21
159.0203951367
  0
LINE
  5
287
100
AcDbEntity
  8
0
100
AcDbLine
 62
7
  6
CONTINUOUS
 10
58.8358784895
 20
165.5953951367
 11
58.8358784895
 21
169.3453951367
  0
LINE
  5
288
100
AcDbEntity
  8
0
100
AcDbLine
 62
7
  6
CONTINUOUS
 10
55.3358784895
 20
187.4703951367
 11
54.8358784895
 21
186.9703951367
  0
LINE
  5
289
100
AcDbEntity
  8
0_COMPONENTS
100
AcDbLine
 62
7
  6
CONTINUOUS
 10
84.0858784895
 20
125.2203951367
 11
125.5858784895
 21
125.2203951367
  0
LINE
  5
28A
100
AcDbEntity
  8
0_COMPONENTS
100
AcDbLine
 62
7
  6
CONTINUOUS
 10
84.3358784895
 20
125.4703951367
 11
125.3358784895
 21
125.4703951367
  0
LINE
  5
28B
100
AcDbEntity
  8
0
100
AcDbLine
 62
7
  6
CONTINUOUS
 10
54.8358784895
 20
159.0203951367
 11
55.3358784895
 21
158.5203951367
  0
LINE
  5
28C
100
AcDbEntity
  8
0_COMPONENTS
100
AcDbLine
 62
7
  6
CONTINUOUS
 10
84.7019038933
 20
111.9703951367
 11
84.3358784895
 21
112.604369733
  0
LINE
  5
28D
100
AcDbEntity
  8
0
100
AcDbLine
 62
7
  6
CONTINUOUS
 10
66.0061218588
 20
182.6720547844
 11
66.0061218588
 21
170.7179904009
  0
LINE
  5
28E
100
AcDbEntity
  8
0
100
AcDbLine
 62
7
  6
CONTINUOUS
 10
66.0061218588
 20
164.2227998725
 11
66.0061218588
 21
159.0203951367
  0
LINE
  5
28F
100
AcDbEntity
  8
0
100
AcDbLine
 62
7
  6
CONTINUOUS
 10
67.2858784895
 20
188.2703951367
 11
67.2858784895
 21
188.7303046293
  0
LINE
  5
290
100
AcDbEntity
  8
0
100
AcDbLine
 62
7
  6
CONTINUOUS
 10
69.2333409708
 20
235.4704779235
 11
66.9535972395
 21
189.9703951367
  0
LINE
  5
291
100
AcDbEntity
  8
0
100
AcDbLine
 62
7
  6
CONTINUOUS
 10
114.8458784895
 20
235.8703951367
 11
116.3458784895
 21
237.3703951367
  0
LINE
  5
292
100
AcDbEntity
  8
0_COMPONENTS
100
AcDbLine
 62
7
  6
CONTINUOUS
 10
84.3358784895
 20
132.4703951367
 11
125.3358784895
 21
132.4703951367
  0
LINE
  5
293
100
AcDbEntity
  8
0_COMPONENTS
100
AcDbLine
 62
7
  6
CONTINUOUS
 10
84.0858784895
 20
133.7203951367
 11
125.5858784895
 21
133.7203951367
  0
LINE
  5
294
100
AcDbEntity
  8
0
100
AcDbLine
 62
7
  6
CONTINUOUS
 10
71.3134979058
 20
165.5953951367
 11
71.3134979058
 21
169.3453951367
  0
LINE
  5
295
100
AcDbEntity
  8
0_COMPONENTS
100
AcDbLine
 62
7
  6
CONTINUOUS
 10
84.0858784895
 20
140.1703951367
 11
125.5858784895
 21
140.1703951367
  0
LINE
  5
296
100
AcDbEntity
  8
0_COMPONENTS
100
AcDbLine
 62
7
  6
CONTINUOUS
 10
84.3552978142
 20
109.8732985134
 11
84.6751017167
 21
108.2742790009
  0
LINE
  5
297
100
AcDbEntity
  8
0
100
AcDbLine
 62
7
  6
CONTINUOUS
 10
72.8358784895
 20
158.5203951367
 11
72.8358784895
 21
172.5203951367
  0
LINE
  5
298
100
AcDbEntity
  8
0
100
AcDbLine
 62
7
  6
CONTINUOUS
 10
73.3358784895
 20
159.0203951367
 11
73.3358784895
 21
172.5203951367
  0
LINE
  5
299
100
AcDbEntity
  8
0
100
AcDbLine
 62
7
  6
CONTINUOUS
 10
73.7273191023
 20
172.5203951367
 11
73.7273191023
 21
170.7179904009
  0
LINE
  5
29A
100
AcDbEntity
  8
0
100
AcDbLine
 62
7
  6
CONTINUOUS
 10
73.7273191023
 20
164.2227998725
 11
73.7273191023
 21
159.0203951367
  0
LINE
  5
29B
100
AcDbEntity
  8
0
100
AcDbLine
 62
7
  6
CONTINUOUS
 10
93.2103653508
 20
227.3703951367
 11
93.1075430803
 21
227.0545710332
  0
LINE
  5
29C
100
AcDbEntity
  8
0_COMPONENTS
100
AcDbLine
 62
7
  6
CONTINUOUS
 10
125.2858784713
 20
140.4703951367
 11
84.3860563588
 21
140.4703951367
  0
LINE
  5
29D
100
AcDbEntity
  8
0_COMPONENTS
100
AcDbLine
 62
7
  6
CONTINUOUS
 10
85.7858784895
 20
140.9703951367
 11
123.8858784895
 21
140.9703951367
  0
LINE
  5
29E
100
AcDbEntity
  8
0_COMPONENTS
100
AcDbLine
 62
7
  6
CONTINUOUS
 10
86.0747064787
 20
141.4703951367
 11
123.5970505004
 21
141.4703951367
  0
LINE
  5
29F
100
AcDbEntity
  8
0
100
AcDbLine
 62
7
  6
CONTINUOUS
 10
73.3358784895
 20
159.0203951367
 11
73.8358784895
 21
158.5203951367
  0
LINE
  5
2A0
100
AcDbEntity
  8
0
100
AcDbLine
 62
7
  6
CONTINUOUS
 10
67.2858784895
 20
188.7303046293
 11
66.9535972395
 21
189.9703951367
  0
LINE
  5
2A1
100
AcDbEntity
  8
0_COMPONENTS
100
AcDbLine
 62
7
  6
CONTINUOUS
 10
84.0858784895
 20
133.7203951367
 11
84.3358784895
 21
132.4703951367
  0
LINE
  5
2A2
100
AcDbEntity
  8
0_COMPONENTS
100
AcDbLine
 62
7
  6
CONTINUOUS
 10
84.3358784895
 20
110.0694146501
 11
84.3552978142
 21
109.8732985134
  0
LINE
  5
2A3
100
AcDbEntity
  8
0
100
AcDbLine
 62
7
  6
CONTINUOUS
 10
57.2132832253
 20
169.3453951367
 11
54.8358784895
 21
170.7179904009
  0
LINE
  5
2A4
100
AcDbEntity
  8
0_COMPONENTS
100
AcDbLine
 62
7
  6
CONTINUOUS
 10
84.0858784895
 20
140.1703951367
 11
84.0858784895
 21
139.2202992389
  0
LINE
  5
2A5
100
AcDbEntity
  8
0_COMPONENTS
100
AcDbLine
 62
7
  6
CONTINUOUS
 10
84.0858784895
 20
137.7205277444
 11
84.0858784895
 21
133.7203951367
  0
LINE
  5
2A6
100
AcDbEntity
  8
0_COMPONENTS
100
AcDbLine
 62
7
  6
CONTINUOUS
 10
84.0858784895
 20
125.2203951367
 11
84.0858784895
 21
115.7203951367
  0
LINE
  5
2A7
100
AcDbEntity
  8
0_COMPONENTS
100
AcDbLine
 62
7
  6
CONTINUOUS
 10
84.3358784895
 20
132.4703951367
 11
84.3358784895
 21
125.4703951367
  0
LINE
  5
2A8
100
AcDbEntity
  8
0_COMPONENTS
100
AcDbLine
 62
7
  6
CONTINUOUS
 10
84.3358784895
 20
115.4703951367
 11
84.3358784895
 21
112.604369733
  0
LINE
  5
2A9
100
AcDbEntity
  8
0_COMPONENTS
100
AcDbLine
 62
7
  6
CONTINUOUS
 10
84.3358784895
 20
110.604369733
 11
84.3358784895
 21
110.0694146501
  0
LINE
  5
2AA
100
AcDbEntity
  8
0_COMPONENTS
100
AcDbLine
 62
7
  6
CONTINUOUS
 10
85.7858784895
 20
140.9703951367
 11
85.7858784895
 21
140.4703951367
  0
LINE
  5
2AB
100
AcDbEntity
  8
GIANNI_ASSI
100
AcDbLine
 62
7
  6
CONTINUOUS
 10
87.3358784895
 20
153.5203951367
 11
87.3358784895
 21
141.4703951367
  0
LINE
  5
2AC
100
AcDbEntity
  8
0
100
AcDbLine
 62
7
  6
CONTINUOUS
 10
87.5858784895
 20
153.7703951367
 11
87.5858784895
 21
156.5203951367
  0
LINE
  5
2AD
100
AcDbEntity
  8
0
100
AcDbLine
 62
7
  6
CONTINUOUS
 10
54.8358784895
 20
164.2227998725
 11
57.2132832253
 21
165.5953951367
  0
LINE
  5
2AE
100
AcDbEntity
  8
0
100
AcDbLine
 62
7
  6
CONTINUOUS
 10
87.3358784895
 20
153.5203951367
 11
122.3358784895
 21
153.5203951367
  0
LINE
  5
2AF
100
AcDbEntity
  8
0
100
AcDbLine
 62
7
  6
CONTINUOUS
 10
87.5858784895
 20
153.7703951367
 11
122.0858784895
 21
153.7703951367
  0
LINE
  5
2B0
100
AcDbEntity
  8
0
100
AcDbLine
 62
7
  6
CONTINUOUS
 10
87.5858784895
 20
156.5203951367
 11
122.0858784895
 21
156.5203951367
  0
LINE
  5
2B1
100
AcDbEntity
  8
0_COMPONENTS
100
AcDbLine
 62
7
  6
CONTINUOUS
 10
125.3358784895
 20
125.4703951367
 11
125.5858784895
 21
125.2203951367
  0
LINE
  5
2B2
100
AcDbEntity
  8
0
100
AcDbLine
 62
7
  6
CONTINUOUS
 10
94.3470039136
 20
172.5203951367
 11
94.3470039136
 21
170.8764885305
  0
LINE
  5
2B3
100
AcDbEntity
  8
0
100
AcDbLine
 62
7
  6
CONTINUOUS
 10
94.3470039136
 20
164.2227998725
 11
94.3470039136
 21
159.0203951367
  0
LINE
  5
2B4
100
AcDbEntity
  8
0
100
AcDbLine
 62
7
  6
CONTINUOUS
 10
55.3358796154
 20
158.5203951367
 11
154.3358742919
 21
158.5203951367
  0
LINE
  5
2B5
100
AcDbEntity
  8
0
100
AcDbLine
 62
7
  6
CONTINUOUS
 10
94.5358784895
 20
158.7203951367
 11
115.1358784895
 21
158.7203951367
  0
LINE
  5
2B6
100
AcDbEntity
  8
0
100
AcDbLine
 62
7
  6
CONTINUOUS
 10
154.8358784895
 20
159.0203951367
 11
115.3247530655
 21
159.0203951367
  0
LINE
  5
2B7
100
AcDbEntity
  8
0
100
AcDbLine
 62
7
  6
CONTINUOUS
 10
94.3470039136
 20
159.0203951367
 11
73.7273191023
 21
159.0203951367
  0
LINE
  5
2B8
100
AcDbEntity
  8
0
100
AcDbLine
 62
7
  6
CONTINUOUS
 10
73.3358784895
 20
159.0203951367
 11
54.8358784895
 21
159.0203951367
  0
LINE
  5
2B9
100
AcDbEntity
  8
0
100
AcDbLine
 62
7
  6
CONTINUOUS
 10
94.8258784895
 20
235.8703951367
 11
94.8258784895
 21
229.3703951367
  0
LINE
  5
2BA
100
AcDbEntity
  8
0
100
AcDbLine
 62
7
  6
CONTINUOUS
 10
94.8358784895
 20
159.0203951367
 11
94.8358784895
 21
172.5203951367
  0
LINE
  5
2BB
100
AcDbEntity
  8
DEFAULT_2
100
AcDbLine
 62
8
  6
HIDDEN
 10
95.3358784895
 20
107.4703951367
 11
95.3358784895
 21
122.4703951367
  0
LINE
  5
2BC
100
AcDbEntity
  8
0
100
AcDbLine
 62
7
  6
CONTINUOUS
 10
95.3358784895
 20
159.5203951367
 11
95.3358784895
 21
172.5203951367
  0
LINE
  5
2BD
100
AcDbEntity
  8
0
100
AcDbLine
 62
7
  6
CONTINUOUS
 10
154.8358784895
 20
164.2227998725
 11
115.3247530655
 21
164.2227998725
  0
LINE
  5
2BE
100
AcDbEntity
  8
0
100
AcDbLine
 62
7
  6
CONTINUOUS
 10
94.3470039136
 20
164.2227998725
 11
73.7273191023
 21
164.2227998725
  0
LINE
  5
2BF
100
AcDbEntity
  8
0
100
AcDbLine
 62
7
  6
CONTINUOUS
 10
66.0061218588
 20
164.2227998725
 11
54.8358784895
 21
164.2227998725
  0
LINE
  5
2C0
100
AcDbEntity
  8
0
100
AcDbLine
 62
7
  6
CONTINUOUS
 10
57.2132837567
 20
165.5953951367
 11
71.3134979058
 21
165.5953951367
  0
LINE
  5
2C1
100
AcDbEntity
  8
0
100
AcDbLine
 62
7
  6
CONTINUOUS
 10
73.3358784895
 20
165.5953951367
 11
94.8358784895
 21
165.5953951367
  0
LINE
  5
2C2
100
AcDbEntity
  8
0
100
AcDbLine
 62
7
  6
CONTINUOUS
 10
114.8358784895
 20
165.5953951367
 11
152.4584707792
 21
165.5953951367
  0
LINE
  5
2C3
100
AcDbEntity
  8
0_COMPONENTS
100
AcDbLine
 62
7
  6
CONTINUOUS
 10
86.0745536241
 20
141.4703951367
 11
85.7858784895
 21
140.9703951367
  0
LINE
  5
2C4
100
AcDbEntity
  8
0
100
AcDbLine
 62
7
  6
CONTINUOUS
 10
152.4584707792
 20
169.3453951367
 11
114.8358784895
 21
169.3453951367
  0
LINE
  5
2C5
100
AcDbEntity
  8
0
100
AcDbLine
 62
7
  6
CONTINUOUS
 10
94.8358784895
 20
169.3453951367
 11
73.3358784895
 21
169.3453951367
  0
LINE
  5
2C6
100
AcDbEntity
  8
0
100
AcDbLine
 62
7
  6
CONTINUOUS
 10
57.2132837567
 20
169.3453951367
 11
71.3134979058
 21
169.3453951367
  0
LINE
  5
2C7
100
AcDbEntity
  8
0
100
AcDbLine
 62
7
  6
CONTINUOUS
 10
154.8358784895
 20
170.7179904009
 11
115.4971965345
 21
170.7179904009
  0
LINE
  5
2C8
100
AcDbEntity
  8
0
100
AcDbLine
 62
7
  6
CONTINUOUS
 10
94.1745604446
 20
170.7179904009
 11
73.7273191023
 21
170.7179904009
  0
LINE
  5
2C9
100
AcDbEntity
  8
0
100
AcDbLine
 62
7
  6
CONTINUOUS
 10
66.0061218588
 20
170.7179904009
 11
54.8358784895
 21
170.7179904009
  0
LINE
  5
2CA
100
AcDbEntity
  8
0
100
AcDbLine
 62
7
  6
CONTINUOUS
 10
95.3358784895
 20
172.5203951367
 11
94.3470039136
 21
172.5203951367
  0
LINE
  5
2CB
100
AcDbEntity
  8
0
100
AcDbLine
 62
7
  6
CONTINUOUS
 10
72.8358784895
 20
172.5203951367
 11
73.7273191023
 21
172.5203951367
  0
LINE
  5
2CC
100
AcDbEntity
  8
0
100
AcDbLine
 62
7
  6
CONTINUOUS
 10
114.3358784895
 20
172.5203951367
 11
115.3247530655
 21
172.5203951367
  0
LINE
  5
2CD
100
AcDbEntity
  8
0
100
AcDbLine
 62
7
  6
CONTINUOUS
 10
115.3358784895
 20
158.5203951367
 11
114.3358784895
 21
159.5203951367
  0
LINE
  5
2CE
100
AcDbEntity
  8
0
100
AcDbLine
 62
7
  6
CONTINUOUS
 10
122.3358784895
 20
153.5203951367
 11
122.0858784895
 21
153.7703951367
  0
LINE
  5
2CF
100
AcDbEntity
  8
0
100
AcDbLine
 62
7
  6
CONTINUOUS
 10
87.3358784895
 20
153.5203951367
 11
87.5858784895
 21
153.7703951367
  0
LINE
  5
2D0
100
AcDbEntity
  8
0
100
AcDbLine
 62
7
  6
CONTINUOUS
 10
95.3358784895
 20
159.5203951367
 11
94.3358784895
 21
158.5203951367
  0
LINE
  5
2D1
100
AcDbEntity
  8
0_COMPONENTS
100
AcDbLine
 62
7
  6
CONTINUOUS
 10
123.5972033549
 20
141.4703951367
 11
123.8858784895
 21
140.9703951367
  0
LINE
  5
2D2
100
AcDbEntity
  8
0
100
AcDbLine
 62
7
  6
CONTINUOUS
 10
114.3358784895
 20
172.5203951367
 11
114.3358784895
 21
159.5203951367
  0
LINE
  5
2D3
100
AcDbEntity
  8
DEFAULT_2
100
AcDbLine
 62
8
  6
HIDDEN
 10
114.3358784895
 20
107.4703951367
 11
114.3358784895
 21
122.4703951367
  0
LINE
  5
2D4
100
AcDbEntity
  8
0
100
AcDbLine
 62
7
  6
CONTINUOUS
 10
114.8358784895
 20
159.0203951367
 11
114.8358784895
 21
172.5203951367
  0
LINE
  5
2D5
100
AcDbEntity
  8
0
100
AcDbLine
 62
7
  6
CONTINUOUS
 10
114.8458784895
 20
235.8703951367
 11
114.8458784895
 21
229.3703951367
  0
LINE
  5
2D6
100
AcDbEntity
  8
0
100
AcDbLine
 62
7
  6
CONTINUOUS
 10
115.3247530655
 20
172.5203951367
 11
115.3247530655
 21
170.8764885305
  0
LINE
  5
2D7
100
AcDbEntity
  8
0
100
AcDbLine
 62
7
  6
CONTINUOUS
 10
115.3247530655
 20
164.2227998725
 11
115.3247530655
 21
159.0203951367
  0
LINE
  5
2D8
100
AcDbEntity
  8
0
100
AcDbLine
 62
7
  6
CONTINUOUS
 10
154.8358784895
 20
186.9703951367
 11
54.8358784895
 21
186.9703951367
  0
LINE
  5
2D9
100
AcDbEntity
  8
0
100
AcDbLine
 62
7
  6
CONTINUOUS
 10
154.3358784895
 20
187.4703951367
 11
55.3358784895
 21
187.4703951367
  0
LINE
  5
2DA
100
AcDbEntity
  8
0
100
AcDbLine
 62
7
  6
CONTINUOUS
 10
67.2858784895
 20
188.2703951367
 11
142.3858784895
 21
188.2703951367
  0
LINE
  5
2DB
100
AcDbEntity
  8
0
100
AcDbLine
 62
7
  6
CONTINUOUS
 10
67.2858784895
 20
188.7303046293
 11
142.3858784895
 21
188.7303046293
  0
LINE
  5
2DC
100
AcDbEntity
  8
0
100
AcDbLine
 62
7
  6
CONTINUOUS
 10
122.0858784895
 20
153.7703951367
 11
122.0858784895
 21
156.5203951367
  0
LINE
  5
2DD
100
AcDbEntity
  8
GIANNI_ASSI
100
AcDbLine
 62
7
  6
CONTINUOUS
 10
122.3358784895
 20
153.5203951367
 11
122.3358784895
 21
145.1203951367
  0
LINE
  5
2DE
100
AcDbEntity
  8
0_COMPONENTS
100
AcDbLine
 62
7
  6
CONTINUOUS
 10
123.8858784895
 20
140.9703951367
 11
123.8858784895
 21
140.4703951367
  0
LINE
  5
2DF
100
AcDbEntity
  8
0_COMPONENTS
100
AcDbLine
 62
7
  6
CONTINUOUS
 10
125.3358784895
 20
132.4703951367
 11
125.3358784895
 21
125.4703951367
  0
LINE
  5
2E0
100
AcDbEntity
  8
0_COMPONENTS
100
AcDbLine
 62
7
  6
CONTINUOUS
 10
125.3358784895
 20
115.4703951367
 11
125.3358784895
 21
112.604369733
  0
LINE
  5
2E1
100
AcDbEntity
  8
0_COMPONENTS
100
AcDbLine
 62
7
  6
CONTINUOUS
 10
125.3358784895
 20
110.604369733
 11
125.3358784895
 21
110.0694146501
  0
LINE
  5
2E2
100
AcDbEntity
  8
0_COMPONENTS
100
AcDbLine
 62
7
  6
CONTINUOUS
 10
125.5858784895
 20
140.1703951367
 11
125.5858784895
 21
133.7203951367
  0
LINE
  5
2E3
100
AcDbEntity
  8
0_COMPONENTS
100
AcDbLine
 62
7
  6
CONTINUOUS
 10
125.5858784895
 20
125.2203951367
 11
125.5858784895
 21
115.7203951367
  0
LINE
  5
2E4
100
AcDbEntity
  8
0_COMPONENTS
100
AcDbLine
 62
7
  6
CONTINUOUS
 10
84.3358784895
 20
125.4703951367
 11
84.0858784895
 21
125.2203951367
  0
LINE
  5
2E5
100
AcDbEntity
  8
0
100
AcDbLine
 62
7
  6
CONTINUOUS
 10
142.7181597395
 20
189.9703951367
 11
66.9535972395
 21
189.9703951367
  0
LINE
  5
2E6
100
AcDbEntity
  8
0
100
AcDbLine
 62
7
  6
CONTINUOUS
 10
154.8358784895
 20
164.2227998725
 11
152.4584737537
 21
165.5953951367
  0
LINE
  5
2E7
100
AcDbEntity
  8
0_COMPONENTS
100
AcDbLine
 62
7
  6
CONTINUOUS
 10
125.3358784895
 20
110.0694146501
 11
125.3164591649
 21
109.8732985134
  0
LINE
  5
2E8
100
AcDbEntity
  8
0_COMPONENTS
100
AcDbLine
 62
7
  6
CONTINUOUS
 10
125.5858784895
 20
133.7203951367
 11
125.3358784895
 21
132.4703951367
  0
LINE
  5
2E9
100
AcDbEntity
  8
0
100
AcDbLine
 62
7
  6
CONTINUOUS
 10
152.4584737537
 20
169.3453951367
 11
154.8358784895
 21
170.7179904009
  0
LINE
  5
2EA
100
AcDbEntity
  8
0_COMPONENTS
100
AcDbLine
 62
7
  6
CONTINUOUS
 10
125.3164591649
 20
109.8732985134
 11
124.9966552624
 21
108.2742790009
  0
LINE
  5
2EB
100
AcDbEntity
  8
0
100
AcDbLine
 62
7
  6
CONTINUOUS
 10
142.3858784895
 20
188.7303046293
 11
142.7181597395
 21
189.9703951367
  0
LINE
  5
2EC
100
AcDbEntity
  8
0
100
AcDbLine
 62
7
  6
CONTINUOUS
 10
116.4613916283
 20
227.3703951367
 11
116.5642138988
 21
227.0545710332
  0
LINE
  5
2ED
100
AcDbEntity
  8
0
100
AcDbLine
 62
7
  6
CONTINUOUS
 10
140.4384160082
 20
235.4704779235
 11
142.7181597395
 21
189.9703951367
  0
LINE
  5
2EE
100
AcDbEntity
  8
0
100
AcDbLine
 62
7
  6
CONTINUOUS
 10
142.3858784895
 20
188.2703951367
 11
142.3858784895
 21
188.7303046293
  0
LINE
  5
2EF
100
AcDbEntity
  8
0
100
AcDbLine
 62
7
  6
CONTINUOUS
 10
93.3258784895
 20
237.3703951367
 11
94.8258784895
 21
235.8703951367
  0
LINE
  5
2F0
100
AcDbEntity
  8
0
100
AcDbLine
 62
7
  6
CONTINUOUS
 10
150.8358784895
 20
165.5953951367
 11
150.8358784895
 21
169.3453951367
  0
LINE
  5
2F1
100
AcDbEntity
  8
0_COMPONENTS
100
AcDbLine
 62
7
  6
CONTINUOUS
 10
124.9698530858
 20
111.9703951367
 11
125.3358784895
 21
112.604369733
  0
LINE
  5
2F2
100
AcDbEntity
  8
0
100
AcDbLine
 62
7
  6
CONTINUOUS
 10
154.8358784895
 20
159.0203951367
 11
154.3358784895
 21
158.5203951367
  0
LINE
  5
2F3
100
AcDbEntity
  8
0
100
AcDbLine
 62
7
  6
CONTINUOUS
 10
154.3358784895
 20
187.4703951367
 11
154.8358784895
 21
186.9703951367
  0
LINE
  5
2F4
100
AcDbEntity
  8
0
100
AcDbLine
 62
7
  6
CONTINUOUS
 10
154.8358784895
 20
186.9703951367
 11
154.8358784895
 21
185.9703951367
  0
LINE
  5
2F5
100
AcDbEntity
  8
0
100
AcDbLine
 62
7
  6
CONTINUOUS
 10
154.8358784895
 20
174.9703951367
 11
154.8358784895
 21
170.7179904009
  0
LINE
  5
2F6
100
AcDbEntity
  8
0
100
AcDbLine
 62
7
  6
CONTINUOUS
 10
154.8358784895
 20
164.2227998725
 11
154.8358784895
 21
159.0203951367
  0
LINE
  5
2F7
100
AcDbEntity
  8
0_COMPONENTS
100
AcDbLine
 62
7
  6
CONTINUOUS
 10
125.5858784895
 20
115.7203951367
 11
125.3358784895
 21
115.4703951367
  0
LINE
  5
2F8
100
AcDbEntity
  8
0
100
AcDbLine
 62
7
  6
CONTINUOUS
 10
116.5642138988
 20
227.0545710332
 11
93.1075430803
 21
227.0545710332
  0
LINE
  5
2F9
100
AcDbEntity
  8
0
100
AcDbLine
 62
7
  6
CONTINUOUS
 10
92.776951141
 20
227.3703951367
 11
116.894805838
 21
227.3703951367
  0
LINE
  5
2FA
100
AcDbEntity
  8
0
100
AcDbLine
 62
7
  6
CONTINUOUS
 10
88.7402725115
 20
229.3703951367
 11
94.8258784895
 21
229.3703951367
  0
LINE
  5
2FB
100
AcDbEntity
  8
0
100
AcDbLine
 62
7
  6
CONTINUOUS
 10
114.8458784895
 20
229.3703951367
 11
120.9314844697
 21
229.3703951367
  0
LINE
  5
2FC
100
AcDbEntity
  8
0
100
AcDbLine
 62
7
  6
CONTINUOUS
 10
69.2333409708
 20
235.4704779235
 11
89.7446246101
 21
235.4704779235
  0
LINE
  5
2FD
100
AcDbEntity
  8
0
100
AcDbLine
 62
7
  6
CONTINUOUS
 10
119.927132369
 20
235.4704779235
 11
140.4384160082
 21
235.4704779235
  0
LINE
  5
2FE
100
AcDbEntity
  8
0
100
AcDbLine
 62
7
  6
CONTINUOUS
 10
89.8975506556
 20
235.8703951367
 11
94.8258784895
 21
235.8703951367
  0
LINE
  5
2FF
100
AcDbEntity
  8
0
100
AcDbLine
 62
7
  6
CONTINUOUS
 10
114.8458784895
 20
235.8703951367
 11
119.7742063235
 21
235.8703951367
  0
LINE
  5
300
100
AcDbEntity
  8
0
100
AcDbLine
 62
7
  6
CONTINUOUS
 10
93.3258784895
 20
237.3703951367
 11
71.2311325559
 21
237.3703951367
  0
LINE
  5
301
100
AcDbEntity
  8
0
100
AcDbLine
 62
7
  6
CONTINUOUS
 10
116.3458784895
 20
237.3703951367
 11
138.4409217189
 21
237.3703951367
  0
ARC
  5
302
100
AcDbEntity
  8
0
100
AcDbCircle
 62
7
  6
CONTINUOUS
 10
14.994406934
 20
-9.5514655845
 40
200.6581014811
100
AcDbArc
 50
59.9995728926
 51
60.1606311208
  0
ARC
  5
303
100
AcDbEntity
  8
0
100
AcDbCircle
 62
7
  6
CONTINUOUS
 10
56.3085986587
 20
106.494784941
 40
87.3379083678
100
AcDbArc
 50
47.3360966616
 51
47.4897498484
  0
ARC
  5
304
100
AcDbEntity
  8
0
100
AcDbCircle
 62
7
  6
CONTINUOUS
 10
58.7262388702
 20
138.2473087402
 40
29.995975525
100
AcDbArc
 50
59.9931789793
 51
60.852911509
  0
ARC
  5
305
100
AcDbEntity
  8
0
100
AcDbCircle
 62
7
  6
CONTINUOUS
 10
43.9670802285
 20
162.6526116637
 40
29.774107188
100
AcDbArc
 50
38.4257817934
 51
42.2508363995
  0
ARC
  5
306
100
AcDbEntity
  8
GIANNI_ASSI
100
AcDbCircle
 62
7
  6
CONTINUOUS
 10
141.8118662887
 20
142.9714766387
 40
19.5941918226
100
AcDbArc
 50
173.7099482055
 51
184.394085006
  0
ARC
  5
307
100
AcDbEntity
  8
0
100
AcDbCircle
 62
7
  6
CONTINUOUS
 10
124.0858784895
 20
156.5203951367
 40
2.0
100
AcDbArc
 50
90.0000000005
 51
180.0
  0
ARC
  5
308
100
AcDbEntity
  8
0
100
AcDbCircle
 62
7
  6
CONTINUOUS
 10
85.5858784895
 20
156.5203951367
 40
2.0
100
AcDbArc
 50
0.0
 51
89.9999999995
  0
ARC
  5
309
100
AcDbEntity
  8
0_COMPONENTS
100
AcDbCircle
 62
7
  6
CONTINUOUS
 10
125.8358784895
 20
111.4703951367
 40
1.0
100
AcDbArc
 50
150.0
 51
240.0
  0
ARC
  5
30A
100
AcDbEntity
  8
0_COMPONENTS
100
AcDbCircle
 62
7
  6
CONTINUOUS
 10
83.8358784895
 20
111.4703951367
 40
1.0
100
AcDbArc
 50
300.0
 51
30.0
  0
ARC
  5
30B
100
AcDbEntity
  8
0_COMPONENTS
100
AcDbCircle
 62
7
  6
CONTINUOUS
 10
85.6556823923
 20
108.4703951367
 40
1.0
100
AcDbArc
 50
191.3099325163
 51
270.0000001922
  0
ARC
  5
30C
100
AcDbEntity
  8
0_COMPONENTS
100
AcDbCircle
 62
7
  6
CONTINUOUS
 10
124.0160745868
 20
108.4703951367
 40
1.0
100
AcDbArc
 50
269.9999998078
 51
348.6900674837
  0
ARC
  5
30D
100
AcDbEntity
  8
0_COMPONENTS
100
AcDbCircle
 62
7
  6
CONTINUOUS
 10
84.3858784895
 20
140.1703951367
 40
0.3
100
AcDbArc
 50
89.9999965194
 51
180.0
  0
ARC
  5
30E
100
AcDbEntity
  8
0_COMPONENTS
100
AcDbCircle
 62
7
  6
CONTINUOUS
 10
125.2858784895
 20
140.1703951367
 40
0.3
100
AcDbArc
 50
0.0
 51
90.0000034806
  0
ARC
  5
30F
100
AcDbEntity
  8
0
100
AcDbCircle
 62
7
  6
CONTINUOUS
 10
15.5074768407
 20
343.6780521941
 40
199.7827015773
100
AcDbArc
 50
299.8137498514
 51
300.0325811481
  0
ARC
  5
310
100
AcDbEntity
  8
0
100
AcDbCircle
 62
7
  6
CONTINUOUS
 10
50.7933538357
 20
181.9537563875
 40
32.4330976181
100
AcDbArc
 50
314.5117753709
 51
315.0007545144
  0
ARC
  5
311
100
AcDbEntity
  8
0
100
AcDbCircle
 62
7
  6
CONTINUOUS
 10
58.7262388705
 20
196.6934815327
 40
29.9959755243
100
AcDbArc
 50
299.147088491
 51
300.0068210207
  0
ARC
  5
312
100
AcDbEntity
  8
0
100
AcDbCircle
 62
7
  6
CONTINUOUS
 10
104.8358784895
 20
172.5203951367
 40
10.0
100
AcDbArc
 50
0.0
 51
180.0
  0
ARC
  5
313
100
AcDbEntity
  8
0
100
AcDbCircle
 62
7
  6
CONTINUOUS
 10
63.3358784895
 20
172.5203951367
 40
10.0
100
AcDbArc
 50
0.0
 51
68.2395607054
  0
ARC
  5
314
100
AcDbEntity
  8
0
100
AcDbCircle
 62
7
  6
CONTINUOUS
 10
63.3358784895
 20
172.5203951367
 40
9.5
100
AcDbArc
 50
0.0
 51
65.3868462317
  0
ARC
  5
315
100
AcDbEntity
  8
0
100
AcDbCircle
 62
7
  6
CONTINUOUS
 10
104.8358784895
 20
172.5203951367
 40
9.5
100
AcDbArc
 50
0.0
 51
180.0
  0
CIRCLE
  5
316
100
AcDbEntity
  8
0
100
AcDbCircle
 62
7
  6
CONTINUOUS
 10
104.8358784895
 20
202.4703951367
 40
6.0
  0
ARC
  5
317
100
AcDbEntity
  8
0
100
AcDbCircle
 62
7
  6
CONTINUOUS
 10
112.8458784895
 20
229.3703951367
 40
2.0
100
AcDbArc
 50
270.0
 51
360.0
  0
ARC
  5
318
100
AcDbEntity
  8
0
100
AcDbCircle
 62
7
  6
CONTINUOUS
 10
96.8258784895
 20
229.3703951367
 40
2.0
100
AcDbArc
 50
180.0
 51
270.0
  0
ARC
  5
319
100
AcDbEntity
  8
0
100
AcDbCircle
 62
7
  6
CONTINUOUS
 10
138.4409217189
 20
235.3703951367
 40
2.0
100
AcDbArc
 50
2.868358622
 51
90.0
  0
ARC
  5
31A
100
AcDbEntity
  8
0
100
AcDbCircle
 62
7
  6
CONTINUOUS
 10
71.2308352601
 20
235.3703951367
 40
2.0
100
AcDbArc
 50
90.0
 51
177.131641378
  0
ARC
  5
31B
100
AcDbEntity
  8
0
100
AcDbCircle
 62
7
  6
CONTINUOUS
 10
143.3858784895
 20
188.2703951367
 40
1.0
100
AcDbArc
 50
180.0
 51
233.2480179594
  0
ARC
  5
31C
100
AcDbEntity
  8
0
100
AcDbCircle
 62
7
  6
CONTINUOUS
 10
66.2858784895
 20
188.2703951367
 40
1.0
100
AcDbArc
 50
306.7519820406
 51
360.0
  0
ARC
  5
31D
100
AcDbEntity
  8
0
100
AcDbCircle
 62
7
  6
CONTINUOUS
 10
174.2703460804
 20
-77.1273847468
 40
264.5204223913
100
AcDbArc
 50
113.4229294509
 51
114.1599235294
  0
ARC
  5
31E
100
AcDbEntity
  8
0
100
AcDbCircle
 62
7
  6
CONTINUOUS
 10
194.6773883616
 20
-9.5515381996
 40
200.6581835259
100
AcDbArc
 50
119.8393680541
 51
120.0004262151
  0
ARC
  5
31F
100
AcDbEntity
  8
0
100
AcDbCircle
 62
7
  6
CONTINUOUS
 10
153.3630588941
 20
106.4948931152
 40
87.3377614419
100
AcDbArc
 50
132.5102500223
 51
132.6639034676
  0
ARC
  5
320
100
AcDbEntity
  8
0
100
AcDbCircle
 62
7
  6
CONTINUOUS
 10
174.2703460804
 20
412.0681750203
 40
264.5204223913
100
AcDbArc
 50
245.8400764706
 51
246.5770705491
  0
ARC
  5
321
100
AcDbEntity
  8
0
100
AcDbCircle
 62
7
  6
CONTINUOUS
 10
274.3212746363
 20
258.2690312522
 40
230.7498529739
100
AcDbArc
 50
205.4747658903
 51
205.6123666157
  0
ARC
  5
322
100
AcDbEntity
  8
0
100
AcDbCircle
 62
7
  6
CONTINUOUS
 10
194.9205640865
 20
344.9917387933
 40
201.2985275704
100
AcDbArc
 50
239.9681998903
 51
240.185383363
  0
LINE
  5
323
100
AcDbEntity
  8
0_COMPONENTS
100
AcDbLine
 62
7
  6
CONTINUOUS
 10
84.0871618735
 20
139.184007076
 11
84.0858784896
 21
139.2203951389
  0
SPLINE
  5
324
100
AcDbEntity
  8
0_COMPONENTS
100
AcDbSpline
 62
7
  6
CONTINUOUS
 70
0
 71
3
 72
14
 73
10
 74
0
 42
0.0000001
 43
0.0000001
 44
0.0000000001
 40
0.0
 40
0.0
 40
0.0
 40
0.0
 40
0.3826550407
 40
0.5554938353
 40
0.7069852316
 40
0.8313935042
 40
0.9238249098
 40
0.9807457844
 40
1.0
 40
1.0
 40
1.0
 40
1.0
 10
84.0994371362
 20
138.4703951367
 30
0.0
 10
84.0994371362
 20
138.3747108927
 30
0.0
 10
84.0984635379
 20
138.2358051192
 30
0.0
 10
84.0954925591
 20
138.0590456586
 30
0.0
 10
84.0928653389
 20
137.9468657224
 30
0.0
 10
84.0904881416
 20
137.8547982607
 30
0.0
 10
84.0878842857
 20
137.78637831
 30
0.0
 10
84.0872183265
 20
137.7442416242
 30
0.0
 10
84.0857133051
 20
137.7252068862
 30
0.0
 10
84.08587849
 20
137.7203951361
 30
0.0
  0
LINE
  5
325
100
AcDbEntity
  8
0_COMPONENTS
100
AcDbLine
 62
7
  6
CONTINUOUS
 10
84.08587849
 20
137.720395136
 11
84.0871702829
 21
137.7570283667
  0
SPLINE
  5
326
100
AcDbEntity
  8
0_COMPONENTS
100
AcDbSpline
 62
7
  6
CONTINUOUS
 70
0
 71
3
 72
22
 73
18
 74
0
 42
0.0000001
 43
0.0000001
 44
0.0000000001
 40
0.0
 40
0.0
 40
0.0
 40
0.0
 40
0.0012124357
 40
0.004837228
 40
0.0108556236
 40
0.0192488704
 40
0.0299982175
 40
0.0430849152
 40
0.0761708219
 40
0.1181540748
 40
0.1686037935
 40
0.2270801621
 40
0.2930086544
 40
0.4444968253
 40
0.6173374318
 40
0.8051073691
 40
1.0
 40
1.0
 40
1.0
 40
1.0
 10
84.0858784896
 20
139.2203951389
 30
0.0
 10
84.0861787045
 20
139.2203528796
 30
0.0
 10
84.0855207843
 20
139.2185105883
 30
0.0
 10
84.0862957138
 20
139.2164079744
 30
0.0
 10
84.0860738778
 20
139.2115544659
 30
0.0
 10
84.0864662853
 20
139.2054191532
 30
0.0
 10
84.0866842359
 20
139.1973063601
 30
0.0
 10
84.0872088578
 20
139.1831091412
 30
0.0
 10
84.0879390374
 20
139.1610601362
 30
0.0
 10
84.0889724567
 20
139.1296980939
 30
0.0
 10
84.0901362238
 20
139.0919778763
 30
0.0
 10
84.0914034922
 20
139.0482739833
 30
0.0
 10
84.0932486775
 20
138.9793100597
 30
0.0
 10
84.095475776
 20
138.8817497281
 30
0.0
 10
84.0976497569
 20
138.7537148577
 30
0.0
 10
84.0990937138
 20
138.6148155206
 30
0.0
 10
84.0994371362
 20
138.5191288433
 30
0.0
 10
84.0994371362
 20
138.4703951367
 30
0.0
  0
SPLINE
  5
327
100
AcDbEntity
  8
0
100
AcDbSpline
 62
7
  6
CONTINUOUS
 70
0
 71
3
 72
11
 73
7
 74
0
 42
0.0000001
 43
0.0000001
 44
0.0000000001
 40
0.0
 40
0.0
 40
0.0
 40
0.0
 40
0.15138567
 40
0.5
 40
0.8486143301
 40
1.0
 40
1.0
 40
1.0
 40
1.0
 10
154.8358784895
 20
174.9703951367
 30
0.0
 10
154.7809928752
 20
175.523555552
 30
0.0
 10
154.6265654629
 20
177.3534267908
 30
0.0
 10
154.5169907296
 20
180.4703951368
 30
0.0
 10
154.6265654629
 20
183.5873634827
 30
0.0
 10
154.7809928752
 20
185.4172347215
 30
0.0
 10
154.8358784895
 20
185.9703951367
 30
0.0
  0
LINE
  5
328
100
AcDbEntity
  8
GIANNI_ASSI
100
AcDbLine
 62
7
  6
CONTINUOUS
 10
122.335643767
 20
145.1182488361
 11
122.3358784895
 21
145.1203951367
  0
SPLINE
  5
329
100
AcDbEntity
  8
0
100
AcDbSpline
 62
7
  6
CONTINUOUS
 70
0
 71
3
 72
32
 73
28
 74
0
 42
0.0000001
 43
0.0000001
 44
0.0000000001
 40
0.0
 40
0.0
 40
0.0
 40
0.0
 40
0.0614403897
 40
0.1215752696
 40
0.1802013083
 40
0.2088587209
 40
0.2370075809
 40
0.2645721691
 40
0.2914482924
 40
0.3174970763
 40
0.3425772824
 40
0.354792603
 40
0.3669032042
 40
0.3791631813
 40
0.3919923831
 40
0.405772158
 40
0.4205793334
 40
0.4523981246
 40
0.4858127201
 40
0.5198989465
 40
0.5887837132
 40
0.6579231262
 40
0.7269764736
 40
0.7957850692
 40
0.8642545583
 40
0.9323328626
 40
1.0
 40
1.0
 40
1.0
 40
1.0
 10
89.8975506556
 20
235.8703951367
 30
0.0
 10
89.8368204914
 20
235.9088708614
 30
0.0
 10
89.7171869006
 20
235.9858592735
 30
0.0
 10
89.5420345321
 20
236.1032800788
 30
0.0
 10
89.4012841476
 20
236.2030663246
 30
0.0
 10
89.2935674577
 20
236.2845771628
 30
0.0
 10
89.2164891437
 20
236.3462921068
 30
0.0
 10
89.1433214742
 20
236.4094646564
 30
0.0
 10
89.0753405275
 20
236.4747584391
 30
0.0
 10
89.0147455673
 20
236.5431505482
 30
0.0
 10
88.973041225
 20
236.6050147329
 30
0.0
 10
88.9498606407
 20
236.6581837088
 30
0.0
 10
88.9394913399
 20
236.6999925151
 30
0.0
 10
88.9384678447
 20
236.7439385175
 30
0.0
 10
88.9491746384
 20
236.7886749422
 30
0.0
 10
88.9719251511
 20
236.831940931
 30
0.0
 10
89.0167473578
 20
236.8870221281
 30
0.0
 10
89.0906031849
 20
236.945934557
 30
0.0
 10
89.1909133088
 20
237.004847459
 30
0.0
 10
89.3351331967
 20
237.0735351518
 30
0.0
 10
89.523985938
 20
237.1443205838
 30
0.0
 10
89.7563006248
 20
237.2135985146
 30
0.0
 10
89.9920164308
 20
237.2698401001
 30
0.0
 10
90.2294762418
 20
237.3139874733
 30
0.0
 10
90.4677166943
 20
237.3461004019
 30
0.0
 10
90.7059593078
 20
237.3658391647
 30
0.0
 10
90.8648297082
 20
237.3703951367
 30
0.0
 10
90.9440082577
 20
237.3703951367
 30
0.0
  0
SPLINE
  5
32A
100
AcDbEntity
  8
0
100
AcDbSpline
 62
7
  6
CONTINUOUS
 70
0
 71
3
 72
9
 73
5
 74
0
 42
0.0000001
 43
0.0000001
 44
0.0000000001
 40
0.0
 40
0.0
 40
0.0
 40
0.0
 40
0.4997623096
 40
1.0
 40
1.0
 40
1.0
 40
1.0
 10
89.7446246101
 20
235.4704779235
 30
0.0
 10
89.7538482024
 20
235.5416275678
 30
0.0
 10
89.792126123
 20
235.6818103082
 30
0.0
 10
89.8593702537
 20
235.809572439
 30
0.0
 10
89.8975506556
 20
235.8703951367
 30
0.0
  0
SPLINE
  5
32B
100
AcDbEntity
  8
0
100
AcDbSpline
 62
7
  6
CONTINUOUS
 70
0
 71
3
 72
11
 73
7
 74
0
 42
0.0000001
 43
0.0000001
 44
0.0000000001
 40
0.0
 40
0.0
 40
0.0
 40
0.0
 40
0.2492850945
 40
0.4987995937
 40
0.7488683786
 40
1.0
 40
1.0
 40
1.0
 40
1.0
 10
118.0817101445
 20
227.4484327271
 30
0.0
 10
117.9641433981
 20
227.3897381086
 30
0.0
 10
117.7241447786
 20
227.2814183218
 30
0.0
 10
117.3494539456
 20
227.1547770777
 30
0.0
 10
116.9611513612
 20
227.0732887954
 30
0.0
 10
116.6965911961
 20
227.0545710332
 30
0.0
 10
116.5642138988
 20
227.0545710332
 30
0.0
  0
SPLINE
  5
32C
100
AcDbEntity
  8
0
100
AcDbSpline
 62
7
  6
CONTINUOUS
 70
0
 71
3
 72
9
 73
5
 74
0
 42
0.0000001
 43
0.0000001
 44
0.0000000001
 40
0.0
 40
0.0
 40
0.0
 40
0.0
 40
0.5002376841
 40
1.0
 40
1.0
 40
1.0
 40
1.0
 10
119.7742063235
 20
235.8703951367
 30
0.0
 10
119.8123867249
 20
235.8095724398
 30
0.0
 10
119.8796308561
 20
235.6818103092
 30
0.0
 10
119.9179087766
 20
235.5416275687
 30
0.0
 10
119.927132369
 20
235.4704779235
 30
0.0
  0
SPLINE
  5
32D
100
AcDbEntity
  8
0
100
AcDbSpline
 62
7
  6
CONTINUOUS
 70
0
 71
3
 72
9
 73
5
 74
0
 42
0.0000001
 43
0.0000001
 44
0.0000000001
 40
0.0
 40
0.0
 40
0.0
 40
0.0
 40
0.5035484556
 40
1.0
 40
1.0
 40
1.0
 40
1.0
 10
91.5900468346
 20
227.4484327271
 30
0.0
 10
91.7891994974
 20
227.433780692
 30
0.0
 10
92.1836223484
 20
227.393023702
 30
0.0
 10
92.5800746207
 20
227.3703951367
 30
0.0
 10
92.776951141
 20
227.3703951367
 30
0.0
  0
SPLINE
  5
32E
100
AcDbEntity
  8
0
100
AcDbSpline
 62
7
  6
CONTINUOUS
 70
0
 71
3
 72
22
 73
18
 74
0
 42
0.0000001
 43
0.0000001
 44
0.0000000001
 40
0.0
 40
0.0
 40
0.0
 40
0.0
 40
0.1243503752
 40
0.2482688507
 40
0.3718995102
 40
0.4953844504
 40
0.5571384373
 40
0.6189353641
 40
0.6808275378
 40
0.7429041175
 40
0.8053344861
 40
0.836800701
 40
0.8685305761
 40
0.9006482556
 40
0.9332988093
 40
0.9665078984
 40
1.0
 40
1.0
 40
1.0
 40
1.0
 10
91.5900468346
 20
227.4484327271
 30
0.0
 10
91.4415260218
 20
227.4762928135
 30
0.0
 10
91.147466019
 20
227.5458951617
 30
0.0
 10
90.7177986
 20
227.6875545705
 30
0.0
 10
90.3017609793
 20
227.8625014886
 30
0.0
 10
89.9674125416
 20
228.0339246716
 30
0.0
 10
89.7086119769
 20
228.1861813059
 30
0.0
 10
89.5192079899
 20
228.3084159836
 30
0.0
 10
89.3353180635
 20
228.4395260402
 30
0.0
 10
89.1584561705
 20
228.5812460707
 30
0.0
 10
89.019627092
 20
228.7107694821
 30
0.0
 10
88.9175577373
 20
228.8244435951
 30
0.0
 10
88.8472101829
 20
228.9166684795
 30
0.0
 10
88.7866682808
 20
229.0174770278
 30
0.0
 10
88.7420257135
 20
229.1286292387
 30
0.0
 10
88.7226595932
 20
229.2490483678
 30
0.0
 10
88.7312478822
 20
229.3307084782
 30
0.0
 10
88.7402725063
 20
229.3703951131
 30
0.0
  0
SPLINE
  5
32F
100
AcDbEntity
  8
0
100
AcDbSpline
 62
7
  6
CONTINUOUS
 70
0
 71
3
 72
32
 73
28
 74
0
 42
0.0000001
 43
0.0000001
 44
0.0000000001
 40
0.0
 40
0.0
 40
0.0
 40
0.0
 40
0.067667061
 40
0.1357453038
 40
0.2042147055
 40
0.2730232149
 40
0.3420764688
 40
0.4112158027
 40
0.480100512
 40
0.5141867404
 40
0.5476013974
 40
0.5794200843
 40
0.5942276734
 40
0.6080079057
 40
0.620837149
 40
0.6330975332
 40
0.6452083964
 40
0.6574232711
 40
0.682503591
 40
0.7085522988
 40
0.7354283318
 40
0.7629928399
 40
0.7911416617
 40
0.8197990365
 40
0.8784249552
 40
0.938559723
 40
1.0
 40
1.0
 40
1.0
 40
1.0
 10
118.7277487214
 20
237.3703951367
 30
0.0
 10
118.8069271764
 20
237.3703951367
 30
0.0
 10
118.9657974047
 20
237.3658391674
 30
0.0
 10
119.2040397435
 20
237.3461004685
 30
0.0
 10
119.4422799115
 20
237.3139876059
 30
0.0
 10
119.6797394129
 20
237.269840359
 30
0.0
 10
119.9154549059
 20
237.2135988319
 30
0.0
 10
120.1477693767
 20
237.1443212127
 30
0.0
 10
120.3366220387
 20
237.0735359735
 30
0.0
 10
120.4808419387
 20
237.0048484452
 30
0.0
 10
120.5811524837
 20
236.9459361416
 30
0.0
 10
120.655007989
 20
236.8870229227
 30
0.0
 10
120.6998321999
 20
236.8319422299
 30
0.0
 10
120.7225822038
 20
236.7886743084
 30
0.0
 10
120.7332864568
 20
236.7439368055
 30
0.0
 10
120.7322683427
 20
236.6999895926
 30
0.0
 10
120.7218931163
 20
236.6581817797
 30
0.0
 10
120.6987167284
 20
236.6050114909
 30
0.0
 10
120.6570088983
 20
236.5431494593
 30
0.0
 10
120.5964150057
 20
236.4747570229
 30
0.0
 10
120.5284340358
 20
236.4094635027
 30
0.0
 10
120.4552667845
 20
236.346290911
 30
0.0
 10
120.3781884472
 20
236.2845762731
 30
0.0
 10
120.2704718089
 20
236.2030657738
 30
0.0
 10
120.1297218123
 20
236.1032795456
 30
0.0
 10
119.9545697284
 20
235.9858590608
 30
0.0
 10
119.8349363724
 20
235.9088707884
 30
0.0
 10
119.7742063235
 20
235.8703951367
 30
0.0
  0
SPLINE
  5
330
100
AcDbEntity
  8
0
100
AcDbSpline
 62
7
  6
CONTINUOUS
 70
0
 71
3
 72
11
 73
7
 74
0
 42
0.0000001
 43
0.0000001
 44
0.0000000001
 40
0.0
 40
0.0
 40
0.0
 40
0.0
 40
0.2500858738
 40
0.5001492856
 40
0.7501515876
 40
1.0
 40
1.0
 40
1.0
 40
1.0
 10
119.927132369
 20
235.4704779235
 30
0.0
 10
119.9934077664
 20
234.9592377475
 30
0.0
 10
120.1313478217
 20
233.9374931275
 30
0.0
 10
120.359243238
 20
232.407962164
 30
0.0
 10
120.6164375273
 20
230.8835879668
 30
0.0
 10
120.817283881
 20
229.8726029867
 30
0.0
 10
120.9314844697
 20
229.3703951367
 30
0.0
  0
SPLINE
  5
331
100
AcDbEntity
  8
0
100
AcDbSpline
 62
7
  6
CONTINUOUS
 70
0
 71
3
 72
35
 73
31
 74
0
 42
0.0000001
 43
0.0000001
 44
0.0000000001
 40
0.0
 40
0.0
 40
0.0
 40
0.0
 40
0.062600996
 40
0.0939080019
 40
0.1251831234
 40
0.1564243444
 40
0.1876341627
 40
0.2188206121
 40
0.2499948849
 40
0.2811695241
 40
0.3123576734
 40
0.3435699573
 40
0.3748133614
 40
0.4060905251
 40
0.4373987733
 40
0.5000000013
 40
0.5626012281
 40
0.5939094765
 40
0.6251866404
 40
0.6564300444
 40
0.6876423281
 40
0.7188304775
 40
0.750005117
 40
0.78117939
 40
0.8123658392
 40
0.8435756571
 40
0.8748168779
 40
0.9060919997
 40
0.9373990058
 40
1.0
 40
1.0
 40
1.0
 40
1.0
 10
94.3470039136
 20
172.5203951367
 30
0.0
 10
94.3467578237
 20
173.2079715122
 30
0.0
 10
94.449034148
 20
174.2431248407
 30
0.0
 10
94.7830287151
 20
175.5784166601
 30
0.0
 10
95.1309059002
 20
176.5503425722
 30
0.0
 10
95.5710953031
 20
177.482675518
 30
0.0
 10
96.0998793933
 20
178.3667531993
 30
0.0
 10
96.7129366367
 20
179.1936662157
 30
0.0
 10
97.4032173385
 20
179.9567415879
 30
0.0
 10
98.1648833209
 20
180.648672562
 30
0.0
 10
98.9914164445
 20
181.2623355193
 30
0.0
 10
99.874547926
 20
181.7927531261
 30
0.0
 10
100.806249992
 20
182.2345857402
 30
0.0
 10
101.7780020524
 20
182.5829479708
 30
0.0
 10
103.1134021492
 20
182.9181578498
 30
0.0
 10
104.8358784602
 20
183.08863794
 30
0.0
 10
106.5583548699
 20
182.9181578205
 30
0.0
 10
107.8937546974
 20
182.5829469828
 30
0.0
 10
108.8655069246
 20
182.2345853423
 30
0.0
 10
109.797209478
 20
181.7927537385
 30
0.0
 10
110.6803411675
 20
181.2623364044
 30
0.0
 10
111.5068738327
 20
180.6486727825
 30
0.0
 10
112.2685391303
 20
179.9567410615
 30
0.0
 10
112.9588195926
 20
179.1936655137
 30
0.0
 10
113.5718774213
 20
178.3667529743
 30
0.0
 10
114.1006625004
 20
177.4826758803
 30
0.0
 10
114.5408521244
 20
176.5503430075
 30
0.0
 10
114.888728463
 20
175.5784167187
 30
0.0
 10
115.2227210924
 20
174.2431246068
 30
0.0
 10
115.3250006906
 20
173.2079714918
 30
0.0
 10
115.3247530655
 20
172.5203951367
 30
0.0
  0
LINE
  5
332
100
AcDbEntity
  8
0
100
AcDbLine
 62
7
  6
CONTINUOUS
 10
114.8358787123
 20
170.59443144
 11
115.3247537432
 21
170.8764865949
  0
LINE
  5
333
100
AcDbEntity
  8
0
100
AcDbLine
 62
7
  6
CONTINUOUS
 10
94.3470034481
 20
170.8764872008
 11
94.8358783378
 21
170.5944316441
  0
SPLINE
  5
334
100
AcDbEntity
  8
0
100
AcDbSpline
 62
7
  6
CONTINUOUS
 70
0
 71
3
 72
18
 73
14
 74
0
 42
0.0000001
 43
0.0000001
 44
0.0000000001
 40
0.0
 40
0.0
 40
0.0
 40
0.0
 40
0.0985103036
 40
0.2042316101
 40
0.3178765902
 40
0.4398971456
 40
0.5041385678
 40
0.5704357008
 40
0.6386562134
 40
0.7086247328
 40
0.7800982937
 40
0.8527620775
 40
1.0
 40
1.0
 40
1.0
 40
1.0
 10
66.0061218588
 20
182.6720547844
 30
0.0
 10
66.4402180871
 20
182.5546028905
 30
0.0
 10
67.3249410059
 20
182.2508030598
 30
0.0
 10
68.6260848396
 20
181.5981056961
 30
0.0
 10
69.9079894772
 20
180.7018350857
 30
0.0
 10
70.9014041359
 20
179.7505904333
 30
0.0
 10
71.6318599826
 20
178.857089559
 30
0.0
 10
72.1448575347
 20
178.1072725492
 30
0.0
 10
72.6038629569
 20
177.2930475842
 30
0.0
 10
72.9978351526
 20
176.419342964
 30
0.0
 10
73.3163623222
 20
175.4936808877
 30
0.0
 10
73.6307474652
 20
174.1998876985
 30
0.0
 10
73.7274020272
 20
173.1925442415
 30
0.0
 10
73.7273191023
 20
172.5203951368
 30
0.0
  0
SPLINE
  5
335
100
AcDbEntity
  8
0
100
AcDbSpline
 62
7
  6
CONTINUOUS
 70
0
 71
3
 72
11
 73
7
 74
0
 42
0.0000001
 43
0.0000001
 44
0.0000000001
 40
0.0
 40
0.0
 40
0.0
 40
0.0
 40
0.2498484122
 40
0.4998507147
 40
0.7499141265
 40
1.0
 40
1.0
 40
1.0
 40
1.0
 10
88.7402725115
 20
229.3703951367
 30
0.0
 10
88.8544730999
 20
229.8726029863
 30
0.0
 10
89.0553194548
 20
230.8835879667
 30
0.0
 10
89.3125137385
 20
232.4079621654
 30
0.0
 10
89.5404091557
 20
233.937493129
 30
0.0
 10
89.6783492127
 20
234.959237748
 30
0.0
 10
89.7446246101
 20
235.4704779235
 30
0.0
  0
SPLINE
  5
336
100
AcDbEntity
  8
0
100
AcDbSpline
 62
7
  6
CONTINUOUS
 70
0
 71
3
 72
9
 73
5
 74
0
 42
0.0000001
 43
0.0000001
 44
0.0000000001
 40
0.0
 40
0.0
 40
0.0
 40
0.0
 40
0.4964515467
 40
1.0
 40
1.0
 40
1.0
 40
1.0
 10
116.894805838
 20
227.3703951367
 30
0.0
 10
117.0916823593
 20
227.3703951367
 30
0.0
 10
117.4881346315
 20
227.3930237031
 30
0.0
 10
117.8825574826
 20
227.433780692
 30
0.0
 10
118.0817101445
 20
227.4484327271
 30
0.0
  0
SPLINE
  5
337
100
AcDbEntity
  8
0
100
AcDbSpline
 62
7
  6
CONTINUOUS
 70
0
 71
3
 72
22
 73
18
 74
0
 42
0.0000001
 43
0.0000001
 44
0.0000000001
 40
0.0
 40
0.0
 40
0.0
 40
0.0
 40
0.0334921016
 40
0.0667011908
 40
0.0993517446
 40
0.1314694242
 40
0.1631992994
 40
0.1946655143
 40
0.2570958829
 40
0.3191724626
 40
0.3810646362
 40
0.442861563
 40
0.5046155499
 40
0.62810049
 40
0.7517311494
 40
0.8756496248
 40
1.0
 40
1.0
 40
1.0
 40
1.0
 10
120.9314844688
 20
229.3703951408
 30
0.0
 10
120.940509093
 20
229.3307085056
 30
0.0
 10
120.9490973865
 20
229.2490483954
 30
0.0
 10
120.929731273
 20
229.1286292637
 30
0.0
 10
120.8850887095
 20
229.0174770498
 30
0.0
 10
120.8245468095
 20
228.9166684988
 30
0.0
 10
120.7541992561
 20
228.8244436123
 30
0.0
 10
120.6521299021
 20
228.7107694969
 30
0.0
 10
120.5133008234
 20
228.5812460834
 30
0.0
 10
120.3364389298
 20
228.4395260509
 30
0.0
 10
120.1525490026
 20
228.3084159927
 30
0.0
 10
119.9631450146
 20
228.1861813135
 30
0.0
 10
119.7043444484
 20
228.0339246775
 30
0.0
 10
119.3699960086
 20
227.8625014926
 30
0.0
 10
118.9539583852
 20
227.6875545727
 30
0.0
 10
118.5242909632
 20
227.5458951625
 30
0.0
 10
118.2302309583
 20
227.4762928137
 30
0.0
 10
118.0817101445
 20
227.4484327271
 30
0.0
  0
LINE
  5
338
100
AcDbEntity
  8
0
100
AcDbLine
 62
7
  6
CONTINUOUS
 10
115.3247530655
 20
159.0203951367
 11
115.0801193624
 21
158.7761542638
  0
LINE
  5
339
100
AcDbEntity
  8
0
100
AcDbLine
 62
7
  6
CONTINUOUS
 10
94.3470039136
 20
159.0203951367
 11
94.5916376166
 21
158.7761542638
  0
SPLINE
  5
33A
100
AcDbEntity
  8
0
100
AcDbSpline
 62
7
  6
CONTINUOUS
 70
0
 71
3
 72
23
 73
19
 74
0
 42
0.0000001
 43
0.0000001
 44
0.0000000001
 40
0.0
 40
0.0
 40
0.0
 40
0.0
 40
0.1558335556
 40
0.3109375594
 40
0.4638991898
 40
0.538705098
 40
0.611502941
 40
0.6810515716
 40
0.7452515065
 40
0.8007939546
 40
0.8241653722
 40
0.8442689586
 40
0.8615339364
 40
0.8772484198
 40
0.910147639
 40
0.9295893841
 40
0.9511821372
 40
1.0
 40
1.0
 40
1.0
 40
1.0
 10
67.2925289352
 20
181.1572300461
 30
0.0
 10
67.2641462494
 20
181.1931027537
 30
0.0
 10
67.2081558608
 20
181.2651939708
 30
0.0
 10
67.1272506727
 20
181.37474304
 30
0.0
 10
67.0635743018
 20
181.4674004823
 30
0.0
 10
67.0166155966
 20
181.5421107881
 30
0.0
 10
66.9846754494
 20
181.5972902849
 30
0.0
 10
66.956962369
 20
181.6512722777
 30
0.0
 10
66.9354058767
 20
181.7025203369
 30
0.0
 10
66.9238198586
 20
181.7431935362
 30
0.0
 10
66.9212738695
 20
181.7722519438
 30
0.0
 10
66.9229874667
 20
181.7901437543
 30
0.0
 10
66.9286324045
 20
181.8049446549
 30
0.0
 10
66.9418234218
 20
181.8197712099
 30
0.0
 10
66.9624921318
 20
181.8252946782
 30
0.0
 10
66.9841119631
 20
181.8244560221
 30
0.0
 10
67.0101901219
 20
181.8198633088
 30
0.0
 10
67.029836318
 20
181.81312783
 30
0.0
 10
67.0431450947
 20
181.8078153554
 30
0.0
  0
SPLINE
  5
33B
100
AcDbEntity
  8
0
100
AcDbSpline
 62
7
  6
CONTINUOUS
 70
0
 71
3
 72
11
 73
7
 74
0
 42
0.0000001
 43
0.0000001
 44
0.0000000001
 40
0.0
 40
0.0
 40
0.0
 40
0.0
 40
0.2511316861
 40
0.5012004803
 40
0.7507149539
 40
1.0
 40
1.0
 40
1.0
 40
1.0
 10
93.1075430803
 20
227.0545710332
 30
0.0
 10
92.9751657489
 20
227.0545710332
 30
0.0
 10
92.7106055436
 20
227.0732887953
 30
0.0
 10
92.3223029393
 20
227.1547771083
 30
0.0
 10
91.9476121405
 20
227.2814183454
 30
0.0
 10
91.7076135582
 20
227.38973812
 30
0.0
 10
91.5900468346
 20
227.4484327271
 30
0.0
  0
SPLINE
  5
33C
100
AcDbEntity
  8
0
100
AcDbSpline
 62
7
  6
CONTINUOUS
 70
0
 71
3
 72
19
 73
15
 74
0
 42
0.0000001
 43
0.0000001
 44
0.0000000001
 40
0.0
 40
0.0
 40
0.0
 40
0.0
 40
0.1249436284
 40
0.2500649765
 40
0.312740213
 40
0.3754418333
 40
0.4381217064
 40
0.5007441103
 40
0.5632982709
 40
0.625776938
 40
0.6882007703
 40
0.7505949908
 40
0.8752548669
 40
1.0
 40
1.0
 40
1.0
 40
1.0
 10
104.8358784895
 20
208.9697687091
 30
0.0
 10
105.2595450722
 20
208.969767559
 30
0.0
 10
106.1096798924
 20
208.8863093452
 30
0.0
 10
107.1312968573
 20
208.5764161532
 30
0.0
 10
107.9001797342
 20
208.2126878048
 30
0.0
 10
108.4479440738
 20
207.8841437342
 30
0.0
 10
108.9607387181
 20
207.5036897412
 30
0.0
 10
109.4331533645
 20
207.0748547921
 30
0.0
 10
109.8609736602
 20
206.6024527306
 30
0.0
 10
110.2399813748
 20
206.0909116085
 30
0.0
 10
110.5670591552
 20
205.5452927344
 30
0.0
 10
110.9296977215
 20
204.779748173
 30
0.0
 10
111.2404782189
 20
203.7619042245
 30
0.0
 10
111.3266434188
 20
202.914371762
 30
0.0
 10
111.328246864
 20
202.4913812885
 30
0.0
  0
SPLINE
  5
33D
100
AcDbEntity
  8
0
100
AcDbSpline
 62
7
  6
CONTINUOUS
 70
0
 71
3
 72
21
 73
17
 74
0
 42
0.0000001
 43
0.0000001
 44
0.0000000001
 40
0.0
 40
0.0
 40
0.0
 40
0.0
 40
0.0624331936
 40
0.1248546775
 40
0.187241364
 40
0.24963865
 40
0.3120456768
 40
0.3744760306
 40
0.4369519686
 40
0.4994922987
 40
0.562092012
 40
0.6247431243
 40
0.6874134965
 40
0.7500587457
 40
0.8751208827
 40
1.0
 40
1.0
 40
1.0
 40
1.0
 10
98.3435101151
 20
202.4913812885
 30
0.0
 10
98.3444011815
 20
202.7031444527
 30
0.0
 10
98.366640588
 20
203.1268386287
 30
0.0
 10
98.4617453297
 20
203.7557521205
 30
0.0
 10
98.6176740939
 20
204.3723315639
 30
0.0
 10
98.8326165273
 20
204.9708285623
 30
0.0
 10
99.1048748345
 20
205.545706616
 30
0.0
 10
99.4321276546
 20
206.0914626169
 30
0.0
 10
99.8113008838
 20
206.6030859193
 30
0.0
 10
100.2392209575
 20
207.0754688457
 30
0.0
 10
100.7116685582
 20
207.504219321
 30
0.0
 10
101.2244330022
 20
207.8845590697
 30
0.0
 10
101.7721330293
 20
208.2129835775
 30
0.0
 10
102.540908613
 20
208.5765697312
 30
0.0
 10
103.5623395956
 20
208.8863459168
 30
0.0
 10
104.4123052331
 20
208.9697698472
 30
0.0
 10
104.8358784895
 20
208.9697687091
 30
0.0
  0
SPLINE
  5
33E
100
AcDbEntity
  8
0
100
AcDbSpline
 62
7
  6
CONTINUOUS
 70
0
 71
3
 72
19
 73
15
 74
0
 42
0.0000001
 43
0.0000001
 44
0.0000000001
 40
0.0
 40
0.0
 40
0.0
 40
0.0
 40
0.1237707418
 40
0.2479203919
 40
0.3102847447
 40
0.3728416744
 40
0.4355597414
 40
0.4984082384
 40
0.5613314204
 40
0.6242742964
 40
0.6871900134
 40
0.750027486
 40
0.8753195349
 40
1.0
 40
1.0
 40
1.0
 40
1.0
 10
104.8358784895
 20
195.9710215644
 30
0.0
 10
104.414328906
 20
195.9710216486
 30
0.0
 10
103.5677912023
 20
196.0534814785
 30
0.0
 10
102.5491069101
 20
196.3600951587
 30
0.0
 10
101.7802857742
 20
196.7213751409
 30
0.0
 10
101.2304432793
 20
197.0491916648
 30
0.0
 10
100.7142125278
 20
197.4304710702
 30
0.0
 10
100.2374963994
 20
197.862013709
 30
0.0
 10
99.8051413761
 20
198.3390336069
 30
0.0
 10
99.4223522956
 20
198.8569505947
 30
0.0
 10
99.0927267605
 20
199.4099242153
 30
0.0
 10
98.7291331565
 20
200.1851223201
 30
0.0
 10
98.4221341896
 20
201.2128471381
 30
0.0
 10
98.3417232768
 20
202.0667370462
 30
0.0
 10
98.3435101151
 20
202.4913812885
 30
0.0
  0
SPLINE
  5
33F
100
AcDbEntity
  8
0
100
AcDbSpline
 62
7
  6
CONTINUOUS
 70
0
 71
3
 72
20
 73
16
 74
0
 42
0.0000001
 43
0.0000001
 44
0.0000000001
 40
0.0
 40
0.0
 40
0.0
 40
0.0
 40
0.1245831298
 40
0.1872552236
 40
0.2499951348
 40
0.3128265715
 40
0.3757426919
 40
0.4386878452
 40
0.5016119551
 40
0.5644600402
 40
0.6271767769
 40
0.6897326482
 40
0.7520976912
 40
0.8762441356
 40
1.0
 40
1.0
 40
1.0
 40
1.0
 10
111.328246864
 20
202.4913812885
 30
0.0
 10
111.330047211
 20
202.0670037774
 30
0.0
 10
111.2695681597
 20
201.426601886
 30
0.0
 10
111.0662743639
 20
200.5986876486
 30
0.0
 10
110.8524122151
 20
199.9929634851
 30
0.0
 10
110.5794399054
 20
199.4106787122
 30
0.0
 10
110.249845543
 20
198.857623715
 30
0.0
 10
109.8670550359
 20
198.3395591547
 30
0.0
 10
109.4346732985
 20
197.8624198136
 30
0.0
 10
108.9579196029
 20
197.4307753274
 30
0.0
 10
108.4416448315
 20
197.0494065131
 30
0.0
 10
107.8917410734
 20
196.7215118183
 30
0.0
 10
107.1228236571
 20
196.3601597328
 30
0.0
 10
106.1040481889
 20
196.053486756
 30
0.0
 10
105.2574418136
 20
195.9710214802
 30
0.0
 10
104.8358784895
 20
195.9710215644
 30
0.0
  0
ENDSEC
  0
SECTION
  2
OBJECTS
  0
DICTIONARY
  5
C
100
AcDbDictionary
280
0
281
1
  3
ACAD_GROUP
350
D
  3
ACAD_MLINESTYLE
350
17
  3
ACAD_LAYOUT
350
1A
  3
ACAD_PLOTSETTINGS
350
19
  3
ACAD_PLOTSTYLENAME
350
E
  3
ACAD_TABLESTYLE
350
       340
  0
DICTIONARY
  5
D
102
{ACAD_REACTORS
330
C
102
}
100
AcDbDictionary
280
0
281
1
  0
ACDBDICTIONARYWDFLT
  5
E
102
{ACAD_REACTORS
330
C
102
}
100
AcDbDictionary
281
1
  3
Normal
350
F
100
AcDbDictionaryWithDefault
340
F
  0
DICTIONARY
  5
17
102
{ACAD_REACTORS
330
C
102
}
100
AcDbDictionary
280
0
281
1
  3
Standard
350
18
  0
DICTIONARY
  5
340
330
C
100
AcDbDictionary
281
1
  3
Standard
350
       343
  3
Standard1
350
       344
  0
DICTIONARY
  5
19
102
{ACAD_REACTORS
330
C
102
}
100
AcDbDictionary
281
1
  0
DICTIONARY
  5
1A
102
{ACAD_REACTORS
330
C
102
}
100
AcDbDictionary
281
1
  3
Model
350
341
  3
Layout1
350
342
  0
ACDBPLACEHOLDER
  5
F
102
{ACAD_REACTORS
330
E
102
}
  0
MLINESTYLE
  5
18
102
{ACAD_REACTORS
330
17
102
}
100
AcDbMlineStyle
  2
STANDARD
 70
0
  3

 62
256
 51
90.0
 52
90.0
 71
2
 49
0.5
 62
256
  6
BYLAYER
 49
-0.5
 62
256
  6
BYLAYER
  0
LAYOUT
  5
341
102
{ACAD_REACTORS
330
1A
102
}
100
AcDbPlotSettings
  1

  2
none_device
  4

  6

 40
0.0
 41
0.0
 42
0.0
 43
0.0
 44
210.0
 45
297.0
 46
0.0
 47
0.0
 48
0.0
 49
0.0
140
0.0
141
0.0
142
1.0
143
1.0
 70
1024
 72
1
 73
0
 74
0
  7

 75
0
147
1.0
148
0.0
149
0.0
100
AcDbLayout
  1
Model
 70
0
 71
0
 10
0.0
 20
0.0
 11
210.0
 21
297.0
 12
0.0
 22
0.0
 32
0.0
 14
0.0
 24
0.0
 34
0.0
 15
0.0
 25
0.0
 35
0.0
146
0.0
 13
0.0
 23
0.0
 33
0.0
 16
1.0
 26
0.0
 36
0.0
 17
0.0
 27
1.0
 37
0.0
 76
0
330
219
345
0
346
0
  0
LAYOUT
  5
342
102
{ACAD_REACTORS
330
1A
102
}
100
AcDbPlotSettings
  1

  2
none_device
  4

  6

 40
0.0
 41
0.0
 42
0.0
 43
0.0
 44
210.0
 45
297.0
 46
0.0
 47
0.0
 48
0.0
 49
0.0
140
0.0
141
0.0
142
1.0
143
1.0
 70
0
 72
1
 73
0
 74
0
  7

 75
0
147
1.0
148
0.0
149
0.0
100
AcDbLayout
  1
Layout1
 70
0
 71
1
 10
0.0
 20
0.0
 11
210.0
 21
297.0
 12
0.0
 22
0.0
 32
0.0
 14
0.0
 24
0.0
 34
0.0
 15
0.0
 25
0.0
 35
0.0
146
0.0
 13
0.0
 23
0.0
 33
0.0
 16
1.0
 26
0.0
 36
0.0
 17
0.0
 27
1.0
 37
0.0
 76
0
330
21A
345
0
346
0
  0
TABLESTYLE
  5
343
102
{ACAD_REACTORS
330
340
102
}
330
340
100
AcDbTableStyle
  3
Standard
 70
0
 71
0
 40
0.06
 41
0.06
280
1
281
1
  7
Standard
140
0.18
170
1
 62
0
 63
7
283
0
  7
Standard
140
0.18
170
1
 62
0
 63
7
283
0
  7
Standard
140
0.18
170
1
 62
0
 63
7
283
0
  0
TABLESTYLE
  5
344
102
{ACAD_REACTORS
330
340
330
276
102
}
330
340
100
AcDbTableStyle
  3
Standard1
 70
1
 71
0
 40
0.06
 41
0.06
280
1
281
1
  7
Standard
140
0.18
170
1
 62
0
 63
7
283
0
  7
Standard
140
0.18
170
1
 62
0
 63
7
283
0
  7
Standard
140
0.18
170
1
 62
0
 63
7
283
0
  0
ENDSEC
  0
EOF
