999
DXF file: D:\disegni\zDISEGNI_dxf\serie32000\32900-50bt.dxf
999
Pro/ENGINEER 2002180 by Parametric Technology Corporation
0
SECTION
2
HEADER
9
$ACADVER
1
AC1014
9
$EXTMAX
10
420.0000000000
20
297.0000000000
9
$EXTMIN
10
0.0000000000
20
0.0000000000
9
$LIMMIN
10
0.0000000000
20
0.0000000000
9
$LIMMAX
10
420.0000000000
20
297.0000000000
9
$VIEWCTR
10
210.0000000000
20
148.5000000000
9
$VIEWSIZE
40
297.0000000000
9
$CLAYER
8
0
9
$LTSCALE
40
23.1000000000
9
$CELTYPE
6
BYLAYER
9
$DIMSCALE
40
1
9
$DIMASZ
40
4.7600000000
9
$DIMEXO
40
2.6250000000
9
$DIMDLI
40
15.9600000000
9
$DIMEXE
40
7.5600000000
9
$DIMCEN
40
3.7800000000
9
$DIMLFAC
40
1.0000000000
9
$DIMTXT
40
1.5000000000
9
$DIMTOL
70
1
9
$DIMLIM
70
0
9
$DIMTFAC
40
1.0000000000
9
$DIMTP
40
0.0010000000
9
$DIMTM
40
0.0010000000
9
$HANDSEED
5
2AD
0
ENDSEC
0
SECTION
2
CLASSES
0
ENDSEC
0
SECTION
2
TABLES
0
TABLE
2
VPORT
5
8
100
AcDbSymbolTable
70
2
0
VPORT
5
1F4
100
AcDbSymbolTableRecord
100
AcDbViewportTableRecord
2
*ACTIVE
70
0
10
0.0
20
0.0
11
1.0
21
1.0
12
210.0000000000
22
148.5000000000
13
0.0
23
0.0
14
1.0
24
1.0
15
0.0
25
0.0
16
0.0
26
0.0
36
1.0
17
0.0
27
0.0
37
0.0
40
297.0000000000
41
1.4141414141
42
50.0
43
0.0
44
0.0
50
0.0
51
0.0
71
0
72
100
73
1
74
1
75
0
76
0
77
0
78
0
0
ENDTAB
0
TABLE
2
LTYPE
5
5
100
AcDbSymbolTable
70
6
0
LTYPE
5
14
100
AcDbSymbolTableRecord
100
AcDbLinetypeTableRecord
2
BYBLOCK
70
0
3

72
65
73
0
40
0.0
0
LTYPE
5
15
100
AcDbSymbolTableRecord
100
AcDbLinetypeTableRecord
2
BYLAYER
70
0
3

72
65
73
0
40
0.0
0
LTYPE
5
16
100
AcDbSymbolTableRecord
100
AcDbLinetypeTableRecord
2
CONTINUOUS
70
64
3
Solid line
72
65
73
0
40
0
0
LTYPE
5
1F5
100
AcDbSymbolTableRecord
100
AcDbLinetypeTableRecord
2
CENTER
70
64
3
____ _ ____ _ ____ _ ____ _ ____ _ ____ _ ____
72
65
73
4
40
0.6
49
0.375
74
0
49
-0.075
74
0
49
0.075
74
0
49
-0.075
74
0
0
LTYPE
5
1F6
100
AcDbSymbolTableRecord
100
AcDbLinetypeTableRecord
2
HIDDEN
70
64
3
- - - - - - - - - - - - - - - - - - - -
72
65
73
2
40
0.2
49
0.1
74
0
49
-0.1
74
0
0
LTYPE
5
1F7
100
AcDbSymbolTableRecord
100
AcDbLinetypeTableRecord
2
PHANTOM
70
64
3
_____ _ _ _____ _ _ _____ _ _ _____
72
65
73
6
40
0.8
49
0.45
74
0
49
-0.05
74
0
49
0.1
74
0
49
-0.05
74
0
49
0.1
74
0
49
-0.05
74
0
0
LTYPE
5
1F8
100
AcDbSymbolTableRecord
100
AcDbLinetypeTableRecord
2
DOT
70
64
3
. . . . . . . . . . . . . . . . . . . .
72
65
73
2
40
0.2
49
0.1
74
0
49
-0.1
74
0
0
LTYPE
5
1F9
100
AcDbSymbolTableRecord
100
AcDbLinetypeTableRecord
2
DASHED
70
64
3
- - - - - - - - - - - - - - - - - - - -
72
65
73
2
40
0.2
49
0.1
74
0
49
-0.1
74
0
0
ENDTAB
0
TABLE
2
LAYER
5
2
100
AcDbSymbolTable
70
36
0
LAYER
5
10
100
AcDbSymbolTableRecord
100
AcDbLayerTableRecord
2
0
70
0
62
7
6
CONTINUOUS
0
LAYER
5
1FA
100
AcDbSymbolTableRecord
100
AcDbLayerTableRecord
2
DEFAULT_1
70
0
62
7
6
CENTER
0
LAYER
5
1FB
100
AcDbSymbolTableRecord
100
AcDbLayerTableRecord
2
DEFAULT_2
70
0
62
8
6
HIDDEN
0
LAYER
5
1FC
100
AcDbSymbolTableRecord
100
AcDbLayerTableRecord
2
DEFAULT_3
70
0
62
7
6
PHANTOM
0
LAYER
5
1FD
100
AcDbSymbolTableRecord
100
AcDbLayerTableRecord
2
0_COMPONENTS
70
0
62
7
6
CONTINUOUS
0
LAYER
5
1FE
100
AcDbSymbolTableRecord
100
AcDbLayerTableRecord
2
1_ALL_PLANES
70
0
62
7
6
CONTINUOUS
0
LAYER
5
1FF
100
AcDbSymbolTableRecord
100
AcDbLayerTableRecord
2
1__DEF_ASM_PLN
70
0
62
7
6
CONTINUOUS
0
LAYER
5
200
100
AcDbSymbolTableRecord
100
AcDbLayerTableRecord
2
1__DEF_PLANES
70
0
62
7
6
CONTINUOUS
0
LAYER
5
201
100
AcDbSymbolTableRecord
100
AcDbLayerTableRecord
2
2_ALL_CSYS
70
0
62
7
6
CONTINUOUS
0
LAYER
5
202
100
AcDbSymbolTableRecord
100
AcDbLayerTableRecord
2
2__DEF_ASM_CSYS
70
0
62
7
6
CONTINUOUS
0
LAYER
5
203
100
AcDbSymbolTableRecord
100
AcDbLayerTableRecord
2
2__DEF_CSYS
70
0
62
7
6
CONTINUOUS
0
LAYER
5
204
100
AcDbSymbolTableRecord
100
AcDbLayerTableRecord
2
3_ALL_AXES
70
0
62
7
6
CONTINUOUS
0
LAYER
5
205
100
AcDbSymbolTableRecord
100
AcDbLayerTableRecord
2
4_ALL_POINTS
70
0
62
7
6
CONTINUOUS
0
LAYER
5
206
100
AcDbSymbolTableRecord
100
AcDbLayerTableRecord
2
5_ALL_CURVES
70
0
62
7
6
CONTINUOUS
0
LAYER
5
207
100
AcDbSymbolTableRecord
100
AcDbLayerTableRecord
2
5_ALL_GTOLS_FREE_
70
0
62
7
6
CONTINUOUS
0
LAYER
5
208
100
AcDbSymbolTableRecord
100
AcDbLayerTableRecord
2
6_ALL_SURFS
70
0
62
7
6
CONTINUOUS
0
LAYER
5
209
100
AcDbSymbolTableRecord
100
AcDbLayerTableRecord
2
CURVA
70
0
62
7
6
CONTINUOUS
0
LAYER
5
20A
100
AcDbSymbolTableRecord
100
AcDbLayerTableRecord
2
CURVE
70
0
62
7
6
CONTINUOUS
0
LAYER
5
20B
100
AcDbSymbolTableRecord
100
AcDbLayerTableRecord
2
GIANNI_ASSI
70
0
62
7
6
CONTINUOUS
0
LAYER
5
20C
100
AcDbSymbolTableRecord
100
AcDbLayerTableRecord
2
GIANNI_PIANI
70
0
62
7
6
CONTINUOUS
0
LAYER
5
20D
100
AcDbSymbolTableRecord
100
AcDbLayerTableRecord
2
XSEC_DATUMS
70
0
62
7
6
CONTINUOUS
0
ENDTAB
0
TABLE
2
STYLE
5
3
100
AcDbSymbolTable
70
1
0
STYLE
5
11
100
AcDbSymbolTableRecord
100
AcDbTextStyleTableRecord
2
STANDARD
70
0
40
0.0
41
1.2000000000
50
0.0
71
0
42
0.2
3
txt
4

0
ENDTAB
0
TABLE
2
VIEW
5
6
100
AcDbSymbolTable
70
0
0
ENDTAB
0
TABLE
2
UCS
5
7
100
AcDbSymbolTable
70
0
0
ENDTAB
0
TABLE
2
APPID
5
9
100
AcDbSymbolTable
70
1
0
APPID
5
20E
100
AcDbSymbolTableRecord
100
AcDbRegAppTableRecord
2
ACAD
70
0
0
ENDTAB
0
TABLE
2
DIMSTYLE
5
A
100
AcDbSymbolTable
70
1
0
DIMSTYLE
105
20F
100
AcDbSymbolTableRecord
100
AcDbDimStyleTableRecord
2
STANDARD
70
0
3

4

5

6

7

40
1.0
41
4.7600000000
42
0.0625
43
0.38
44
0.18
45
0.0
46
0.0
47
0.0010000000
48
0.0010000000
140
1.5000000000
141
0.09
142
0.0
143
25.4
144
1.0000000000
145
0.0
146
1.0000000000
147
0.09
71
1
72
0
73
0
74
0
75
0
76
0
77
1
78
8
170
0
171
2
172
0
173
0
174
0
175
0
176
0
177
0
178
5
270
2
271
3
272
3
273
2
274
2
340
11
275
0
280
0
281
0
282
0
283
1
284
8
285
0
286
0
287
3
288
0
0
DIMSTYLE
105
210
100
AcDbSymbolTableRecord
100
AcDbDimStyleTableRecord
2
DIMSTYLE_1
70
0
3

4

5

6

7

40
1.0
41
4.7600000000
42
0.0625
43
0.38
44
0.18
45
0.0
46
0.0
47
0.0100000000
48
0.0100000000
140
1.5000000000
141
0.09
142
0.0
143
25.4
144
1.0000000000
145
0.0
146
1.0000000000
147
0.09
71
0
72
0
73
0
74
0
75
0
76
0
77
1
78
8
170
0
171
2
172
0
173
0
174
0
175
0
176
0
177
0
178
5
270
2
271
3
272
3
273
2
274
2
340
11
275
0
280
0
281
0
282
0
283
1
284
8
285
0
286
0
287
3
288
0
0
ENDTAB
0
TABLE
2
BLOCK_RECORD
5
1
100
AcDbSymbolTable
70
0
0
BLOCK_RECORD
5
1B
100
AcDbSymbolTableRecord
100
AcDbBlockTableRecord
2
*MODEL_SPACE
0
BLOCK_RECORD
5
1C
100
AcDbSymbolTableRecord
100
AcDbBlockTableRecord
2
*PAPER_SPACE
0
BLOCK_RECORD
5
211
100
AcDbSymbolTableRecord
100
AcDbBlockTableRecord
2
*D0
0
BLOCK_RECORD
5
212
100
AcDbSymbolTableRecord
100
AcDbBlockTableRecord
2
*D1
0
BLOCK_RECORD
5
213
100
AcDbSymbolTableRecord
100
AcDbBlockTableRecord
2
*D2
0
BLOCK_RECORD
5
214
100
AcDbSymbolTableRecord
100
AcDbBlockTableRecord
2
*D3
0
ENDTAB
0
ENDSEC
0
SECTION
2
BLOCKS
0
BLOCK
5
1E
100
AcDbEntity
8
0
100
AcDbBlockBegin
2
*MODEL_SPACE
70
0
10
0.0
20
0.0
30
0.0
3
*MODEL_SPACE
1

0
ENDBLK
5
1F
100
AcDbEntity
8
0
100
AcDbBlockEnd
0
BLOCK
5
20
100
AcDbEntity
8
0
100
AcDbBlockBegin
2
*PAPER_SPACE
70
0
10
0.0
20
0.0
30
0.0
3
*PAPER_SPACE
1

0
ENDBLK
5
21
100
AcDbEntity
8
0
100
AcDbBlockEnd
0
BLOCK
5
215
100
AcDbEntity
8
0
100
AcDbBlockBegin
62
2
6
CONTINUOUS
2
*D0
70
65
10
0.0000000000
20
0.0000000000
3
*D0
1

0
TEXT
5
216
100
AcDbEntity
8
0
100
AcDbText
62
5
6
CONTINUOUS
10
408.6549432476
20
99.0340346106
7
STANDARD
40
1.5000000000
1
147.5
50
90.0000000000
41
1.5428571429
72
5
11
408.6549432476
21
110.6054631821
100
AcDbText
0
LINE
5
217
100
AcDbEntity
8
0
100
AcDbLine
62
2
6
CONTINUOUS
10
364.9980462647
20
178.8530291554
11
410.2978003905
21
178.8530291554
0
LINE
5
218
100
AcDbEntity
8
0
100
AcDbLine
62
2
6
CONTINUOUS
10
373.0730462647
20
31.3530291554
11
410.2978003905
21
31.3530291554
0
LINE
5
219
100
AcDbEntity
8
0
100
AcDbLine
62
2
6
CONTINUOUS
10
409.2978003905
20
178.8530291554
11
409.2978003905
21
105.1030291554
0
LINE
5
21A
100
AcDbEntity
8
0
100
AcDbLine
62
2
6
CONTINUOUS
10
409.2978003905
20
31.3530291554
11
409.2978003905
21
105.1030291554
0
SOLID
5
21B
100
AcDbEntity
8
0
100
AcDbTrace
62
2
6
CONTINUOUS
10
409.7978003905
20
174.0930291554
11
409.2978003905
21
178.8530291554
12
408.7978003905
22
174.0930291554
13
408.7978003905
23
174.0930291554
0
SOLID
5
21C
100
AcDbEntity
8
0
100
AcDbTrace
62
2
6
CONTINUOUS
10
408.7978003905
20
36.1130291554
11
409.2978003905
21
31.3530291554
12
409.7978003905
22
36.1130291554
13
409.7978003905
23
36.1130291554
0
ENDBLK
5
21D
100
AcDbEntity
8
0
100
AcDbBlockEnd
0
BLOCK
5
21E
100
AcDbEntity
8
0
100
AcDbBlockBegin
62
2
6
CONTINUOUS
2
*D1
70
65
10
0.0000000000
20
0.0000000000
3
*D1
1

0
TEXT
5
21F
100
AcDbEntity
8
0
100
AcDbText
62
5
6
CONTINUOUS
10
395.5890616553
20
77.3875740621
7
STANDARD
40
1.5000000000
1
109.5
50
90.0000000000
41
1.5428571429
72
5
11
395.5890616553
21
88.9590026335
100
AcDbText
0
LINE
5
220
100
AcDbEntity
8
0
100
AcDbLine
62
2
6
CONTINUOUS
10
379.0730462647
20
140.8530291554
11
397.2319187981
21
140.8530291554
0
LINE
5
221
100
AcDbEntity
8
0
100
AcDbLine
62
2
6
CONTINUOUS
10
373.0730462647
20
31.3530291554
11
397.2319187981
21
31.3530291554
0
LINE
5
222
100
AcDbEntity
8
0
100
AcDbLine
62
2
6
CONTINUOUS
10
396.2319187981
20
140.8530291554
11
396.2319187981
21
86.1030291554
0
LINE
5
223
100
AcDbEntity
8
0
100
AcDbLine
62
2
6
CONTINUOUS
10
396.2319187981
20
31.3530291554
11
396.2319187981
21
86.1030291554
0
SOLID
5
224
100
AcDbEntity
8
0
100
AcDbTrace
62
2
6
CONTINUOUS
10
396.7319187981
20
136.0930291554
11
396.2319187981
21
140.8530291554
12
395.7319187981
22
136.0930291554
13
395.7319187981
23
136.0930291554
0
SOLID
5
225
100
AcDbEntity
8
0
100
AcDbTrace
62
2
6
CONTINUOUS
10
395.7319187981
20
36.1130291554
11
396.2319187981
21
31.3530291554
12
396.7319187981
22
36.1130291554
13
396.7319187981
23
36.1130291554
0
ENDBLK
5
226
100
AcDbEntity
8
0
100
AcDbBlockEnd
0
BLOCK
5
227
100
AcDbEntity
8
0
100
AcDbBlockBegin
62
2
6
CONTINUOUS
2
*D2
70
65
10
0.0000000000
20
0.0000000000
3
*D2
1

0
TEXT
5
228
100
AcDbEntity
8
0
100
AcDbText
62
5
6
CONTINUOUS
10
326.9190415121
20
13.2694632182
7
STANDARD
40
1.5000000000
1
%%c
41
1.3333333333
72
5
11
328.9190415121
21
13.2694632182
100
AcDbText
0
TEXT
5
229
100
AcDbEntity
8
0
100
AcDbText
62
5
6
CONTINUOUS
10
328.9190415121
20
13.2694632182
7
STANDARD
40
1.5000000000
1
98
41
1.5428571429
72
5
11
333.5476129407
21
13.2694632182
100
AcDbText
0
LINE
5
22A
100
AcDbEntity
8
0
100
AcDbLine
62
2
6
CONTINUOUS
10
378.9730462647
20
32.2530291554
11
378.9730462647
21
11.6266060753
0
LINE
5
22B
100
AcDbEntity
8
0
100
AcDbLine
62
2
6
CONTINUOUS
10
280.9730462647
20
32.2530291554
11
280.9730462647
21
11.6266060753
0
LINE
5
22C
100
AcDbEntity
8
0
100
AcDbLine
62
2
6
CONTINUOUS
10
378.9730462647
20
12.6266060753
11
329.9730462647
21
12.6266060753
0
LINE
5
22D
100
AcDbEntity
8
0
100
AcDbLine
62
2
6
CONTINUOUS
10
280.9730462647
20
12.6266060753
11
329.9730462647
21
12.6266060753
0
SOLID
5
22E
100
AcDbEntity
8
0
100
AcDbTrace
62
2
6
CONTINUOUS
10
374.2130462647
20
12.1266060753
11
378.9730462647
21
12.6266060753
12
374.2130462647
22
13.1266060753
13
374.2130462647
23
13.1266060753
0
SOLID
5
22F
100
AcDbEntity
8
0
100
AcDbTrace
62
2
6
CONTINUOUS
10
285.7330462647
20
13.1266060753
11
280.9730462647
21
12.6266060753
12
285.7330462647
22
12.1266060753
13
285.7330462647
23
12.1266060753
0
ENDBLK
5
230
100
AcDbEntity
8
0
100
AcDbBlockEnd
0
BLOCK
5
231
100
AcDbEntity
8
0
100
AcDbBlockBegin
62
2
6
CONTINUOUS
2
*D3
70
65
10
0.0000000000
20
0.0000000000
3
*D3
1

0
TEXT
5
232
100
AcDbEntity
8
0
100
AcDbText
62
5
6
CONTINUOUS
10
327.1779649327
20
21.8139360960
7
STANDARD
40
1.5000000000
1
%%c
41
1.3333333333
72
5
11
329.1779649327
21
21.8139360960
100
AcDbText
0
TEXT
5
233
100
AcDbEntity
8
0
100
AcDbText
62
5
6
CONTINUOUS
10
329.1779649327
20
21.8139360960
7
STANDARD
40
1.5000000000
1
60
41
1.5428571429
72
5
11
333.8065363612
21
21.8139360960
100
AcDbText
0
LINE
5
234
100
AcDbEntity
8
0
100
AcDbLine
62
2
6
CONTINUOUS
10
299.9730462647
20
32.2530291554
11
299.9730462647
21
20.1710789532
0
LINE
5
235
100
AcDbEntity
8
0
100
AcDbLine
62
2
6
CONTINUOUS
10
359.9730462647
20
32.2530291554
11
359.9730462647
21
20.1710789532
0
LINE
5
236
100
AcDbEntity
8
0
100
AcDbLine
62
2
6
CONTINUOUS
10
299.9730462647
20
21.1710789532
11
329.9730462647
21
21.1710789532
0
LINE
5
237
100
AcDbEntity
8
0
100
AcDbLine
62
2
6
CONTINUOUS
10
359.9730462647
20
21.1710789532
11
329.9730462647
21
21.1710789532
0
SOLID
5
238
100
AcDbEntity
8
0
100
AcDbTrace
62
2
6
CONTINUOUS
10
304.7330462647
20
21.6710789532
11
299.9730462647
21
21.1710789532
12
304.7330462647
22
20.6710789532
13
304.7330462647
23
20.6710789532
0
SOLID
5
239
100
AcDbEntity
8
0
100
AcDbTrace
62
2
6
CONTINUOUS
10
355.2130462647
20
20.6710789532
11
359.9730462647
21
21.1710789532
12
355.2130462647
22
21.6710789532
13
355.2130462647
23
21.6710789532
0
ENDBLK
5
23A
100
AcDbEntity
8
0
100
AcDbBlockEnd
0
ENDSEC
0
SECTION
2
ENTITIES
0
DIMENSION
5
23B
100
AcDbEntity
8
0
100
AcDbDimension
62
2
6
CONTINUOUS
2
*D0
10
409.2978003905
20
31.3530291554
11
407.9049432476
21
104.8197488964
70
160
3
DIMSTYLE_1
100
AcDbAlignedDimension
13
364.9980462647
23
178.8530291554
14
373.0730462647
24
31.3530291554
50
270.000000
100
AcDbRotatedDimension
0
DIMENSION
5
23C
100
AcDbEntity
8
0
100
AcDbDimension
62
2
6
CONTINUOUS
2
*D1
10
396.2319187981
20
31.3530291554
11
394.8390616553
21
83.1732883478
70
160
3
DIMSTYLE_1
100
AcDbAlignedDimension
13
379.0730462647
23
140.8530291554
14
373.0730462647
24
31.3530291554
50
270.000000
100
AcDbRotatedDimension
0
DIMENSION
5
23D
100
AcDbEntity
8
0
100
AcDbDimension
62
2
6
CONTINUOUS
2
*D2
10
280.9730462647
20
12.6266060753
11
330.2333272264
21
14.0194632182
70
160
1
%%c<>
3
DIMSTYLE_1
100
AcDbAlignedDimension
13
378.9730462647
23
32.2530291554
14
280.9730462647
24
32.2530291554
50
180.000000
100
AcDbRotatedDimension
0
DIMENSION
5
23E
100
AcDbEntity
8
0
100
AcDbDimension
62
2
6
CONTINUOUS
2
*D3
10
359.9730462647
20
21.1710789532
11
330.4922506469
21
22.5639360960
70
160
1
%%c<>
3
DIMSTYLE_1
100
AcDbAlignedDimension
13
299.9730462647
23
32.2530291554
14
359.9730462647
24
32.2530291554
100
AcDbRotatedDimension
0
LINE
5
23F
100
AcDbEntity
8
0
100
AcDbLine
62
7
6
CONTINUOUS
10
432.5000000000
20
-3.0625000000
11
232.5000000000
21
-3.0625000000
0
LINE
5
240
100
AcDbEntity
8
0
100
AcDbLine
62
7
6
CONTINUOUS
10
232.5000000000
20
-3.0625000000
11
232.5000000000
21
283.9375000000
0
LINE
5
241
100
AcDbEntity
8
0
100
AcDbLine
62
7
6
CONTINUOUS
10
432.5000000000
20
283.9375000000
11
232.5000000000
21
283.9375000000
0
LINE
5
242
100
AcDbEntity
8
0
100
AcDbLine
62
7
6
CONTINUOUS
10
432.5000000000
20
-3.0625000000
11
432.5000000000
21
283.9375000000
0
LINE
5
243
100
AcDbEntity
8
0
100
AcDbLine
62
7
6
CONTINUOUS
10
377.9730462647
20
31.3530291554
11
281.9738301634
21
31.3530291554
0
LINE
5
244
100
AcDbEntity
8
0
100
AcDbLine
62
7
6
CONTINUOUS
10
280.9730462647
20
32.3530291554
11
378.9730462647
21
32.3530291554
0
LINE
5
245
100
AcDbEntity
8
0
100
AcDbLine
62
7
6
CONTINUOUS
10
378.9730462647
20
36.3783497209
11
280.9730462647
21
36.3783497209
0
LINE
5
246
100
AcDbEntity
8
0
100
AcDbLine
62
7
6
CONTINUOUS
10
281.3122767492
20
37.9530291554
11
378.6338157801
21
37.9530291554
0
LINE
5
247
100
AcDbEntity
8
0
100
AcDbLine
62
7
6
CONTINUOUS
10
378.9730462647
20
38.5405935901
11
280.9730462647
21
38.5405935901
0
LINE
5
248
100
AcDbEntity
8
0
100
AcDbLine
62
7
6
CONTINUOUS
10
280.9730462647
20
55.3530291554
11
378.9730462647
21
55.3530291554
0
LINE
5
249
100
AcDbEntity
8
0
100
AcDbLine
62
7
6
CONTINUOUS
10
280.7230462647
20
55.6030291554
11
379.2230462647
21
55.6030291554
0
LINE
5
24A
100
AcDbEntity
8
0
100
AcDbLine
62
7
6
CONTINUOUS
10
280.7230462647
20
55.6030291554
11
280.9730462647
21
55.3530291554
0
LINE
5
24B
100
AcDbEntity
8
0
100
AcDbLine
62
7
6
CONTINUOUS
10
281.3122767492
20
37.9530291554
11
280.9730462647
21
38.5405935901
0
LINE
5
24C
100
AcDbEntity
8
0
100
AcDbLine
62
7
6
CONTINUOUS
10
280.7230462647
20
82.1030291554
11
379.2230462647
21
82.1030291554
0
LINE
5
24D
100
AcDbEntity
8
0
100
AcDbLine
62
7
6
CONTINUOUS
10
280.9730462647
20
82.3530291554
11
378.9730462647
21
82.3530291554
0
LINE
5
24E
100
AcDbEntity
8
0
100
AcDbLine
62
7
6
CONTINUOUS
10
279.9730462647
20
174.8530291554
11
279.9730462647
21
163.1989971737
0
LINE
5
24F
100
AcDbEntity
8
0
100
AcDbLine
62
7
6
CONTINUOUS
10
279.9730462647
20
148.1070611371
11
279.9730462647
21
141.8530291554
0
LINE
5
250
100
AcDbEntity
8
0
100
AcDbLine
62
7
6
CONTINUOUS
10
280.7230462647
20
82.1030291554
11
280.7230462647
21
55.6030291554
0
LINE
5
251
100
AcDbEntity
8
0
100
AcDbLine
62
7
6
CONTINUOUS
10
280.9730462647
20
105.3530291554
11
280.9730462647
21
82.3530291554
0
LINE
5
252
100
AcDbEntity
8
0
100
AcDbLine
62
7
6
CONTINUOUS
10
280.9730462647
20
55.3530291554
11
280.9730462647
21
38.5405935901
0
LINE
5
253
100
AcDbEntity
8
0
100
AcDbLine
62
7
6
CONTINUOUS
10
280.9730462647
20
36.3783497209
11
280.9730462647
21
32.3530291554
0
LINE
5
254
100
AcDbEntity
8
0
100
AcDbLine
62
7
6
CONTINUOUS
10
283.9730462647
20
140.8530291554
11
283.9730462647
21
106.3530291554
0
LINE
5
255
100
AcDbEntity
8
0
100
AcDbLine
62
7
6
CONTINUOUS
10
280.9730462647
20
175.8530291554
11
279.9730462647
21
174.8530291554
0
LINE
5
256
100
AcDbEntity
8
0
100
AcDbLine
62
7
6
CONTINUOUS
10
280.9730462647
20
105.3530291554
11
378.9730462647
21
105.3530291554
0
LINE
5
257
100
AcDbEntity
8
0
100
AcDbLine
62
7
6
CONTINUOUS
10
377.9730462647
20
106.3530291554
11
281.9730462647
21
106.3530291554
0
LINE
5
258
100
AcDbEntity
8
0
100
AcDbLine
62
7
6
CONTINUOUS
10
279.9730462647
20
141.8530291554
11
280.9730462647
21
140.8530291554
0
LINE
5
259
100
AcDbEntity
8
0
100
AcDbLine
62
7
6
CONTINUOUS
10
287.4730462647
20
151.6530291554
11
287.4730462647
21
159.6530291554
0
LINE
5
25A
100
AcDbEntity
8
0
100
AcDbLine
62
7
6
CONTINUOUS
10
295.3230462647
20
178.3767151833
11
295.3230462647
21
175.8530291554
0
LINE
5
25B
100
AcDbEntity
8
0
100
AcDbLine
62
7
6
CONTINUOUS
10
309.6440430815
20
278.9416379341
11
295.0480462647
21
178.8530291554
0
LINE
5
25C
100
AcDbEntity
8
DEFAULT_2
100
AcDbLine
62
8
6
HIDDEN
10
299.9730462647
20
32.3530291554
11
299.9730462647
21
84.3530291554
0
LINE
5
25D
100
AcDbEntity
8
0
100
AcDbLine
62
7
6
CONTINUOUS
10
279.9730462647
20
148.1070611371
11
286.1148430344
21
151.6530291554
0
LINE
5
25E
100
AcDbEntity
8
0
100
AcDbLine
62
7
6
CONTINUOUS
10
286.1148430344
20
159.6530291554
11
279.9730462647
21
163.1989971737
0
LINE
5
25F
100
AcDbEntity
8
0
100
AcDbLine
62
7
6
CONTINUOUS
10
378.9730462647
20
82.3530291554
11
379.2230462647
21
82.1030291554
0
LINE
5
260
100
AcDbEntity
8
0
100
AcDbLine
62
7
6
CONTINUOUS
10
295.0480462647
20
178.8530291554
11
295.3230462647
21
178.3767151833
0
LINE
5
261
100
AcDbEntity
8
0
100
AcDbLine
62
7
6
CONTINUOUS
10
316.3532978461
20
174.8530291554
11
316.3532978461
21
163.1989971737
0
LINE
5
262
100
AcDbEntity
8
0
100
AcDbLine
62
7
6
CONTINUOUS
10
317.1230462647
20
157.7030291554
11
317.1230462647
21
175.0530291554
0
LINE
5
263
100
AcDbEntity
8
0
100
AcDbLine
62
7
6
CONTINUOUS
10
317.9230462647
20
157.7030291554
11
317.9230462647
21
174.2530291554
0
LINE
5
264
100
AcDbEntity
8
0
100
AcDbLine
62
7
6
CONTINUOUS
10
280.9730462647
20
140.8530291554
11
378.9730462647
21
140.8530291554
0
LINE
5
265
100
AcDbEntity
8
0
100
AcDbLine
62
7
6
CONTINUOUS
10
279.9730462647
20
141.8530291554
11
379.9730462647
21
141.8530291554
0
LINE
5
266
100
AcDbEntity
8
0
100
AcDbLine
62
7
6
CONTINUOUS
10
379.9730462647
20
148.1070611371
11
339.6706483114
21
148.1070611371
0
LINE
5
267
100
AcDbEntity
8
0
100
AcDbLine
62
7
6
CONTINUOUS
10
320.2754442180
20
148.1070611371
11
279.9730462647
21
148.1070611371
0
LINE
5
268
100
AcDbEntity
8
0
100
AcDbLine
62
7
6
CONTINUOUS
10
342.0230462647
20
174.2530291554
11
343.6230462647
21
175.8530291554
0
LINE
5
269
100
AcDbEntity
8
0
100
AcDbLine
62
7
6
CONTINUOUS
10
286.1148430379
20
151.6530291554
11
318.6363800881
21
151.6530291554
0
LINE
5
26A
100
AcDbEntity
8
0
100
AcDbLine
62
7
6
CONTINUOUS
10
341.3097124413
20
151.6530291554
11
373.8312494914
21
151.6530291554
0
LINE
5
26B
100
AcDbEntity
8
0
100
AcDbLine
62
7
6
CONTINUOUS
10
317.9230462647
20
157.7030291554
11
317.1230462647
21
157.7030291607
0
LINE
5
26C
100
AcDbEntity
8
0
100
AcDbLine
62
7
6
CONTINUOUS
10
342.0230462647
20
157.7030291554
11
342.8230462647
21
157.7030291554
0
LINE
5
26D
100
AcDbEntity
8
0
100
AcDbLine
62
7
6
CONTINUOUS
10
373.8307326817
20
159.6530291554
11
342.8230462647
21
159.6530291554
0
LINE
5
26E
100
AcDbEntity
8
0
100
AcDbLine
62
7
6
CONTINUOUS
10
317.1230462647
20
159.6530291554
11
286.1153598477
21
159.6530291554
0
LINE
5
26F
100
AcDbEntity
8
0
100
AcDbLine
62
7
6
CONTINUOUS
10
279.9730462647
20
163.1989971737
11
316.3532978461
21
163.1989971737
0
LINE
5
270
100
AcDbEntity
8
0
100
AcDbLine
62
7
6
CONTINUOUS
10
343.5927946833
20
163.1989971737
11
379.9730462647
21
163.1989971737
0
LINE
5
271
100
AcDbEntity
8
0
100
AcDbLine
62
7
6
CONTINUOUS
10
316.3230462647
20
175.8530291554
11
317.9230462647
21
174.2530291554
0
LINE
5
272
100
AcDbEntity
8
0
100
AcDbLine
62
7
6
CONTINUOUS
10
342.0230462647
20
174.2530291554
11
342.0230462647
21
157.7030291554
0
LINE
5
273
100
AcDbEntity
8
0
100
AcDbLine
62
7
6
CONTINUOUS
10
342.8230462647
20
157.7030291554
11
342.8230462647
21
175.0530291554
0
LINE
5
274
100
AcDbEntity
8
0
100
AcDbLine
62
7
6
CONTINUOUS
10
343.5927946833
20
174.8530291554
11
343.5927946833
21
163.1989971737
0
LINE
5
275
100
AcDbEntity
8
0
100
AcDbLine
62
7
6
CONTINUOUS
10
364.8980462647
20
178.8530291554
11
364.6230462647
21
178.3767151833
0
LINE
5
276
100
AcDbEntity
8
0
100
AcDbLine
62
7
6
CONTINUOUS
10
280.9730462647
20
82.3530291554
11
280.7230462647
21
82.1030291554
0
LINE
5
277
100
AcDbEntity
8
0
100
AcDbLine
62
7
6
CONTINUOUS
10
373.8312494950
20
159.6530291554
11
379.9730462647
21
163.1989971737
0
LINE
5
278
100
AcDbEntity
8
0
100
AcDbLine
62
7
6
CONTINUOUS
10
279.9730462647
20
174.8530291554
11
316.3532978461
21
174.8530291554
0
LINE
5
279
100
AcDbEntity
8
0
100
AcDbLine
62
7
6
CONTINUOUS
10
343.5927946833
20
174.8530291554
11
379.9730462647
21
174.8530291554
0
LINE
5
27A
100
AcDbEntity
8
0
100
AcDbLine
62
7
6
CONTINUOUS
10
379.9730462647
20
148.1070611371
11
373.8312494950
21
151.6530291554
0
LINE
5
27B
100
AcDbEntity
8
0
100
AcDbLine
62
7
6
CONTINUOUS
10
280.9730462647
20
175.8530291554
11
378.9730462647
21
175.8530291554
0
LINE
5
27C
100
AcDbEntity
8
0
100
AcDbLine
62
7
6
CONTINUOUS
10
295.3230462647
20
178.3767151833
11
364.6230462647
21
178.3767151833
0
LINE
5
27D
100
AcDbEntity
8
0
100
AcDbLine
62
7
6
CONTINUOUS
10
295.0480462647
20
178.8530291554
11
364.8980462647
21
178.8530291554
0
LINE
5
27E
100
AcDbEntity
8
DEFAULT_2
100
AcDbLine
62
8
6
HIDDEN
10
359.9730462647
20
32.3530291554
11
359.9730462647
21
84.3530291554
0
LINE
5
27F
100
AcDbEntity
8
0
100
AcDbLine
62
7
6
CONTINUOUS
10
364.6230462647
20
178.3767151833
11
364.6230462647
21
175.8530291554
0
LINE
5
280
100
AcDbEntity
8
0
100
AcDbLine
62
7
6
CONTINUOUS
10
372.4730462647
20
151.6530291554
11
372.4730462647
21
159.6530291554
0
LINE
5
281
100
AcDbEntity
8
0
100
AcDbLine
62
7
6
CONTINUOUS
10
379.9730462647
20
141.8530291554
11
378.9730462647
21
140.8530291554
0
LINE
5
282
100
AcDbEntity
8
0
100
AcDbLine
62
7
6
CONTINUOUS
10
350.3020494478
20
278.9416379341
11
364.8980462647
21
178.8530291554
0
LINE
5
283
100
AcDbEntity
8
0
100
AcDbLine
62
7
6
CONTINUOUS
10
375.9730462647
20
140.8530291554
11
375.9730462647
21
106.3530291554
0
LINE
5
284
100
AcDbEntity
8
0
100
AcDbLine
62
7
6
CONTINUOUS
10
378.9730462647
20
105.3530291554
11
378.9730462647
21
82.3530291554
0
LINE
5
285
100
AcDbEntity
8
0
100
AcDbLine
62
7
6
CONTINUOUS
10
378.9730462647
20
55.3530291554
11
378.9730462647
21
38.5405935901
0
LINE
5
286
100
AcDbEntity
8
0
100
AcDbLine
62
7
6
CONTINUOUS
10
378.9730462647
20
36.3783497209
11
378.9730462647
21
32.3530291554
0
LINE
5
287
100
AcDbEntity
8
0
100
AcDbLine
62
7
6
CONTINUOUS
10
379.2230462647
20
82.1030291554
11
379.2230462647
21
55.6030291554
0
LINE
5
288
100
AcDbEntity
8
0
100
AcDbLine
62
7
6
CONTINUOUS
10
379.9730462647
20
174.8530291554
11
379.9730462647
21
163.1989971737
0
LINE
5
289
100
AcDbEntity
8
0
100
AcDbLine
62
7
6
CONTINUOUS
10
379.9730462647
20
148.1070611371
11
379.9730462647
21
141.8530291554
0
LINE
5
28A
100
AcDbEntity
8
0
100
AcDbLine
62
7
6
CONTINUOUS
10
378.9730462647
20
175.8530291554
11
379.9730462647
21
174.8530291554
0
LINE
5
28B
100
AcDbEntity
8
0
100
AcDbLine
62
7
6
CONTINUOUS
10
378.6338157801
20
37.9530291554
11
378.9730462647
21
38.5405935901
0
LINE
5
28C
100
AcDbEntity
8
0
100
AcDbLine
62
7
6
CONTINUOUS
10
379.2230462647
20
55.6030291554
11
378.9730462647
21
55.3530291554
0
LINE
5
28D
100
AcDbEntity
8
0
100
AcDbLine
62
7
6
CONTINUOUS
10
309.6440430815
20
278.9416379341
11
350.3020494478
21
278.9416379341
0
LINE
5
28E
100
AcDbEntity
8
0
100
AcDbLine
62
7
6
CONTINUOUS
10
348.3229827554
20
280.6530291554
11
311.6231097739
21
280.6530291554
0
ARC
5
28F
100
AcDbEntity
8
0
100
AcDbCircle
62
7
6
CONTINUOUS
10
377.9730462647
20
105.3530291554
40
1.0000000000
100
AcDbArc
50
0.0000000000
51
90.0000000000
0
ARC
5
290
100
AcDbEntity
8
0
100
AcDbCircle
62
7
6
CONTINUOUS
10
281.9730462647
20
105.3530291554
40
1.0000000000
100
AcDbArc
50
90.0000000000
51
180.0000000000
0
ARC
5
291
100
AcDbEntity
8
0
100
AcDbCircle
62
7
6
CONTINUOUS
10
377.9730462647
20
32.3530291554
40
1.0000000000
100
AcDbArc
50
270.0000000000
51
360.0000000000
0
ARC
5
292
100
AcDbEntity
8
0
100
AcDbCircle
62
7
6
CONTINUOUS
10
281.9730462647
20
32.3530291554
40
1.0000000000
100
AcDbArc
50
180.0000000000
51
270.0000000000
0
ARC
5
293
100
AcDbEntity
8
0
100
AcDbCircle
62
7
6
CONTINUOUS
10
280.2730462647
20
37.3530291554
40
1.2000000000
100
AcDbArc
50
305.6853347127
51
30.0000000000
0
ARC
5
294
100
AcDbEntity
8
0
100
AcDbCircle
62
7
6
CONTINUOUS
10
379.6730462647
20
37.3530291554
40
1.2000000000
100
AcDbArc
50
150.0000000000
51
234.3146652873
0
ARC
5
295
100
AcDbEntity
8
0
100
AcDbCircle
62
7
6
CONTINUOUS
10
348.3229827554
20
278.6530291554
40
2.0000000000
100
AcDbArc
50
8.2970000003
51
90.0000000000
0
ARC
5
296
100
AcDbEntity
8
0
100
AcDbCircle
62
7
6
CONTINUOUS
10
311.6231097739
20
278.6530291554
40
2.0000000000
100
AcDbArc
50
90.0000000000
51
171.7029999996
0
CIRCLE
5
297
100
AcDbEntity
8
0
100
AcDbCircle
62
7
6
CONTINUOUS
10
329.9730462647
20
135.8530291554
40
2.5500000000
0
ARC
5
298
100
AcDbEntity
8
0
100
AcDbCircle
62
7
6
CONTINUOUS
10
329.9730462647
20
157.7030291554
40
12.8500000000
100
AcDbArc
50
180.0000000000
51
360.0000000000
0
ARC
5
299
100
AcDbEntity
8
0
100
AcDbCircle
62
7
6
CONTINUOUS
10
329.9730462647
20
157.7030291554
40
12.0499973494
100
AcDbArc
50
180.0000000000
51
360.0000000000
0
SPLINE
5
29A
100
AcDbEntity
8
0
100
AcDbSpline
62
2
6
CONTINUOUS
70
0
71
3
72
18
73
14
74
12
42
0.0000001000
43
0.0000001000
44
0.0000000001
40
0.0000000000
40
0.0000000000
40
0.0000000000
40
0.0000000000
40
0.0909090909
40
0.1818181818
40
0.2727272727
40
0.3636363636
40
0.4545454545
40
0.5454545455
40
0.6363636364
40
0.7272727273
40
0.8181818182
40
0.9090909091
40
1.0000000000
40
1.0000000000
40
1.0000000000
40
1.0000000000
10
332.9730462647
20
135.8530291554
30
45.9020696701
10
332.9730462647
20
136.1376424239
30
45.9024611394
10
332.8923069069
20
136.7074417650
30
45.9072929913
10
332.5281816354
20
137.5011462184
30
45.9297799493
10
331.9694701771
20
138.1475373803
30
45.9582287672
10
331.2288917923
20
138.6224086937
30
45.9850854307
10
330.4139498645
20
138.8620226452
30
46.0005737854
10
329.5321537296
20
138.8620235324
30
46.0005738574
10
328.7172156186
20
138.6224161941
30
45.9850858705
10
327.9766259344
20
138.1475402734
30
45.9582289417
10
327.4179200770
20
137.5011604589
30
45.9297804538
10
327.0537845139
20
136.7074428278
30
45.9072929520
10
326.9730462647
20
136.1376425054
30
45.9024611165
10
326.9730462647
20
135.8530291554
30
45.9020696701
11
332.9730462647
21
135.8530291554
31
45.9020696701
11
332.8518042011
21
136.6972760053
31
45.9098328547
11
332.4957506043
21
137.4765940031
31
45.9307735926
11
331.9391590227
21
138.1189507389
31
45.9579634081
11
331.2164978685
21
138.5831991334
31
45.9831907126
11
330.4028074966
21
138.8220871345
31
45.9979924049
11
329.5432967336
21
138.8220888281
31
45.9979925142
11
328.7296070231
21
138.5832047637
31
45.9831910469
11
328.0069399055
21
138.1189562911
31
45.9579636819
11
327.4503484594
21
137.4766041561
31
45.9307739515
11
327.0942892121
21
136.6972790190
31
45.9098329101
11
326.9730462647
21
135.8530291554
31
45.9020696701
0
SPLINE
5
29B
100
AcDbEntity
8
0
100
AcDbSpline
62
2
6
CONTINUOUS
70
0
71
3
72
18
73
14
74
12
42
0.0000001000
43
0.0000001000
44
0.0000000001
40
0.0000000000
40
0.0000000000
40
0.0000000000
40
0.0000000000
40
0.0909090909
40
0.1818181818
40
0.2727272727
40
0.3636363636
40
0.4545454545
40
0.5454545455
40
0.6363636364
40
0.7272727273
40
0.8181818182
40
0.9090909091
40
1.0000000000
40
1.0000000000
40
1.0000000000
40
1.0000000000
10
326.9730462647
20
135.8530291554
30
45.9020696701
10
326.9730462647
20
135.5684158868
30
45.9024611394
10
327.0537856225
20
134.9986165457
30
45.9072929913
10
327.4179108939
20
134.2049120923
30
45.9297799493
10
327.9766223522
20
133.5585209304
30
45.9582287672
10
328.7172007370
20
133.0836496170
30
45.9850854307
10
329.5321426649
20
132.8440356655
30
46.0005737854
10
330.4139387997
20
132.8440347784
30
46.0005738574
10
331.2288769107
20
133.0836421166
30
45.9850858705
10
331.9694665950
20
133.5585180373
30
45.9582289417
10
332.5281724524
20
134.2048978519
30
45.9297804538
10
332.8923080154
20
134.9986154829
30
45.9072929520
10
332.9730462647
20
135.5684158054
30
45.9024611165
10
332.9730462647
20
135.8530291554
30
45.9020696701
11
326.9730462647
21
135.8530291554
31
45.9020696701
11
327.0942883283
21
135.0087823054
31
45.9098328547
11
327.4503419251
21
134.2294643076
31
45.9307735926
11
328.0069335066
21
133.5871075718
31
45.9579634081
11
328.7295946609
21
133.1228591773
31
45.9831907126
11
329.5432850327
21
132.8839711762
31
45.9979924049
11
330.4027957958
21
132.8839694826
31
45.9979925142
11
331.2164855063
21
133.1228535470
31
45.9831910469
11
331.9391526239
21
133.5871020196
31
45.9579636819
11
332.4957440700
21
134.2294541546
31
45.9307739515
11
332.8518033172
21
135.0087792917
31
45.9098329101
11
332.9730462647
21
135.8530291554
31
45.9020696701
0
SPLINE
5
29C
100
AcDbEntity
8
0
100
AcDbSpline
62
7
6
CONTINUOUS
70
0
71
3
72
8
73
4
74
2
42
0.0000001000
43
0.0000001000
44
0.0000000001
40
0.0000000000
40
0.0000000000
40
0.0000000000
40
0.0000000000
40
1.0000000000
40
1.0000000000
40
1.0000000000
40
1.0000000000
10
326.9241457479
20
135.8530291554
30
0.0000000000
10
326.9241314393
20
136.0651506068
30
0.0000000000
10
326.9463798254
20
136.2779559088
30
0.0000000000
10
326.9904562009
20
136.4859292400
30
0.0000000000
11
326.9241457479
21
135.8530291554
31
0.0000000000
11
326.9904562009
21
136.4859292400
31
0.0000000000
0
SPLINE
5
29D
100
AcDbEntity
8
0
100
AcDbSpline
62
7
6
CONTINUOUS
70
0
71
3
72
20
73
16
74
14
42
0.0000001000
43
0.0000001000
44
0.0000000001
40
0.0000000000
40
0.0000000000
40
0.0000000000
40
0.0000000000
40
0.0764834982
40
0.1535184889
40
0.2310302874
40
0.3076948296
40
0.3845785322
40
0.4618077357
40
0.5385063304
40
0.6155908282
40
0.6924075447
40
0.7691001417
40
0.8463833103
40
0.9234165550
40
1.0000000000
40
1.0000000000
40
1.0000000000
40
1.0000000000
10
326.9904562009
20
136.4859292400
30
0.0000000000
10
327.0343622331
20
136.6930988104
30
0.0000000000
10
327.1659662591
20
137.0993078085
30
0.0000000000
10
327.4857738120
20
137.6573138320
30
0.0000000000
10
327.9181690688
20
138.1340634790
30
0.0000000000
10
328.4380141510
20
138.5119479797
30
0.0000000000
10
329.0236727310
20
138.7758180666
30
0.0000000000
10
329.6524503460
20
138.9081819897
30
0.0000000000
10
330.2951194512
20
138.9079392060
30
0.0000000000
10
330.9232336184
20
138.7754530025
30
0.0000000000
10
331.5084663163
20
138.5119082964
30
0.0000000000
10
332.0277101688
20
138.1344130709
30
0.0000000000
10
332.4596469173
20
137.6580576626
30
0.0000000000
10
332.7795831259
20
137.1005588257
30
0.0000000000
10
332.9114595694
20
136.6941357450
30
0.0000000000
10
332.9554716772
20
136.4867058317
30
0.0000000000
11
326.9904562009
21
136.4859292400
31
0.0000000000
11
327.1855750594
21
137.0890578774
31
0.0000000000
11
327.5037702815
21
137.6425948435
31
0.0000000000
11
327.9345499055
21
138.1191892391
31
0.0000000000
11
328.4485425903
21
138.4927553811
31
0.0000000000
11
329.0299469830
21
138.7535631913
31
0.0000000000
11
329.6561341040
21
138.8862248311
31
0.0000000000
11
330.2918217910
21
138.8860023318
31
0.0000000000
11
330.9167859158
21
138.7533548903
31
0.0000000000
11
331.4977066383
21
138.4928253426
31
0.0000000000
11
332.0118639875
21
138.1190902654
31
0.0000000000
11
332.4413745455
21
137.6439030562
31
0.0000000000
11
332.7598437088
21
137.0905403496
31
0.0000000000
11
332.9554716772
21
136.4867058317
31
0.0000000000
0
SPLINE
5
29E
100
AcDbEntity
8
0
100
AcDbSpline
62
7
6
CONTINUOUS
70
0
71
3
72
8
73
4
74
2
42
0.0000001000
43
0.0000001000
44
0.0000000001
40
0.0000000000
40
0.0000000000
40
0.0000000000
40
0.0000000000
40
1.0000000000
40
1.0000000000
40
1.0000000000
40
1.0000000000
10
332.9554716772
20
136.4867058317
30
0.0000000000
10
332.9996516235
20
136.2784848925
30
0.0000000000
10
333.0219324551
20
136.0654137823
30
0.0000000000
10
333.0219467814
20
135.8530291554
30
0.0000000000
11
332.9554716772
21
136.4867058317
31
0.0000000000
11
333.0219467814
21
135.8530291554
31
0.0000000000
0
SPLINE
5
29F
100
AcDbEntity
8
0
100
AcDbSpline
62
7
6
CONTINUOUS
70
0
71
3
72
8
73
4
74
2
42
0.0000001000
43
0.0000001000
44
0.0000000001
40
0.0000000000
40
0.0000000000
40
0.0000000000
40
0.0000000000
40
1.0000000000
40
1.0000000000
40
1.0000000000
40
1.0000000000
10
333.0219467814
20
135.8530291554
30
0.0000000000
10
333.0219610900
20
135.6409077039
30
0.0000000000
10
332.9997127039
20
135.4281024020
30
0.0000000000
10
332.9556363284
20
135.2201290707
30
0.0000000000
11
333.0219467814
21
135.8530291554
31
0.0000000000
11
332.9556363284
21
135.2201290707
31
0.0000000000
0
SPLINE
5
2A0
100
AcDbEntity
8
0
100
AcDbSpline
62
7
6
CONTINUOUS
70
0
71
3
72
20
73
16
74
14
42
0.0000001000
43
0.0000001000
44
0.0000000001
40
0.0000000000
40
0.0000000000
40
0.0000000000
40
0.0000000000
40
0.0764834982
40
0.1535184889
40
0.2310302874
40
0.3076948296
40
0.3845785322
40
0.4618077357
40
0.5385063304
40
0.6155908282
40
0.6924075447
40
0.7691001417
40
0.8463833103
40
0.9234165550
40
1.0000000000
40
1.0000000000
40
1.0000000000
40
1.0000000000
10
332.9556363284
20
135.2201290707
30
0.0000000000
10
332.9117302963
20
135.0129595003
30
0.0000000000
10
332.7801262702
20
134.6067505022
30
0.0000000000
10
332.4603187173
20
134.0487444787
30
0.0000000000
10
332.0279234605
20
133.5719948317
30
0.0000000000
10
331.5080783783
20
133.1941103310
30
0.0000000000
10
330.9224197984
20
132.9302402442
30
0.0000000000
10
330.2936421833
20
132.7978763210
30
0.0000000000
10
329.6509730782
20
132.7981191047
30
0.0000000000
10
329.0228589109
20
132.9306053082
30
0.0000000000
10
328.4376262130
20
133.1941500143
30
0.0000000000
10
327.9183823605
20
133.5716452399
30
0.0000000000
10
327.4864456120
20
134.0480006482
30
0.0000000000
10
327.1665094035
20
134.6054994850
30
0.0000000000
10
327.0346329600
20
135.0119225657
30
0.0000000000
10
326.9906208521
20
135.2193524790
30
0.0000000000
11
332.9556363284
21
135.2201290707
31
0.0000000000
11
332.7605174700
21
134.6170004333
31
0.0000000000
11
332.4423222478
21
134.0634634672
31
0.0000000000
11
332.0115426238
21
133.5868690716
31
0.0000000000
11
331.4975499391
21
133.2133029297
31
0.0000000000
11
330.9161455464
21
132.9524951195
31
0.0000000000
11
330.2899584253
21
132.8198334796
31
0.0000000000
11
329.6542707384
21
132.8200559790
31
0.0000000000
11
329.0293066136
21
132.9527034204
31
0.0000000000
11
328.4483858910
21
133.2132329681
31
0.0000000000
11
327.9342285419
21
133.5869680453
31
0.0000000000
11
327.5047179839
21
134.0621552545
31
0.0000000000
11
327.1862488205
21
134.6155179611
31
0.0000000000
11
326.9906208521
21
135.2193524790
31
0.0000000000
0
SPLINE
5
2A1
100
AcDbEntity
8
0
100
AcDbSpline
62
7
6
CONTINUOUS
70
0
71
3
72
8
73
4
74
2
42
0.0000001000
43
0.0000001000
44
0.0000000001
40
0.0000000000
40
0.0000000000
40
0.0000000000
40
0.0000000000
40
1.0000000000
40
1.0000000000
40
1.0000000000
40
1.0000000000
10
326.9906208521
20
135.2193524790
30
0.0000000000
10
326.9464409058
20
135.4275734183
30
0.0000000000
10
326.9241600743
20
135.6406445284
30
0.0000000000
10
326.9241457479
20
135.8530291554
30
0.0000000000
11
326.9906208521
21
135.2193524790
31
0.0000000000
11
326.9241457479
21
135.8530291554
31
0.0000000000
0
SPLINE
5
2A2
100
AcDbEntity
8
0
100
AcDbSpline
62
7
6
CONTINUOUS
70
0
71
3
72
10
73
6
74
4
42
0.0000001000
43
0.0000001000
44
0.0000000001
40
0.0000000000
40
0.0000000000
40
0.0000000000
40
0.0000000000
40
0.3311479396
40
0.6644769205
40
1.0000000000
40
1.0000000000
40
1.0000000000
40
1.0000000000
10
342.8230462647
20
162.7565562771
30
0.0000000000
10
342.9081100225
20
162.8052252270
30
0.0000000000
10
343.0787243770
20
162.9030120205
30
0.0000000000
10
343.3353123103
20
163.0504838588
30
0.0000000000
10
343.5068006001
20
163.1493484666
30
0.0000000000
10
343.5927946833
20
163.1989971737
30
0.0000000000
11
342.8230462647
21
162.7565562771
31
0.0000000000
11
343.0781351561
21
162.9027419249
31
0.0000000000
11
343.3347167762
21
163.0502168593
31
0.0000000000
11
343.5927946833
21
163.1989971737
31
0.0000000000
0
SPLINE
5
2A3
100
AcDbEntity
8
0
100
AcDbSpline
62
7
6
CONTINUOUS
70
0
71
3
72
23
73
19
74
17
42
0.0000001000
43
0.0000001000
44
0.0000000001
40
0.0000000000
40
0.0000000000
40
0.0000000000
40
0.0000000000
40
0.0477912715
40
0.0950592150
40
0.1423429397
40
0.2140334211
40
0.2862387291
40
0.3583054835
40
0.4296585788
40
0.4999900372
40
0.5703464628
40
0.6417673696
40
0.7138994435
40
0.7861240648
40
0.8577927345
40
0.9050450027
40
0.9522681293
40
1.0000000000
40
1.0000000000
40
1.0000000000
40
1.0000000000
10
339.6706483114
20
148.1070611371
30
0.0000000000
10
339.4292030789
20
147.8624566952
30
0.0000000000
10
338.9309967210
20
147.3934119520
30
0.0000000000
10
338.1345390742
20
146.7488978122
30
0.0000000000
10
337.1492768148
20
146.0699786463
30
0.0000000000
10
335.9460851425
20
145.3986548298
30
0.0000000000
10
334.5105844838
20
144.7972739080
30
0.0000000000
10
333.0169985789
20
144.3681753217
30
0.0000000000
10
331.4986153332
20
144.1100575235
30
0.0000000000
10
329.9730866019
20
144.0223445452
30
0.0000000000
10
328.4470594735
20
144.1100441961
30
0.0000000000
10
326.9275845566
20
144.3685608179
30
0.0000000000
10
325.4329848496
20
144.7981135051
30
0.0000000000
10
323.9971844391
20
145.3999707301
30
0.0000000000
10
322.7943915978
20
146.0715035835
30
0.0000000000
10
321.8098455864
20
146.7502133358
30
0.0000000000
10
321.0142252683
20
147.3942070238
30
0.0000000000
10
320.5165867502
20
147.8627578931
30
0.0000000000
10
320.2754442180
20
148.1070611371
30
0.0000000000
11
339.6706483114
21
148.1070611371
31
0.0000000000
11
338.9197403299
21
147.4005929514
31
0.0000000000
11
338.1267981372
21
146.7594605194
31
0.0000000000
11
337.2870338159
21
146.1804109199
31
0.0000000000
11
335.9367002831
21
145.4264228273
31
0.0000000000
11
334.4995529783
21
144.8256039901
31
0.0000000000
11
333.0056552242
21
144.3950900883
31
0.0000000000
11
331.4880883113
21
144.1373517041
31
0.0000000000
11
329.9732644826
21
144.0514361976
31
0.0000000000
11
328.4579018230
21
144.1373631386
31
0.0000000000
11
326.9389179330
21
144.3954951998
31
0.0000000000
11
325.4437226309
21
144.8265952571
31
0.0000000000
11
324.0063186596
21
145.4278802536
31
0.0000000000
11
322.6565882416
21
146.1819831998
31
0.0000000000
11
321.8174970611
21
146.7608135477
31
0.0000000000
11
321.0253855540
21
147.4014356165
31
0.0000000000
11
320.2754442180
21
148.1070611371
31
0.0000000000
0
SPLINE
5
2A4
100
AcDbEntity
8
0
100
AcDbSpline
62
7
6
CONTINUOUS
70
0
71
3
72
10
73
6
74
4
42
0.0000001000
43
0.0000001000
44
0.0000000001
40
0.0000000000
40
0.0000000000
40
0.0000000000
40
0.0000000000
40
0.3351252392
40
0.6681242166
40
1.0000000000
40
1.0000000000
40
1.0000000000
40
1.0000000000
10
320.2754442180
20
148.1070611371
30
0.0000000000
10
320.3497077644
20
148.1583115744
30
0.0000000000
10
320.4979367127
20
148.2602349816
30
0.0000000000
10
320.7196075874
20
148.4130663971
30
0.0000000000
10
320.8682830077
20
148.5127828233
30
0.0000000000
10
320.9421142508
20
148.5631167800
30
0.0000000000
11
320.2754442180
21
148.1070611371
31
0.0000000000
11
320.4983769248
21
148.2606063848
31
0.0000000000
11
320.7201806716
21
148.4127621213
31
0.0000000000
11
320.9421142508
21
148.5631167800
31
0.0000000000
0
SPLINE
5
2A5
100
AcDbEntity
8
0
100
AcDbSpline
62
7
6
CONTINUOUS
70
0
71
3
72
10
73
6
74
4
42
0.0000001000
43
0.0000001000
44
0.0000000001
40
0.0000000000
40
0.0000000000
40
0.0000000000
40
0.0000000000
40
0.3351283899
40
0.6681305113
40
1.0000000000
40
1.0000000000
40
1.0000000000
40
1.0000000000
10
339.6706483114
20
148.1070611371
30
0.0000000000
10
339.5963851516
20
148.1583112539
30
0.0000000000
10
339.4481577228
20
148.2602351336
30
0.0000000000
10
339.2264867345
20
148.4130592093
30
0.0000000000
10
339.0778223792
20
148.5127856848
30
0.0000000000
10
339.0039936279
20
148.5631179171
30
0.0000000000
11
339.6706483114
21
148.1070611371
31
0.0000000000
11
339.4477167660
21
148.2606054256
31
0.0000000000
11
339.2259141680
21
148.4127602201
31
0.0000000000
11
339.0039936279
21
148.5631179171
31
0.0000000000
0
SPLINE
5
2A6
100
AcDbEntity
8
0
100
AcDbSpline
62
7
6
CONTINUOUS
70
0
71
3
72
10
73
6
74
4
42
0.0000001000
43
0.0000001000
44
0.0000000001
40
0.0000000000
40
0.0000000000
40
0.0000000000
40
0.0000000000
40
0.3311478871
40
0.6644768943
40
1.0000000000
40
1.0000000000
40
1.0000000000
40
1.0000000000
10
317.1230462647
20
162.7565567487
30
0.0000000000
10
317.0379825448
20
162.8052256815
30
0.0000000000
10
316.8673679402
20
162.9030119185
30
0.0000000000
10
316.6107801991
20
163.0504839349
30
0.0000000000
10
316.4392919132
20
163.1493484758
30
0.0000000000
10
316.3532978461
20
163.1989971737
30
0.0000000000
11
317.1230462647
21
162.7565567487
31
0.0000000000
11
316.8679572776
21
162.9027419798
31
0.0000000000
11
316.6113757051
21
163.0502168869
31
0.0000000000
11
316.3532978461
21
163.1989971737
31
0.0000000000
0
SPLINE
5
2A7
100
AcDbEntity
8
0
100
AcDbSpline
62
7
6
CONTINUOUS
70
0
71
3
72
10
73
6
74
4
42
0.0000001000
43
0.0000001000
44
0.0000000001
40
0.0000000000
40
0.0000000000
40
0.0000000000
40
0.0000000000
40
0.3346881375
40
0.6680204787
40
1.0000000000
40
1.0000000000
40
1.0000000000
40
1.0000000000
10
343.5927946833
20
174.8530291554
30
0.0000000000
10
343.5387007320
20
174.9071231067
30
0.0000000000
10
343.4306818565
20
175.0150417898
30
0.0000000000
10
343.2688304885
20
175.1764400342
30
0.0000000000
10
343.1610473385
20
175.2837183147
30
0.0000000000
10
343.1072397790
20
175.3372226697
30
0.0000000000
11
343.5927946833
21
174.8530291554
31
0.0000000000
11
343.4304372334
21
175.0152353780
31
0.0000000000
11
343.2685860507
21
175.1766328018
31
0.0000000000
11
343.1072397790
21
175.3372226697
31
0.0000000000
0
SPLINE
5
2A8
100
AcDbEntity
8
0
100
AcDbSpline
62
7
6
CONTINUOUS
70
0
71
3
72
10
73
6
74
4
42
0.0000001000
43
0.0000001000
44
0.0000000001
40
0.0000000000
40
0.0000000000
40
0.0000000000
40
0.0000000000
40
0.3346881375
40
0.6680204787
40
1.0000000000
40
1.0000000000
40
1.0000000000
40
1.0000000000
10
316.3532978461
20
174.8530291554
30
0.0000000000
10
316.4073917974
20
174.9071231067
30
0.0000000000
10
316.5154106728
20
175.0150417898
30
0.0000000000
10
316.6772620409
20
175.1764400342
30
0.0000000000
10
316.7850451909
20
175.2837183147
30
0.0000000000
10
316.8388527504
20
175.3372226697
30
0.0000000000
11
316.3532978461
21
174.8530291554
31
0.0000000000
11
316.5156552960
21
175.0152353780
31
0.0000000000
11
316.6775064787
21
175.1766328018
31
0.0000000000
11
316.8388527504
21
175.3372226697
31
0.0000000000
0
ENDSEC
0
SECTION
2
OBJECTS
0
DICTIONARY
5
2A9
100
AcDbDictionary
3
ACAD_GROUP
350
2AA
3
ACAD_MLINESTYLE
350
2AB
0
DICTIONARY
5
2AA
102
{ACAD_REACTORS
330
2A9
102
}
100
AcDbDictionary
0
DICTIONARY
5
2AB
102
{ACAD_REACTORS
330
2A9
102
}
100
AcDbDictionary
3
STANDARD
350
2AC
0
MLINESTYLE
5
2AC
102
{ACAD_REACTORS
330
2AB
102
}
100
AcDbMlineStyle
2
STANDARD
70
0
3

62
256
51
90.0
52
90.0
71
2
49
0.5
62
256
6
BYLAYER
49
-0.5
62
256
6
BYLAYER
0
ENDSEC
0
EOF
