999
DXF file: D:\disegni\zDISEGNI_dxf\serie32000\32800-50bt.dxf
999
Pro/ENGINEER 2002180 by Parametric Technology Corporation
0
SECTION
2
HEADER
9
$ACADVER
1
AC1014
9
$EXTMAX
10
420.0000000000
20
297.0000000000
9
$EXTMIN
10
0.0000000000
20
0.0000000000
9
$LIMMIN
10
0.0000000000
20
0.0000000000
9
$LIMMAX
10
420.0000000000
20
297.0000000000
9
$VIEWCTR
10
210.0000000000
20
148.5000000000
9
$VIEWSIZE
40
297.0000000000
9
$CLAYER
8
0
9
$LTSCALE
40
23.1000000000
9
$CELTYPE
6
BYLAYER
9
$DIMSCALE
40
1
9
$DIMASZ
40
4.7600000000
9
$DIMEXO
40
2.6250000000
9
$DIMDLI
40
15.9600000000
9
$DIMEXE
40
7.5600000000
9
$DIMCEN
40
3.7800000000
9
$DIMLFAC
40
1.0000000000
9
$DIMTXT
40
3.0000000000
9
$DIMTOL
70
1
9
$DIMLIM
70
0
9
$DIMTFAC
40
1.0000000000
9
$DIMTP
40
0.0010000000
9
$DIMTM
40
0.0010000000
9
$HANDSEED
5
2C0
0
ENDSEC
0
SECTION
2
CLASSES
0
ENDSEC
0
SECTION
2
TABLES
0
TABLE
2
VPORT
5
8
100
AcDbSymbolTable
70
2
0
VPORT
5
1F4
100
AcDbSymbolTableRecord
100
AcDbViewportTableRecord
2
*ACTIVE
70
0
10
0.0
20
0.0
11
1.0
21
1.0
12
210.0000000000
22
148.5000000000
13
0.0
23
0.0
14
1.0
24
1.0
15
0.0
25
0.0
16
0.0
26
0.0
36
1.0
17
0.0
27
0.0
37
0.0
40
297.0000000000
41
1.4141414141
42
50.0
43
0.0
44
0.0
50
0.0
51
0.0
71
0
72
100
73
1
74
1
75
0
76
0
77
0
78
0
0
ENDTAB
0
TABLE
2
LTYPE
5
5
100
AcDbSymbolTable
70
6
0
LTYPE
5
14
100
AcDbSymbolTableRecord
100
AcDbLinetypeTableRecord
2
BYBLOCK
70
0
3

72
65
73
0
40
0.0
0
LTYPE
5
15
100
AcDbSymbolTableRecord
100
AcDbLinetypeTableRecord
2
BYLAYER
70
0
3

72
65
73
0
40
0.0
0
LTYPE
5
16
100
AcDbSymbolTableRecord
100
AcDbLinetypeTableRecord
2
CONTINUOUS
70
64
3
Solid line
72
65
73
0
40
0
0
LTYPE
5
1F5
100
AcDbSymbolTableRecord
100
AcDbLinetypeTableRecord
2
CENTER
70
64
3
____ _ ____ _ ____ _ ____ _ ____ _ ____ _ ____
72
65
73
4
40
0.6
49
0.375
74
0
49
-0.075
74
0
49
0.075
74
0
49
-0.075
74
0
0
LTYPE
5
1F6
100
AcDbSymbolTableRecord
100
AcDbLinetypeTableRecord
2
HIDDEN
70
64
3
- - - - - - - - - - - - - - - - - - - -
72
65
73
2
40
0.2
49
0.1
74
0
49
-0.1
74
0
0
LTYPE
5
1F7
100
AcDbSymbolTableRecord
100
AcDbLinetypeTableRecord
2
PHANTOM
70
64
3
_____ _ _ _____ _ _ _____ _ _ _____
72
65
73
6
40
0.8
49
0.45
74
0
49
-0.05
74
0
49
0.1
74
0
49
-0.05
74
0
49
0.1
74
0
49
-0.05
74
0
0
LTYPE
5
1F8
100
AcDbSymbolTableRecord
100
AcDbLinetypeTableRecord
2
DOT
70
64
3
. . . . . . . . . . . . . . . . . . . .
72
65
73
2
40
0.2
49
0.1
74
0
49
-0.1
74
0
0
LTYPE
5
1F9
100
AcDbSymbolTableRecord
100
AcDbLinetypeTableRecord
2
DASHED
70
64
3
- - - - - - - - - - - - - - - - - - - -
72
65
73
2
40
0.2
49
0.1
74
0
49
-0.1
74
0
0
ENDTAB
0
TABLE
2
LAYER
5
2
100
AcDbSymbolTable
70
36
0
LAYER
5
10
100
AcDbSymbolTableRecord
100
AcDbLayerTableRecord
2
0
70
0
62
7
6
CONTINUOUS
0
LAYER
5
1FA
100
AcDbSymbolTableRecord
100
AcDbLayerTableRecord
2
DEFAULT_1
70
0
62
7
6
CENTER
0
LAYER
5
1FB
100
AcDbSymbolTableRecord
100
AcDbLayerTableRecord
2
DEFAULT_2
70
0
62
8
6
HIDDEN
0
LAYER
5
1FC
100
AcDbSymbolTableRecord
100
AcDbLayerTableRecord
2
DEFAULT_3
70
0
62
7
6
PHANTOM
0
LAYER
5
1FD
100
AcDbSymbolTableRecord
100
AcDbLayerTableRecord
2
_BLACK_HOLE
70
0
62
7
6
CONTINUOUS
0
LAYER
5
1FE
100
AcDbSymbolTableRecord
100
AcDbLayerTableRecord
2
0_COMPONENTS
70
0
62
7
6
CONTINUOUS
0
LAYER
5
1FF
100
AcDbSymbolTableRecord
100
AcDbLayerTableRecord
2
1_ALL_PLANES
70
0
62
7
6
CONTINUOUS
0
LAYER
5
200
100
AcDbSymbolTableRecord
100
AcDbLayerTableRecord
2
1__DEF_ASM_PLN
70
0
62
7
6
CONTINUOUS
0
LAYER
5
201
100
AcDbSymbolTableRecord
100
AcDbLayerTableRecord
2
1__DEF_PLANES
70
0
62
7
6
CONTINUOUS
0
LAYER
5
202
100
AcDbSymbolTableRecord
100
AcDbLayerTableRecord
2
2_ALL_CSYS
70
0
62
7
6
CONTINUOUS
0
LAYER
5
203
100
AcDbSymbolTableRecord
100
AcDbLayerTableRecord
2
2__DEF_ASM_CSYS
70
0
62
7
6
CONTINUOUS
0
LAYER
5
204
100
AcDbSymbolTableRecord
100
AcDbLayerTableRecord
2
2__DEF_CSYS
70
0
62
7
6
CONTINUOUS
0
LAYER
5
205
100
AcDbSymbolTableRecord
100
AcDbLayerTableRecord
2
3_ALL_AXES
70
0
62
7
6
CONTINUOUS
0
LAYER
5
206
100
AcDbSymbolTableRecord
100
AcDbLayerTableRecord
2
4_ALL_POINTS
70
0
62
7
6
CONTINUOUS
0
LAYER
5
207
100
AcDbSymbolTableRecord
100
AcDbLayerTableRecord
2
5_ALL_CURVES
70
0
62
7
6
CONTINUOUS
0
LAYER
5
208
100
AcDbSymbolTableRecord
100
AcDbLayerTableRecord
2
5_ALL_GTOLS_FREE_
70
0
62
7
6
CONTINUOUS
0
LAYER
5
209
100
AcDbSymbolTableRecord
100
AcDbLayerTableRecord
2
6_ALL_SURFS
70
0
62
7
6
CONTINUOUS
0
LAYER
5
20A
100
AcDbSymbolTableRecord
100
AcDbLayerTableRecord
2
CURVE
70
0
62
7
6
CONTINUOUS
0
LAYER
5
20B
100
AcDbSymbolTableRecord
100
AcDbLayerTableRecord
2
GIANNI_ASSI
70
0
62
7
6
CONTINUOUS
0
LAYER
5
20C
100
AcDbSymbolTableRecord
100
AcDbLayerTableRecord
2
GIANNI_PIANI
70
0
62
7
6
CONTINUOUS
0
LAYER
5
20D
100
AcDbSymbolTableRecord
100
AcDbLayerTableRecord
2
XSEC_DATUMS
70
0
62
7
6
CONTINUOUS
0
ENDTAB
0
TABLE
2
STYLE
5
3
100
AcDbSymbolTable
70
1
0
STYLE
5
11
100
AcDbSymbolTableRecord
100
AcDbTextStyleTableRecord
2
STANDARD
70
0
40
0.0
41
1.2000000000
50
0.0
71
0
42
0.2
3
txt
4

0
ENDTAB
0
TABLE
2
VIEW
5
6
100
AcDbSymbolTable
70
0
0
ENDTAB
0
TABLE
2
UCS
5
7
100
AcDbSymbolTable
70
0
0
ENDTAB
0
TABLE
2
APPID
5
9
100
AcDbSymbolTable
70
1
0
APPID
5
20E
100
AcDbSymbolTableRecord
100
AcDbRegAppTableRecord
2
ACAD
70
0
0
ENDTAB
0
TABLE
2
DIMSTYLE
5
A
100
AcDbSymbolTable
70
1
0
DIMSTYLE
105
20F
100
AcDbSymbolTableRecord
100
AcDbDimStyleTableRecord
2
STANDARD
70
0
3

4

5

6

7

40
1.0
41
4.7600000000
42
0.0625
43
0.38
44
0.18
45
0.0
46
0.0
47
0.0010000000
48
0.0010000000
140
3.0000000000
141
0.09
142
0.0
143
25.4
144
1.0000000000
145
0.0
146
1.0000000000
147
0.09
71
1
72
0
73
0
74
0
75
0
76
0
77
1
78
8
170
0
171
2
172
0
173
0
174
0
175
0
176
0
177
0
178
5
270
2
271
3
272
3
273
2
274
2
340
11
275
0
280
0
281
0
282
0
283
1
284
8
285
0
286
0
287
3
288
0
0
DIMSTYLE
105
210
100
AcDbSymbolTableRecord
100
AcDbDimStyleTableRecord
2
DIMSTYLE_1
70
0
3

4

5

6

7

40
1.0
41
4.7600000000
42
0.0625
43
0.38
44
0.18
45
0.0
46
0.0
47
0.0100000000
48
0.0100000000
140
3.0000000000
141
0.09
142
0.0
143
25.4
144
1.0000000000
145
0.0
146
1.0000000000
147
0.09
71
0
72
0
73
0
74
0
75
0
76
0
77
1
78
8
170
0
171
2
172
0
173
0
174
0
175
0
176
0
177
0
178
5
270
2
271
3
272
3
273
2
274
2
340
11
275
0
280
0
281
0
282
0
283
1
284
8
285
0
286
0
287
3
288
0
0
ENDTAB
0
TABLE
2
BLOCK_RECORD
5
1
100
AcDbSymbolTable
70
0
0
BLOCK_RECORD
5
1B
100
AcDbSymbolTableRecord
100
AcDbBlockTableRecord
2
*MODEL_SPACE
0
BLOCK_RECORD
5
1C
100
AcDbSymbolTableRecord
100
AcDbBlockTableRecord
2
*PAPER_SPACE
0
BLOCK_RECORD
5
211
100
AcDbSymbolTableRecord
100
AcDbBlockTableRecord
2
*D0
0
BLOCK_RECORD
5
212
100
AcDbSymbolTableRecord
100
AcDbBlockTableRecord
2
*D1
0
BLOCK_RECORD
5
213
100
AcDbSymbolTableRecord
100
AcDbBlockTableRecord
2
*D2
0
BLOCK_RECORD
5
214
100
AcDbSymbolTableRecord
100
AcDbBlockTableRecord
2
*D3
0
ENDTAB
0
ENDSEC
0
SECTION
2
BLOCKS
0
BLOCK
5
1E
100
AcDbEntity
8
0
100
AcDbBlockBegin
2
*MODEL_SPACE
70
0
10
0.0
20
0.0
30
0.0
3
*MODEL_SPACE
1

0
ENDBLK
5
1F
100
AcDbEntity
8
0
100
AcDbBlockEnd
0
BLOCK
5
20
100
AcDbEntity
8
0
100
AcDbBlockBegin
2
*PAPER_SPACE
70
0
10
0.0
20
0.0
30
0.0
3
*PAPER_SPACE
1

0
ENDBLK
5
21
100
AcDbEntity
8
0
100
AcDbBlockEnd
0
BLOCK
5
215
100
AcDbEntity
8
0
100
AcDbBlockBegin
62
2
6
CONTINUOUS
2
*D0
70
65
10
0.0000000000
20
0.0000000000
3
*D0
1

0
TEXT
5
216
100
AcDbEntity
8
0
100
AcDbText
62
5
6
CONTINUOUS
10
401.6243504164
20
80.3977904970
7
STANDARD
40
3.0000000000
1
136
50
90.0000000000
41
0.6904761905
72
5
11
401.6243504164
21
86.6120762113
100
AcDbText
0
LINE
5
217
100
AcDbEntity
8
0
100
AcDbLine
62
2
6
CONTINUOUS
10
367.2928372537
20
171.3804275682
11
403.3743504164
21
171.3804275682
0
LINE
5
218
100
AcDbEntity
8
0
100
AcDbLine
62
2
6
CONTINUOUS
10
367.8678372537
20
35.3804275682
11
403.3743504164
21
35.3804275682
0
LINE
5
219
100
AcDbEntity
8
0
100
AcDbLine
62
2
6
CONTINUOUS
10
402.3743504164
20
171.3804275682
11
402.3743504164
21
103.3804275682
0
LINE
5
21A
100
AcDbEntity
8
0
100
AcDbLine
62
2
6
CONTINUOUS
10
402.3743504164
20
35.3804275682
11
402.3743504164
21
103.3804275682
0
SOLID
5
21B
100
AcDbEntity
8
0
100
AcDbTrace
62
2
6
CONTINUOUS
10
402.8743504164
20
166.6204275682
11
402.3743504164
21
171.3804275682
12
401.8743504164
22
166.6204275682
13
401.8743504164
23
166.6204275682
0
SOLID
5
21C
100
AcDbEntity
8
0
100
AcDbTrace
62
2
6
CONTINUOUS
10
401.8743504164
20
40.1404275682
11
402.3743504164
21
35.3804275682
12
402.8743504164
22
40.1404275682
13
402.8743504164
23
40.1404275682
0
ENDBLK
5
21D
100
AcDbEntity
8
0
100
AcDbBlockEnd
0
BLOCK
5
21E
100
AcDbEntity
8
0
100
AcDbBlockBegin
62
2
6
CONTINUOUS
2
*D1
70
65
10
0.0000000000
20
0.0000000000
3
*D1
1

0
TEXT
5
21F
100
AcDbEntity
8
0
100
AcDbText
62
5
6
CONTINUOUS
10
329.4374903177
20
25.9634901537
7
STANDARD
40
3.0000000000
1
%%c
41
1.3333333333
72
5
11
333.4374903177
21
25.9634901537
100
AcDbText
0
TEXT
5
220
100
AcDbEntity
8
0
100
AcDbText
62
5
6
CONTINUOUS
10
333.4374903177
20
25.9634901537
7
STANDARD
40
3.0000000000
1
48
41
0.7857142857
72
5
11
338.1517760320
21
25.9634901537
100
AcDbText
0
LINE
5
221
100
AcDbEntity
8
0
100
AcDbLine
62
2
6
CONTINUOUS
10
356.2678372537
20
35.2804275682
11
356.2678372537
21
24.2134901537
0
LINE
5
222
100
AcDbEntity
8
0
100
AcDbLine
62
2
6
CONTINUOUS
10
308.2678372537
20
35.2804275682
11
308.2678372537
21
24.2134901537
0
LINE
5
223
100
AcDbEntity
8
0
100
AcDbLine
62
2
6
CONTINUOUS
10
356.2678372537
20
25.2134901537
11
332.2678372537
21
25.2134901537
0
LINE
5
224
100
AcDbEntity
8
0
100
AcDbLine
62
2
6
CONTINUOUS
10
308.2678372537
20
25.2134901537
11
332.2678372537
21
25.2134901537
0
SOLID
5
225
100
AcDbEntity
8
0
100
AcDbTrace
62
2
6
CONTINUOUS
10
351.5078372537
20
24.7134901537
11
356.2678372537
21
25.2134901537
12
351.5078372537
22
25.7134901537
13
351.5078372537
23
25.7134901537
0
SOLID
5
226
100
AcDbEntity
8
0
100
AcDbTrace
62
2
6
CONTINUOUS
10
313.0278372537
20
25.7134901537
11
308.2678372537
21
25.2134901537
12
313.0278372537
22
24.7134901537
13
313.0278372537
23
24.7134901537
0
ENDBLK
5
227
100
AcDbEntity
8
0
100
AcDbBlockEnd
0
BLOCK
5
228
100
AcDbEntity
8
0
100
AcDbBlockBegin
62
2
6
CONTINUOUS
2
*D2
70
65
10
0.0000000000
20
0.0000000000
3
*D2
1

0
TEXT
5
229
100
AcDbEntity
8
0
100
AcDbText
62
5
6
CONTINUOUS
10
317.2200354921
20
16.6900003463
7
STANDARD
40
3.0000000000
1
%%c
41
1.3333333333
72
5
11
321.2200354921
21
16.6900003463
100
AcDbText
0
TEXT
5
22A
100
AcDbEntity
8
0
100
AcDbText
62
5
6
CONTINUOUS
10
321.2200354921
20
16.6900003463
7
STANDARD
40
3.0000000000
1
79
41
0.7857142857
72
5
11
325.9343212064
21
16.6900003463
100
AcDbText
0
LINE
5
22B
100
AcDbEntity
8
0
100
AcDbLine
62
2
6
CONTINUOUS
10
371.7678372537
20
37.9624126546
11
371.7678372537
21
14.9400003463
0
LINE
5
22C
100
AcDbEntity
8
0
100
AcDbLine
62
2
6
CONTINUOUS
10
292.7678372537
20
37.9624126546
11
292.7678372537
21
14.9400003463
0
LINE
5
22D
100
AcDbEntity
8
0
100
AcDbLine
62
2
6
CONTINUOUS
10
371.7678372537
20
15.9400003463
11
332.2678372537
21
15.9400003463
0
LINE
5
22E
100
AcDbEntity
8
0
100
AcDbLine
62
2
6
CONTINUOUS
10
292.7678372537
20
15.9400003463
11
332.2678372537
21
15.9400003463
0
SOLID
5
22F
100
AcDbEntity
8
0
100
AcDbTrace
62
2
6
CONTINUOUS
10
367.0078372537
20
15.4400003463
11
371.7678372537
21
15.9400003463
12
367.0078372537
22
16.4400003463
13
367.0078372537
23
16.4400003463
0
SOLID
5
230
100
AcDbEntity
8
0
100
AcDbTrace
62
2
6
CONTINUOUS
10
297.5278372537
20
16.4400003463
11
292.7678372537
21
15.9400003463
12
297.5278372537
22
15.4400003463
13
297.5278372537
23
15.4400003463
0
ENDBLK
5
231
100
AcDbEntity
8
0
100
AcDbBlockEnd
0
BLOCK
5
232
100
AcDbEntity
8
0
100
AcDbBlockBegin
62
2
6
CONTINUOUS
2
*D3
70
65
10
0.0000000000
20
0.0000000000
3
*D3
1

0
TEXT
5
233
100
AcDbEntity
8
0
100
AcDbText
62
5
6
CONTINUOUS
10
392.0052683868
20
80.5648158286
7
STANDARD
40
3.0000000000
1
98
50
90.0000000000
41
0.7857142857
72
5
11
392.0052683868
21
85.2791015429
100
AcDbText
0
LINE
5
234
100
AcDbEntity
8
0
100
AcDbLine
62
2
6
CONTINUOUS
10
381.3678372537
20
133.3804275682
11
393.7552683868
21
133.3804275682
0
LINE
5
235
100
AcDbEntity
8
0
100
AcDbLine
62
2
6
CONTINUOUS
10
367.8678372537
20
35.3804275682
11
393.7552683868
21
35.3804275682
0
LINE
5
236
100
AcDbEntity
8
0
100
AcDbLine
62
2
6
CONTINUOUS
10
392.7552683868
20
133.3804275682
11
392.7552683868
21
84.3804275682
0
LINE
5
237
100
AcDbEntity
8
0
100
AcDbLine
62
2
6
CONTINUOUS
10
392.7552683868
20
35.3804275682
11
392.7552683868
21
84.3804275682
0
SOLID
5
238
100
AcDbEntity
8
0
100
AcDbTrace
62
2
6
CONTINUOUS
10
393.2552683868
20
128.6204275682
11
392.7552683868
21
133.3804275682
12
392.2552683868
22
128.6204275682
13
392.2552683868
23
128.6204275682
0
SOLID
5
239
100
AcDbEntity
8
0
100
AcDbTrace
62
2
6
CONTINUOUS
10
392.2552683868
20
40.1404275682
11
392.7552683868
21
35.3804275682
12
393.2552683868
22
40.1404275682
13
393.2552683868
23
40.1404275682
0
ENDBLK
5
23A
100
AcDbEntity
8
0
100
AcDbBlockEnd
0
ENDSEC
0
SECTION
2
ENTITIES
0
DIMENSION
5
23B
100
AcDbEntity
8
0
100
AcDbDimension
62
2
6
CONTINUOUS
2
*D0
10
402.3743504164
20
35.3804275682
11
400.1243504164
21
83.5049333542
70
160
3
DIMSTYLE_1
100
AcDbAlignedDimension
13
367.2928372537
23
171.3804275682
14
367.8678372537
24
35.3804275682
50
270.000000
100
AcDbRotatedDimension
0
DIMENSION
5
23C
100
AcDbEntity
8
0
100
AcDbDimension
62
2
6
CONTINUOUS
2
*D1
10
308.2678372537
20
25.2134901537
11
333.7946331749
21
27.4634901537
70
160
1
%%c<>
3
DIMSTYLE_1
100
AcDbAlignedDimension
13
356.2678372537
23
35.2804275682
14
308.2678372537
24
35.2804275682
50
180.000000
100
AcDbRotatedDimension
0
DIMENSION
5
23D
100
AcDbEntity
8
0
100
AcDbDimension
62
2
6
CONTINUOUS
2
*D2
10
292.7678372537
20
15.9400003463
11
321.5771783493
21
18.1900003463
70
160
1
%%c<>
3
DIMSTYLE_1
100
AcDbAlignedDimension
13
371.7678372537
23
37.9624126546
14
292.7678372537
24
37.9624126546
50
180.000000
100
AcDbRotatedDimension
0
DIMENSION
5
23E
100
AcDbEntity
8
0
100
AcDbDimension
62
2
6
CONTINUOUS
2
*D3
10
392.7552683868
20
35.3804275682
11
390.5052683868
21
82.9219586857
70
160
3
DIMSTYLE_1
100
AcDbAlignedDimension
13
381.3678372537
23
133.3804275682
14
367.8678372537
24
35.3804275682
50
270.000000
100
AcDbRotatedDimension
0
LINE
5
23F
100
AcDbEntity
8
0
100
AcDbLine
62
7
6
CONTINUOUS
10
432.5000000000
20
-3.0625000000
11
232.5000000000
21
-3.0625000000
0
LINE
5
240
100
AcDbEntity
8
0
100
AcDbLine
62
7
6
CONTINUOUS
10
232.5000000000
20
-3.0625000000
11
232.5000000000
21
283.9375000000
0
LINE
5
241
100
AcDbEntity
8
0
100
AcDbLine
62
7
6
CONTINUOUS
10
432.5000000000
20
283.9375000000
11
232.5000000000
21
283.9375000000
0
LINE
5
242
100
AcDbEntity
8
0
100
AcDbLine
62
7
6
CONTINUOUS
10
432.5000000000
20
-3.0625000000
11
432.5000000000
21
283.9375000000
0
LINE
5
243
100
AcDbEntity
8
0
100
AcDbLine
62
7
6
CONTINUOUS
10
369.4369343467
20
35.3804275682
11
295.0987401623
21
35.3804275682
0
LINE
5
244
100
AcDbEntity
8
0
100
AcDbLine
62
7
6
CONTINUOUS
10
294.7157179399
20
35.5590337625
11
369.8199565676
21
35.5590337625
0
LINE
5
245
100
AcDbEntity
8
0
100
AcDbLine
62
7
6
CONTINUOUS
10
371.6508594666
20
37.7410188701
11
292.8848150409
21
37.7410188701
0
LINE
5
246
100
AcDbEntity
8
0
100
AcDbLine
62
7
6
CONTINUOUS
10
371.7678372537
20
38.0624126850
11
292.7678372537
21
38.0624126850
0
LINE
5
247
100
AcDbEntity
8
0
100
AcDbLine
62
7
6
CONTINUOUS
10
292.7678372537
20
50.1304275682
11
371.7678372537
21
50.1304275682
0
LINE
5
248
100
AcDbEntity
8
0
100
AcDbLine
62
7
6
CONTINUOUS
10
293.0178372537
20
50.3804275682
11
371.5178372537
21
50.3804275682
0
LINE
5
249
100
AcDbEntity
8
0
100
AcDbLine
62
7
6
CONTINUOUS
10
292.8848150401
20
37.7410188711
11
294.7157179399
21
35.5590337625
0
LINE
5
24A
100
AcDbEntity
8
0
100
AcDbLine
62
7
6
CONTINUOUS
10
292.7678372537
20
61.6304275682
11
293.0178372537
21
61.3804275682
0
LINE
5
24B
100
AcDbEntity
8
0
100
AcDbLine
62
7
6
CONTINUOUS
10
293.0178372537
20
61.3804275682
11
371.5178372537
21
61.3804275682
0
LINE
5
24C
100
AcDbEntity
8
0
100
AcDbLine
62
7
6
CONTINUOUS
10
292.7678372537
20
61.6304275682
11
371.7678372537
21
61.6304275682
0
LINE
5
24D
100
AcDbEntity
8
0
100
AcDbLine
62
7
6
CONTINUOUS
10
292.7678372537
20
76.1304275682
11
371.7678372537
21
76.1304275682
0
LINE
5
24E
100
AcDbEntity
8
0
100
AcDbLine
62
7
6
CONTINUOUS
10
293.0178372537
20
76.3804275682
11
371.5178372537
21
76.3804275682
0
LINE
5
24F
100
AcDbEntity
8
0
100
AcDbLine
62
7
6
CONTINUOUS
10
292.7678372537
20
87.6304275682
11
293.0178372537
21
87.3804275682
0
LINE
5
250
100
AcDbEntity
8
0
100
AcDbLine
62
7
6
CONTINUOUS
10
293.0178372537
20
87.3804275682
11
371.5178372537
21
87.3804275682
0
LINE
5
251
100
AcDbEntity
8
0
100
AcDbLine
62
7
6
CONTINUOUS
10
292.7678372537
20
87.6304275682
11
371.7678372537
21
87.6304275682
0
LINE
5
252
100
AcDbEntity
8
0
100
AcDbLine
62
7
6
CONTINUOUS
10
292.7678372537
20
100.3804275682
11
371.7678372537
21
100.3804275682
0
LINE
5
253
100
AcDbEntity
8
0
100
AcDbLine
62
7
6
CONTINUOUS
10
293.7682883657
20
101.3804275682
11
370.7673861418
21
101.3804275682
0
LINE
5
254
100
AcDbEntity
8
0
100
AcDbLine
62
7
6
CONTINUOUS
10
282.2678372537
20
167.3804275682
11
282.2678372537
21
155.7263955865
0
LINE
5
255
100
AcDbEntity
8
0
100
AcDbLine
62
7
6
CONTINUOUS
10
282.2678372537
20
140.6344595499
11
282.2678372537
21
134.3804275682
0
LINE
5
256
100
AcDbEntity
8
0
100
AcDbLine
62
7
6
CONTINUOUS
10
289.7678372537
20
144.1804275682
11
289.7678372537
21
152.1804275682
0
LINE
5
257
100
AcDbEntity
8
0
100
AcDbLine
62
7
6
CONTINUOUS
10
283.2678372537
20
168.3804275682
11
282.2678372537
21
167.3804275682
0
LINE
5
258
100
AcDbEntity
8
0
100
AcDbLine
62
7
6
CONTINUOUS
10
282.2678372537
20
134.3804275682
11
283.2678372537
21
133.3804275682
0
LINE
5
259
100
AcDbEntity
8
0
100
AcDbLine
62
7
6
CONTINUOUS
10
371.5178372537
20
50.3804275682
11
371.7678372537
21
50.1304275682
0
LINE
5
25A
100
AcDbEntity
8
0
100
AcDbLine
62
7
6
CONTINUOUS
10
292.7678372537
20
100.3804275682
11
292.7678372537
21
87.6304275682
0
LINE
5
25B
100
AcDbEntity
8
0
100
AcDbLine
62
7
6
CONTINUOUS
10
292.7678372537
20
76.1304275682
11
292.7678372537
21
61.6304275682
0
LINE
5
25C
100
AcDbEntity
8
0
100
AcDbLine
62
7
6
CONTINUOUS
10
292.7678372537
20
50.1304275682
11
292.7678372537
21
38.0624126851
0
LINE
5
25D
100
AcDbEntity
8
0
100
AcDbLine
62
7
6
CONTINUOUS
10
293.0178372537
20
87.3804275682
11
293.0178372537
21
76.3804275682
0
LINE
5
25E
100
AcDbEntity
8
0
100
AcDbLine
62
7
6
CONTINUOUS
10
293.0178372537
20
61.3804275682
11
293.0178372537
21
50.3804275682
0
LINE
5
25F
100
AcDbEntity
8
0
100
AcDbLine
62
7
6
CONTINUOUS
10
295.2678372537
20
133.3804275682
11
295.2678372537
21
132.4303978915
0
LINE
5
260
100
AcDbEntity
8
0
100
AcDbLine
62
7
6
CONTINUOUS
10
295.2678372537
20
125.3304572448
11
295.2678372537
21
101.3804275682
0
LINE
5
261
100
AcDbEntity
8
0
100
AcDbLine
62
7
6
CONTINUOUS
10
297.6178372537
20
170.9041135961
11
297.6178372537
21
168.3804275682
0
LINE
5
262
100
AcDbEntity
8
0
100
AcDbLine
62
7
6
CONTINUOUS
10
311.9388340706
20
271.4690363469
11
297.3428372537
21
171.3804275682
0
LINE
5
263
100
AcDbEntity
8
0
100
AcDbLine
62
2
6
CONTINUOUS
10
295.2703329229
20
125.8804275682
11
295.3164244887
21
125.8804275682
0
LINE
5
264
100
AcDbEntity
8
0
100
AcDbLine
62
7
6
CONTINUOUS
10
371.5178372537
20
76.3804275682
11
371.7678372537
21
76.1304275682
0
LINE
5
265
100
AcDbEntity
8
DEFAULT_2
100
AcDbLine
62
8
6
HIDDEN
10
308.2678372537
20
35.3804275682
11
308.2678372537
21
77.6804275682
0
LINE
5
266
100
AcDbEntity
8
0
100
AcDbLine
62
2
6
CONTINUOUS
10
295.2703329229
20
131.8804275682
11
295.3164057837
21
131.8804275682
0
LINE
5
267
100
AcDbEntity
8
0
100
AcDbLine
62
7
6
CONTINUOUS
10
283.2678372537
20
133.3804275682
11
381.2678372537
21
133.3804275682
0
LINE
5
268
100
AcDbEntity
8
0
100
AcDbLine
62
7
6
CONTINUOUS
10
282.2678372537
20
134.3804275682
11
382.2678372537
21
134.3804275682
0
LINE
5
269
100
AcDbEntity
8
0
100
AcDbLine
62
7
6
CONTINUOUS
10
288.4096340235
20
152.1804275682
11
282.2678372537
21
155.7263955865
0
LINE
5
26A
100
AcDbEntity
8
0
100
AcDbLine
62
7
6
CONTINUOUS
10
297.3428372537
20
171.3804275682
11
297.6178372537
21
170.9041135961
0
LINE
5
26B
100
AcDbEntity
8
0
100
AcDbLine
62
7
6
CONTINUOUS
10
318.6480888351
20
167.3804275682
11
318.6480888351
21
155.7263955865
0
LINE
5
26C
100
AcDbEntity
8
0
100
AcDbLine
62
7
6
CONTINUOUS
10
319.4178372537
20
150.2304275682
11
319.4178372537
21
167.5804275682
0
LINE
5
26D
100
AcDbEntity
8
0
100
AcDbLine
62
7
6
CONTINUOUS
10
320.2178372537
20
150.2304275682
11
320.2178372537
21
166.7804275682
0
LINE
5
26E
100
AcDbEntity
8
0
100
AcDbLine
62
7
6
CONTINUOUS
10
282.2678372537
20
140.6344595499
11
288.4096340235
21
144.1804275682
0
LINE
5
26F
100
AcDbEntity
8
0
100
AcDbLine
62
7
6
CONTINUOUS
10
382.2678372537
20
140.6344595499
11
341.9654393004
21
140.6344595499
0
LINE
5
270
100
AcDbEntity
8
0
100
AcDbLine
62
7
6
CONTINUOUS
10
322.5702352070
20
140.6344595499
11
282.2678372537
21
140.6344595499
0
LINE
5
271
100
AcDbEntity
8
0
100
AcDbLine
62
7
6
CONTINUOUS
10
288.4096340270
20
144.1804275682
11
320.9311710771
21
144.1804275682
0
LINE
5
272
100
AcDbEntity
8
0
100
AcDbLine
62
7
6
CONTINUOUS
10
343.6045034304
20
144.1804275682
11
376.1260404805
21
144.1804275682
0
LINE
5
273
100
AcDbEntity
8
0
100
AcDbLine
62
7
6
CONTINUOUS
10
370.7678372537
20
101.3804275682
11
371.7678372537
21
100.3804275682
0
LINE
5
274
100
AcDbEntity
8
0
100
AcDbLine
62
7
6
CONTINUOUS
10
344.3178372537
20
166.7804275682
11
345.9178372537
21
168.3804275682
0
LINE
5
275
100
AcDbEntity
8
0
100
AcDbLine
62
7
6
CONTINUOUS
10
320.2178372537
20
150.2304275682
11
319.4178372537
21
150.2304275735
0
LINE
5
276
100
AcDbEntity
8
0
100
AcDbLine
62
7
6
CONTINUOUS
10
344.3178372537
20
150.2304275682
11
345.1178372537
21
150.2304275682
0
LINE
5
277
100
AcDbEntity
8
0
100
AcDbLine
62
7
6
CONTINUOUS
10
376.1255236707
20
152.1804275682
11
345.1178372537
21
152.1804275682
0
LINE
5
278
100
AcDbEntity
8
0
100
AcDbLine
62
7
6
CONTINUOUS
10
319.4178372537
20
152.1804275682
11
288.4101508368
21
152.1804275682
0
LINE
5
279
100
AcDbEntity
8
0
100
AcDbLine
62
7
6
CONTINUOUS
10
318.6178372537
20
168.3804275682
11
320.2178372537
21
166.7804275682
0
LINE
5
27A
100
AcDbEntity
8
0
100
AcDbLine
62
7
6
CONTINUOUS
10
282.2678372537
20
155.7263955865
11
318.6480888351
21
155.7263955865
0
LINE
5
27B
100
AcDbEntity
8
0
100
AcDbLine
62
7
6
CONTINUOUS
10
345.8875856724
20
155.7263955865
11
382.2678372537
21
155.7263955865
0
LINE
5
27C
100
AcDbEntity
8
0
100
AcDbLine
62
7
6
CONTINUOUS
10
344.3178372537
20
166.7804275682
11
344.3178372537
21
150.2304275682
0
LINE
5
27D
100
AcDbEntity
8
0
100
AcDbLine
62
7
6
CONTINUOUS
10
345.1178372537
20
150.2304275682
11
345.1178372537
21
167.5804275682
0
LINE
5
27E
100
AcDbEntity
8
0
100
AcDbLine
62
7
6
CONTINUOUS
10
345.8875856724
20
167.3804275682
11
345.8875856724
21
155.7263955865
0
LINE
5
27F
100
AcDbEntity
8
0
100
AcDbLine
62
7
6
CONTINUOUS
10
293.7678372537
20
101.3804275682
11
292.7678372537
21
100.3804275682
0
LINE
5
280
100
AcDbEntity
8
0
100
AcDbLine
62
7
6
CONTINUOUS
10
282.2678372537
20
167.3804275682
11
318.6480888351
21
167.3804275682
0
LINE
5
281
100
AcDbEntity
8
0
100
AcDbLine
62
7
6
CONTINUOUS
10
345.8875856724
20
167.3804275682
11
382.2678372537
21
167.3804275682
0
LINE
5
282
100
AcDbEntity
8
0
100
AcDbLine
62
7
6
CONTINUOUS
10
283.2678372537
20
168.3804275682
11
381.2678372537
21
168.3804275682
0
LINE
5
283
100
AcDbEntity
8
0
100
AcDbLine
62
7
6
CONTINUOUS
10
297.6178372537
20
170.9041135961
11
366.9178372537
21
170.9041135961
0
LINE
5
284
100
AcDbEntity
8
0
100
AcDbLine
62
7
6
CONTINUOUS
10
297.3428372537
20
171.3804275682
11
367.1928372537
21
171.3804275682
0
LINE
5
285
100
AcDbEntity
8
0
100
AcDbLine
62
7
6
CONTINUOUS
10
382.2678372537
20
140.6344595499
11
376.1260404840
21
144.1804275682
0
LINE
5
286
100
AcDbEntity
8
DEFAULT_2
100
AcDbLine
62
8
6
HIDDEN
10
356.2678372537
20
35.3804275682
11
356.2678372537
21
77.6804275682
0
LINE
5
287
100
AcDbEntity
8
0
100
AcDbLine
62
7
6
CONTINUOUS
10
367.1928372537
20
171.3804275682
11
366.9178372537
21
170.9041135961
0
LINE
5
288
100
AcDbEntity
8
0
100
AcDbLine
62
7
6
CONTINUOUS
10
376.1260404840
20
152.1804275682
11
382.2678372537
21
155.7263955865
0
LINE
5
289
100
AcDbEntity
8
0
100
AcDbLine
62
7
6
CONTINUOUS
10
366.9178372537
20
170.9041135961
11
366.9178372537
21
168.3804275682
0
LINE
5
28A
100
AcDbEntity
8
0
100
AcDbLine
62
7
6
CONTINUOUS
10
293.0178372537
20
76.3804275682
11
292.7678372537
21
76.1304275682
0
LINE
5
28B
100
AcDbEntity
8
0
100
AcDbLine
62
7
6
CONTINUOUS
10
369.2678372537
20
133.3804275682
11
369.2678372537
21
131.9136912453
0
LINE
5
28C
100
AcDbEntity
8
0
100
AcDbLine
62
7
6
CONTINUOUS
10
369.2678372537
20
125.8471638910
11
369.2678372537
21
101.3804275682
0
LINE
5
28D
100
AcDbEntity
8
0
100
AcDbLine
62
7
6
CONTINUOUS
10
371.5178372537
20
87.3804275682
11
371.5178372537
21
76.3804275682
0
LINE
5
28E
100
AcDbEntity
8
0
100
AcDbLine
62
7
6
CONTINUOUS
10
371.5178372537
20
61.3804275682
11
371.5178372537
21
50.3804275682
0
LINE
5
28F
100
AcDbEntity
8
0
100
AcDbLine
62
7
6
CONTINUOUS
10
371.7678372537
20
100.3804275682
11
371.7678372537
21
87.6304275682
0
LINE
5
290
100
AcDbEntity
8
0
100
AcDbLine
62
7
6
CONTINUOUS
10
371.7678372537
20
76.1304275682
11
371.7678372537
21
61.6304275682
0
LINE
5
291
100
AcDbEntity
8
0
100
AcDbLine
62
7
6
CONTINUOUS
10
371.7678372537
20
50.1304275682
11
371.7678372537
21
38.0624126851
0
LINE
5
292
100
AcDbEntity
8
0
100
AcDbLine
62
7
6
CONTINUOUS
10
374.7678372537
20
144.1804275682
11
374.7678372537
21
152.1804275682
0
LINE
5
293
100
AcDbEntity
8
0
100
AcDbLine
62
7
6
CONTINUOUS
10
352.5968404369
20
271.4690363469
11
367.1928372537
21
171.3804275682
0
LINE
5
294
100
AcDbEntity
8
0
100
AcDbLine
62
7
6
CONTINUOUS
10
382.2678372537
20
167.3804275682
11
382.2678372537
21
155.7263955865
0
LINE
5
295
100
AcDbEntity
8
0
100
AcDbLine
62
7
6
CONTINUOUS
10
382.2678372537
20
140.6344595499
11
382.2678372537
21
134.3804275682
0
LINE
5
296
100
AcDbEntity
8
0
100
AcDbLine
62
7
6
CONTINUOUS
10
293.0178372537
20
50.3804275682
11
292.7678372537
21
50.1304275682
0
LINE
5
297
100
AcDbEntity
8
0
100
AcDbLine
62
7
6
CONTINUOUS
10
382.2678372537
20
134.3804275682
11
381.2678372537
21
133.3804275682
0
LINE
5
298
100
AcDbEntity
8
0
100
AcDbLine
62
7
6
CONTINUOUS
10
381.2678372537
20
168.3804275682
11
382.2678372537
21
167.3804275682
0
LINE
5
299
100
AcDbEntity
8
0
100
AcDbLine
62
7
6
CONTINUOUS
10
371.7678372537
20
87.6304275682
11
371.5178372537
21
87.3804275682
0
LINE
5
29A
100
AcDbEntity
8
0
100
AcDbLine
62
7
6
CONTINUOUS
10
371.7678372537
20
61.6304275682
11
371.5178372537
21
61.3804275682
0
LINE
5
29B
100
AcDbEntity
8
0
100
AcDbLine
62
7
6
CONTINUOUS
10
371.6508594674
20
37.7410188711
11
369.8199565676
21
35.5590337625
0
LINE
5
29C
100
AcDbEntity
8
0
100
AcDbLine
62
7
6
CONTINUOUS
10
311.9388340706
20
271.4690363469
11
352.5968404369
21
271.4690363469
0
LINE
5
29D
100
AcDbEntity
8
0
100
AcDbLine
62
7
6
CONTINUOUS
10
350.6177737445
20
273.1804275682
11
313.9179007630
21
273.1804275682
0
ARC
5
29E
100
AcDbEntity
8
0
100
AcDbCircle
62
7
6
CONTINUOUS
10
369.4369343467
20
35.8804275682
40
0.5000000000
100
AcDbArc
50
270.0000000000
51
319.9999998791
0
ARC
5
29F
100
AcDbEntity
8
0
100
AcDbCircle
62
7
6
CONTINUOUS
10
295.0987401608
20
35.8804275682
40
0.5000000000
100
AcDbArc
50
220.0000001209
51
270.0000000000
0
ARC
5
2A0
100
AcDbEntity
8
0
100
AcDbCircle
62
7
6
CONTINUOUS
10
371.2678372537
20
38.0624126853
40
0.5000000000
100
AcDbArc
50
319.9999985961
51
360.0000000000
0
ARC
5
2A1
100
AcDbEntity
8
0
100
AcDbCircle
62
7
6
CONTINUOUS
10
293.2678372537
20
38.0624126853
40
0.5000000000
100
AcDbArc
50
180.0000000276
51
220.0000014039
0
ARC
5
2A2
100
AcDbEntity
8
0
100
AcDbCircle
62
7
6
CONTINUOUS
10
332.2678372537
20
150.2304275682
40
12.8500000000
100
AcDbArc
50
180.0000000000
51
360.0000000000
0
ARC
5
2A3
100
AcDbEntity
8
0
100
AcDbCircle
62
7
6
CONTINUOUS
10
350.6177737445
20
271.1804275682
40
2.0000000000
100
AcDbArc
50
8.2970000003
51
90.0000000000
0
ARC
5
2A4
100
AcDbEntity
8
0
100
AcDbCircle
62
7
6
CONTINUOUS
10
313.9179007630
20
271.1804275682
40
2.0000000000
100
AcDbArc
50
90.0000000000
51
171.7029999996
0
ARC
5
2A5
100
AcDbEntity
8
0
100
AcDbCircle
62
7
6
CONTINUOUS
10
332.2678372537
20
150.2304275682
40
12.0499973494
100
AcDbArc
50
180.0000000000
51
360.0000000000
0
SPLINE
5
2A6
100
AcDbEntity
8
0
100
AcDbSpline
62
2
6
CONTINUOUS
70
0
71
3
72
18
73
14
74
12
42
0.0000001000
43
0.0000001000
44
0.0000000001
40
0.0000000000
40
0.0000000000
40
0.0000000000
40
0.0000000000
40
0.0909090909
40
0.1818181818
40
0.2727272727
40
0.3636363636
40
0.4545454545
40
0.5454545455
40
0.6363636364
40
0.7272727273
40
0.8181818182
40
0.9090909091
40
1.0000000000
40
1.0000000000
40
1.0000000000
40
1.0000000000
10
295.3896594246
20
128.8804275682
30
3.0000000000
10
295.3891730347
20
128.5958971402
30
3.0000000000
10
295.3831616031
20
128.0262011558
30
2.9193144116
10
295.3551766694
20
127.2323803963
30
2.5551952135
10
295.3197794413
20
126.5859106828
30
1.9964249441
10
295.2863784004
20
126.1110253303
30
1.2557960220
10
295.2671239816
20
125.8714359607
30
0.4408863453
10
295.2671238427
20
125.8714345845
30
-0.4408691896
10
295.2863775529
20
126.1110137061
30
-1.2557729634
10
295.3197791054
20
126.5859062099
30
-1.9964193963
10
295.3551756917
20
127.2323582415
30
-2.5551809135
10
295.3831616758
20
128.0261993443
30
-2.9193160851
10
295.3891730774
20
128.5958969411
30
-3.0000000000
10
295.3896594246
20
128.8804275682
30
-3.0000000000
11
295.3896594246
21
128.8804275682
31
3.0000000000
11
295.3800003054
21
128.0363216920
31
2.8787992757
11
295.3539412870
21
127.2569389040
31
2.5227533683
11
295.3201121391
21
126.6145080763
31
1.9661151687
11
295.2887361707
21
126.1502413274
31
1.2434158962
11
295.2703330282
21
125.9113672929
31
0.4297453689
11
295.2703328175
21
125.9113646675
31
-0.4297272294
11
295.2887355266
21
126.1502326031
31
-1.2433967399
11
295.3201116110
21
126.6144994645
31
-1.9661052437
11
295.3539405914
21
127.2569230867
31
-2.5227431892
11
295.3800001955
21
128.0363168930
31
-2.8787978686
11
295.3896594246
21
128.8804275682
31
-3.0000000000
0
SPLINE
5
2A7
100
AcDbEntity
8
0
100
AcDbSpline
62
2
6
CONTINUOUS
70
0
71
3
72
18
73
14
74
12
42
0.0000001000
43
0.0000001000
44
0.0000000001
40
0.0000000000
40
0.0000000000
40
0.0000000000
40
0.0000000000
40
0.0909090909
40
0.1818181818
40
0.2727272727
40
0.3636363636
40
0.4545454545
40
0.5454545455
40
0.6363636364
40
0.7272727273
40
0.8181818182
40
0.9090909091
40
1.0000000000
40
1.0000000000
40
1.0000000000
40
1.0000000000
10
295.3896594246
20
128.8804275682
30
-3.0000000000
10
295.3891730347
20
129.1649579962
30
-3.0000000000
10
295.3831616031
20
129.7346539805
30
-2.9193144116
10
295.3551766694
20
130.5284747400
30
-2.5551952135
10
295.3197794413
20
131.1749444535
30
-1.9964249441
10
295.2863784004
20
131.6498298061
30
-1.2557960220
10
295.2671239816
20
131.8894191756
30
-0.4408863453
10
295.2671238427
20
131.8894205518
30
0.4408691896
10
295.2863775529
20
131.6498414303
30
1.2557729634
10
295.3197791054
20
131.1749489264
30
1.9964193963
10
295.3551756917
20
130.5284968948
30
2.5551809135
10
295.3831616758
20
129.7346557921
30
2.9193160851
10
295.3891730774
20
129.1649581953
30
3.0000000000
10
295.3896594246
20
128.8804275682
30
3.0000000000
11
295.3896594246
21
128.8804275682
31
-3.0000000000
11
295.3800003054
21
129.7245334443
31
-2.8787992757
11
295.3539412870
21
130.5039162324
31
-2.5227533683
11
295.3201121391
21
131.1463470600
31
-1.9661151687
11
295.2887361707
21
131.6106138089
31
-1.2434158962
11
295.2703330282
21
131.8494878434
31
-0.4297453689
11
295.2703328175
21
131.8494904689
31
0.4297272294
11
295.2887355266
21
131.6106225332
31
1.2433967399
11
295.3201116110
21
131.1463556718
31
1.9661052437
11
295.3539405914
21
130.5039320496
31
2.5227431892
11
295.3800001955
21
129.7245382433
31
2.8787978686
11
295.3896594246
21
128.8804275682
31
3.0000000000
0
SPLINE
5
2A8
100
AcDbEntity
8
0
100
AcDbSpline
62
7
6
CONTINUOUS
70
0
71
3
72
8
73
4
74
2
42
0.0000001000
43
0.0000001000
44
0.0000000001
40
0.0000000000
40
0.0000000000
40
0.0000000000
40
0.0000000000
40
1.0000000000
40
1.0000000000
40
1.0000000000
40
1.0000000000
10
295.2832757012
20
125.4949379842
30
0.0000000000
10
295.2762122394
20
125.4188585885
30
0.0000000000
10
295.2678368720
20
125.3304272196
30
0.0000000000
10
295.2678372243
20
125.3304272690
30
0.0000000000
11
295.2832757012
21
125.4949379842
31
0.0000000000
11
295.2678372243
21
125.3304272690
31
0.0000000000
0
SPLINE
5
2A9
100
AcDbEntity
8
0
100
AcDbSpline
62
7
6
CONTINUOUS
70
0
71
3
72
9
73
5
74
3
42
0.0000001000
43
0.0000001000
44
0.0000000001
40
0.0000000000
40
0.0000000000
40
0.0000000000
40
0.0000000000
40
0.2528556842
40
1.0000000000
40
1.0000000000
40
1.0000000000
40
1.0000000000
10
295.2678372243
20
132.4304278674
30
0.0000000000
10
295.2678375757
20
132.4304278181
30
0.0000000000
10
295.3009040287
20
132.0813380083
30
0.0000000000
10
295.3131453044
20
131.9286515929
30
0.0000000000
10
295.3244839753
20
131.7809713234
30
0.0000000000
11
295.2678372243
21
132.4304278674
31
0.0000000000
11
295.2832281784
21
132.2664463795
31
0.0000000000
11
295.3244839753
21
131.7809713234
31
0.0000000000
0
SPLINE
5
2AA
100
AcDbEntity
8
0
100
AcDbSpline
62
7
6
CONTINUOUS
70
0
71
3
72
12
73
8
74
6
42
0.0000001000
43
0.0000001000
44
0.0000000001
40
0.0000000000
40
0.0000000000
40
0.0000000000
40
0.0000000000
40
0.1404890425
40
0.3078390342
40
0.4993546418
40
0.7072625910
40
1.0000000000
40
1.0000000000
40
1.0000000000
40
1.0000000000
10
295.3244839753
20
131.7809713234
30
0.0000000000
10
295.3327116995
20
131.6738095107
30
0.0000000000
10
295.3532701105
20
131.4002285062
30
0.0000000000
10
295.3788272947
20
130.9897864499
30
0.0000000000
10
295.4029981610
20
130.5124518347
30
0.0000000000
10
295.4248302854
20
129.9330567337
30
0.0000000000
10
295.4333097935
20
129.5129287325
30
0.0000000000
10
295.4358581059
20
129.2673506928
30
0.0000000000
11
295.3244839753
21
131.7809713234
31
0.0000000000
11
295.3504758941
21
131.4283811599
31
0.0000000000
11
295.3769244911
21
131.0080688342
31
0.0000000000
11
295.4012793878
21
130.5267270964
31
0.0000000000
11
295.4208936166
21
130.0038853268
31
0.0000000000
11
295.4358581059
21
129.2673506928
31
0.0000000000
0
SPLINE
5
2AB
100
AcDbEntity
8
0
100
AcDbSpline
62
7
6
CONTINUOUS
70
0
71
3
72
22
73
18
74
16
42
0.0000001000
43
0.0000001000
44
0.0000000001
40
0.0000000000
40
0.0000000000
40
0.0000000000
40
0.0000000000
40
0.0574289482
40
0.1668028542
40
0.2444779508
40
0.3161214416
40
0.3789323756
40
0.4316963145
40
0.5040840215
40
0.5287727478
40
0.5532678417
40
0.6257298084
40
0.6783106692
40
0.7409447827
40
0.8126233658
40
0.8904371138
40
1.0000000000
40
1.0000000000
40
1.0000000000
40
1.0000000000
10
295.4378712654
20
128.8804275682
30
0.0000000000
10
295.4378723184
20
129.0091425015
30
0.0000000000
10
295.4359207370
20
129.3829566424
30
0.0000000000
10
295.4248720306
20
129.9311163231
30
0.0000000000
10
295.4031340226
20
130.5096980225
30
0.0000000000
10
295.3789869682
20
130.9870565022
30
0.0000000000
10
295.3533959846
20
131.3981505578
30
0.0000000000
10
295.3198824252
20
131.8446855365
30
0.0000000000
10
295.3010155612
20
132.0801173674
30
0.0000000000
10
295.2594408314
20
132.5190758190
30
0.0000000000
10
295.3009076224
20
132.0812932620
30
0.0000000000
10
295.3197819315
20
131.8458723674
30
0.0000000000
10
295.3532701105
20
131.4002285062
30
0.0000000000
10
295.3788272947
20
130.9897864499
30
0.0000000000
10
295.4029981610
20
130.5124518347
30
0.0000000000
10
295.4248302854
20
129.9330567337
30
0.0000000000
10
295.4333097935
20
129.5129287325
30
0.0000000000
10
295.4358581059
20
129.2673506928
30
0.0000000000
11
295.4378712654
21
128.8804275682
31
0.0000000000
11
295.4358662514
21
129.2665671627
31
0.0000000000
11
295.4209556427
21
130.0018319506
31
0.0000000000
11
295.4014230207
21
130.5237438500
31
0.0000000000
11
295.3771089061
21
131.0048513921
31
0.0000000000
11
295.3506023242
21
131.4263513385
31
0.0000000000
11
295.3245466669
21
131.7801711357
31
0.0000000000
11
295.2833469349
21
132.2651498442
31
0.0000000000
11
295.2678372585
21
132.4304275184
31
0.0000000000
11
295.2832281784
21
132.2664463795
31
0.0000000000
11
295.3244839753
21
131.7809713234
31
0.0000000000
11
295.3504758941
21
131.4283811599
31
0.0000000000
11
295.3769244911
21
131.0080688342
31
0.0000000000
11
295.4012793878
21
130.5267270964
31
0.0000000000
11
295.4208936166
21
130.0038853268
31
0.0000000000
11
295.4358581059
21
129.2673506928
31
0.0000000000
0
SPLINE
5
2AC
100
AcDbEntity
8
0
100
AcDbSpline
62
7
6
CONTINUOUS
70
0
71
3
72
8
73
4
74
2
42
0.0000001000
43
0.0000001000
44
0.0000000001
40
0.0000000000
40
0.0000000000
40
0.0000000000
40
0.0000000000
40
1.0000000000
40
1.0000000000
40
1.0000000000
40
1.0000000000
10
369.2664822864
20
125.8470433078
30
0.0000000000
10
369.2664825489
20
125.8470433294
30
0.0000000000
10
369.2605499277
20
125.9201789032
30
0.0000000000
10
369.2558090533
20
125.9799775400
30
0.0000000000
11
369.2664822864
21
125.8470433078
31
0.0000000000
11
369.2558090533
21
125.9799775400
31
0.0000000000
0
SPLINE
5
2AD
100
AcDbEntity
8
0
100
AcDbSpline
62
7
6
CONTINUOUS
70
0
71
3
72
15
73
11
74
9
42
0.0000001000
43
0.0000001000
44
0.0000000001
40
0.0000000000
40
0.0000000000
40
0.0000000000
40
0.0000000000
40
0.1998472636
40
0.3902722443
40
0.5650551622
40
0.7155924652
40
0.8335919750
40
0.9159751747
40
0.9579315302
40
1.0000000000
40
1.0000000000
40
1.0000000000
40
1.0000000000
10
369.1420540688
20
128.8804275682
30
0.0000000000
10
369.1420541763
20
128.6692478064
30
0.0000000000
10
369.1456047646
20
128.2565605210
30
0.0000000000
10
369.1606422089
20
127.6607881236
30
0.0000000000
10
369.1831718111
20
127.1125362450
30
0.0000000000
10
369.2081466564
20
126.6556931016
30
0.0000000000
10
369.2350909492
20
126.2572974929
30
0.0000000000
10
369.2489539355
20
126.0631035539
30
0.0000000000
10
369.2724064610
20
125.7740156238
30
0.0000000000
10
369.2605517024
20
125.9201565186
30
0.0000000000
10
369.2558090533
20
125.9799775400
30
0.0000000000
11
369.1420540688
21
128.8804275682
31
0.0000000000
11
369.1474828639
21
128.2469115429
31
0.0000000000
11
369.1627534931
21
127.6434351765
31
0.0000000000
11
369.1854190630
21
127.0898165879
31
0.0000000000
11
369.2117051077
21
126.6133201533
31
0.0000000000
11
369.2364653033
21
126.2400682053
31
0.0000000000
11
369.2558368383
21
125.9796232116
31
0.0000000000
11
369.2664822836
21
125.8470433385
31
0.0000000000
11
369.2558090533
21
125.9799775400
31
0.0000000000
0
SPLINE
5
2AE
100
AcDbEntity
8
0
100
AcDbSpline
62
7
6
CONTINUOUS
70
0
71
3
72
8
73
4
74
2
42
0.0000001000
43
0.0000001000
44
0.0000000001
40
0.0000000000
40
0.0000000000
40
0.0000000000
40
0.0000000000
40
1.0000000000
40
1.0000000000
40
1.0000000000
40
1.0000000000
10
369.2664822864
20
131.9138118285
30
0.0000000000
10
369.2664825489
20
131.9138118069
30
0.0000000000
10
369.2605499277
20
131.8406762331
30
0.0000000000
10
369.2558090533
20
131.7808775963
30
0.0000000000
11
369.2664822864
21
131.9138118285
31
0.0000000000
11
369.2558090533
21
131.7808775963
31
0.0000000000
0
SPLINE
5
2AF
100
AcDbEntity
8
0
100
AcDbSpline
62
7
6
CONTINUOUS
70
0
71
3
72
14
73
10
74
8
42
0.0000001000
43
0.0000001000
44
0.0000000001
40
0.0000000000
40
0.0000000000
40
0.0000000000
40
0.0000000000
40
0.2086237453
40
0.4074114193
40
0.5898700945
40
0.7470183856
40
0.8701999555
40
0.9562010914
40
1.0000000000
40
1.0000000000
40
1.0000000000
40
1.0000000000
10
369.1420540688
20
128.8804275682
30
0.0000000000
10
369.1420541763
20
129.0916073300
30
0.0000000000
10
369.1456047646
20
129.5042946154
30
0.0000000000
10
369.1606422089
20
130.1000670127
30
0.0000000000
10
369.1831718111
20
130.6483188913
30
0.0000000000
10
369.2081466564
20
131.1051620347
30
0.0000000000
10
369.2350909492
20
131.5035576435
30
0.0000000000
10
369.2489539355
20
131.6977515824
30
0.0000000000
10
369.2664775891
20
131.9137571785
30
0.0000000000
10
369.2664822836
20
131.9138117978
30
0.0000000000
11
369.1420540688
21
128.8804275682
31
0.0000000000
11
369.1474828639
21
129.5139435934
31
0.0000000000
11
369.1627534931
21
130.1174199598
31
0.0000000000
11
369.1854190630
21
130.6710385485
31
0.0000000000
11
369.2117051077
21
131.1475349830
31
0.0000000000
11
369.2364653033
21
131.5207869310
31
0.0000000000
11
369.2558368383
21
131.7812319247
31
0.0000000000
11
369.2664822836
21
131.9138117978
31
0.0000000000
0
SPLINE
5
2B0
100
AcDbEntity
8
0
100
AcDbSpline
62
7
6
CONTINUOUS
70
0
71
3
72
8
73
4
74
2
42
0.0000001000
43
0.0000001000
44
0.0000000001
40
0.0000000000
40
0.0000000000
40
0.0000000000
40
0.0000000000
40
1.0000000000
40
1.0000000000
40
1.0000000000
40
1.0000000000
10
369.2664822836
20
125.8470433385
30
0.0000000000
10
369.2664869843
20
125.8469886470
30
0.0000000000
10
369.2605676601
20
125.9199597988
30
0.0000000000
10
369.2558281994
20
125.9797360526
30
0.0000000000
11
369.2664822836
21
125.8470433385
31
0.0000000000
11
369.2558281994
21
125.9797360526
31
0.0000000000
0
SPLINE
5
2B1
100
AcDbEntity
8
0
100
AcDbSpline
62
7
6
CONTINUOUS
70
0
71
3
72
8
73
4
74
2
42
0.0000001000
43
0.0000001000
44
0.0000000001
40
0.0000000000
40
0.0000000000
40
0.0000000000
40
0.0000000000
40
1.0000000000
40
1.0000000000
40
1.0000000000
40
1.0000000000
10
295.2832757012
20
132.2659171521
30
0.0000000000
10
295.2762122377
20
132.3419965667
30
0.0000000000
10
295.2678368679
20
132.4304279607
30
0.0000000000
10
295.2678372243
20
132.4304278674
30
0.0000000000
11
295.2832757012
21
132.2659171521
31
0.0000000000
11
295.2678372243
21
132.4304278674
31
0.0000000000
0
SPLINE
5
2B2
100
AcDbEntity
8
0
100
AcDbSpline
62
7
6
CONTINUOUS
70
0
71
3
72
8
73
4
74
2
42
0.0000001000
43
0.0000001000
44
0.0000000001
40
0.0000000000
40
0.0000000000
40
0.0000000000
40
0.0000000000
40
1.0000000000
40
1.0000000000
40
1.0000000000
40
1.0000000000
10
295.4378712654
20
128.8804275682
30
0.0000000000
10
295.4378723184
20
128.7517126348
30
0.0000000000
10
295.4372004038
20
128.6230112824
30
0.0000000000
10
295.4358662514
20
128.4942879736
30
0.0000000000
11
295.4378712654
21
128.8804275682
31
0.0000000000
11
295.4358662514
21
128.4942879736
31
0.0000000000
0
SPLINE
5
2B3
100
AcDbEntity
8
0
100
AcDbSpline
62
7
6
CONTINUOUS
70
0
71
3
72
13
73
9
74
7
42
0.0000001000
43
0.0000001000
44
0.0000000001
40
0.0000000000
40
0.0000000000
40
0.0000000000
40
0.0000000000
40
0.2534118325
40
0.4333796997
40
0.5993727501
40
0.7449013726
40
0.8671517973
40
1.0000000000
40
1.0000000000
40
1.0000000000
40
1.0000000000
10
295.4358662514
20
128.4942879736
30
0.0000000000
10
295.4333253472
20
128.2491333690
30
0.0000000000
10
295.4248720306
20
127.8297388133
30
0.0000000000
10
295.4031340226
20
127.2511571139
30
0.0000000000
10
295.3789869682
20
126.7737986341
30
0.0000000000
10
295.3533959846
20
126.3627045786
30
0.0000000000
10
295.3225657750
20
125.9519225782
30
0.0000000000
10
295.3080089118
20
125.7682777112
30
0.0000000000
10
295.2949181612
20
125.6223237726
30
0.0000000000
11
295.4358662514
21
128.4942879736
31
0.0000000000
11
295.4209556427
21
127.7590231857
31
0.0000000000
11
295.4014230207
21
127.2371112864
31
0.0000000000
11
295.3771089061
21
126.7560037442
31
0.0000000000
11
295.3506023242
21
126.3345037979
31
0.0000000000
11
295.3245466669
21
125.9806840006
31
0.0000000000
11
295.2949181612
21
125.6223237726
31
0.0000000000
0
SPLINE
5
2B4
100
AcDbEntity
8
0
100
AcDbSpline
62
7
6
CONTINUOUS
70
0
71
3
72
9
73
5
74
3
42
0.0000001000
43
0.0000001000
44
0.0000000001
40
0.0000000000
40
0.0000000000
40
0.0000000000
40
0.0000000000
40
0.3789878722
40
1.0000000000
40
1.0000000000
40
1.0000000000
40
1.0000000000
10
295.2949181612
20
125.6223237726
30
0.0000000000
10
295.2914821848
20
125.5840147173
30
0.0000000000
10
295.2814143965
20
125.4737855880
30
0.0000000000
10
295.2678368667
20
125.3304271753
30
0.0000000000
10
295.2678372243
20
125.3304272690
30
0.0000000000
11
295.2949181612
21
125.6223237726
31
0.0000000000
11
295.2833469349
21
125.4957052921
31
0.0000000000
11
295.2678372243
21
125.3304272690
31
0.0000000000
0
SPLINE
5
2B5
100
AcDbEntity
8
0
100
AcDbSpline
62
7
6
CONTINUOUS
70
0
71
3
72
10
73
6
74
4
42
0.0000001000
43
0.0000001000
44
0.0000000001
40
0.0000000000
40
0.0000000000
40
0.0000000000
40
0.0000000000
40
0.3346881375
40
0.6680204787
40
1.0000000000
40
1.0000000000
40
1.0000000000
40
1.0000000000
10
345.8875856724
20
167.3804275682
30
0.0000000000
10
345.8334917211
20
167.4345215195
30
0.0000000000
10
345.7254728456
20
167.5424402026
30
0.0000000000
10
345.5636214776
20
167.7038384470
30
0.0000000000
10
345.4558383275
20
167.8111167276
30
0.0000000000
10
345.4020307680
20
167.8646210825
30
0.0000000000
11
345.8875856724
21
167.3804275682
31
0.0000000000
11
345.7252282224
21
167.5426337909
31
0.0000000000
11
345.5633770398
21
167.7040312146
31
0.0000000000
11
345.4020307680
21
167.8646210825
31
0.0000000000
0
SPLINE
5
2B6
100
AcDbEntity
8
0
100
AcDbSpline
62
7
6
CONTINUOUS
70
0
71
3
72
10
73
6
74
4
42
0.0000001000
43
0.0000001000
44
0.0000000001
40
0.0000000000
40
0.0000000000
40
0.0000000000
40
0.0000000000
40
0.3311479396
40
0.6644769205
40
1.0000000000
40
1.0000000000
40
1.0000000000
40
1.0000000000
10
345.1178372537
20
155.2839546899
30
0.0000000000
10
345.2029010116
20
155.3326236398
30
0.0000000000
10
345.3735153661
20
155.4304104333
30
0.0000000000
10
345.6301032994
20
155.5778822716
30
0.0000000000
10
345.8015915892
20
155.6767468794
30
0.0000000000
10
345.8875856724
20
155.7263955865
30
0.0000000000
11
345.1178372537
21
155.2839546899
31
0.0000000000
11
345.3729261452
21
155.4301403377
31
0.0000000000
11
345.6295077653
21
155.5776152721
31
0.0000000000
11
345.8875856724
21
155.7263955865
31
0.0000000000
0
SPLINE
5
2B7
100
AcDbEntity
8
0
100
AcDbSpline
62
7
6
CONTINUOUS
70
0
71
3
72
23
73
19
74
17
42
0.0000001000
43
0.0000001000
44
0.0000000001
40
0.0000000000
40
0.0000000000
40
0.0000000000
40
0.0000000000
40
0.0477912715
40
0.0950592150
40
0.1423429397
40
0.2140334211
40
0.2862387291
40
0.3583054835
40
0.4296585788
40
0.4999900372
40
0.5703464628
40
0.6417673696
40
0.7138994435
40
0.7861240648
40
0.8577927345
40
0.9050450027
40
0.9522681293
40
1.0000000000
40
1.0000000000
40
1.0000000000
40
1.0000000000
10
341.9654393004
20
140.6344595499
30
0.0000000000
10
341.7239940680
20
140.3898551080
30
0.0000000000
10
341.2257877100
20
139.9208103648
30
0.0000000000
10
340.4293300633
20
139.2762962250
30
0.0000000000
10
339.4440678038
20
138.5973770591
30
0.0000000000
10
338.2408761316
20
137.9260532426
30
0.0000000000
10
336.8053754729
20
137.3246723208
30
0.0000000000
10
335.3117895679
20
136.8955737345
30
0.0000000000
10
333.7934063223
20
136.6374559364
30
0.0000000000
10
332.2678775910
20
136.5497429580
30
0.0000000000
10
330.7418504625
20
136.6374426089
30
0.0000000000
10
329.2223755456
20
136.8959592307
30
0.0000000000
10
327.7277758387
20
137.3255119179
30
0.0000000000
10
326.2919754281
20
137.9273691429
30
0.0000000000
10
325.0891825868
20
138.5989019963
30
0.0000000000
10
324.1046365755
20
139.2776117486
30
0.0000000000
10
323.3090162574
20
139.9216054366
30
0.0000000000
10
322.8113777393
20
140.3901563059
30
0.0000000000
10
322.5702352070
20
140.6344595499
30
0.0000000000
11
341.9654393004
21
140.6344595499
31
0.0000000000
11
341.2145313190
21
139.9279913642
31
0.0000000000
11
340.4215891262
21
139.2868589322
31
0.0000000000
11
339.5818248050
21
138.7078093327
31
0.0000000000
11
338.2314912721
21
137.9538212401
31
0.0000000000
11
336.7943439673
21
137.3530024029
31
0.0000000000
11
335.3004462133
21
136.9224885011
31
0.0000000000
11
333.7828793004
21
136.6647501169
31
0.0000000000
11
332.2680554716
21
136.5788346104
31
0.0000000000
11
330.7526928121
21
136.6647615514
31
0.0000000000
11
329.2337089220
21
136.9228936126
31
0.0000000000
11
327.7385136199
21
137.3539936699
31
0.0000000000
11
326.3011096486
21
137.9552786664
31
0.0000000000
11
324.9513792307
21
138.7093816126
31
0.0000000000
11
324.1122880502
21
139.2882119605
31
0.0000000000
11
323.3201765431
21
139.9288340293
31
0.0000000000
11
322.5702352070
21
140.6344595499
31
0.0000000000
0
SPLINE
5
2B8
100
AcDbEntity
8
0
100
AcDbSpline
62
7
6
CONTINUOUS
70
0
71
3
72
10
73
6
74
4
42
0.0000001000
43
0.0000001000
44
0.0000000001
40
0.0000000000
40
0.0000000000
40
0.0000000000
40
0.0000000000
40
0.3351252392
40
0.6681242166
40
1.0000000000
40
1.0000000000
40
1.0000000000
40
1.0000000000
10
322.5702352070
20
140.6344595499
30
0.0000000000
10
322.6444987534
20
140.6857099872
30
0.0000000000
10
322.7927277017
20
140.7876333944
30
0.0000000000
10
323.0143985764
20
140.9404648099
30
0.0000000000
10
323.1630739967
20
141.0401812361
30
0.0000000000
10
323.2369052399
20
141.0905151928
30
0.0000000000
11
322.5702352070
21
140.6344595499
31
0.0000000000
11
322.7931679139
21
140.7880047976
31
0.0000000000
11
323.0149716607
21
140.9401605341
31
0.0000000000
11
323.2369052399
21
141.0905151928
31
0.0000000000
0
SPLINE
5
2B9
100
AcDbEntity
8
0
100
AcDbSpline
62
7
6
CONTINUOUS
70
0
71
3
72
10
73
6
74
4
42
0.0000001000
43
0.0000001000
44
0.0000000001
40
0.0000000000
40
0.0000000000
40
0.0000000000
40
0.0000000000
40
0.3351283899
40
0.6681305113
40
1.0000000000
40
1.0000000000
40
1.0000000000
40
1.0000000000
10
341.9654393004
20
140.6344595499
30
0.0000000000
10
341.8911761406
20
140.6857096668
30
0.0000000000
10
341.7429487118
20
140.7876335464
30
0.0000000000
10
341.5212777235
20
140.9404576221
30
0.0000000000
10
341.3726133683
20
141.0401840976
30
0.0000000000
10
341.2987846169
20
141.0905163299
30
0.0000000000
11
341.9654393004
21
140.6344595499
31
0.0000000000
11
341.7425077551
21
140.7880038385
31
0.0000000000
11
341.5207051571
21
140.9401586329
31
0.0000000000
11
341.2987846169
21
141.0905163299
31
0.0000000000
0
SPLINE
5
2BA
100
AcDbEntity
8
0
100
AcDbSpline
62
7
6
CONTINUOUS
70
0
71
3
72
10
73
6
74
4
42
0.0000001000
43
0.0000001000
44
0.0000000001
40
0.0000000000
40
0.0000000000
40
0.0000000000
40
0.0000000000
40
0.3311478871
40
0.6644768943
40
1.0000000000
40
1.0000000000
40
1.0000000000
40
1.0000000000
10
319.4178372537
20
155.2839551615
30
0.0000000000
10
319.3327735339
20
155.3326240943
30
0.0000000000
10
319.1621589292
20
155.4304103313
30
0.0000000000
10
318.9055711881
20
155.5778823477
30
0.0000000000
10
318.7340829023
20
155.6767468886
30
0.0000000000
10
318.6480888351
20
155.7263955865
30
0.0000000000
11
319.4178372537
21
155.2839551615
31
0.0000000000
11
319.1627482667
21
155.4301403926
31
0.0000000000
11
318.9061666942
21
155.5776152997
31
0.0000000000
11
318.6480888351
21
155.7263955865
31
0.0000000000
0
SPLINE
5
2BB
100
AcDbEntity
8
0
100
AcDbSpline
62
7
6
CONTINUOUS
70
0
71
3
72
10
73
6
74
4
42
0.0000001000
43
0.0000001000
44
0.0000000001
40
0.0000000000
40
0.0000000000
40
0.0000000000
40
0.0000000000
40
0.3346881375
40
0.6680204787
40
1.0000000000
40
1.0000000000
40
1.0000000000
40
1.0000000000
10
318.6480888351
20
167.3804275682
30
0.0000000000
10
318.7021827864
20
167.4345215195
30
0.0000000000
10
318.8102016619
20
167.5424402026
30
0.0000000000
10
318.9720530299
20
167.7038384470
30
0.0000000000
10
319.0798361800
20
167.8111167276
30
0.0000000000
10
319.1336437394
20
167.8646210825
30
0.0000000000
11
318.6480888351
21
167.3804275682
31
0.0000000000
11
318.8104462850
21
167.5426337909
31
0.0000000000
11
318.9722974677
21
167.7040312146
31
0.0000000000
11
319.1336437394
21
167.8646210825
31
0.0000000000
0
ENDSEC
0
SECTION
2
OBJECTS
0
DICTIONARY
5
2BC
100
AcDbDictionary
3
ACAD_GROUP
350
2BD
3
ACAD_MLINESTYLE
350
2BE
0
DICTIONARY
5
2BD
102
{ACAD_REACTORS
330
2BC
102
}
100
AcDbDictionary
0
DICTIONARY
5
2BE
102
{ACAD_REACTORS
330
2BC
102
}
100
AcDbDictionary
3
STANDARD
350
2BF
0
MLINESTYLE
5
2BF
102
{ACAD_REACTORS
330
2BE
102
}
100
AcDbMlineStyle
2
STANDARD
70
0
3

62
256
51
90.0
52
90.0
71
2
49
0.5
62
256
6
BYLAYER
49
-0.5
62
256
6
BYLAYER
0
ENDSEC
0
EOF
