  0
SECTION
  2
HEADER
  9
$ACADVER
  1
AC1018
  9
$ACADMAINTVER
 70
    76
  9
$DWGCODEPAGE
  3
ANSI_1252
  9
$INSBASE
 10
0.0
 20
0.0
 30
0.0
  9
$EXTMIN
 10
232.5
 20
-3.0625
 30
0.0
  9
$EXTMAX
 10
432.5
 20
283.9375
 30
25.5
  9
$LIMMIN
 10
0.0
 20
0.0
  9
$LIMMAX
 10
420.0
 20
297.0
  9
$ORTHOMODE
 70
     0
  9
$REGENMODE
 70
     1
  9
$FILLMODE
 70
     1
  9
$QTEXTMODE
 70
     0
  9
$MIRRTEXT
 70
     0
  9
$LTSCALE
 40
23.1
  9
$ATTMODE
 70
     1
  9
$TEXTSIZE
 40
0.2
  9
$TRACEWID
 40
0.05
  9
$TEXTSTYLE
  7
STANDARD
  9
$CLAYER
  8
0
  9
$CELTYPE
  6
BYLAYER
  9
$CECOLOR
 62
   256
  9
$CELTSCALE
 40
1.0
  9
$DISPSILH
 70
     0
  9
$DIMSCALE
 40
1.0
  9
$DIMASZ
 40
4.759999999999999
  9
$DIMEXO
 40
2.625
  9
$DIMDLI
 40
15.96
  9
$DIMRND
 40
0.0
  9
$DIMDLE
 40
0.0
  9
$DIMEXE
 40
7.559999999999999
  9
$DIMTP
 40
0.001
  9
$DIMTM
 40
0.001
  9
$DIMTXT
 40
3.0
  9
$DIMCEN
 40
3.779999999999999
  9
$DIMTSZ
 40
0.0
  9
$DIMTOL
 70
     1
  9
$DIMLIM
 70
     0
  9
$DIMTIH
 70
     1
  9
$DIMTOH
 70
     1
  9
$DIMSE1
 70
     0
  9
$DIMSE2
 70
     0
  9
$DIMTAD
 70
     0
  9
$DIMZIN
 70
     0
  9
$DIMBLK
  1

  9
$DIMASO
 70
     1
  9
$DIMSHO
 70
     1
  9
$DIMPOST
  1

  9
$DIMAPOST
  1

  9
$DIMALT
 70
     0
  9
$DIMALTD
 70
     2
  9
$DIMALTF
 40
25.4
  9
$DIMLFAC
 40
1.0
  9
$DIMTOFL
 70
     0
  9
$DIMTVP
 40
0.0
  9
$DIMTIX
 70
     0
  9
$DIMSOXD
 70
     0
  9
$DIMSAH
 70
     0
  9
$DIMBLK1
  1

  9
$DIMBLK2
  1

  9
$DIMSTYLE
  2
STANDARD
  9
$DIMCLRD
 70
     0
  9
$DIMCLRE
 70
     0
  9
$DIMCLRT
 70
     0
  9
$DIMTFAC
 40
1.0
  9
$DIMGAP
 40
0.09
  9
$DIMJUST
 70
     0
  9
$DIMSD1
 70
     0
  9
$DIMSD2
 70
     0
  9
$DIMTOLJ
 70
     1
  9
$DIMTZIN
 70
     0
  9
$DIMALTZ
 70
     0
  9
$DIMALTTZ
 70
     0
  9
$DIMUPT
 70
     0
  9
$DIMDEC
 70
     4
  9
$DIMTDEC
 70
     4
  9
$DIMALTU
 70
     2
  9
$DIMALTTD
 70
     2
  9
$DIMTXSTY
  7
STANDARD
  9
$DIMAUNIT
 70
     0
  9
$DIMADEC
 70
     0
  9
$DIMALTRND
 40
0.0
  9
$DIMAZIN
 70
     0
  9
$DIMDSEP
 70
    46
  9
$DIMATFIT
 70
     3
  9
$DIMFRAC
 70
     0
  9
$DIMLDRBLK
  1

  9
$DIMLUNIT
 70
     2
  9
$DIMLWD
 70
    -2
  9
$DIMLWE
 70
    -2
  9
$DIMTMOVE
 70
     0
  9
$LUNITS
 70
     2
  9
$LUPREC
 70
     4
  9
$SKETCHINC
 40
0.1
  9
$FILLETRAD
 40
0.0
  9
$AUNITS
 70
     0
  9
$AUPREC
 70
     0
  9
$MENU
  1
.
  9
$ELEVATION
 40
0.0
  9
$PELEVATION
 40
0.0
  9
$THICKNESS
 40
0.0
  9
$LIMCHECK
 70
     0
  9
$CHAMFERA
 40
0.0
  9
$CHAMFERB
 40
0.0
  9
$CHAMFERC
 40
0.0
  9
$CHAMFERD
 40
0.0
  9
$SKPOLY
 70
     0
  9
$TDCREATE
 40
2454201.710990046
  9
$TDUCREATE
 40
2454201.627656714
  9
$TDUPDATE
 40
2454201.711229121
  9
$TDUUPDATE
 40
2454201.627895787
  9
$TDINDWG
 40
0.0002533681
  9
$TDUSRTIMER
 40
0.0002533681
  9
$USRTIMER
 70
     1
  9
$ANGBASE
 50
0.0
  9
$ANGDIR
 70
     0
  9
$PDMODE
 70
     0
  9
$PDSIZE
 40
0.0
  9
$PLINEWID
 40
0.0
  9
$SPLFRAME
 70
     0
  9
$SPLINETYPE
 70
     6
  9
$SPLINESEGS
 70
     8
  9
$HANDSEED
  5
2C4
  9
$SURFTAB1
 70
     6
  9
$SURFTAB2
 70
     6
  9
$SURFTYPE
 70
     6
  9
$SURFU
 70
     6
  9
$SURFV
 70
     6
  9
$UCSBASE
  2

  9
$UCSNAME
  2

  9
$UCSORG
 10
0.0
 20
0.0
 30
0.0
  9
$UCSXDIR
 10
1.0
 20
0.0
 30
0.0
  9
$UCSYDIR
 10
0.0
 20
1.0
 30
0.0
  9
$UCSORTHOREF
  2

  9
$UCSORTHOVIEW
 70
     0
  9
$UCSORGTOP
 10
0.0
 20
0.0
 30
0.0
  9
$UCSORGBOTTOM
 10
0.0
 20
0.0
 30
0.0
  9
$UCSORGLEFT
 10
0.0
 20
0.0
 30
0.0
  9
$UCSORGRIGHT
 10
0.0
 20
0.0
 30
0.0
  9
$UCSORGFRONT
 10
0.0
 20
0.0
 30
0.0
  9
$UCSORGBACK
 10
0.0
 20
0.0
 30
0.0
  9
$PUCSBASE
  2

  9
$PUCSNAME
  2

  9
$PUCSORG
 10
0.0
 20
0.0
 30
0.0
  9
$PUCSXDIR
 10
1.0
 20
0.0
 30
0.0
  9
$PUCSYDIR
 10
0.0
 20
1.0
 30
0.0
  9
$PUCSORTHOREF
  2

  9
$PUCSORTHOVIEW
 70
     0
  9
$PUCSORGTOP
 10
0.0
 20
0.0
 30
0.0
  9
$PUCSORGBOTTOM
 10
0.0
 20
0.0
 30
0.0
  9
$PUCSORGLEFT
 10
0.0
 20
0.0
 30
0.0
  9
$PUCSORGRIGHT
 10
0.0
 20
0.0
 30
0.0
  9
$PUCSORGFRONT
 10
0.0
 20
0.0
 30
0.0
  9
$PUCSORGBACK
 10
0.0
 20
0.0
 30
0.0
  9
$USERI1
 70
     0
  9
$USERI2
 70
     0
  9
$USERI3
 70
     0
  9
$USERI4
 70
     0
  9
$USERI5
 70
     0
  9
$USERR1
 40
0.0
  9
$USERR2
 40
0.0
  9
$USERR3
 40
0.0
  9
$USERR4
 40
0.0
  9
$USERR5
 40
0.0
  9
$WORLDVIEW
 70
     1
  9
$SHADEDGE
 70
     3
  9
$SHADEDIF
 70
    70
  9
$TILEMODE
 70
     1
  9
$MAXACTVP
 70
    64
  9
$PINSBASE
 10
0.0
 20
0.0
 30
0.0
  9
$PLIMCHECK
 70
     0
  9
$PEXTMIN
 10
1.000000000000000E+20
 20
1.000000000000000E+20
 30
1.000000000000000E+20
  9
$PEXTMAX
 10
-1.000000000000000E+20
 20
-1.000000000000000E+20
 30
-1.000000000000000E+20
  9
$PLIMMIN
 10
0.0
 20
0.0
  9
$PLIMMAX
 10
12.0
 20
9.0
  9
$UNITMODE
 70
     0
  9
$VISRETAIN
 70
     1
  9
$PLINEGEN
 70
     0
  9
$PSLTSCALE
 70
     1
  9
$TREEDEPTH
 70
  3020
  9
$CMLSTYLE
  2
STANDARD
  9
$CMLJUST
 70
     0
  9
$CMLSCALE
 40
1.0
  9
$PROXYGRAPHICS
 70
     1
  9
$MEASUREMENT
 70
     0
  9
$CELWEIGHT
370
    -1
  9
$ENDCAPS
280
     0
  9
$JOINSTYLE
280
     0
  9
$LWDISPLAY
290
     0
  9
$INSUNITS
 70
     0
  9
$HYPERLINKBASE
  1

  9
$STYLESHEET
  1

  9
$XEDIT
290
     1
  9
$CEPSNTYPE
380
     0
  9
$PSTYLEMODE
290
     1
  9
$FINGERPRINTGUID
  2
{62DF3E8D-3E46-4EE5-8CDE-24BFD94E2D01}
  9
$VERSIONGUID
  2
{B4010F02-DE9D-446C-8E3B-688AC6B92C87}
  9
$EXTNAMES
290
     1
  9
$PSVPSCALE
 40
0.0
  9
$OLESTARTUP
290
     0
  9
$SORTENTS
280
   127
  9
$INDEXCTL
280
     0
  9
$HIDETEXT
280
     0
  9
$XCLIPFRAME
290
     0
  9
$HALOGAP
280
     0
  9
$OBSCOLOR
 70
   257
  9
$OBSLTYPE
280
     0
  9
$INTERSECTIONDISPLAY
280
     0
  9
$INTERSECTIONCOLOR
 70
   257
  9
$DIMASSOC
280
     1
  9
$PROJECTNAME
  1

  0
ENDSEC
  0
SECTION
  2
CLASSES
  0
CLASS
  1
ACDBDICTIONARYWDFLT
  2
AcDbDictionaryWithDefault
  3
ObjectDBX Classes
 90
        0
 91
        1
280
     0
281
     0
  0
CLASS
  1
TABLESTYLE
  2
AcDbTableStyle
  3
ObjectDBX Classes
 90
     2047
 91
        1
280
     0
281
     0
  0
CLASS
  1
DICTIONARYVAR
  2
AcDbDictionaryVar
  3
ObjectDBX Classes
 90
        0
 91
        1
280
     0
281
     0
  0
ENDSEC
  0
SECTION
  2
TABLES
  0
TABLE
  2
VPORT
  5
8
330
0
100
AcDbSymbolTable
 70
     2
  0
VPORT
  5
2C3
330
8
100
AcDbSymbolTableRecord
100
AcDbViewportTableRecord
  2
*Active
 70
     0
 10
0.0
 20
0.0
 11
1.0
 21
1.0
 12
320.5815160885285
 22
79.59002597060989
 13
0.0
 23
0.0
 14
1.0
 24
1.0
 15
0.0
 25
0.0
 16
0.0
 26
0.0
 36
1.0
 17
0.0
 27
0.0
 37
0.0
 40
121.5580425362568
 41
1.332703213610586
 42
50.0
 43
0.0
 44
0.0
 50
0.0
 51
0.0
 71
     0
 72
   100
 73
     1
 74
     1
 75
     0
 76
     0
 77
     0
 78
     0
281
     0
 65
     1
110
0.0
120
0.0
130
0.0
111
1.0
121
0.0
131
0.0
112
0.0
122
1.0
132
0.0
 79
     0
146
0.0
  0
ENDTAB
  0
TABLE
  2
LTYPE
  5
5
330
0
100
AcDbSymbolTable
 70
     6
  0
LTYPE
  5
14
330
5
100
AcDbSymbolTableRecord
100
AcDbLinetypeTableRecord
  2
BYBLOCK
 70
     0
  3

 72
    65
 73
     0
 40
0.0
  0
LTYPE
  5
15
330
5
100
AcDbSymbolTableRecord
100
AcDbLinetypeTableRecord
  2
BYLAYER
 70
     0
  3

 72
    65
 73
     0
 40
0.0
  0
LTYPE
  5
16
330
5
100
AcDbSymbolTableRecord
100
AcDbLinetypeTableRecord
  2
CONTINUOUS
 70
     0
  3
Solid line
 72
    65
 73
     0
 40
0.0
  0
LTYPE
  5
1F5
330
5
100
AcDbSymbolTableRecord
100
AcDbLinetypeTableRecord
  2
CENTER
 70
     0
  3
____ _ ____ _ ____ _ ____ _ ____ _ ____ _ ____
 72
    65
 73
     4
 40
0.6
 49
0.375
 74
     0
 49
-0.075
 74
     0
 49
0.075
 74
     0
 49
-0.075
 74
     0
  0
LTYPE
  5
1F6
330
5
100
AcDbSymbolTableRecord
100
AcDbLinetypeTableRecord
  2
HIDDEN
 70
     0
  3
- - - - - - - - - - - - - - - - - - - -
 72
    65
 73
     2
 40
0.2
 49
0.1
 74
     0
 49
-0.1
 74
     0
  0
LTYPE
  5
1F7
330
5
100
AcDbSymbolTableRecord
100
AcDbLinetypeTableRecord
  2
PHANTOM
 70
     0
  3
_____ _ _ _____ _ _ _____ _ _ _____
 72
    65
 73
     6
 40
0.8
 49
0.45
 74
     0
 49
-0.05
 74
     0
 49
0.1
 74
     0
 49
-0.05
 74
     0
 49
0.1
 74
     0
 49
-0.05
 74
     0
  0
LTYPE
  5
1F8
330
5
100
AcDbSymbolTableRecord
100
AcDbLinetypeTableRecord
  2
DOT
 70
     0
  3
. . . . . . . . . . . . . . . . . . . .
 72
    65
 73
     2
 40
0.2
 49
0.1
 74
     0
 49
-0.1
 74
     0
  0
LTYPE
  5
1F9
330
5
100
AcDbSymbolTableRecord
100
AcDbLinetypeTableRecord
  2
DASHED
 70
     0
  3
- - - - - - - - - - - - - - - - - - - -
 72
    65
 73
     2
 40
0.2
 49
0.1
 74
     0
 49
-0.1
 74
     0
  0
ENDTAB
  0
TABLE
  2
LAYER
  5
2
330
0
100
AcDbSymbolTable
 70
    19
  0
LAYER
  5
10
330
2
100
AcDbSymbolTableRecord
100
AcDbLayerTableRecord
  2
0
 70
     0
 62
     7
  6
CONTINUOUS
370
    -3
390
2B7
  0
LAYER
  5
1FA
330
2
100
AcDbSymbolTableRecord
100
AcDbLayerTableRecord
  2
DEFAULT_1
 70
     0
 62
     7
  6
CENTER
370
    -3
390
2B7
  0
LAYER
  5
1FB
330
2
100
AcDbSymbolTableRecord
100
AcDbLayerTableRecord
  2
DEFAULT_2
 70
     0
 62
     8
  6
HIDDEN
370
    -3
390
2B7
  0
LAYER
  5
1FC
330
2
100
AcDbSymbolTableRecord
100
AcDbLayerTableRecord
  2
DEFAULT_3
 70
     0
 62
     7
  6
PHANTOM
370
    -3
390
2B7
  0
LAYER
  5
1FD
330
2
100
AcDbSymbolTableRecord
100
AcDbLayerTableRecord
  2
0_COMPONENTS
 70
     0
 62
     7
  6
CONTINUOUS
370
    -3
390
2B7
  0
LAYER
  5
1FE
330
2
100
AcDbSymbolTableRecord
100
AcDbLayerTableRecord
  2
1_ALL_PLANES
 70
     0
 62
     7
  6
CONTINUOUS
370
    -3
390
2B7
  0
LAYER
  5
1FF
330
2
100
AcDbSymbolTableRecord
100
AcDbLayerTableRecord
  2
1__DEF_ASM_PLN
 70
     0
 62
     7
  6
CONTINUOUS
370
    -3
390
2B7
  0
LAYER
  5
200
330
2
100
AcDbSymbolTableRecord
100
AcDbLayerTableRecord
  2
1__DEF_PLANES
 70
     0
 62
     7
  6
CONTINUOUS
370
    -3
390
2B7
  0
LAYER
  5
201
330
2
100
AcDbSymbolTableRecord
100
AcDbLayerTableRecord
  2
2_ALL_CSYS
 70
     0
 62
     7
  6
CONTINUOUS
370
    -3
390
2B7
  0
LAYER
  5
202
330
2
100
AcDbSymbolTableRecord
100
AcDbLayerTableRecord
  2
2__DEF_ASM_CSYS
 70
     0
 62
     7
  6
CONTINUOUS
370
    -3
390
2B7
  0
LAYER
  5
203
330
2
100
AcDbSymbolTableRecord
100
AcDbLayerTableRecord
  2
2__DEF_CSYS
 70
     0
 62
     7
  6
CONTINUOUS
370
    -3
390
2B7
  0
LAYER
  5
204
330
2
100
AcDbSymbolTableRecord
100
AcDbLayerTableRecord
  2
3_ALL_AXES
 70
     0
 62
     7
  6
CONTINUOUS
370
    -3
390
2B7
  0
LAYER
  5
205
330
2
100
AcDbSymbolTableRecord
100
AcDbLayerTableRecord
  2
4_ALL_POINTS
 70
     0
 62
     7
  6
CONTINUOUS
370
    -3
390
2B7
  0
LAYER
  5
206
330
2
100
AcDbSymbolTableRecord
100
AcDbLayerTableRecord
  2
5_ALL_CURVES
 70
     0
 62
     7
  6
CONTINUOUS
370
    -3
390
2B7
  0
LAYER
  5
207
330
2
100
AcDbSymbolTableRecord
100
AcDbLayerTableRecord
  2
5_ALL_GTOLS_FREE_
 70
     0
 62
     7
  6
CONTINUOUS
370
    -3
390
2B7
  0
LAYER
  5
208
330
2
100
AcDbSymbolTableRecord
100
AcDbLayerTableRecord
  2
6_ALL_SURFS
 70
     0
 62
     7
  6
CONTINUOUS
370
    -3
390
2B7
  0
LAYER
  5
209
330
2
100
AcDbSymbolTableRecord
100
AcDbLayerTableRecord
  2
CURVE
 70
     0
 62
     7
  6
CONTINUOUS
370
    -3
390
2B7
  0
LAYER
  5
20A
330
2
100
AcDbSymbolTableRecord
100
AcDbLayerTableRecord
  2
GIANNI_ASSI
 70
     0
 62
     7
  6
CONTINUOUS
370
    -3
390
2B7
  0
LAYER
  5
20B
330
2
100
AcDbSymbolTableRecord
100
AcDbLayerTableRecord
  2
XSEC_DATUMS
 70
     0
 62
     7
  6
CONTINUOUS
370
    -3
390
2B7
  0
ENDTAB
  0
TABLE
  2
STYLE
  5
3
330
0
100
AcDbSymbolTable
 70
     1
  0
STYLE
  5
11
330
3
100
AcDbSymbolTableRecord
100
AcDbTextStyleTableRecord
  2
STANDARD
 70
     0
 40
0.0
 41
1.199999999999999
 50
0.0
 71
     0
 42
0.2
  3
txt
  4

  0
ENDTAB
  0
TABLE
  2
VIEW
  5
6
330
0
100
AcDbSymbolTable
 70
     0
  0
ENDTAB
  0
TABLE
  2
UCS
  5
7
330
0
100
AcDbSymbolTable
 70
     0
  0
ENDTAB
  0
TABLE
  2
APPID
  5
9
330
0
100
AcDbSymbolTable
 70
     1
  0
APPID
  5
20C
330
9
100
AcDbSymbolTableRecord
100
AcDbRegAppTableRecord
  2
ACAD
 70
     0
  0
ENDTAB
  0
TABLE
  2
DIMSTYLE
  5
A
330
0
100
AcDbSymbolTable
 70
     2
100
AcDbDimStyleTable
 71
     0
  0
DIMSTYLE
105
20D
330
A
100
AcDbSymbolTableRecord
100
AcDbDimStyleTableRecord
  2
STANDARD
 70
     0
 41
4.759999999999999
 47
0.001
 48
0.001
 71
     1
 73
     0
 74
     0
 77
     1
 78
     8
140
3.0
178
     5
271
     3
272
     3
284
     8
340
11
  0
DIMSTYLE
105
20E
102
{ACAD_REACTORS
330
239
330
23A
330
23B
330
23C
102
}
330
A
100
AcDbSymbolTableRecord
100
AcDbDimStyleTableRecord
  2
DIMSTYLE_1
 70
     0
 41
4.759999999999999
 47
0.01
 48
0.01
 73
     0
 74
     0
 77
     1
 78
     8
140
3.0
178
     5
271
     3
272
     3
284
     8
340
11
  0
ENDTAB
  0
TABLE
  2
BLOCK_RECORD
  5
1
330
0
100
AcDbSymbolTable
 70
     4
  0
BLOCK_RECORD
  5
1B
330
1
100
AcDbSymbolTableRecord
100
AcDbBlockTableRecord
  2
*MODEL_SPACE
340
2BE
  0
BLOCK_RECORD
  5
1C
330
1
100
AcDbSymbolTableRecord
100
AcDbBlockTableRecord
  2
*PAPER_SPACE
340
2BF
  0
BLOCK_RECORD
  5
20F
330
1
100
AcDbSymbolTableRecord
100
AcDbBlockTableRecord
  2
*D0
340
0
  0
BLOCK_RECORD
  5
210
330
1
100
AcDbSymbolTableRecord
100
AcDbBlockTableRecord
  2
*D1
340
0
  0
BLOCK_RECORD
  5
211
330
1
100
AcDbSymbolTableRecord
100
AcDbBlockTableRecord
  2
*D2
340
0
  0
BLOCK_RECORD
  5
212
330
1
100
AcDbSymbolTableRecord
100
AcDbBlockTableRecord
  2
*D3
340
0
  0
ENDTAB
  0
ENDSEC
  0
SECTION
  2
BLOCKS
  0
BLOCK
  5
1E
330
1B
100
AcDbEntity
  8
0
100
AcDbBlockBegin
  2
*MODEL_SPACE
 70
     0
 10
0.0
 20
0.0
 30
0.0
  3
*MODEL_SPACE
  1

  0
ENDBLK
  5
1F
330
1B
100
AcDbEntity
  8
0
100
AcDbBlockEnd
  0
BLOCK
  5
20
330
1C
100
AcDbEntity
 67
     1
  8
0
100
AcDbBlockBegin
  2
*PAPER_SPACE
 70
     0
 10
0.0
 20
0.0
 30
0.0
  3
*PAPER_SPACE
  1

  0
ENDBLK
  5
21
330
1C
100
AcDbEntity
 67
     1
  8
0
100
AcDbBlockEnd
  0
BLOCK
  5
213
330
20F
100
AcDbEntity
  8
0
  6
Continuous
 62
     2
100
AcDbBlockBegin
  2
*D0
 70
     1
 10
0.0
 20
0.0
 30
0.0
  3
*D0
  1

  0
TEXT
  5
214
330
20F
100
AcDbEntity
  8
0
  6
Continuous
 62
     5
100
AcDbText
 10
315.0721828329
 20
32.3965937619
 30
0.0
 40
3.0
  1
%%c
 41
1.999999999999999
 72
     5
 11
319.0721828329
 21
32.3965937619
 31
0.0
100
AcDbText
  0
TEXT
  5
215
330
20F
100
AcDbEntity
  8
0
  6
Continuous
 62
     5
100
AcDbText
 10
319.0721828329
 20
32.3965937619
 30
0.0
 40
3.0
  1
31
 41
0.9642857142749933
 72
     5
 11
322.92932569
 21
32.3965937619
 31
0.0
100
AcDbText
  0
LINE
  5
216
330
20F
100
AcDbEntity
  8
0
  6
Continuous
 62
     2
100
AcDbLine
 10
335.3548028724
 20
43.6638150834
 30
0.0
 11
335.3548028724
 21
30.6465937619
 31
0.0
  0
LINE
  5
217
330
20F
100
AcDbEntity
  8
0
  6
Continuous
 62
     2
100
AcDbLine
 10
304.3548028724
 20
43.6638150834
 30
0.0
 11
304.3548028724
 21
30.6465937619
 31
0.0
  0
LINE
  5
218
330
20F
100
AcDbEntity
  8
0
  6
Continuous
 62
     2
100
AcDbLine
 10
335.3548028724
 20
31.6465937619
 30
0.0
 11
319.8548028724
 21
31.6465937619
 31
0.0
  0
LINE
  5
219
330
20F
100
AcDbEntity
  8
0
  6
Continuous
 62
     2
100
AcDbLine
 10
304.3548028724
 20
31.6465937619
 30
0.0
 11
319.8548028724
 21
31.6465937619
 31
0.0
  0
SOLID
  5
21A
330
20F
100
AcDbEntity
  8
0
  6
Continuous
 62
     2
100
AcDbTrace
 10
330.5948028724
 20
31.1465937619
 30
0.0
 11
335.3548028724
 21
31.6465937619
 31
0.0
 12
330.5948028724
 22
32.1465937619
 32
0.0
 13
330.5948028724
 23
32.1465937619
 33
0.0
  0
SOLID
  5
21B
330
20F
100
AcDbEntity
  8
0
  6
Continuous
 62
     2
100
AcDbTrace
 10
309.1148028724
 20
32.1465937619
 30
0.0
 11
304.3548028724
 21
31.6465937619
 31
0.0
 12
309.1148028724
 22
31.1465937619
 32
0.0
 13
309.1148028724
 23
31.1465937619
 33
0.0
  0
ENDBLK
  5
21C
330
20F
100
AcDbEntity
  8
0
100
AcDbBlockEnd
  0
BLOCK
  5
21D
330
210
100
AcDbEntity
  8
0
  6
Continuous
 62
     2
100
AcDbBlockBegin
  2
*D1
 70
     1
 10
0.0
 20
0.0
 30
0.0
  3
*D1
  1

  0
TEXT
  5
21E
330
210
100
AcDbEntity
  8
0
  6
Continuous
 62
     5
100
AcDbText
 10
316.4579536979
 20
23.9585702647
 30
0.0
 40
3.0
  1
%%c
 41
1.999999999999999
 72
     5
 11
320.4579536979
 21
23.9585702647
 31
0.0
100
AcDbText
  0
TEXT
  5
21F
330
210
100
AcDbEntity
  8
0
  6
Continuous
 62
     5
100
AcDbText
 10
320.4579536979
 20
23.9585702647
 30
0.0
 40
3.0
  1
55.3
 41
0.9047619047666698
 72
     5
 11
328.6008108408
 21
23.9585702647
 31
0.0
100
AcDbText
  0
LINE
  5
220
330
210
100
AcDbEntity
  8
0
  6
Continuous
 62
     2
100
AcDbLine
 10
347.5048028724
 20
45.6638150834
 30
0.0
 11
347.5048028724
 21
22.2085702647
 31
0.0
  0
LINE
  5
221
330
210
100
AcDbEntity
  8
0
  6
Continuous
 62
     2
100
AcDbLine
 10
292.2048028724
 20
45.6638150834
 30
0.0
 11
292.2048028724
 21
22.2085702647
 31
0.0
  0
LINE
  5
222
330
210
100
AcDbEntity
  8
0
  6
Continuous
 62
     2
100
AcDbLine
 10
347.5048028724
 20
23.2085702647
 30
0.0
 11
319.8548028724
 21
23.2085702647
 31
0.0
  0
LINE
  5
223
330
210
100
AcDbEntity
  8
0
  6
Continuous
 62
     2
100
AcDbLine
 10
292.2048028724
 20
23.2085702647
 30
0.0
 11
319.8548028724
 21
23.2085702647
 31
0.0
  0
SOLID
  5
224
330
210
100
AcDbEntity
  8
0
  6
Continuous
 62
     2
100
AcDbTrace
 10
342.7448028724001
 20
22.7085702647
 30
0.0
 11
347.5048028724
 21
23.2085702647
 31
0.0
 12
342.7448028724001
 22
23.7085702647
 32
0.0
 13
342.7448028724001
 23
23.7085702647
 33
0.0
  0
SOLID
  5
225
330
210
100
AcDbEntity
  8
0
  6
Continuous
 62
     2
100
AcDbTrace
 10
296.9648028724
 20
23.7085702647
 30
0.0
 11
292.2048028724
 21
23.2085702647
 31
0.0
 12
296.9648028724
 22
22.7085702647
 32
0.0
 13
296.9648028724
 23
22.7085702647
 33
0.0
  0
ENDBLK
  5
226
330
210
100
AcDbEntity
  8
0
100
AcDbBlockEnd
  0
BLOCK
  5
227
330
211
100
AcDbEntity
  8
0
  6
Continuous
 62
     2
100
AcDbBlockBegin
  2
*D2
 70
     1
 10
0.0
 20
0.0
 30
0.0
  3
*D2
  1

  0
TEXT
  5
228
330
211
100
AcDbEntity
  8
0
  6
Continuous
 62
     5
100
AcDbText
 10
390.9131313318
 20
101.7990513597
 30
0.0
 40
3.0
  1
101.7
 50
90.0
 41
1.037593984968422
 72
     5
 11
390.9131313318
 21
111.6561942169
 31
0.0
100
AcDbText
  0
LINE
  5
229
330
211
100
AcDbEntity
  8
0
  6
Continuous
 62
     2
100
AcDbLine
 10
354.8798028724
 20
145.4638150834
 30
0.0
 11
392.6631313318
 21
145.4638150834
 31
0.0
  0
LINE
  5
22A
330
211
100
AcDbEntity
  8
0
  6
Continuous
 62
     2
100
AcDbLine
 10
344.1269040284
 20
43.7638150834
 30
0.0
 11
392.6631313318
 21
43.7638150834
 31
0.0
  0
LINE
  5
22B
330
211
100
AcDbEntity
  8
0
  6
Continuous
 62
     2
100
AcDbLine
 10
391.6631313318
 20
145.4638150834
 30
0.0
 11
391.6631313318
 21
94.6138150834
 31
0.0
  0
LINE
  5
22C
330
211
100
AcDbEntity
  8
0
  6
Continuous
 62
     2
100
AcDbLine
 10
391.6631313318
 20
43.7638150834
 30
0.0
 11
391.6631313318
 21
94.6138150834
 31
0.0
  0
SOLID
  5
22D
330
211
100
AcDbEntity
  8
0
  6
Continuous
 62
     2
100
AcDbTrace
 10
392.1631313318
 20
140.7038150834
 30
0.0
 11
391.6631313318
 21
145.4638150834
 31
0.0
 12
391.1631313318
 22
140.7038150834
 32
0.0
 13
391.1631313318
 23
140.7038150834
 33
0.0
  0
SOLID
  5
22E
330
211
100
AcDbEntity
  8
0
  6
Continuous
 62
     2
100
AcDbTrace
 10
391.1631313318
 20
48.5238150834
 30
0.0
 11
391.6631313318
 21
43.7638150834
 31
0.0
 12
392.1631313318
 22
48.5238150834
 32
0.0
 13
392.1631313318
 23
48.5238150834
 33
0.0
  0
ENDBLK
  5
22F
330
211
100
AcDbEntity
  8
0
100
AcDbBlockEnd
  0
BLOCK
  5
230
330
212
100
AcDbEntity
  8
0
  6
Continuous
 62
     2
100
AcDbBlockBegin
  2
*D3
 70
     1
 10
0.0
 20
0.0
 30
0.0
  3
*D3
  1

  0
TEXT
  5
231
330
212
100
AcDbEntity
  8
0
  6
Continuous
 62
     5
100
AcDbText
 10
379.9858926778
 20
69.9715967334
 30
0.0
 40
3.0
  1
63.7
 50
90.0
 41
0.9523809523888878
 72
     5
 11
379.9858926778
 21
78.5430253049
 31
0.0
100
AcDbText
  0
LINE
  5
232
330
212
100
AcDbEntity
  8
0
  6
Continuous
 62
     2
100
AcDbLine
 10
368.9548028724
 20
107.4638150834
 30
0.0
 11
381.7358926778
 21
107.4638150834
 31
0.0
  0
LINE
  5
233
330
212
100
AcDbEntity
  8
0
  6
Continuous
 62
     2
100
AcDbLine
 10
344.1269040284
 20
43.7638150834
 30
0.0
 11
381.7358926778
 21
43.7638150834
 31
0.0
  0
LINE
  5
234
330
212
100
AcDbEntity
  8
0
  6
Continuous
 62
     2
100
AcDbLine
 10
380.7358926778
 20
107.4638150834
 30
0.0
 11
380.7358926778
 21
75.6138150834
 31
0.0
  0
LINE
  5
235
330
212
100
AcDbEntity
  8
0
  6
Continuous
 62
     2
100
AcDbLine
 10
380.7358926778
 20
43.7638150834
 30
0.0
 11
380.7358926778
 21
75.6138150834
 31
0.0
  0
SOLID
  5
236
330
212
100
AcDbEntity
  8
0
  6
Continuous
 62
     2
100
AcDbTrace
 10
381.2358926778
 20
102.7038150834
 30
0.0
 11
380.7358926778
 21
107.4638150834
 31
0.0
 12
380.2358926778
 22
102.7038150834
 32
0.0
 13
380.2358926778
 23
102.7038150834
 33
0.0
  0
SOLID
  5
237
330
212
100
AcDbEntity
  8
0
  6
Continuous
 62
     2
100
AcDbTrace
 10
380.2358926778
 20
48.5238150834
 30
0.0
 11
380.7358926778
 21
43.7638150834
 31
0.0
 12
381.2358926778
 22
48.5238150834
 32
0.0
 13
381.2358926778
 23
48.5238150834
 33
0.0
  0
ENDBLK
  5
238
330
212
100
AcDbEntity
  8
0
100
AcDbBlockEnd
  0
ENDSEC
  0
SECTION
  2
ENTITIES
  0
DIMENSION
  5
239
330
1B
100
AcDbEntity
  8
0
  6
Continuous
 62
     2
100
AcDbDimension
  2
*D0
 10
304.3548028724
 20
31.6465937619
 30
0.0
 11
319.0007542614
 21
33.8965937619
 31
0.0
 70
   160
  1
%%c<>
 71
     5
 42
-1.0
  3
DIMSTYLE_1
100
AcDbAlignedDimension
 13
335.3548028724
 23
43.6638150834
 33
0.0
 14
304.3548028724
 24
43.6638150834
 34
0.0
 50
180.0
100
AcDbRotatedDimension
  0
DIMENSION
  5
23A
330
1B
100
AcDbEntity
  8
0
  6
Continuous
 62
     2
100
AcDbDimension
  2
*D1
 10
292.2048028724
 20
23.2085702647
 30
0.0
 11
322.5293822693
 21
25.4585702647
 31
0.0
 70
   160
  1
%%c<>
 71
     5
 42
-1.0
  3
DIMSTYLE_1
100
AcDbAlignedDimension
 13
347.5048028724
 23
45.6638150834
 33
0.0
 14
292.2048028724
 24
45.6638150834
 34
0.0
 50
180.0
100
AcDbRotatedDimension
  0
DIMENSION
  5
23B
330
1B
100
AcDbEntity
  8
0
  6
Continuous
 62
     2
100
AcDbDimension
  2
*D2
 10
391.6631313318
 20
43.7638150834
 30
0.0
 11
389.4131313318
 21
106.7276227883
 31
0.0
 70
   160
 71
     5
 42
-1.0
  3
DIMSTYLE_1
100
AcDbAlignedDimension
 13
354.8798028724
 23
145.4638150834
 33
0.0
 14
344.1269040284
 24
43.7638150834
 34
0.0
 50
270.0
100
AcDbRotatedDimension
  0
DIMENSION
  5
23C
330
1B
100
AcDbEntity
  8
0
  6
Continuous
 62
     2
100
AcDbDimension
  2
*D3
 10
380.7358926778
 20
43.7638150834
 30
0.0
 11
378.4858926778
 21
74.2573110191
 31
0.0
 70
   160
 71
     5
 42
-1.0
  3
DIMSTYLE_1
100
AcDbAlignedDimension
 13
368.9548028724
 23
107.4638150834
 33
0.0
 14
344.1269040284
 24
43.7638150834
 34
0.0
 50
270.0
100
AcDbRotatedDimension
  0
LINE
  5
23D
330
1B
100
AcDbEntity
  8
0
  6
Continuous
 62
     7
100
AcDbLine
 10
432.5
 20
-3.0625
 30
0.0
 11
232.5
 21
-3.0625
 31
0.0
  0
LINE
  5
23E
330
1B
100
AcDbEntity
  8
0
  6
Continuous
 62
     7
100
AcDbLine
 10
232.5
 20
-3.0625
 30
0.0
 11
232.5
 21
283.9375
 31
0.0
  0
LINE
  5
23F
330
1B
100
AcDbEntity
  8
0
  6
Continuous
 62
     7
100
AcDbLine
 10
432.5
 20
283.9375
 30
0.0
 11
232.5
 21
283.9375
 31
0.0
  0
LINE
  5
240
330
1B
100
AcDbEntity
  8
0
  6
Continuous
 62
     7
100
AcDbLine
 10
432.5
 20
-3.0625
 30
0.0
 11
432.5
 21
283.9375
 31
0.0
  0
LINE
  5
241
330
1B
100
AcDbEntity
  8
0
  6
Continuous
 62
     7
100
AcDbLine
 10
346.1768972533
 20
43.7638150834
 30
0.0
 11
293.5329406599
 21
43.7638150834
 31
0.0
  0
LINE
  5
242
330
1B
100
AcDbEntity
  8
0
  6
Continuous
 62
     7
100
AcDbLine
 10
293.2729008707
 20
43.9138150829
 30
0.0
 11
346.4367048741999
 21
43.9138150829
 31
0.0
  0
LINE
  5
243
330
1B
100
AcDbEntity
  8
0
  6
Continuous
 62
     7
100
AcDbLine
 10
292.2048028724
 20
45.7638150834
 30
0.0
 11
347.5048028724
 21
45.7638150834
 31
0.0
  0
LINE
  5
244
330
1B
100
AcDbEntity
  8
0
  6
Continuous
 62
     7
100
AcDbLine
 10
292.2048028724
 20
53.1138150834
 30
0.0
 11
347.5048028724
 21
53.1138150834
 31
0.0
  0
LINE
  5
245
330
1B
100
AcDbEntity
  8
0
  6
Continuous
 62
     7
100
AcDbLine
 10
292.3548028724
 20
53.2638150834
 30
0.0
 11
347.3548028724
 21
53.2638150834
 31
0.0
  0
LINE
  5
246
330
1B
100
AcDbEntity
  8
0
  6
Continuous
 62
     7
100
AcDbLine
 10
292.3548028724
 20
60.2638150834
 30
0.0
 11
347.3548028724
 21
60.2638150834
 31
0.0
  0
LINE
  5
247
330
1B
100
AcDbEntity
  8
0
  6
Continuous
 62
     7
100
AcDbLine
 10
292.2048028724
 20
60.4138150834
 30
0.0
 11
347.5048028724
 21
60.4138150834
 31
0.0
  0
LINE
  5
248
330
1B
100
AcDbEntity
  8
0
  6
Continuous
 62
     7
100
AcDbLine
 10
292.2048028724
 20
69.6138150834
 30
0.0
 11
347.5048028724
 21
69.6138150834
 31
0.0
  0
LINE
  5
249
330
1B
100
AcDbEntity
  8
0
  6
Continuous
 62
     7
100
AcDbLine
 10
292.3548028724
 20
69.76381508340001
 30
0.0
 11
347.3548028724
 21
69.76381508340001
 31
0.0
  0
LINE
  5
24A
330
1B
100
AcDbEntity
  8
0
  6
Continuous
 62
     7
100
AcDbLine
 10
292.2048028724
 20
60.4138150834
 30
0.0
 11
292.3548028724
 21
60.2638150834
 31
0.0
  0
LINE
  5
24B
330
1B
100
AcDbEntity
  8
0
  6
Continuous
 62
     7
100
AcDbLine
 10
292.3548028724
 20
76.7638150834
 30
0.0
 11
347.3548028724
 21
76.7638150834
 31
0.0
  0
LINE
  5
24C
330
1B
100
AcDbEntity
  8
0
  6
Continuous
 62
     7
100
AcDbLine
 10
292.2048028724
 20
76.9138150834
 30
0.0
 11
347.5048028724
 21
76.9138150834
 31
0.0
  0
LINE
  5
24D
330
1B
100
AcDbEntity
  8
0
  6
Continuous
 62
     7
100
AcDbLine
 10
292.2048028724
 20
76.9138150834
 30
0.0
 11
292.3548028724
 21
76.7638150834
 31
0.0
  0
LINE
  5
24E
330
1B
100
AcDbEntity
  8
0
  6
Continuous
 62
     7
100
AcDbLine
 10
292.2048028724
 20
45.7638150834
 30
0.0
 11
293.272900871
 21
43.9138150825
 31
0.0
  0
LINE
  5
24F
330
1B
100
AcDbEntity
  8
0
  6
Continuous
 62
     7
100
AcDbLine
 10
292.2048028724
 20
84.2638150834
 30
0.0
 11
347.5048028724
 21
84.2638150834
 31
0.0
  0
LINE
  5
250
330
1B
100
AcDbEntity
  8
0
  6
Continuous
 62
     7
100
AcDbLine
 10
292.7051209943
 20
84.76381508340001
 30
0.0
 11
347.0044847506
 21
84.76381508340001
 31
0.0
  0
LINE
  5
251
330
1B
100
AcDbEntity
  8
0
  6
Continuous
 62
     7
100
AcDbLine
 10
269.8548028724
 20
108.4638150834
 30
0.0
 11
270.8548028724
 21
107.4638150834
 31
0.0
  0
LINE
  5
252
330
1B
100
AcDbEntity
  8
0
  6
Continuous
 62
     7
100
AcDbLine
 10
269.8548028724
 20
141.4638150834
 30
0.0
 11
269.8548028724
 21
129.8097831017
 31
0.0
  0
LINE
  5
253
330
1B
100
AcDbEntity
  8
0
  6
Continuous
 62
     7
100
AcDbLine
 10
269.8548028724
 20
114.7178470651
 30
0.0
 11
269.8548028724
 21
108.4638150834
 31
0.0
  0
LINE
  5
254
330
1B
100
AcDbEntity
  8
0
  6
Continuous
 62
     7
100
AcDbLine
 10
347.3548028724
 20
53.2638150834
 30
0.0
 11
347.5048028724
 21
53.1138150834
 31
0.0
  0
LINE
  5
255
330
1B
100
AcDbEntity
  8
0
  6
Continuous
 62
     7
100
AcDbLine
 10
277.3548028724
 20
118.2638150834
 30
0.0
 11
277.3548028724
 21
126.2638150834
 31
0.0
  0
LINE
  5
256
330
1B
100
AcDbEntity
  8
0
  6
Continuous
 62
     7
100
AcDbLine
 10
322.6998082387
 20
104.2638150834
 30
0.0
 11
321.9048028724
 21
104.2638150834
 31
0.0
  0
LINE
  5
257
330
1B
100
AcDbEntity
  8
0
  6
Continuous
 62
     7
100
AcDbLine
 10
317.0097975062
 20
104.2638150834
 30
0.0
 11
317.8048028724
 21
104.2638150904
 31
0.0
  0
LINE
  5
258
330
1B
100
AcDbEntity
  8
0
  6
Continuous
 62
     7
100
AcDbLine
 10
270.8548028724
 20
107.4638150834
 30
0.0
 11
368.8548028724
 21
107.4638150834
 31
0.0
  0
LINE
  5
259
330
1B
100
AcDbEntity
  8
0
  6
Continuous
 62
     7
100
AcDbLine
 10
269.8548028724
 20
108.4638150834
 30
0.0
 11
369.8548028724
 21
108.4638150834
 31
0.0
  0
LINE
  5
25A
330
1B
100
AcDbEntity
  8
0
  6
Continuous
 62
     7
100
AcDbLine
 10
275.9965996422
 20
126.2638150834
 30
0.0
 11
269.8548028724
 21
129.8097831017
 31
0.0
  0
LINE
  5
25B
330
1B
100
AcDbEntity
  8
0
  6
Continuous
 62
     7
100
AcDbLine
 10
285.2048028724
 20
144.9875011113
 30
0.0
 11
285.2048028724
 21
142.4638150834
 31
0.0
  0
LINE
  5
25C
330
1B
100
AcDbEntity
  8
0
  6
Continuous
 62
     7
100
AcDbLine
 10
299.5257996893
 20
245.5524238621
 30
0.0
 11
284.9298028724
 21
145.4638150834
 31
0.0
  0
LINE
  5
25D
330
1B
100
AcDbEntity
  8
0
  6
Continuous
 62
     7
100
AcDbLine
 10
270.8548028724
 20
142.4638150834
 30
0.0
 11
269.8548028724
 21
141.4638150834
 31
0.0
  0
LINE
  5
25E
330
1B
100
AcDbEntity
  8
0
  6
Continuous
 62
     7
100
AcDbLine
 10
369.8548028724
 20
114.7178470651
 30
0.0
 11
329.5524049191
 21
114.7178470651
 31
0.0
  0
LINE
  5
25F
330
1B
100
AcDbEntity
  8
0
  6
Continuous
 62
     7
100
AcDbLine
 10
310.1572008257
 20
114.7178470651
 30
0.0
 11
269.8548028724
 21
114.7178470651
 31
0.0
  0
LINE
  5
260
330
1B
100
AcDbEntity
  8
0
  6
Continuous
 62
     7
100
AcDbLine
 10
347.3548028724
 20
69.76381508340001
 30
0.0
 11
347.5048028724
 21
69.6138150834
 31
0.0
  0
LINE
  5
261
330
1B
100
AcDbEntity
  8
0
  6
Continuous
 62
     7
100
AcDbLine
 10
284.9298028724
 20
145.4638150834
 30
0.0
 11
285.2048028724
 21
144.9875011113
 31
0.0
  0
LINE
  5
262
330
1B
100
AcDbEntity
  8
0
  6
Continuous
 62
     7
100
AcDbLine
 10
292.2048028724
 20
84.2638150834
 30
0.0
 11
292.2048028724
 21
76.9138150834
 31
0.0
  0
LINE
  5
263
330
1B
100
AcDbEntity
  8
0
  6
Continuous
 62
     7
100
AcDbLine
 10
292.2048028724
 20
69.6138150834
 30
0.0
 11
292.2048028724
 21
60.4138150834
 31
0.0
  0
LINE
  5
264
330
1B
100
AcDbEntity
  8
0
  6
Continuous
 62
     7
100
AcDbLine
 10
292.2048028724
 20
53.1138150834
 30
0.0
 11
292.2048028724
 21
45.7638150834
 31
0.0
  0
LINE
  5
265
330
1B
100
AcDbEntity
  8
0
  6
Continuous
 62
     7
100
AcDbLine
 10
292.3548028724
 20
76.7638150834
 30
0.0
 11
292.3548028724
 21
69.76381508340001
 31
0.0
  0
LINE
  5
266
330
1B
100
AcDbEntity
  8
0
  6
Continuous
 62
     7
100
AcDbLine
 10
292.3548028724
 20
60.2638150834
 30
0.0
 11
292.3548028724
 21
53.2638150834
 31
0.0
  0
LINE
  5
267
330
1B
100
AcDbEntity
  8
0
  6
Continuous
 62
     7
100
AcDbLine
 10
294.3548028724
 20
107.4638150834
 30
0.0
 11
294.3548028724
 21
84.76381508340001
 31
0.0
  0
LINE
  5
268
330
1B
100
AcDbEntity
  8
0
  6
Continuous
 62
     7
100
AcDbLine
 10
275.9965996457
 20
118.2638150834
 30
0.0
 11
308.5181366958
 21
118.2638150834
 31
0.0
  0
LINE
  5
269
330
1B
100
AcDbEntity
  8
0
  6
Continuous
 62
     7
100
AcDbLine
 10
331.1914690491
 20
118.2638150834
 30
0.0
 11
363.7130060992
 21
118.2638150834
 31
0.0
  0
LINE
  5
26A
330
1B
100
AcDbEntity
  8
0
  6
Continuous
 62
     7
100
AcDbLine
 10
347.0048028724
 20
84.76381508340001
 30
0.0
 11
347.5048028724
 21
84.2638150834
 31
0.0
  0
LINE
  5
26B
330
1B
100
AcDbEntity
  8
DEFAULT_2
  6
HIDDEN
 62
     8
100
AcDbLine
 10
304.3548028724
 20
49.5638150834
 30
0.0
 11
304.3548028724
 21
67.8138150834
 31
0.0
  0
LINE
  5
26C
330
1B
100
AcDbEntity
  8
0
  6
Continuous
 62
     7
100
AcDbLine
 10
307.8048028724
 20
124.3138150834
 30
0.0
 11
307.0048028724
 21
124.3138150887
 31
0.0
  0
LINE
  5
26D
330
1B
100
AcDbEntity
  8
0
  6
Continuous
 62
     7
100
AcDbLine
 10
331.9048028724
 20
124.3138150834
 30
0.0
 11
332.7048028724
 21
124.3138150834
 31
0.0
  0
LINE
  5
26E
330
1B
100
AcDbEntity
  8
0
  6
Continuous
 62
     7
100
AcDbLine
 10
363.7124892894
 20
126.2638150834
 30
0.0
 11
332.7048028724
 21
126.2638150834
 31
0.0
  0
LINE
  5
26F
330
1B
100
AcDbEntity
  8
0
  6
Continuous
 62
     7
100
AcDbLine
 10
307.0048028724
 20
126.2638150834
 30
0.0
 11
275.9971164555
 21
126.2638150834
 31
0.0
  0
LINE
  5
270
330
1B
100
AcDbEntity
  8
0
  6
Continuous
 62
     7
100
AcDbLine
 10
269.8548028724
 20
129.8097831017
 30
0.0
 11
306.2350544538
 21
129.8097831017
 31
0.0
  0
LINE
  5
271
330
1B
100
AcDbEntity
  8
0
  6
Continuous
 62
     7
100
AcDbLine
 10
333.4745512911
 20
129.8097831017
 30
0.0
 11
369.8548028724
 21
129.8097831017
 31
0.0
  0
LINE
  5
272
330
1B
100
AcDbEntity
  8
0
  6
Continuous
 62
     7
100
AcDbLine
 10
306.2350544538
 20
141.4638150834
 30
0.0
 11
306.2350544538
 21
129.8097831017
 31
0.0
  0
LINE
  5
273
330
1B
100
AcDbEntity
  8
0
  6
Continuous
 62
     7
100
AcDbLine
 10
307.0048028724
 20
124.3138150834
 30
0.0
 11
307.0048028724
 21
141.6638150834
 31
0.0
  0
LINE
  5
274
330
1B
100
AcDbEntity
  8
0
  6
Continuous
 62
     7
100
AcDbLine
 10
307.8048028724
 20
124.3138150834
 30
0.0
 11
307.8048028724
 21
140.8638150834
 31
0.0
  0
LINE
  5
275
330
1B
100
AcDbEntity
  8
0
  6
Continuous
 62
     7
100
AcDbLine
 10
306.2048028724
 20
142.4638150834
 30
0.0
 11
307.8048028724
 21
140.8638150834
 31
0.0
  0
LINE
  5
276
330
1B
100
AcDbEntity
  8
0
  6
Continuous
 62
     7
100
AcDbLine
 10
269.8548028724
 20
141.4638150834
 30
0.0
 11
306.2350544538
 21
141.4638150834
 31
0.0
  0
LINE
  5
277
330
1B
100
AcDbEntity
  8
0
  6
Continuous
 62
     7
100
AcDbLine
 10
333.4745512911
 20
141.4638150834
 30
0.0
 11
369.8548028724
 21
141.4638150834
 31
0.0
  0
LINE
  5
278
330
1B
100
AcDbEntity
  8
0
  6
Continuous
 62
     7
100
AcDbLine
 10
270.8548028724
 20
142.4638150834
 30
0.0
 11
368.8548028724
 21
142.4638150834
 31
0.0
  0
LINE
  5
279
330
1B
100
AcDbEntity
  8
0
  6
Continuous
 62
     7
100
AcDbLine
 10
285.2048028724
 20
144.9875011113
 30
0.0
 11
354.5048028724
 21
144.9875011113
 31
0.0
  0
LINE
  5
27A
330
1B
100
AcDbEntity
  8
0
  6
Continuous
 62
     7
100
AcDbLine
 10
284.9298028724
 20
145.4638150834
 30
0.0
 11
354.7798028723999
 21
145.4638150834
 31
0.0
  0
LINE
  5
27B
330
1B
100
AcDbEntity
  8
0
  6
Continuous
 62
     7
100
AcDbLine
 10
369.8548028724
 20
114.7178470651
 30
0.0
 11
363.7130061027
 21
118.2638150834
 31
0.0
  0
LINE
  5
27C
330
1B
100
AcDbEntity
  8
0
  6
Continuous
 62
     7
100
AcDbLine
 10
269.8548028724
 20
114.7178470651
 30
0.0
 11
275.9965996422
 21
118.2638150834
 31
0.0
  0
LINE
  5
27D
330
1B
100
AcDbEntity
  8
0
  6
Continuous
 62
     7
100
AcDbLine
 10
331.9048028724
 20
140.8638150834
 30
0.0
 11
331.9048028724
 21
124.3138150834
 31
0.0
  0
LINE
  5
27E
330
1B
100
AcDbEntity
  8
0
  6
Continuous
 62
     7
100
AcDbLine
 10
332.7048028724
 20
124.3138150834
 30
0.0
 11
332.7048028724
 21
141.6638150834
 31
0.0
  0
LINE
  5
27F
330
1B
100
AcDbEntity
  8
0
  6
Continuous
 62
     7
100
AcDbLine
 10
333.4745512911
 20
141.4638150834
 30
0.0
 11
333.4745512911
 21
129.8097831017
 31
0.0
  0
LINE
  5
280
330
1B
100
AcDbEntity
  8
DEFAULT_2
  6
HIDDEN
 62
     8
100
AcDbLine
 10
335.3548028724
 20
49.5638150834
 30
0.0
 11
335.3548028724
 21
67.8138150834
 31
0.0
  0
LINE
  5
281
330
1B
100
AcDbEntity
  8
0
  6
Continuous
 62
     7
100
AcDbLine
 10
331.9048028724
 20
140.8638150834
 30
0.0
 11
333.5048028724
 21
142.4638150834
 31
0.0
  0
LINE
  5
282
330
1B
100
AcDbEntity
  8
0
  6
Continuous
 62
     7
100
AcDbLine
 10
345.3548028724
 20
107.4638150834
 30
0.0
 11
345.3548028724
 21
84.76381508340001
 31
0.0
  0
LINE
  5
283
330
1B
100
AcDbEntity
  8
0
  6
Continuous
 62
     7
100
AcDbLine
 10
347.3548028724
 20
76.7638150834
 30
0.0
 11
347.3548028724
 21
69.76381508340001
 31
0.0
  0
LINE
  5
284
330
1B
100
AcDbEntity
  8
0
  6
Continuous
 62
     7
100
AcDbLine
 10
347.3548028724
 20
60.2638150834
 30
0.0
 11
347.3548028724
 21
53.2638150834
 31
0.0
  0
LINE
  5
285
330
1B
100
AcDbEntity
  8
0
  6
Continuous
 62
     7
100
AcDbLine
 10
347.5048028724
 20
84.2638150834
 30
0.0
 11
347.5048028724
 21
76.9138150834
 31
0.0
  0
LINE
  5
286
330
1B
100
AcDbEntity
  8
0
  6
Continuous
 62
     7
100
AcDbLine
 10
347.5048028724
 20
69.6138150834
 30
0.0
 11
347.5048028724
 21
60.4138150834
 31
0.0
  0
LINE
  5
287
330
1B
100
AcDbEntity
  8
0
  6
Continuous
 62
     7
100
AcDbLine
 10
347.5048028724
 20
53.1138150834
 30
0.0
 11
347.5048028724
 21
45.7638150834
 31
0.0
  0
LINE
  5
288
330
1B
100
AcDbEntity
  8
0
  6
Continuous
 62
     7
100
AcDbLine
 10
354.7798028723999
 20
145.4638150834
 30
0.0
 11
354.5048028724
 21
144.9875011113
 31
0.0
  0
LINE
  5
289
330
1B
100
AcDbEntity
  8
0
  6
Continuous
 62
     7
100
AcDbLine
 10
292.7048028724
 20
84.76381508340001
 30
0.0
 11
292.2048028724
 21
84.2638150834
 31
0.0
  0
LINE
  5
28A
330
1B
100
AcDbEntity
  8
0
  6
Continuous
 62
     7
100
AcDbLine
 10
354.5048028724
 20
144.9875011113
 30
0.0
 11
354.5048028724
 21
142.4638150834
 31
0.0
  0
LINE
  5
28B
330
1B
100
AcDbEntity
  8
0
  6
Continuous
 62
     7
100
AcDbLine
 10
292.3548028724
 20
69.76381508340001
 30
0.0
 11
292.2048028724
 21
69.6138150834
 31
0.0
  0
LINE
  5
28C
330
1B
100
AcDbEntity
  8
0
  6
Continuous
 62
     7
100
AcDbLine
 10
363.7130061027
 20
126.2638150834
 30
0.0
 11
369.8548028724
 21
129.8097831017
 31
0.0
  0
LINE
  5
28D
330
1B
100
AcDbEntity
  8
0
  6
Continuous
 62
     7
100
AcDbLine
 10
368.8548028724
 20
142.4638150834
 30
0.0
 11
369.8548028724
 21
141.4638150834
 31
0.0
  0
LINE
  5
28E
330
1B
100
AcDbEntity
  8
0
  6
Continuous
 62
     7
100
AcDbLine
 10
340.1838060556
 20
245.5524238621
 30
0.0
 11
354.7798028723999
 21
145.4638150834
 31
0.0
  0
LINE
  5
28F
330
1B
100
AcDbEntity
  8
0
  6
Continuous
 62
     7
100
AcDbLine
 10
362.3548028724
 20
118.2638150834
 30
0.0
 11
362.3548028724
 21
126.2638150834
 31
0.0
  0
LINE
  5
290
330
1B
100
AcDbEntity
  8
0
  6
Continuous
 62
     7
100
AcDbLine
 10
292.3548028724
 20
53.2638150834
 30
0.0
 11
292.2048028724
 21
53.1138150834
 31
0.0
  0
LINE
  5
291
330
1B
100
AcDbEntity
  8
0
  6
Continuous
 62
     7
100
AcDbLine
 10
369.8548028724
 20
141.4638150834
 30
0.0
 11
369.8548028724
 21
129.8097831017
 31
0.0
  0
LINE
  5
292
330
1B
100
AcDbEntity
  8
0
  6
Continuous
 62
     7
100
AcDbLine
 10
369.8548028724
 20
114.7178470651
 30
0.0
 11
369.8548028724
 21
108.4638150834
 31
0.0
  0
LINE
  5
293
330
1B
100
AcDbEntity
  8
0
  6
Continuous
 62
     7
100
AcDbLine
 10
369.8548028724
 20
108.4638150834
 30
0.0
 11
368.8548028724
 21
107.4638150834
 31
0.0
  0
LINE
  5
294
330
1B
100
AcDbEntity
  8
0
  6
Continuous
 62
     7
100
AcDbLine
 10
347.5048028724
 20
76.9138150834
 30
0.0
 11
347.3548028724
 21
76.7638150834
 31
0.0
  0
LINE
  5
295
330
1B
100
AcDbEntity
  8
0
  6
Continuous
 62
     7
100
AcDbLine
 10
347.5048028724
 20
45.7638150834
 30
0.0
 11
346.4367048739
 21
43.9138150825
 31
0.0
  0
LINE
  5
296
330
1B
100
AcDbEntity
  8
0
  6
Continuous
 62
     7
100
AcDbLine
 10
347.5048028724
 20
60.4138150834
 30
0.0
 11
347.3548028724
 21
60.2638150834
 31
0.0
  0
LINE
  5
297
330
1B
100
AcDbEntity
  8
0
  6
Continuous
 62
     7
100
AcDbLine
 10
299.5257996893
 20
245.5524238621
 30
0.0
 11
340.1838060556
 21
245.5524238621
 31
0.0
  0
LINE
  5
298
330
1B
100
AcDbEntity
  8
0
  6
Continuous
 62
     7
100
AcDbLine
 10
338.2047393632
 20
247.2638150834
 30
0.0
 11
301.5048663817
 21
247.2638150834
 31
0.0
  0
ARC
  5
299
330
1B
100
AcDbEntity
  8
0
  6
Continuous
 62
     7
100
AcDbCircle
 10
293.5327084916
 20
44.06381508339999
 30
0.0
 40
0.3
100
AcDbArc
 50
210.0000002032
 51
270.0
  0
ARC
  5
29A
330
1B
100
AcDbEntity
  8
0
  6
Continuous
 62
     7
100
AcDbCircle
 10
346.1768972533
 20
44.06381508339999
 30
0.0
 40
0.3
100
AcDbArc
 50
270.0
 51
329.9999997968001
  0
ARC
  5
29B
330
1B
100
AcDbEntity
  8
0
  6
Continuous
 62
     7
100
AcDbCircle
 10
319.8548028724
 20
124.3138150834
 30
0.0
 40
12.85
100
AcDbArc
 50
180.0
 51
360.0
  0
ARC
  5
29C
330
1B
100
AcDbEntity
  8
0
  6
Continuous
 62
     7
100
AcDbCircle
 10
338.2047393632
 20
245.2638150834
 30
0.0
 40
2.0
100
AcDbArc
 50
8.297000000299998
 51
90.0
  0
ARC
  5
29D
330
1B
100
AcDbEntity
  8
0
  6
Continuous
 62
     7
100
AcDbCircle
 10
301.5048663817
 20
245.2638150834
 30
0.0
 40
2.0
100
AcDbArc
 50
90.0
 51
171.7029999996
  0
CIRCLE
  5
29E
330
1B
100
AcDbEntity
  8
0
  6
Continuous
 62
     7
100
AcDbCircle
 10
319.8548028724
 20
104.2638150834
 30
0.0
 40
2.049999999999999
  0
ARC
  5
29F
330
1B
100
AcDbEntity
  8
0
  6
Continuous
 62
     7
100
AcDbCircle
 10
319.8548028724
 20
124.3138150834
 30
0.0
 40
12.0499973494
100
AcDbArc
 50
180.0
 51
360.0
  0
SPLINE
  5
2A2
330
1B
100
AcDbEntity
  8
0
  6
Continuous
 62
     2
100
AcDbSpline
 70
     0
 71
     3
 72
    18
 73
    14
 74
    12
 42
0.0000000001
 43
0.0000000001
 44
0.0000000001
 40
0.0
 40
0.0
 40
0.0
 40
0.0
 40
0.7105745461798181
 40
1.425189472373943
 40
2.13446058458827
 40
2.851007921084935
 40
3.557885131200502
 40
4.274053685500583
 40
4.980930539564309
 40
5.697478819986564
 40
6.406749103979905
 40
7.121365940399272
 40
7.831941200272297
 40
7.831941200272297
 40
7.831941200272297
 40
7.831941200272297
 10
319.8548028724
 20
106.7638150834
 30
25.5
 10
320.0924591598044
 20
106.744103999274
 30
25.49802840084496
 10
320.5691230660379
 20
106.7045697523234
 30
25.49407399187463
 10
321.224743308509
 20
106.3933368610876
 30
25.46534393110508
 10
321.7705345739422
 20
105.9235260298867
 30
25.42946267650024
 10
322.1597284337139
 20
105.3169145468797
 30
25.39615507047449
 10
322.3633207432747
 20
104.6238676341126
 30
25.3763441252707
 10
322.3633210886216
 20
103.9037650689211
 30
25.37634409001505
 10
322.1597294473518
 20
103.2107177660643
 30
25.39615497593473
 10
321.7705361643352
 20
102.6041059644014
 30
25.42946255472335
 10
321.2247448312641
 20
102.1342942226916
 30
25.46534384900491
 10
320.5691241842855
 20
101.82306057163
 30
25.49407397594022
 10
320.0924593991564
 20
101.783526208806
 30
25.49802839664436
 10
319.8548028724
 20
101.7638150834
 30
25.5
 11
319.8548028724
 21
106.7638150834
 31
25.5
 11
320.5581010123
 21
106.662850666
 31
25.4902995613
 11
321.2076744986
 21
106.3661324626
 31
25.4640872282
 11
321.743098684
 21
105.9022103129
 31
25.4299889683
 11
322.129990913
 21
105.2999228867
 31
25.3982975685
 11
322.3290249314
 21
104.6219005523
 31
25.3796813456
 11
322.3290252763
 21
103.905731998
 31
25.3796813119
 11
322.1299920595
 21
103.2277097976
 31
25.3982974658
 11
321.7430998717
 21
102.6254212227
 31
25.4299888801
 11
321.2076767258
 21
102.1614991373
 31
25.4640871098
 11
320.558101704
 21
101.8647797036
 31
25.4902995422
 11
319.8548028724
 21
101.7638150834
 31
25.5
  0
SPLINE
  5
2A3
330
1B
100
AcDbEntity
  8
0
  6
Continuous
 62
     2
100
AcDbSpline
 70
     0
 71
     3
 72
    18
 73
    14
 74
    12
 42
0.0000000001
 43
0.0000000001
 44
0.0000000001
 40
0.0
 40
0.0
 40
0.0
 40
0.0
 40
0.7105745461798723
 40
1.425189472241543
 40
2.134460584521235
 40
2.851007921017962
 40
3.557885131133499
 40
4.274053685433567
 40
4.980930539525475
 40
5.6974788199477
 40
6.40674910387564
 40
7.121365940336581
 40
7.831941200110587
 40
7.831941200110587
 40
7.831941200110587
 40
7.831941200110587
 10
319.8548028724
 20
101.7638150834
 30
25.5
 10
319.6171465849989
 20
101.7835261675313
 30
25.49802840084572
 10
319.1404826788163
 20
101.8230604144887
 30
25.49407399187729
 10
318.4848624363101
 20
102.134293305612
 30
25.46534393109926
 10
317.9390711709952
 20
102.6041041369222
 30
25.42946267650282
 10
317.5498773111678
 20
103.2107156199137
 30
25.3961550704741
 10
317.3462850016723
 20
103.9037625326861
 30
25.37634412527073
 10
317.3462846561069
 20
104.6238650978999
 30
25.37634409001529
 10
317.5498762975942
 20
105.3169124007093
 30
25.39615497593443
 10
317.9390695805175
 20
105.9235242024134
 30
25.42946255472108
 10
318.4848609137008
 20
106.3933359439764
 30
25.46534384900818
 10
319.1404815605527
 20
106.7045695951854
 30
25.49407397593777
 10
319.6171463456721
 20
106.7441039580004
 30
25.49802839664367
 10
319.8548028724
 20
106.7638150834
 30
25.5
 11
319.8548028724
 21
101.7638150834
 31
25.5
 11
319.1515047325
 21
101.8647795008
 31
25.4902995613
 11
318.5019312463
 21
102.1614977041
 31
25.4640872282
 11
317.9665070609
 21
102.6254198539
 31
25.4299889683
 11
317.5796148319
 21
103.2277072801
 31
25.3982975685
 11
317.3805808135
 21
103.9057296145
 31
25.3796813456
 11
317.3805804685
 21
104.6218981688
 31
25.3796813119
 11
317.5796136854
 21
105.2999203692
 31
25.3982974658
 11
317.9665058732
 21
105.9022089441
 31
25.4299888801
 11
318.5019290191
 21
106.3661310294
 31
25.4640871098
 11
319.1515040409
 21
106.6628504632
 31
25.4902995422
 11
319.8548028724
 21
106.7638150834
 31
25.5
  0
SPLINE
  5
2A4
330
1B
100
AcDbEntity
  8
0
  6
Continuous
 62
     7
100
AcDbSpline
210
0.0
220
0.0
230
1.0
 70
     8
 71
     3
 72
    10
 73
     6
 74
     4
 42
0.0000000001
 43
0.0000000001
 44
0.0000000001
 40
0.0
 40
0.0
 40
0.0
 40
0.0
 40
0.229501198734647
 40
0.4580727055293174
 40
0.6857165612857223
 40
0.6857165612857223
 40
0.6857165612857223
 40
0.6857165612857223
 10
306.2350544538
 20
141.4638150834
 30
0.0
 10
306.2891634793281
 20
141.5178939612291
 30
0.0
 10
306.397162338828
 20
141.625832647457
 30
0.0
 10
306.5590134564918
 20
141.7872311955303
 30
0.0
 10
306.6668171255298
 20
141.8944888281793
 30
0.0
 10
306.7206093581
 20
141.9480085977
 30
0.0
 11
306.2350544538
 21
141.4638150834
 31
0.0
 11
306.3974119037
 21
141.6260213061
 31
0.0
 11
306.5592630864
 21
141.7874187298
 31
0.0
 11
306.7206093581
 21
141.9480085977
 31
0.0
  0
SPLINE
  5
2A5
330
1B
100
AcDbEntity
  8
0
  6
Continuous
 62
     7
100
AcDbSpline
210
0.0
220
0.0
230
1.0
 70
     8
 71
     3
 72
    10
 73
     6
 74
     4
 42
0.0000000001
 43
0.0000000001
 44
0.0000000001
 40
0.0
 40
0.0
 40
0.0
 40
0.0
 40
0.2295011988053818
 40
0.4580727055292513
 40
0.685716561356524
 40
0.685716561356524
 40
0.685716561356524
 40
0.685716561356524
 10
333.4745512911
 20
141.4638150834
 30
0.0
 10
333.4204422655275
 20
141.5178939612179
 30
0.0
 10
333.3124434059721
 20
141.6258326473903
 30
0.0
 10
333.150592288408
 20
141.7872311955969
 30
0.0
 10
333.0427886193146
 20
141.8944888281904
 30
0.0
 10
332.9889963867
 20
141.9480085977
 30
0.0
 11
333.4745512911
 21
141.4638150834
 31
0.0
 11
333.3121938411
 21
141.6260213061
 31
0.0
 11
333.1503426585
 21
141.7874187298
 31
0.0
 11
332.9889963867
 21
141.9480085977
 31
0.0
  0
SPLINE
  5
2A6
330
1B
100
AcDbEntity
  8
0
  6
Continuous
 62
     7
100
AcDbSpline
210
0.0
220
0.0
230
1.0
 70
     8
 71
     3
 72
    17
 73
    13
 74
    11
 42
0.0000000001
 43
0.0000000001
 44
0.0000000001
 40
0.0
 40
0.0
 40
0.0
 40
0.0
 40
0.2472450371746759
 40
0.735294846957086
 40
1.107584793764816
 40
1.481931114336279
 40
1.852448921155239
 40
2.22237994488668
 40
2.969931702474098
 40
3.719131890002002
 40
4.215096191792452
 40
4.467302438631286
 40
4.467302438631286
 40
4.467302438631286
 40
4.467302438631286
 10
319.8548028724
 20
101.4138150834
 30
0.0
 10
319.7723821249302
 20
101.4159832512161
 30
0.0
 10
319.5272667867643
 20
101.4224312780027
 30
0.0
 10
319.1613697019852
 20
101.4882300776536
 30
0.0
 10
318.7706402952684
 20
101.6201956502777
 30
0.0
 10
318.4347029933896
 20
101.7833673656267
 30
0.0
 10
318.1238483955634
 20
101.9890960529989
 30
0.0
 10
317.7497603336043
 20
102.3165165032859
 30
0.0
 10
317.3643003548737
 20
102.8150744125591
 30
0.0
 10
317.1088869787893
 20
103.4363029481317
 30
0.0
 10
317.0186871392528
 20
103.9302846057025
 30
0.0
 10
317.0120386827229
 20
104.1797282969336
 30
0.0
 10
317.0097975062
 20
104.2638150834
 30
0.0
 11
319.8548028724
 21
101.4138150834
 31
0.0
 11
319.6077900994
 21
101.4245294841
 31
0.0
 11
319.1269747917
 21
101.5082507879
 31
0.0
 11
318.7742152118
 21
101.6272486168
 31
0.0
 11
318.4376650279
 21
101.7911667105
 31
0.0
 11
318.1287725709
 21
101.9957856128
 31
0.0
 11
317.8501949652
 21
102.2391854483
 31
0.0
 11
317.3938830562
 21
102.8313113403
 31
0.0
 11
317.1070527516
 21
103.5234307645
 31
0.0
 11
317.0208869271
 21
104.0118527535
 31
0.0
 11
317.0097975062
 21
104.2638150834
 31
0.0
  0
SPLINE
  5
2A7
330
1B
100
AcDbEntity
  8
0
  6
Continuous
 62
     7
100
AcDbSpline
210
0.0
220
0.0
230
1.0
 70
     8
 71
     3
 72
    16
 73
    12
 74
    10
 42
0.0000000001
 43
0.0000000001
 44
0.0000000001
 40
0.0
 40
0.0
 40
0.0
 40
0.0
 40
0.2527941551526325
 40
0.7497674461761566
 40
1.500207897087121
 40
2.248075005669367
 40
2.987903807813924
 40
3.360809862850234
 40
3.731349135935315
 40
4.2185371165514
 40
4.465666500824283
 40
4.465666500824283
 40
4.465666500824283
 40
4.465666500824283
 10
322.6998082387
 20
104.2638150834
 30
0.0
 10
322.6975555939429
 20
104.17953202115
 30
0.0
 10
322.6908744279737
 20
103.9295551326379
 30
0.0
 10
322.6003553395535
 20
103.4346689508026
 30
0.0
 10
322.3438177708825
 20
102.8127643898647
 30
0.0
 10
321.8822143217333
 20
102.2156846392855
 30
0.0
 10
321.3826872431982
 20
101.8351870919291
 30
0.0
 10
320.9365832750934
 20
101.6190906349345
 30
0.0
 10
320.5469448532323
 20
101.4880416127946
 30
0.0
 10
320.1819785076367
 20
101.4224093047243
 30
0.0
 10
319.9371860616603
 20
101.415979117899
 30
0.0
 10
319.8548028724
 20
101.4138150834
 30
0.0
 11
322.6998082387
 21
104.2638150834
 31
0.0
 11
322.6886670545
 21
104.0112665556
 31
0.0
 11
322.6021388394
 21
103.521883965
 31
0.0
 11
322.3142926
 21
102.8288432643
 31
0.0
 11
321.8571602854
 21
102.2369520082
 31
0.0
 11
321.2682988639
 21
101.7890805057
 31
0.0
 11
320.9329049042
 21
101.6260779975
 31
0.0
 11
320.5816826414
 21
101.5080005864
 31
0.0
 11
320.1017003184
 21
101.4245194624
 31
0.0
 11
319.8548028724
 21
101.4138150834
 31
0.0
  0
SPLINE
  5
2A8
330
1B
100
AcDbEntity
  8
0
  6
Continuous
 62
     7
100
AcDbSpline
210
0.0
220
0.0
230
1.0
 70
     8
 71
     3
 72
    10
 73
     6
 74
     4
 42
0.0000000001
 43
0.0000000001
 44
0.0000000001
 40
0.0
 40
0.0
 40
0.0
 40
0.0
 40
0.2940077995880588
 40
0.5899520240965986
 40
0.8878442665032416
 40
0.8878442665032416
 40
0.8878442665032416
 40
0.8878442665032416
 10
332.7048028724
 20
129.3673422051
 30
0.0
 10
332.7898447970422
 20
129.4160493114349
 30
0.0
 10
332.9604887583451
 20
129.5137843239427
 30
0.0
 10
333.2170747330569
 20
129.6612597630653
 30
0.0
 10
333.3885382823891
 20
129.7601671703825
 30
0.0
 10
333.4745512911
 20
129.8097831017
 30
0.0
 11
332.7048028724
 21
129.3673422051
 31
0.0
 11
332.9598917639
 21
129.513527853
 31
0.0
 11
333.216473384
 21
129.6610027873
 31
0.0
 11
333.4745512911
 21
129.8097831017
 31
0.0
  0
SPLINE
  5
2A9
330
1B
100
AcDbEntity
  8
0
  6
Continuous
 62
     7
100
AcDbSpline
210
0.0
220
0.0
230
1.0
 70
     8
 71
     3
 72
    17
 73
    13
 74
    11
 42
0.0000000001
 43
0.0000000001
 44
0.0000000001
 40
0.0
 40
0.0
 40
0.0
 40
0.0
 40
0.2527392621111772
 40
0.7496157091918705
 40
1.499928827615507
 40
2.247968228656564
 40
2.61854418528525
 40
2.989112376855191
 40
3.362099088680826
 40
3.732802045608203
 40
4.220110479296495
 40
4.467292492536721
 40
4.467292492536721
 40
4.467292492536721
 40
4.467292492536721
 10
317.0097975062
 20
104.2638150834
 30
0.0
 10
317.0120482288971
 20
104.348079547352
 30
0.0
 10
317.0187237927832
 20
104.5980049660521
 30
0.0
 10
317.1092517645061
 20
105.0928147926741
 30
0.0
 10
317.3654600091037
 20
105.7146363081627
 30
0.0
 10
317.7517922115133
 20
106.2135257520237
 30
0.0
 10
318.1267597891122
 20
106.5405438142429
 30
0.0
 10
318.4375876682154
 20
106.7458803356331
 30
0.0
 10
318.7727557628974
 20
106.9084390943447
 30
0.0
 10
319.1624675284975
 20
107.039544948136
 30
0.0
 10
319.5275530390128
 20
107.1052176284801
 30
0.0
 10
319.7724024018445
 20
107.111650271508
 30
0.0
 10
319.8548028724
 20
107.1138150834
 30
0.0
 11
317.0097975062
 21
104.2638150834
 31
0.0
 11
317.0209338521
 21
104.5163088782
 31
0.0
 11
317.1074275145
 21
105.0055992317
 31
0.0
 11
317.3951723498
 21
105.6985441685
 31
0.0
 11
317.8523696062
 21
106.2906029614
 31
0.0
 11
318.1318002968
 21
106.5340059786
 31
0.0
 11
318.4409413023
 21
106.7383405653
 31
0.0
 11
318.7763950923
 21
106.9014044852
 31
0.0
 11
319.127755266
 21
107.0195853238
 31
0.0
 11
319.6078529457
 21
107.1031061445
 31
0.0
 11
319.8548028724
 21
107.1138150834
 31
0.0
  0
SPLINE
  5
2AA
330
1B
100
AcDbEntity
  8
0
  6
Continuous
 62
     7
100
AcDbSpline
210
0.0
220
0.0
230
1.0
 70
     8
 71
     3
 72
    17
 73
    13
 74
    11
 42
0.0000000001
 43
0.0000000001
 44
0.0000000001
 40
0.0
 40
0.0
 40
0.0
 40
0.0
 40
0.247196135434319
 40
0.7351325037721766
 40
1.107277290269062
 40
1.481534209203941
 40
1.852134632799544
 40
2.222165774347422
 40
2.969562192098051
 40
3.718916354148127
 40
4.215015285220109
 40
4.467302109216253
 40
4.467302109216253
 40
4.467302109216253
 40
4.467302109216253
 10
319.8548028724
 20
107.1138150834
 30
0.0
 10
319.9372074031884
 20
107.1116480344005
 30
0.0
 10
320.1822688760718
 20
107.1052034831782
 30
0.0
 10
320.5480626586472
 20
107.0394279846584
 30
0.0
 10
320.9387024897459
 20
106.907562558888
 30
0.0
 10
321.2746063059099
 20
106.7444339999561
 30
0.0
 10
321.5854954704979
 20
106.5387042501209
 30
0.0
 10
321.9596500840376
 20
106.2113453763219
 30
0.0
 10
322.3451651878445
 20
105.7127875343531
 30
0.0
 10
322.6006650985837
 20
105.0915452086759
 30
0.0
 10
322.6909130969995
 20
104.5974441617826
 30
0.0
 10
322.6975656199897
 20
104.3479287308995
 30
0.0
 10
322.6998082387
 20
104.2638150834
 30
0.0
 11
319.8548028724
 21
107.1138150834
 31
0.0
 11
320.1017668815
 21
107.1031049208
 31
0.0
 11
320.5824735385
 21
107.0194209351
 31
0.0
 11
320.9351101921
 21
106.9005128502
 31
0.0
 11
321.2715938969
 21
106.7366624374
 31
0.0
 11
321.580571421
 21
106.5320223544
 31
0.0
 11
321.8592586619
 21
106.2885958409
 31
0.0
 11
322.3155367664
 21
105.6966400177
 31
0.0
 11
322.6024972314
 21
105.0044078661
 31
0.0
 11
322.6887117303
 21
104.5158577565
 31
0.0
 11
322.6998082387
 21
104.2638150834
 31
0.0
  0
SPLINE
  5
2AB
330
1B
100
AcDbEntity
  8
0
  6
Continuous
 62
     7
100
AcDbSpline
210
0.0
220
0.0
230
1.0
 70
     8
 71
     3
 72
    23
 73
    19
 74
    17
 42
0.0000000001
 43
0.0000000001
 44
0.0000000001
 40
0.0
 40
0.0
 40
0.0
 40
0.0
 40
1.03099956058987
 40
2.050709380335
 40
3.070759650587241
 40
4.617336093527177
 40
6.175018876005156
 40
7.729712646189261
 40
9.269010671188754
 40
10.78626895722887
 40
12.30406585700807
 40
13.84482677923265
 40
15.40092968419298
 40
16.95902911097068
 40
18.50513501106977
 40
19.52450667094594
 40
20.54324965844854
 40
21.57296776691972
 40
21.57296776691972
 40
21.57296776691972
 40
21.57296776691972
 10
329.5524049191
 20
114.7178470651
 30
0.0
 10
329.305749918722
 20
114.4783148540123
 30
0.0
 10
328.8151408609525
 20
114.0018733782382
 30
0.0
 10
328.0156674048606
 20
113.3602954311358
 30
0.0
 10
327.0313006929739
 20
112.6805043590261
 30
0.0
 10
325.8277574340401
 20
112.0095228524705
 30
0.0
 10
324.392363704456
 20
111.4080378038572
 30
0.0
 10
322.8987492251568
 20
110.9789671143026
 30
0.0
 10
321.3803734004258
 20
110.7208418088212
 30
0.0
 10
319.8548432094355
 20
110.6331312888531
 30
0.0
 10
318.3288146211932
 20
110.7208284802936
 30
0.0
 10
316.8093471323885
 20
110.9793526174761
 30
0.0
 10
315.3147188272658
 20
111.4088773826068
 30
0.0
 10
313.8790253469691
 20
112.010838743311
 30
0.0
 10
312.675881179085
 20
112.6820295146444
 30
0.0
 10
311.6922295842105
 20
113.3616101359149
 30
0.0
 10
310.8935987403649
 20
114.0026725598109
 30
0.0
 10
310.4035419960502
 20
114.4786055882718
 30
0.0
 10
310.1572008257
 20
114.7178470651
 30
0.0
 11
329.5524049191
 21
114.7178470651
 31
0.0
 11
328.8014969377
 21
114.0113788794
 31
0.0
 11
328.0085547449
 21
113.3702464474
 31
0.0
 11
327.1687904237
 21
112.7911968479
 31
0.0
 11
325.8184568908
 21
112.0372087553
 31
0.0
 11
324.381309586
 21
111.4363899181
 31
0.0
 11
322.887411832
 21
111.0058760163
 31
0.0
 11
321.3698449191
 21
110.7481376322
 31
0.0
 11
319.8550210903
 21
110.6622221257
 31
0.0
 11
318.3396584308
 21
110.7481490666
 31
0.0
 11
316.8206745407
 21
111.0062811279
 31
0.0
 11
315.3254792386
 21
111.4373811852
 31
0.0
 11
313.8880752673
 21
112.0386661817
 31
0.0
 11
312.5383448494
 21
112.7927691278
 31
0.0
 11
311.6992536689
 21
113.3715994758
 31
0.0
 11
310.9071421618
 21
114.0122215445
 31
0.0
 11
310.1572008257
 21
114.7178470651
 31
0.0
  0
SPLINE
  5
2AC
330
1B
100
AcDbEntity
  8
0
  6
Continuous
 62
     7
100
AcDbSpline
210
0.0
220
0.0
230
1.0
 70
     8
 71
     3
 72
    10
 73
     6
 74
     4
 42
0.0000000001
 43
0.0000000001
 44
0.0000000001
 40
0.0
 40
0.0
 40
0.0
 40
0.0
 40
0.2706938028986376
 40
0.5396701405455362
 40
0.8077392304632706
 40
0.8077392304632706
 40
0.8077392304632706
 40
0.8077392304632706
 10
310.1572008257
 20
114.7178470651
 30
0.0
 10
310.2315059071376
 20
114.7690370441786
 30
0.0
 10
310.3796446281327
 20
114.8710922183571
 30
0.0
 10
310.6014718350997
 20
115.0236941440159
 30
0.0
 10
310.7498213879548
 20
115.1238896077879
 30
0.0
 10
310.8238708586
 20
115.173902708
 30
0.0
 11
310.1572008257
 21
114.7178470651
 31
0.0
 11
310.3801335326
 21
114.8713923129
 31
0.0
 11
310.6019372794
 21
115.0235480493
 31
0.0
 11
310.8238708586
 21
115.173902708
 31
0.0
  0
SPLINE
  5
2AD
330
1B
100
AcDbEntity
  8
0
  6
Continuous
 62
     7
100
AcDbSpline
210
0.0
220
0.0
230
1.0
 70
     8
 71
     3
 72
    10
 73
     6
 74
     4
 42
0.0000000001
 43
0.0000000001
 44
0.0000000001
 40
0.0
 40
0.0
 40
0.0
 40
0.0
 40
0.2706923021652687
 40
0.5396671596118943
 40
0.8077271588840952
 40
0.8077271588840952
 40
0.8077271588840952
 40
0.8077271588840952
 10
329.5524049191
 20
114.7178470651
 30
0.0
 10
329.4781003502872
 20
114.7690369095902
 30
0.0
 10
329.3299626482666
 20
114.8710918175281
 30
0.0
 10
329.1081368178855
 20
115.0236886027398
 30
0.0
 10
328.9597948610774
 20
115.12388899597
 30
0.0
 10
328.8857502356
 20
115.1739038451
 30
0.0
 11
329.5524049191
 21
114.7178470651
 31
0.0
 11
329.3294733738
 21
114.8713913537
 31
0.0
 11
329.1076707758
 21
115.0235461481
 31
0.0
 11
328.8857502356
 21
115.1739038451
 31
0.0
  0
SPLINE
  5
2AE
330
1B
100
AcDbEntity
  8
0
  6
Continuous
 62
     7
100
AcDbSpline
210
0.0
220
0.0
230
1.0
 70
     8
 71
     3
 72
    10
 73
     6
 74
     4
 42
0.0000000001
 43
0.0000000001
 44
0.0000000001
 40
0.0
 40
0.0
 40
0.0
 40
0.0
 40
0.2940076752067259
 40
0.5899518449418643
 40
0.8878440319293396
 40
0.8878440319293396
 40
0.8878440319293396
 40
0.8878440319293396
 10
307.0048028724
 20
129.3673426767
 30
0.0
 10
306.9197608978965
 20
129.4160496126431
 30
0.0
 10
306.7491168161709
 20
129.5137842949125
 30
0.0
 10
306.4925309778795
 20
129.6612598148249
 30
0.0
 10
306.3210674511376
 20
129.760167187689
 30
0.0
 10
306.2350544538
 20
129.8097831017
 30
0.0
 11
307.0048028724
 21
129.3673426767
 31
0.0
 11
306.7497138854
 21
129.5135279078
 31
0.0
 11
306.4931323129
 21
129.661002815
 31
0.0
 11
306.2350544538
 21
129.8097831017
 31
0.0
  0
ENDSEC
  0
SECTION
  2
OBJECTS
  0
DICTIONARY
  5
2AF
330
0
100
AcDbDictionary
281
     1
  3
ACAD_COLOR
350
2B9
  3
ACAD_GROUP
350
2B0
  3
ACAD_LAYOUT
350
2BC
  3
ACAD_MATERIAL
350
2B8
  3
ACAD_MLINESTYLE
350
2B1
  3
ACAD_PLOTSETTINGS
350
2BD
  3
ACAD_PLOTSTYLENAME
350
2B6
  3
ACAD_TABLESTYLE
350
2BA
  3
AcDbVariableDictionary
350
2C1
  0
DICTIONARY
  5
2B9
102
{ACAD_REACTORS
330
2AF
102
}
330
2AF
100
AcDbDictionary
281
     1
  0
DICTIONARY
  5
2B0
102
{ACAD_REACTORS
330
2AF
102
}
330
2AF
100
AcDbDictionary
281
     1
  0
DICTIONARY
  5
2BC
102
{ACAD_REACTORS
330
2AF
102
}
330
2AF
100
AcDbDictionary
281
     1
  3
Layout1
350
2BF
  3
Model
350
2BE
  0
DICTIONARY
  5
2B8
102
{ACAD_REACTORS
330
2AF
102
}
330
2AF
100
AcDbDictionary
281
     1
  0
DICTIONARY
  5
2B1
102
{ACAD_REACTORS
330
2AF
102
}
330
2AF
100
AcDbDictionary
281
     1
  3
STANDARD
350
2B2
  0
DICTIONARY
  5
2BD
102
{ACAD_REACTORS
330
2AF
102
}
330
2AF
100
AcDbDictionary
281
     1
  0
ACDBDICTIONARYWDFLT
  5
2B6
102
{ACAD_REACTORS
330
2AF
102
}
330
2AF
100
AcDbDictionary
281
     1
  3
Normal
350
2B7
100
AcDbDictionaryWithDefault
340
2B7
  0
DICTIONARY
  5
2BA
102
{ACAD_REACTORS
330
2AF
102
}
330
2AF
100
AcDbDictionary
281
     1
  3
Standard
350
2BB
  0
DICTIONARY
  5
2C1
102
{ACAD_REACTORS
330
2AF
102
}
330
2AF
100
AcDbDictionary
281
     1
  3
CTABLESTYLE
350
2C2
  0
LAYOUT
  5
2BF
102
{ACAD_REACTORS
330
2BC
102
}
330
2BC
100
AcDbPlotSettings
  1

  2
\\29vptc\CadJet 2
  4

  6

 40
0.0
 41
0.0
 42
0.0
 43
0.0
 44
0.0
 45
0.0
 46
0.0
 47
0.0
 48
0.0
 49
0.0
140
0.0
141
0.0
142
1.0
143
1.0
 70
   688
 72
     0
 73
     0
 74
     5
  7

 75
    16
147
1.0
 76
     0
 77
     2
 78
   300
148
0.0
149
0.0
100
AcDbLayout
  1
Layout1
 70
     1
 71
     1
 10
0.0
 20
0.0
 11
12.0
 21
9.0
 12
0.0
 22
0.0
 32
0.0
 14
1.000000000000000E+20
 24
1.000000000000000E+20
 34
1.000000000000000E+20
 15
-1.000000000000000E+20
 25
-1.000000000000000E+20
 35
-1.000000000000000E+20
146
0.0
 13
0.0
 23
0.0
 33
0.0
 16
1.0
 26
0.0
 36
0.0
 17
0.0
 27
1.0
 37
0.0
 76
     0
330
1C
  0
LAYOUT
  5
2BE
102
{ACAD_REACTORS
330
2BC
102
}
330
2BC
100
AcDbPlotSettings
  1

  2
\\29vptc\CadJet 2
  4

  6

 40
0.0
 41
0.0
 42
0.0
 43
0.0
 44
0.0
 45
0.0
 46
0.0
 47
0.0
 48
0.0
 49
0.0
140
0.0
141
0.0
142
1.0
143
1.0
 70
  1712
 72
     0
 73
     0
 74
     0
  7

 75
     0
147
1.0
 76
     0
 77
     2
 78
   300
148
0.0
149
0.0
100
AcDbLayout
  1
Model
 70
     1
 71
     0
 10
0.0
 20
0.0
 11
12.0
 21
9.0
 12
0.0
 22
0.0
 32
0.0
 14
0.0
 24
0.0
 34
0.0
 15
0.0
 25
0.0
 35
0.0
146
0.0
 13
0.0
 23
0.0
 33
0.0
 16
1.0
 26
0.0
 36
0.0
 17
0.0
 27
1.0
 37
0.0
 76
     0
330
1B
  0
MLINESTYLE
  5
2B2
102
{ACAD_REACTORS
330
2B1
102
}
330
2B1
100
AcDbMlineStyle
  2
STANDARD
 70
     0
  3

 62
   256
 51
90.0
 52
90.0
 71
     2
 49
0.5
 62
   256
  6
BYLAYER
 49
-0.5
 62
   256
  6
BYLAYER
  0
ACDBPLACEHOLDER
  5
2B7
102
{ACAD_REACTORS
330
2B6
102
}
330
2B6
  0
TABLESTYLE
  5
2BB
102
{ACAD_REACTORS
330
2BA
102
}
330
2BA
100
AcDbTableStyle
  3
Standard
 70
     0
 71
     0
 40
0.06
 41
0.06
280
     0
281
     0
  7
STANDARD
140
0.18
170
     2
 62
     0
 63
     7
283
     0
274
    -2
284
     1
 64
     0
275
    -2
285
     1
 65
     0
276
    -2
286
     1
 66
     0
277
    -2
287
     1
 67
     0
278
    -2
288
     1
 68
     0
279
    -2
289
     1
 69
     0
  7
STANDARD
140
0.25
170
     5
 62
     0
 63
     7
283
     0
274
    -2
284
     1
 64
     0
275
    -2
285
     1
 65
     0
276
    -2
286
     1
 66
     0
277
    -2
287
     1
 67
     0
278
    -2
288
     1
 68
     0
279
    -2
289
     1
 69
     0
  7
STANDARD
140
0.18
170
     5
 62
     0
 63
     7
283
     0
274
    -2
284
     1
 64
     0
275
    -2
285
     1
 65
     0
276
    -2
286
     1
 66
     0
277
    -2
287
     1
 67
     0
278
    -2
288
     1
 68
     0
279
    -2
289
     1
 69
     0
  0
DICTIONARYVAR
  5
2C2
102
{ACAD_REACTORS
330
2C1
102
}
330
2C1
100
DictionaryVariables
280
     0
  1
STANDARD
  0
ENDSEC
  0
EOF
