999
DXF file: 32400-50cat.dxf
999
Pro/ENGINEER 2016260 by Parametric Technology Corporation
  0
SECTION
  2
HEADER
  9
$ACADVER
  1
AC1027
  9
$DWGCODEPAGE
  3
ANSI_1252
  9
$EXTMAX
 10
210.0
 20
297.0
 30
0.0
  9
$EXTMIN
 10
0.0
 20
0.0
 30
0.0
  9
$LIMMIN
 10
0.0
 20
0.0
  9
$LIMMAX
 10
210.0
 20
297.0
  9
$VIEWCTR
 10
105.0
 20
148.5
  9
$VIEWSIZE
 40
297.0
  9
$CLAYER
  8
0
  9
$LTSCALE
 40
19.36
  9
$CELTYPE
  6
BYLAYER
  9
$DIMSCALE
 40
1.0
  9
$DIMASZ
 40
4.76
  9
$DIMEXO
 40
0.1
  9
$DIMDLI
 40
13.376
  9
$DIMEXE
 40
1.0
  9
$DIMCEN
 40
3.168
  9
$DIMLFAC
 40
1.0
  9
$DIMBLK
  1
_FILLED
  9
$DIMALT
 70
0
  9
$DIMALTF
 40
25.4
  9
$DIMTXT
 40
1.5
  9
$DIMTOL
 70
1
  9
$DIMLIM
 70
0
  9
$DIMTFAC
 40
1.0
  9
$DIMTP
 40
0.01
  9
$DIMTM
 40
0.01
  9
$DIMGAP
 40
0.625
  9
$DIMDSEP
 70
46
  9
$AUNITS
 70
0
  9
$PDMODE
 70
3
  9
$PDSIZE
 40
0.3125
  9
$HANDSEED
  5
2E9
  9
$TILEMODE
 70
1
  9
$MEASUREMENT
 70
1
  9
$INSUNITS
 70
4
  0
ENDSEC
  0
SECTION
  2
CLASSES
  0
CLASS
  1
ACDBDICTIONARYWDFLT
  2
AcDbDictionaryWithDefault
  3
AutoCAD 2000
 90
0
 91
1
280
0
281
0
  0
CLASS
  1
ACDBPLACEHOLDER
  2
AcDbPlaceHolder
  3
AutoCAD 2000
 90
0
 91
1
280
0
281
0
  0
CLASS
  1
LAYOUT
  2
AcDbLayout
  3
AutoCAD 2000
 90
0
 91
0
280
0
281
0
  0
ENDSEC
  0
SECTION
  2
TABLES
  0
TABLE
  2
VPORT
  5
8
100
AcDbSymbolTable
 70
2
  0
VPORT
  5
1F4
100
AcDbSymbolTableRecord
100
AcDbViewportTableRecord
  2
*ACTIVE
 70
0
 10
0.0
 20
0.0
 11
1.0
 21
1.0
 12
105.0
 22
148.5
 13
0.0
 23
0.0
 14
1.0
 24
1.0
 15
0.0
 25
0.0
 16
0.0
 26
0.0
 36
1.0
 17
0.0
 27
0.0
 37
0.0
 40
297.0
 41
0.7070707071
 42
50.0
 43
0.0
 44
0.0
 50
0.0
 51
0.0
 71
0
 72
100
 73
1
 74
1
 75
0
 76
0
 77
0
 78
0
  0
ENDTAB
  0
TABLE
  2
LTYPE
  5
5
100
AcDbSymbolTable
 70
6
  0
LTYPE
  5
14
100
AcDbSymbolTableRecord
100
AcDbLinetypeTableRecord
  2
BYBLOCK
 70
0
  3

 72
65
 73
0
 40
0.0
  0
LTYPE
  5
15
100
AcDbSymbolTableRecord
100
AcDbLinetypeTableRecord
  2
BYLAYER
 70
0
  3

 72
65
 73
0
 40
0.0
  0
LTYPE
  5
16
100
AcDbSymbolTableRecord
100
AcDbLinetypeTableRecord
  2
CONTINUOUS
 70
64
  3
Solid line
 72
65
 73
0
 40
0.0
  0
LTYPE
  5
1F5
100
AcDbSymbolTableRecord
100
AcDbLinetypeTableRecord
  2
CENTER
 70
64
  3
____ _ ____ _ ____ _ ____ _ ____ _ ____ _ ____
 72
65
 73
4
 40
0.6
 49
0.375
 74
0
 49
-0.075
 74
0
 49
0.075
 74
0
 49
-0.075
 74
0
  0
LTYPE
  5
1F6
100
AcDbSymbolTableRecord
100
AcDbLinetypeTableRecord
  2
HIDDEN
 70
64
  3
- - - - - - - - - - - - - - - - - - - -
 72
65
 73
2
 40
0.2
 49
0.1
 74
0
 49
-0.1
 74
0
  0
LTYPE
  5
1F7
100
AcDbSymbolTableRecord
100
AcDbLinetypeTableRecord
  2
PHANTOM
 70
64
  3
_____ _ _ _____ _ _ _____ _ _ _____
 72
65
 73
6
 40
0.8
 49
0.45
 74
0
 49
-0.05
 74
0
 49
0.1
 74
0
 49
-0.05
 74
0
 49
0.1
 74
0
 49
-0.05
 74
0
  0
LTYPE
  5
1F8
100
AcDbSymbolTableRecord
100
AcDbLinetypeTableRecord
  2
DOT
 70
64
  3
. . . . . . . . . . . . . . . . . . . .
 72
65
 73
2
 40
0.2
 49
0.1
 74
0
 49
-0.1
 74
0
  0
LTYPE
  5
1F9
100
AcDbSymbolTableRecord
100
AcDbLinetypeTableRecord
  2
DASHED
 70
64
  3
- - - - - - - - - - - - - - - - - - - -
 72
65
 73
2
 40
0.2
 49
0.1
 74
0
 49
-0.1
 74
0
  0
ENDTAB
  0
TABLE
  2
LAYER
  5
2
100
AcDbSymbolTable
 70
36
  0
LAYER
  5
10
100
AcDbSymbolTableRecord
100
AcDbLayerTableRecord
  2
0
 70
0
 62
7
  6
CONTINUOUS
370
-3
390
F
  0
LAYER
  5
1FA
100
AcDbSymbolTableRecord
100
AcDbLayerTableRecord
  2
DEFAULT_1
 70
0
 62
7
  6
CENTER
370
-3
390
F
  0
LAYER
  5
1FB
100
AcDbSymbolTableRecord
100
AcDbLayerTableRecord
  2
DEFAULT_2
 70
0
 62
8
  6
HIDDEN
370
-3
390
F
  0
LAYER
  5
1FC
100
AcDbSymbolTableRecord
100
AcDbLayerTableRecord
  2
DEFAULT_3
 70
0
 62
7
  6
PHANTOM
370
-3
390
F
  0
LAYER
  5
1FD
100
AcDbSymbolTableRecord
100
AcDbLayerTableRecord
  2
0_COMPONENTS
 70
0
 62
7
  6
CONTINUOUS
370
-3
390
F
  0
LAYER
  5
1FE
100
AcDbSymbolTableRecord
100
AcDbLayerTableRecord
  2
1_ALL_PLANES
 70
0
 62
7
  6
CONTINUOUS
370
-3
390
F
  0
LAYER
  5
1FF
100
AcDbSymbolTableRecord
100
AcDbLayerTableRecord
  2
1__DEF_ASM_PLN
 70
0
 62
7
  6
CONTINUOUS
370
-3
390
F
  0
LAYER
  5
200
100
AcDbSymbolTableRecord
100
AcDbLayerTableRecord
  2
1__DEF_PLANES
 70
0
 62
7
  6
CONTINUOUS
370
-3
390
F
  0
LAYER
  5
201
100
AcDbSymbolTableRecord
100
AcDbLayerTableRecord
  2
1__DRAFT_DIMS
 70
0
 62
7
  6
CONTINUOUS
370
-3
390
F
  0
LAYER
  5
202
100
AcDbSymbolTableRecord
100
AcDbLayerTableRecord
  2
2_ALL_CSYS
 70
0
 62
7
  6
CONTINUOUS
370
-3
390
F
  0
LAYER
  5
203
100
AcDbSymbolTableRecord
100
AcDbLayerTableRecord
  2
2_ALL_NOTES
 70
0
 62
7
  6
CONTINUOUS
370
-3
390
F
  0
LAYER
  5
204
100
AcDbSymbolTableRecord
100
AcDbLayerTableRecord
  2
2__DEF_ASM_CSYS
 70
0
 62
7
  6
CONTINUOUS
370
-3
390
F
  0
LAYER
  5
205
100
AcDbSymbolTableRecord
100
AcDbLayerTableRecord
  2
2__DEF_CSYS
 70
0
 62
7
  6
CONTINUOUS
370
-3
390
F
  0
LAYER
  5
206
100
AcDbSymbolTableRecord
100
AcDbLayerTableRecord
  2
3_ALL_AXES
 70
0
 62
7
  6
CONTINUOUS
370
-3
390
F
  0
LAYER
  5
207
100
AcDbSymbolTableRecord
100
AcDbLayerTableRecord
  2
4_ALL_POINTS
 70
0
 62
7
  6
CONTINUOUS
370
-3
390
F
  0
LAYER
  5
208
100
AcDbSymbolTableRecord
100
AcDbLayerTableRecord
  2
5_ALL_GTOLS(FREE)
 70
0
 62
7
  6
CONTINUOUS
370
-3
390
F
  0
LAYER
  5
209
100
AcDbSymbolTableRecord
100
AcDbLayerTableRecord
  2
6_ALL_SURFS
 70
0
 62
7
  6
CONTINUOUS
370
-3
390
F
  0
LAYER
  5
20A
100
AcDbSymbolTableRecord
100
AcDbLayerTableRecord
  2
CURVA
 70
0
 62
7
  6
CONTINUOUS
370
-3
390
F
  0
LAYER
  5
20B
100
AcDbSymbolTableRecord
100
AcDbLayerTableRecord
  2
CURVE
 70
0
 62
7
  6
CONTINUOUS
370
-3
390
F
  0
LAYER
  5
20C
100
AcDbSymbolTableRecord
100
AcDbLayerTableRecord
  2
GIANNI_CURVE
 70
0
 62
7
  6
CONTINUOUS
370
-3
390
F
  0
LAYER
  5
20D
100
AcDbSymbolTableRecord
100
AcDbLayerTableRecord
  2
PIANI
 70
0
 62
7
  6
CONTINUOUS
370
-3
390
F
  0
LAYER
  5
20E
100
AcDbSymbolTableRecord
100
AcDbLayerTableRecord
  2
XSEC_DATUMS
 70
0
 62
7
  6
CONTINUOUS
370
-3
390
F
  0
ENDTAB
  0
TABLE
  2
STYLE
  5
3
100
AcDbSymbolTable
 70
1
  0
STYLE
  5
11
100
AcDbSymbolTableRecord
100
AcDbTextStyleTableRecord
  2
STANDARD
 70
0
 40
0.0
 41
1.2
 50
0.0
 71
0
 42
0.2
  3
txt
  4

  0
STYLE
  5
20F
100
AcDbSymbolTableRecord
100
AcDbTextStyleTableRecord
  2
TEXTSTYLE_1
 70
0
 40
0.0
 41
0.8
 50
0.0
 71
0
 42
0.2
  3
gdt
  4

  0
ENDTAB
  0
TABLE
  2
VIEW
  5
6
100
AcDbSymbolTable
 70
0
  0
ENDTAB
  0
TABLE
  2
UCS
  5
7
100
AcDbSymbolTable
 70
0
  0
ENDTAB
  0
TABLE
  2
APPID
  5
9
100
AcDbSymbolTable
 70
1
  0
APPID
  5
210
100
AcDbSymbolTableRecord
100
AcDbRegAppTableRecord
  2
ACAD
 70
0
  0
ENDTAB
  0
TABLE
  2
BLOCK_RECORD
  5
1
100
AcDbSymbolTable
 70
0
  0
BLOCK_RECORD
  5
211
100
AcDbSymbolTableRecord
100
AcDbBlockTableRecord
  2
*Model_Space
  0
BLOCK_RECORD
  5
212
100
AcDbSymbolTableRecord
100
AcDbBlockTableRecord
  2
*Paper_Space
  0
BLOCK_RECORD
  5
213
100
AcDbSymbolTableRecord
100
AcDbBlockTableRecord
  2
_FILLED
  0
BLOCK_RECORD
  5
214
100
AcDbSymbolTableRecord
100
AcDbBlockTableRecord
  2
*D0
  0
BLOCK_RECORD
  5
215
100
AcDbSymbolTableRecord
100
AcDbBlockTableRecord
  2
*D1
  0
BLOCK_RECORD
  5
216
100
AcDbSymbolTableRecord
100
AcDbBlockTableRecord
  2
*D2
  0
BLOCK_RECORD
  5
217
100
AcDbSymbolTableRecord
100
AcDbBlockTableRecord
  2
*D3
  0
BLOCK_RECORD
  5
218
100
AcDbSymbolTableRecord
100
AcDbBlockTableRecord
  2
*D4
  0
ENDTAB
  0
TABLE
  2
DIMSTYLE
  5
A
100
AcDbSymbolTable
 70
1
100
AcDbDimStyleTable
 71
0
  0
DIMSTYLE
105
219
100
AcDbSymbolTableRecord
100
AcDbDimStyleTableRecord
  2
STANDARD
 70
0
  3

  4

 40
1.0
 41
4.76
 42
0.1
 43
0.38
 44
1.0
 45
0.0
 46
0.0
 47
0.01
 48
0.01
140
1.5
141
0.09
142
0.0
143
25.4
144
1.0
145
0.0
146
1.0
147
0.625
 71
1.0
 72
0.0
 73
0
 74
0
 75
0
 76
0
 77
1
 78
8
170
0
171
2
172
0
173
0
174
0
175
0
176
0
177
0
178
5
270
2
271
3
272
3
273
2
274
2
275
0
280
0
281
0
282
0
283
1
284
8
285
0
286
0
287
3
288
0
340
11
278
46
341
213
342
213
343
213
344
213
  0
DIMSTYLE
105
21A
100
AcDbSymbolTableRecord
100
AcDbDimStyleTableRecord
  2
DIMSTYLE_1
 70
0
  3

  4

 40
1.0
 41
4.76
 42
0.1
 43
0.38
 44
1.0
 45
0.0
 46
0.0
 47
0.01
 48
0.01
140
1.5
141
0.09
142
0.0
143
25.4
144
1.0
145
0.0
146
1.0
147
0.375
 71
0.0
 72
0.0
 73
0
 74
0
 75
0
 76
0
 77
1
 78
8
170
0
171
2
172
0
173
0
174
0
175
0
176
0
177
0
178
5
270
2
271
3
272
3
273
2
274
2
275
0
280
0
281
0
282
0
283
1
284
8
285
0
286
0
287
3
288
0
340
11
278
46
341
213
342
213
343
213
344
213
  0
ENDTAB
  0
ENDSEC
  0
SECTION
  2
BLOCKS
  0
BLOCK
  5
20
100
AcDbEntity
  8
0
100
AcDbBlockBegin
  2
*Model_Space
 70
0
 10
0.0
 20
0.0
 30
0.0
  3
*Model_Space
  1

  0
ENDBLK
  5
21
100
AcDbEntity
  8
0
100
AcDbBlockEnd
  0
BLOCK
  5
1C
100
AcDbEntity
  8
0
100
AcDbBlockBegin
  2
*Paper_Space
 70
0
 10
0.0
 20
0.0
 30
0.0
  3
*Paper_Space
  1

  0
ENDBLK
  5
1D
100
AcDbEntity
  8
0
100
AcDbBlockEnd
  0
BLOCK
  5
21B
100
AcDbEntity
  8
0
100
AcDbBlockBegin
  2
_FILLED
 70
64
 10
0.0
 20
0.0
  3
_FILLED
  1

  0
SOLID
  5
21C
100
AcDbEntity
  8
0
  6
BYBLOCK
 62
0
100
AcDbTrace
 10
0.0
 20
0.0
 11
-1.0
 21
0.1050420168
 12
-1.0
 22
-0.1050420168
 13
-1.0
 23
-0.1050420168
  0
ENDBLK
  5
21D
100
AcDbEntity
  8
0
  6
BYBLOCK
 62
0
100
AcDbBlockEnd
  0
BLOCK
  5
21E
100
AcDbEntity
  8
0
100
AcDbBlockBegin
 62
2
  6
CONTINUOUS
  2
*D0
 70
65
 10
0.0
 20
0.0
  3
*D0
  1

  0
MTEXT
  5
21F
100
AcDbEntity
  8
0
100
AcDbMText
 62
5
  6
CONTINUOUS
  7
STANDARD
 71
2
 72
1
 10
107.0448872978
 20
72.1327782805
 30
0.0
 11
1.0
 21
0.0
 31
0.0
 44
0.9
  1
19
 40
1.5
 41
6.9428571429
  0
LINE
  5
220
100
AcDbEntity
  8
0
100
AcDbLine
 62
2
  6
CONTINUOUS
 10
117.5825266087
 20
83.4353092525
 11
117.5825266087
 21
68.9899211376
  0
LINE
  5
221
100
AcDbEntity
  8
0
100
AcDbLine
 62
2
  6
CONTINUOUS
 10
98.5825266087
 20
83.4353092525
 11
98.5825266087
 21
68.9899211376
  0
LINE
  5
222
100
AcDbEntity
  8
0
100
AcDbLine
 62
2
  6
CONTINUOUS
 10
117.5825266087
 20
69.9899211376
 11
108.0825266087
 21
69.9899211376
  0
LINE
  5
223
100
AcDbEntity
  8
0
100
AcDbLine
 62
2
  6
CONTINUOUS
 10
98.5825266087
 20
69.9899211376
 11
108.0825266087
 21
69.9899211376
  0
INSERT
  5
224
100
AcDbEntity
  8
0
100
AcDbBlockReference
 62
2
  6
CONTINUOUS
  2
_FILLED
 10
117.5825266087
 20
69.9899211376
 41
4.76
 42
4.76
 43
4.76
  0
INSERT
  5
225
100
AcDbEntity
  8
0
100
AcDbBlockReference
 62
2
  6
CONTINUOUS
  2
_FILLED
 10
98.5825266087
 20
69.9899211376
 41
4.76
 42
4.76
 43
4.76
 50
180.0
  0
ENDBLK
  5
226
100
AcDbEntity
  8
0
  6
BYBLOCK
 62
0
100
AcDbBlockEnd
  0
BLOCK
  5
227
100
AcDbEntity
  8
0
100
AcDbBlockBegin
 62
2
  6
CONTINUOUS
  2
*D1
 70
65
 10
0.0
 20
0.0
  3
*D1
  1

  0
MTEXT
  5
228
100
AcDbEntity
  8
0
100
AcDbMText
 62
5
  6
CONTINUOUS
  7
STANDARD
 71
2
 72
1
 10
108.0825266087
 20
62.0898645717
 30
0.0
 11
1.0
 21
0.0
 31
0.0
 44
0.9
  1
38.5
 40
1.5
 41
13.8857142857
  0
LINE
  5
229
100
AcDbEntity
  8
0
100
AcDbLine
 62
2
  6
CONTINUOUS
 10
127.3325266087
 20
93.6853092525
 11
127.3325266087
 21
58.9470074289
  0
LINE
  5
22A
100
AcDbEntity
  8
0
100
AcDbLine
 62
2
  6
CONTINUOUS
 10
88.8325266087
 20
93.6853092525
 11
88.8325266087
 21
58.9470074289
  0
LINE
  5
22B
100
AcDbEntity
  8
0
100
AcDbLine
 62
2
  6
CONTINUOUS
 10
127.3325266087
 20
59.9470074289
 11
108.0825266087
 21
59.9470074289
  0
LINE
  5
22C
100
AcDbEntity
  8
0
100
AcDbLine
 62
2
  6
CONTINUOUS
 10
88.8325266087
 20
59.9470074289
 11
108.0825266087
 21
59.9470074289
  0
INSERT
  5
22D
100
AcDbEntity
  8
0
100
AcDbBlockReference
 62
2
  6
CONTINUOUS
  2
_FILLED
 10
127.3325266087
 20
59.9470074289
 41
4.76
 42
4.76
 43
4.76
  0
INSERT
  5
22E
100
AcDbEntity
  8
0
100
AcDbBlockReference
 62
2
  6
CONTINUOUS
  2
_FILLED
 10
88.8325266087
 20
59.9470074289
 41
4.76
 42
4.76
 43
4.76
 50
180.0
  0
ENDBLK
  5
22F
100
AcDbEntity
  8
0
  6
BYBLOCK
 62
0
100
AcDbBlockEnd
  0
BLOCK
  5
230
100
AcDbEntity
  8
0
100
AcDbBlockBegin
 62
2
  6
CONTINUOUS
  2
*D2
 70
65
 10
0.0
 20
0.0
  3
*D2
  1

  0
MTEXT
  5
231
100
AcDbEntity
  8
0
100
AcDbMText
 62
5
  6
CONTINUOUS
  7
STANDARD
 71
2
 72
1
 10
166.8237317037
 20
114.6652810506
 30
0.0
 11
0.0
 21
1.0
 31
0.0
 44
0.9
  1
41.5
 40
1.5
 41
13.8857142857
  0
LINE
  5
232
100
AcDbEntity
  8
0
100
AcDbLine
 62
2
  6
CONTINUOUS
 10
126.1046210281
 20
83.5353092525
 11
169.9665888466
 21
83.5353092525
  0
LINE
  5
233
100
AcDbEntity
  8
0
100
AcDbLine
 62
2
  6
CONTINUOUS
 10
142.6075266087
 20
125.0353092525
 11
169.9665888466
 21
125.0353092525
  0
LINE
  5
234
100
AcDbEntity
  8
0
100
AcDbLine
 62
2
  6
CONTINUOUS
 10
168.9665888466
 20
83.5353092525
 11
168.9665888466
 21
104.2853092525
  0
LINE
  5
235
100
AcDbEntity
  8
0
100
AcDbLine
 62
2
  6
CONTINUOUS
 10
168.9665888466
 20
125.0353092525
 11
168.9665888466
 21
104.2853092525
  0
INSERT
  5
236
100
AcDbEntity
  8
0
100
AcDbBlockReference
 62
2
  6
CONTINUOUS
  2
_FILLED
 10
168.9665888466
 20
83.5353092525
 41
4.76
 42
4.76
 43
4.76
 50
270.0
  0
INSERT
  5
237
100
AcDbEntity
  8
0
100
AcDbBlockReference
 62
2
  6
CONTINUOUS
  2
_FILLED
 10
168.9665888466
 20
125.0353092525
 41
4.76
 42
4.76
 43
4.76
 50
90.0
  0
ENDBLK
  5
238
100
AcDbEntity
  8
0
  6
BYBLOCK
 62
0
100
AcDbBlockEnd
  0
BLOCK
  5
239
100
AcDbEntity
  8
0
100
AcDbBlockBegin
 62
2
  6
CONTINUOUS
  2
*D3
 70
65
 10
0.0
 20
0.0
  3
*D3
  1

  0
MTEXT
  5
23A
100
AcDbEntity
  8
0
100
AcDbMText
 62
5
  6
CONTINUOUS
  7
STANDARD
 71
2
 72
1
 10
176.6789046292
 20
121.7853092525
 30
0.0
 11
0.0
 21
1.0
 31
0.0
 44
0.9
  1
76.5
 40
1.5
 41
13.8857142857
  0
LINE
  5
23B
100
AcDbEntity
  8
0
100
AcDbLine
 62
2
  6
CONTINUOUS
 10
143.1075266087
 20
160.0353092525
 11
179.821761772
 21
160.0353092525
  0
LINE
  5
23C
100
AcDbEntity
  8
0
100
AcDbLine
 62
2
  6
CONTINUOUS
 10
126.1046210281
 20
83.5353092525
 11
179.821761772
 21
83.5353092525
  0
LINE
  5
23D
100
AcDbEntity
  8
0
100
AcDbLine
 62
2
  6
CONTINUOUS
 10
178.821761772
 20
160.0353092525
 11
178.821761772
 21
121.7853092525
  0
LINE
  5
23E
100
AcDbEntity
  8
0
100
AcDbLine
 62
2
  6
CONTINUOUS
 10
178.821761772
 20
83.5353092525
 11
178.821761772
 21
121.7853092525
  0
INSERT
  5
23F
100
AcDbEntity
  8
0
100
AcDbBlockReference
 62
2
  6
CONTINUOUS
  2
_FILLED
 10
178.821761772
 20
160.0353092525
 41
4.76
 42
4.76
 43
4.76
 50
90.0
  0
INSERT
  5
240
100
AcDbEntity
  8
0
100
AcDbBlockReference
 62
2
  6
CONTINUOUS
  2
_FILLED
 10
178.821761772
 20
83.5353092525
 41
4.76
 42
4.76
 43
4.76
 50
270.0
  0
ENDBLK
  5
241
100
AcDbEntity
  8
0
  6
BYBLOCK
 62
0
100
AcDbBlockEnd
  0
BLOCK
  5
242
100
AcDbEntity
  8
0
100
AcDbBlockBegin
 62
2
  6
CONTINUOUS
  2
*D4
 70
65
 10
0.0
 20
0.0
  3
*D4
  1

  0
MTEXT
  5
243
100
AcDbEntity
  8
0
100
AcDbMText
 62
5
  6
CONTINUOUS
  7
STANDARD
 71
2
 72
1
 10
108.0825266087
 20
51.1801188333
 30
0.0
 11
1.0
 21
0.0
 31
0.0
 44
0.9
  1
69.85
 40
1.5
 41
17.3571428571
  0
LINE
  5
244
100
AcDbEntity
  8
0
100
AcDbLine
 62
2
  6
CONTINUOUS
 10
143.0075266087
 20
125.4353092525
 11
143.0075266087
 21
48.0372616905
  0
LINE
  5
245
100
AcDbEntity
  8
0
100
AcDbLine
 62
2
  6
CONTINUOUS
 10
73.1575266087
 20
125.4353092525
 11
73.1575266087
 21
48.0372616905
  0
LINE
  5
246
100
AcDbEntity
  8
0
100
AcDbLine
 62
2
  6
CONTINUOUS
 10
143.0075266087
 20
49.0372616905
 11
108.0825266087
 21
49.0372616905
  0
LINE
  5
247
100
AcDbEntity
  8
0
100
AcDbLine
 62
2
  6
CONTINUOUS
 10
73.1575266087
 20
49.0372616905
 11
108.0825266087
 21
49.0372616905
  0
INSERT
  5
248
100
AcDbEntity
  8
0
100
AcDbBlockReference
 62
2
  6
CONTINUOUS
  2
_FILLED
 10
143.0075266087
 20
49.0372616905
 41
4.76
 42
4.76
 43
4.76
  0
INSERT
  5
249
100
AcDbEntity
  8
0
100
AcDbBlockReference
 62
2
  6
CONTINUOUS
  2
_FILLED
 10
73.1575266087
 20
49.0372616905
 41
4.76
 42
4.76
 43
4.76
 50
180.0
  0
ENDBLK
  5
24A
100
AcDbEntity
  8
0
  6
BYBLOCK
 62
0
100
AcDbBlockEnd
  0
ENDSEC
  0
SECTION
  2
ENTITIES
  0
DIMENSION
  5
24B
100
AcDbEntity
  8
0
100
AcDbDimension
 62
2
  6
CONTINUOUS
  2
*D0
 10
98.5825266087
 20
69.9899211376
 11
106.9484555664
 21
69.9899211376
 70
160
 71
2
 42
19.0
  3
DIMSTYLE_1
100
AcDbAlignedDimension
 13
117.5825266087
 23
83.5353092525
 14
98.5825266087
 24
83.5353092525
 50
180.0
100
AcDbRotatedDimension
  0
DIMENSION
  5
24C
100
AcDbEntity
  8
0
100
AcDbDimension
 62
2
  6
CONTINUOUS
  2
*D1
 10
88.8325266087
 20
59.9470074289
 11
107.6968100586
 21
59.9470074289
 70
160
 71
2
 42
38.5
  3
DIMSTYLE_1
100
AcDbAlignedDimension
 13
127.3325266087
 23
93.7853092525
 14
88.8325266087
 24
93.7853092525
 50
180.0
100
AcDbRotatedDimension
  0
DIMENSION
  5
24D
100
AcDbEntity
  8
0
100
AcDbDimension
 62
2
  6
CONTINUOUS
  2
*D2
 10
168.9665888466
 20
125.0353092525
 11
168.9665888466
 21
114.2795648324
 70
160
 71
2
 42
41.5
  3
DIMSTYLE_1
100
AcDbAlignedDimension
 13
126.0046210281
 23
83.5353092525
 14
142.5075266087
 24
125.0353092525
 50
90.0
100
AcDbRotatedDimension
  0
DIMENSION
  5
24E
100
AcDbEntity
  8
0
100
AcDbDimension
 62
2
  6
CONTINUOUS
  2
*D3
 10
178.821761772
 20
83.5353092525
 11
178.821761772
 21
121.3995929604
 70
160
 71
2
 42
76.5
  3
DIMSTYLE_1
100
AcDbAlignedDimension
 13
143.0075266087
 23
160.0353092525
 14
126.0046210281
 24
83.5353092525
 50
270.0
100
AcDbRotatedDimension
  0
DIMENSION
  5
24F
100
AcDbEntity
  8
0
100
AcDbDimension
 62
2
  6
CONTINUOUS
  2
*D4
 10
73.1575266087
 20
49.0372616905
 11
107.6968154297
 21
49.0372616905
 70
160
 71
2
 42
69.85
  3
DIMSTYLE_1
100
AcDbAlignedDimension
 13
143.0075266087
 23
125.5353092525
 14
73.1575266087
 24
125.5353092525
 50
180.0
100
AcDbRotatedDimension
  0
LINE
  5
250
100
AcDbEntity
  8
0
100
AcDbLine
 62
7
  6
CONTINUOUS
 10
0.0
 20
0.0
 11
210.0
 21
0.0
  0
LINE
  5
251
100
AcDbEntity
  8
0
100
AcDbLine
 62
7
  6
CONTINUOUS
 10
0.0
 20
0.0
 11
0.0
 21
297.0
  0
LINE
  5
252
100
AcDbEntity
  8
0
100
AcDbLine
 62
7
  6
CONTINUOUS
 10
210.0
 20
0.0
 11
210.0
 21
297.0
  0
LINE
  5
253
100
AcDbEntity
  8
0
100
AcDbLine
 62
7
  6
CONTINUOUS
 10
0.0
 20
297.0
 11
210.0
 21
297.0
  0
LINE
  5
254
100
AcDbEntity
  8
0
100
AcDbLine
 62
7
  6
CONTINUOUS
 10
126.0046209889
 20
83.5353092525
 11
90.1604322286
 21
83.5353092525
  0
LINE
  5
255
100
AcDbEntity
  8
0
100
AcDbLine
 62
7
  6
CONTINUOUS
 10
89.9006246069
 20
83.6853092522
 11
126.2644286106
 21
83.6853092522
  0
LINE
  5
256
100
AcDbEntity
  8
0
100
AcDbLine
 62
7
  6
CONTINUOUS
 10
88.8325266087
 20
85.5353092525
 11
127.3325266087
 21
85.5353092525
  0
LINE
  5
257
100
AcDbEntity
  8
0
100
AcDbLine
 62
7
  6
CONTINUOUS
 10
88.8325266087
 20
89.2853092525
 11
127.3325266087
 21
89.2853092525
  0
LINE
  5
258
100
AcDbEntity
  8
0
100
AcDbLine
 62
7
  6
CONTINUOUS
 10
89.0825266087
 20
89.5353092525
 11
127.0825266087
 21
89.5353092525
  0
LINE
  5
259
100
AcDbEntity
  8
0
100
AcDbLine
 62
7
  6
CONTINUOUS
 10
89.0825266087
 20
93.5353092525
 11
127.0825266087
 21
93.5353092525
  0
LINE
  5
25A
100
AcDbEntity
  8
0
100
AcDbLine
 62
7
  6
CONTINUOUS
 10
88.8325266087
 20
93.7853092525
 11
127.3325266087
 21
93.7853092525
  0
LINE
  5
25B
100
AcDbEntity
  8
0
100
AcDbLine
 62
7
  6
CONTINUOUS
 10
88.8325266087
 20
97.7853092525
 11
127.3325266087
 21
97.7853092525
  0
LINE
  5
25C
100
AcDbEntity
  8
0
100
AcDbLine
 62
7
  6
CONTINUOUS
 10
89.0825266087
 20
98.0353092525
 11
127.0825266087
 21
98.0353092525
  0
LINE
  5
25D
100
AcDbEntity
  8
0
100
AcDbLine
 62
7
  6
CONTINUOUS
 10
89.0825266087
 20
102.0353092525
 11
127.0825266087
 21
102.0353092525
  0
LINE
  5
25E
100
AcDbEntity
  8
0
100
AcDbLine
 62
7
  6
CONTINUOUS
 10
88.8325266087
 20
102.2853092525
 11
127.3325266087
 21
102.2853092525
  0
LINE
  5
25F
100
AcDbEntity
  8
0
100
AcDbLine
 62
7
  6
CONTINUOUS
 10
88.8325266087
 20
93.7853092525
 11
89.0825266087
 21
93.5353092525
  0
LINE
  5
260
100
AcDbEntity
  8
0
100
AcDbLine
 62
7
  6
CONTINUOUS
 10
88.6825266087
 20
106.3351017143
 11
127.4825266087
 21
106.3351017143
  0
LINE
  5
261
100
AcDbEntity
  8
0
100
AcDbLine
 62
7
  6
CONTINUOUS
 10
88.6825266087
 20
110.5353092525
 11
127.4825266087
 21
110.5353092525
  0
LINE
  5
262
100
AcDbEntity
  8
0
100
AcDbLine
 62
7
  6
CONTINUOUS
 10
89.1825553436
 20
111.0353092525
 11
126.9824978739
 21
111.0353092525
  0
LINE
  5
263
100
AcDbEntity
  8
0
100
AcDbLine
 62
7
  6
CONTINUOUS
 10
88.8325266087
 20
102.2853092525
 11
89.0825266087
 21
102.0353092525
  0
LINE
  5
264
100
AcDbEntity
  8
0
100
AcDbLine
 62
7
  6
CONTINUOUS
 10
88.8325266087
 20
85.5353092525
 11
89.9006246069
 21
83.6853092522
  0
LINE
  5
265
100
AcDbEntity
  8
0
100
AcDbLine
 62
7
  6
CONTINUOUS
 10
73.1575266087
 20
125.5353092525
 11
73.6575266087
 21
125.0353092525
  0
LINE
  5
266
100
AcDbEntity
  8
0
100
AcDbLine
 62
7
  6
CONTINUOUS
 10
58.8725266087
 20
141.7853092525
 11
59.6725266087
 21
140.9853092525
  0
LINE
  5
267
100
AcDbEntity
  8
0
100
AcDbLine
 62
7
  6
CONTINUOUS
 10
58.8725266087
 20
156.0603092525
 11
58.8725266087
 21
152.4225326459
  0
LINE
  5
268
100
AcDbEntity
  8
0
100
AcDbLine
 62
7
  6
CONTINUOUS
 10
58.8725266087
 20
145.3730858591
 11
58.8725266087
 21
141.7853092525
  0
LINE
  5
269
100
AcDbEntity
  8
0
100
AcDbLine
 62
2
  6
CONTINUOUS
 10
90.5825266087
 20
120.3353092525
 11
90.6397249162
 21
120.3353092525
  0
LINE
  5
26A
100
AcDbEntity
  8
0
100
AcDbLine
 62
7
  6
CONTINUOUS
 10
125.4987217353
 20
121.0353092525
 11
90.7056787027
 21
121.0353092525
  0
LINE
  5
26B
100
AcDbEntity
  8
0
100
AcDbLine
 62
7
  6
CONTINUOUS
 10
90.9505993234
 20
121.4683219544
 11
125.2498591409
 21
121.4683219544
  0
LINE
  5
26C
100
AcDbEntity
  8
0
100
AcDbLine
 62
2
  6
CONTINUOUS
 10
90.5825266087
 20
124.3353092525
 11
90.8567759244
 21
124.3353092525
  0
LINE
  5
26D
100
AcDbEntity
  8
0
100
AcDbLine
 62
2
  6
CONTINUOUS
 10
125.3325266087
 20
124.3353092525
 11
125.5825266087
 21
124.3353092525
  0
LINE
  5
26E
100
AcDbEntity
  8
0
100
AcDbLine
 62
7
  6
CONTINUOUS
 10
142.5075266087
 20
125.0353092525
 11
73.6575266087
 21
125.0353092525
  0
LINE
  5
26F
100
AcDbEntity
  8
0
100
AcDbLine
 62
7
  6
CONTINUOUS
 10
143.0075266087
 20
125.5353092525
 11
73.1575266087
 21
125.5353092525
  0
LINE
  5
270
100
AcDbEntity
  8
0
100
AcDbLine
 62
7
  6
CONTINUOUS
 10
62.5825266087
 20
147.4228092525
 11
62.5825266087
 21
150.3728092525
  0
LINE
  5
271
100
AcDbEntity
  8
0
100
AcDbLine
 62
7
  6
CONTINUOUS
 10
61.7299313445
 20
150.7728092525
 11
58.8725266087
 21
152.4225326459
  0
LINE
  5
272
100
AcDbEntity
  8
0
100
AcDbLine
 62
7
  6
CONTINUOUS
 10
127.0825266087
 20
89.5353092525
 11
127.3325266087
 21
89.2853092525
  0
LINE
  5
273
100
AcDbEntity
  8
0
100
AcDbLine
 62
7
  6
CONTINUOUS
 10
73.1575266087
 20
140.9853092525
 11
73.1575266087
 21
125.5353092525
  0
LINE
  5
274
100
AcDbEntity
  8
0
100
AcDbLine
 62
7
  6
CONTINUOUS
 10
73.4325266087
 20
159.0353092525
 11
73.4325266087
 21
157.2603092525
  0
LINE
  5
275
100
AcDbEntity
  8
0
100
AcDbLine
 62
7
  6
CONTINUOUS
 10
127.0825266087
 20
98.0353092525
 11
127.3325266087
 21
97.7853092525
  0
LINE
  5
276
100
AcDbEntity
  8
0
100
AcDbLine
 62
7
  6
CONTINUOUS
 10
73.1575266087
 20
160.0353092525
 11
73.4325266087
 21
159.0353092525
  0
LINE
  5
277
100
AcDbEntity
  8
0
100
AcDbLine
 62
7
  6
CONTINUOUS
 10
87.724750089
 20
259.9239256541
 11
73.1575266087
 21
160.0353092525
  0
LINE
  5
278
100
AcDbEntity
  8
0
100
AcDbLine
 62
7
  6
CONTINUOUS
 10
59.6725266087
 20
140.9853092525
 11
156.4925266087
 21
140.9853092525
  0
LINE
  5
279
100
AcDbEntity
  8
0
100
AcDbLine
 62
7
  6
CONTINUOUS
 10
157.2925266087
 20
141.7853092525
 11
121.9967198541
 21
141.7853092525
  0
LINE
  5
27A
100
AcDbEntity
  8
0
100
AcDbLine
 62
7
  6
CONTINUOUS
 10
94.1683333634
 20
141.7853092525
 11
58.8725266087
 21
141.7853092525
  0
LINE
  5
27B
100
AcDbEntity
  8
0
100
AcDbLine
 62
7
  6
CONTINUOUS
 10
157.2925266087
 20
145.3730858591
 11
121.9967198541
 21
145.3730858591
  0
LINE
  5
27C
100
AcDbEntity
  8
0
100
AcDbLine
 62
7
  6
CONTINUOUS
 10
94.1683333634
 20
145.3730858591
 11
58.8725266087
 21
145.3730858591
  0
LINE
  5
27D
100
AcDbEntity
  8
0
100
AcDbLine
 62
7
  6
CONTINUOUS
 10
126.9825266087
 20
111.0353092525
 11
127.4825266087
 21
110.5353092525
  0
LINE
  5
27E
100
AcDbEntity
  8
0
100
AcDbLine
 62
7
  6
CONTINUOUS
 10
59.6725266087
 20
156.8603092525
 11
58.8725266087
 21
156.0603092525
  0
LINE
  5
27F
100
AcDbEntity
  8
0
100
AcDbLine
 62
7
  6
CONTINUOUS
 10
61.7299313447
 20
147.0228092525
 11
95.1275266087
 21
147.0228092525
  0
LINE
  5
280
100
AcDbEntity
  8
0
100
AcDbLine
 62
7
  6
CONTINUOUS
 10
121.0375266087
 20
147.0228092525
 11
154.435121872
 21
147.0228092525
  0
LINE
  5
281
100
AcDbEntity
  8
0
100
AcDbLine
 62
7
  6
CONTINUOUS
 10
62.5825266087
 20
147.4228092525
 11
95.1275266087
 21
147.4228092525
  0
LINE
  5
282
100
AcDbEntity
  8
0
100
AcDbLine
 62
7
  6
CONTINUOUS
 10
121.0375266087
 20
147.4228092525
 11
153.5825266087
 21
147.4228092525
  0
LINE
  5
283
100
AcDbEntity
  8
0
100
AcDbLine
 62
7
  6
CONTINUOUS
 10
153.5825266087
 20
150.3728092525
 11
121.0375266087
 21
150.3728092525
  0
LINE
  5
284
100
AcDbEntity
  8
0
100
AcDbLine
 62
7
  6
CONTINUOUS
 10
95.1275266087
 20
150.3728092525
 11
62.5825266087
 21
150.3728092525
  0
LINE
  5
285
100
AcDbEntity
  8
0
100
AcDbLine
 62
7
  6
CONTINUOUS
 10
154.435121872
 20
150.7728092525
 11
121.0375266087
 21
150.7728092525
  0
LINE
  5
286
100
AcDbEntity
  8
0
100
AcDbLine
 62
7
  6
CONTINUOUS
 10
95.1275266087
 20
150.7728092525
 11
61.7299313447
 21
150.7728092525
  0
LINE
  5
287
100
AcDbEntity
  8
0
100
AcDbLine
 62
7
  6
CONTINUOUS
 10
58.8725266087
 20
152.4225326459
 11
94.1683333634
 21
152.4225326459
  0
LINE
  5
288
100
AcDbEntity
  8
0
100
AcDbLine
 62
7
  6
CONTINUOUS
 10
121.9967198541
 20
152.4225326459
 11
157.2925266087
 21
152.4225326459
  0
LINE
  5
289
100
AcDbEntity
  8
0
100
AcDbLine
 62
7
  6
CONTINUOUS
 10
94.3275266087
 20
156.8603092525
 11
96.1275266087
 21
155.0603092525
  0
LINE
  5
28A
100
AcDbEntity
  8
0
100
AcDbLine
 62
7
  6
CONTINUOUS
 10
88.6825266087
 20
110.5353092525
 11
88.6825266087
 21
106.3351017143
  0
LINE
  5
28B
100
AcDbEntity
  8
0
100
AcDbLine
 62
7
  6
CONTINUOUS
 10
88.8325266087
 20
106.3351017143
 11
88.8325266087
 21
102.2853092525
  0
LINE
  5
28C
100
AcDbEntity
  8
0
100
AcDbLine
 62
7
  6
CONTINUOUS
 10
88.8325266087
 20
97.7853092525
 11
88.8325266087
 21
93.7853092525
  0
LINE
  5
28D
100
AcDbEntity
  8
0
100
AcDbLine
 62
7
  6
CONTINUOUS
 10
88.8325266087
 20
89.2853092525
 11
88.8325266087
 21
85.5353092525
  0
LINE
  5
28E
100
AcDbEntity
  8
0
100
AcDbLine
 62
7
  6
CONTINUOUS
 10
89.0825266087
 20
102.0353092525
 11
89.0825266087
 21
98.0353092525
  0
LINE
  5
28F
100
AcDbEntity
  8
0
100
AcDbLine
 62
7
  6
CONTINUOUS
 10
89.0825266087
 20
93.5353092525
 11
89.0825266087
 21
89.5353092525
  0
LINE
  5
290
100
AcDbEntity
  8
0
100
AcDbLine
 62
7
  6
CONTINUOUS
 10
90.5825266087
 20
119.8853092525
 11
90.5825266087
 21
111.0353092525
  0
LINE
  5
291
100
AcDbEntity
  8
0
100
AcDbLine
 62
7
  6
CONTINUOUS
 10
90.8325266087
 20
124.5353092525
 11
90.8325266087
 21
125.0353092525
  0
LINE
  5
292
100
AcDbEntity
  8
0
100
AcDbLine
 62
7
  6
CONTINUOUS
 10
94.1683333634
 20
156.0603092525
 11
94.1683333634
 21
152.4225326459
  0
LINE
  5
293
100
AcDbEntity
  8
0
100
AcDbLine
 62
7
  6
CONTINUOUS
 10
94.1683333634
 20
145.3730858591
 11
94.1683333634
 21
141.7853092525
  0
LINE
  5
294
100
AcDbEntity
  8
0
100
AcDbLine
 62
7
  6
CONTINUOUS
 10
95.1275266087
 20
141.7853092525
 11
95.1275266087
 21
156.0603092525
  0
LINE
  5
295
100
AcDbEntity
  8
0
100
AcDbLine
 62
7
  6
CONTINUOUS
 10
58.8725266087
 20
156.0603092525
 11
94.1683333634
 21
156.0603092525
  0
LINE
  5
296
100
AcDbEntity
  8
0
100
AcDbLine
 62
7
  6
CONTINUOUS
 10
121.9967198541
 20
156.0603092525
 11
157.2925266087
 21
156.0603092525
  0
LINE
  5
297
100
AcDbEntity
  8
0
100
AcDbLine
 62
7
  6
CONTINUOUS
 10
59.6725266087
 20
156.8603092525
 11
156.4925266087
 21
156.8603092525
  0
LINE
  5
298
100
AcDbEntity
  8
0
100
AcDbLine
 62
7
  6
CONTINUOUS
 10
142.7325266087
 20
157.2603092525
 11
73.4325266087
 21
157.2603092525
  0
LINE
  5
299
100
AcDbEntity
  8
0
100
AcDbLine
 62
7
  6
CONTINUOUS
 10
73.4325266087
 20
159.0353092525
 11
142.7325266087
 21
159.0353092525
  0
LINE
  5
29A
100
AcDbEntity
  8
0
100
AcDbLine
 62
7
  6
CONTINUOUS
 10
96.1275266087
 20
142.7853092525
 11
96.1275266087
 21
155.0603092525
  0
LINE
  5
29B
100
AcDbEntity
  8
0_COMPONENTS
100
AcDbLine
 62
8
  6
HIDDEN
 10
98.5825266087
 20
83.5353092525
 11
98.5825266087
 21
99.0353092525
  0
LINE
  5
29C
100
AcDbEntity
  8
0
100
AcDbLine
 62
7
  6
CONTINUOUS
 10
73.1575266087
 20
160.0353092525
 11
143.0075266087
 21
160.0353092525
  0
LINE
  5
29D
100
AcDbEntity
  8
0
100
AcDbLine
 62
7
  6
CONTINUOUS
 10
120.0375266087
 20
142.7853092525
 11
121.8375266087
 21
140.9853092525
  0
LINE
  5
29E
100
AcDbEntity
  8
DEFAULT_1
100
AcDbLine
 62
7
  6
CENTER
 10
108.0825266087
 20
267.6353092525
 11
108.0825266087
 21
77.5353092525
  0
LINE
  5
29F
100
AcDbEntity
  8
0
100
AcDbLine
 62
7
  6
CONTINUOUS
 10
58.8725266087
 20
145.3730858591
 11
61.7299313445
 21
147.0228092525
  0
LINE
  5
2A0
100
AcDbEntity
  8
0
100
AcDbLine
 62
7
  6
CONTINUOUS
 10
157.2925266087
 20
145.3730858591
 11
154.4351218729
 21
147.0228092525
  0
LINE
  5
2A1
100
AcDbEntity
  8
0_COMPONENTS
100
AcDbLine
 62
8
  6
HIDDEN
 10
117.5825266087
 20
83.5353092525
 11
117.5825266087
 21
99.0353092525
  0
LINE
  5
2A2
100
AcDbEntity
  8
0
100
AcDbLine
 62
7
  6
CONTINUOUS
 10
120.0375266087
 20
142.7853092525
 11
120.0375266087
 21
155.0603092525
  0
LINE
  5
2A3
100
AcDbEntity
  8
0
100
AcDbLine
 62
7
  6
CONTINUOUS
 10
121.0375266087
 20
141.7853092525
 11
121.0375266087
 21
156.0603092525
  0
LINE
  5
2A4
100
AcDbEntity
  8
0
100
AcDbLine
 62
7
  6
CONTINUOUS
 10
121.9967198541
 20
156.0603092525
 11
121.9967198541
 21
152.4225326459
  0
LINE
  5
2A5
100
AcDbEntity
  8
0
100
AcDbLine
 62
7
  6
CONTINUOUS
 10
121.9967198541
 20
145.3730858591
 11
121.9967198541
 21
141.7853092525
  0
LINE
  5
2A6
100
AcDbEntity
  8
0
100
AcDbLine
 62
7
  6
CONTINUOUS
 10
94.3275266087
 20
140.9853092525
 11
96.1275266087
 21
142.7853092525
  0
LINE
  5
2A7
100
AcDbEntity
  8
0
100
AcDbLine
 62
7
  6
CONTINUOUS
 10
125.3325266087
 20
124.2353092525
 11
125.3325266087
 21
125.0353092525
  0
LINE
  5
2A8
100
AcDbEntity
  8
0
100
AcDbLine
 62
7
  6
CONTINUOUS
 10
125.5825266087
 20
120.1853092525
 11
125.5825266087
 21
111.0353092525
  0
LINE
  5
2A9
100
AcDbEntity
  8
0
100
AcDbLine
 62
7
  6
CONTINUOUS
 10
127.0825266087
 20
102.0353092525
 11
127.0825266087
 21
98.0353092525
  0
LINE
  5
2AA
100
AcDbEntity
  8
0
100
AcDbLine
 62
7
  6
CONTINUOUS
 10
127.0825266087
 20
93.5353092525
 11
127.0825266087
 21
89.5353092525
  0
LINE
  5
2AB
100
AcDbEntity
  8
0
100
AcDbLine
 62
7
  6
CONTINUOUS
 10
127.3325266087
 20
106.3351017143
 11
127.3325266087
 21
102.2853092525
  0
LINE
  5
2AC
100
AcDbEntity
  8
0
100
AcDbLine
 62
7
  6
CONTINUOUS
 10
127.3325266087
 20
97.7853092525
 11
127.3325266087
 21
93.7853092525
  0
LINE
  5
2AD
100
AcDbEntity
  8
0
100
AcDbLine
 62
7
  6
CONTINUOUS
 10
127.3325266087
 20
89.2853092525
 11
127.3325266087
 21
85.5353092525
  0
LINE
  5
2AE
100
AcDbEntity
  8
0
100
AcDbLine
 62
7
  6
CONTINUOUS
 10
127.4825266087
 20
110.5353092525
 11
127.4825266087
 21
106.3351017143
  0
LINE
  5
2AF
100
AcDbEntity
  8
0
100
AcDbLine
 62
7
  6
CONTINUOUS
 10
120.0375266087
 20
155.0603092525
 11
121.8375266087
 21
156.8603092525
  0
LINE
  5
2B0
100
AcDbEntity
  8
0
100
AcDbLine
 62
7
  6
CONTINUOUS
 10
156.4925266087
 20
156.8603092525
 11
157.2925266087
 21
156.0603092525
  0
LINE
  5
2B1
100
AcDbEntity
  8
0
100
AcDbLine
 62
7
  6
CONTINUOUS
 10
142.7325266087
 20
159.0353092525
 11
142.7325266087
 21
157.2603092525
  0
LINE
  5
2B2
100
AcDbEntity
  8
0
100
AcDbLine
 62
7
  6
CONTINUOUS
 10
89.1825266087
 20
111.0353092525
 11
88.6825266087
 21
110.5353092525
  0
LINE
  5
2B3
100
AcDbEntity
  8
0
100
AcDbLine
 62
7
  6
CONTINUOUS
 10
128.4403031284
 20
259.9239256541
 11
143.0075266087
 21
160.0353092525
  0
LINE
  5
2B4
100
AcDbEntity
  8
0
100
AcDbLine
 62
7
  6
CONTINUOUS
 10
143.0075266087
 20
140.9853092525
 11
143.0075266087
 21
125.5353092525
  0
LINE
  5
2B5
100
AcDbEntity
  8
0
100
AcDbLine
 62
7
  6
CONTINUOUS
 10
143.0075266087
 20
160.0353092525
 11
142.7325266087
 21
159.0353092525
  0
LINE
  5
2B6
100
AcDbEntity
  8
0
100
AcDbLine
 62
7
  6
CONTINUOUS
 10
89.0825266087
 20
98.0353092525
 11
88.8325266087
 21
97.7853092525
  0
LINE
  5
2B7
100
AcDbEntity
  8
0
100
AcDbLine
 62
7
  6
CONTINUOUS
 10
153.5825266087
 20
147.4228092525
 11
153.5825266087
 21
150.3728092525
  0
LINE
  5
2B8
100
AcDbEntity
  8
0
100
AcDbLine
 62
7
  6
CONTINUOUS
 10
89.0825266087
 20
89.5353092525
 11
88.8325266087
 21
89.2853092525
  0
LINE
  5
2B9
100
AcDbEntity
  8
0
100
AcDbLine
 62
7
  6
CONTINUOUS
 10
154.4351218729
 20
150.7728092525
 11
157.2925266087
 21
152.4225326459
  0
LINE
  5
2BA
100
AcDbEntity
  8
0
100
AcDbLine
 62
7
  6
CONTINUOUS
 10
157.2925266087
 20
156.0603092525
 11
157.2925266087
 21
152.4225326459
  0
LINE
  5
2BB
100
AcDbEntity
  8
0
100
AcDbLine
 62
7
  6
CONTINUOUS
 10
157.2925266087
 20
145.3730858591
 11
157.2925266087
 21
141.7853092525
  0
LINE
  5
2BC
100
AcDbEntity
  8
0
100
AcDbLine
 62
7
  6
CONTINUOUS
 10
127.3325266087
 20
85.5353092525
 11
126.2644286106
 21
83.6853092522
  0
LINE
  5
2BD
100
AcDbEntity
  8
0
100
AcDbLine
 62
7
  6
CONTINUOUS
 10
157.2925266087
 20
141.7853092525
 11
156.4925266087
 21
140.9853092525
  0
LINE
  5
2BE
100
AcDbEntity
  8
0
100
AcDbLine
 62
7
  6
CONTINUOUS
 10
143.0075266087
 20
125.5353092525
 11
142.5075266087
 21
125.0353092525
  0
LINE
  5
2BF
100
AcDbEntity
  8
0
100
AcDbLine
 62
7
  6
CONTINUOUS
 10
127.3325266087
 20
102.2853092525
 11
127.0825266087
 21
102.0353092525
  0
LINE
  5
2C0
100
AcDbEntity
  8
0
100
AcDbLine
 62
7
  6
CONTINUOUS
 10
127.3325266087
 20
93.7853092525
 11
127.0825266087
 21
93.5353092525
  0
LINE
  5
2C1
100
AcDbEntity
  8
0
100
AcDbLine
 62
7
  6
CONTINUOUS
 10
87.724750089
 20
259.923925654
 11
128.4403031284
 21
259.923925654
  0
LINE
  5
2C2
100
AcDbEntity
  8
0
100
AcDbLine
 62
7
  6
CONTINUOUS
 10
126.4612373906
 20
261.6353092525
 11
89.7038158269
 21
261.6353092525
  0
ARC
  5
2C3
100
AcDbEntity
  8
0
100
AcDbCircle
 62
7
  6
CONTINUOUS
 10
266.90183437
 20
-16.6701827912
 40
244.2799321509
100
AcDbArc
 50
134.8414150393
 51
135.0004990415
  0
ARC
  5
2C4
100
AcDbEntity
  8
0
100
AcDbCircle
 62
7
  6
CONTINUOUS
 10
-50.7367811473
 20
-16.670182786
 40
244.2799321436
100
AcDbArc
 50
44.9995009585
 51
45.1585849607
  0
ARC
  5
2C5
100
AcDbEntity
  8
0
100
AcDbCircle
 62
7
  6
CONTINUOUS
 10
266.9018343596
 20
314.5158012858
 40
244.2799321362
100
AcDbArc
 50
224.9995009585
 51
225.1585849607
  0
ARC
  5
2C6
100
AcDbEntity
  8
0
100
AcDbCircle
 62
7
  6
CONTINUOUS
 10
-50.736781137
 20
314.5158012806
 40
244.2799321289
100
AcDbArc
 50
314.8414150393
 51
315.0004990415
  0
ARC
  5
2C7
100
AcDbEntity
  8
0
100
AcDbCircle
 62
7
  6
CONTINUOUS
 10
207.6356066035
 20
348.9412296282
 40
226.9238206099
100
AcDbArc
 50
239.998436428
 51
240.2777010447
  0
ARC
  5
2C8
100
AcDbEntity
  8
0
100
AcDbCircle
 62
7
  6
CONTINUOUS
 10
207.6356066035
 20
-51.1456111232
 40
226.9238206099
100
AcDbArc
 50
119.7222989553
 51
120.001563572
  0
ARC
  5
2C9
100
AcDbEntity
  8
0
100
AcDbCircle
 62
7
  6
CONTINUOUS
 10
8.5294470418
 20
348.9412288078
 40
226.9238196855
100
AcDbArc
 50
299.7222989642
 51
300.001563582
  0
ARC
  5
2CA
100
AcDbEntity
  8
0
100
AcDbCircle
 62
7
  6
CONTINUOUS
 10
8.5294470418
 20
-51.1456103028
 40
226.9238196855
100
AcDbArc
 50
59.998436418
 51
60.2777010358
  0
ARC
  5
2CB
100
AcDbEntity
  8
0
100
AcDbCircle
 62
7
  6
CONTINUOUS
 10
158.5950766092
 20
140.3445835428
 40
38.3173169671
100
AcDbArc
 50
209.5135938872
 51
210.2603988821
  0
ARC
  5
2CC
100
AcDbEntity
  8
0
100
AcDbCircle
 62
7
  6
CONTINUOUS
 10
58.6514592551
 20
139.4515874405
 40
36.9679900277
100
AcDbArc
 50
330.1211150591
 51
330.8921525331
  0
ARC
  5
2CD
100
AcDbEntity
  8
0
100
AcDbCircle
 62
7
  6
CONTINUOUS
 10
143.1997824411
 20
122.352285325
 40
17.7500274734
100
AcDbArc
 50
185.8445051321
 51
186.9868034979
  0
ARC
  5
2CE
100
AcDbEntity
  8
0
100
AcDbCircle
 62
7
  6
CONTINUOUS
 10
143.1816584168
 20
122.3485821259
 40
17.731644506
100
AcDbArc
 50
184.2474156728
 51
185.1147270476
  0
ARC
  5
2CF
100
AcDbEntity
  8
0
100
AcDbCircle
 62
7
  6
CONTINUOUS
 10
73.1000814752
 20
122.3404569931
 40
17.6539127221
100
AcDbArc
 50
355.2006635174
 51
355.7602831969
  0
ARC
  5
2D0
100
AcDbEntity
  8
0
100
AcDbCircle
 62
7
  6
CONTINUOUS
 10
73.1126736451
 20
122.3377703896
 40
17.6411399991
100
AcDbArc
 50
353.0037484937
 51
355.2059368683
  0
ARC
  5
2D1
100
AcDbEntity
  8
0
100
AcDbCircle
 62
7
  6
CONTINUOUS
 10
73.1948407032
 20
122.32615052
 40
17.5581694617
100
AcDbArc
 50
352.041076971
 51
353.008725
  0
ARC
  5
2D2
100
AcDbEntity
  8
0
100
AcDbCircle
 62
7
  6
CONTINUOUS
 10
142.9685579033
 20
122.3300237764
 40
17.5177380446
100
AcDbArc
 50
185.1164066446
 51
185.8490826622
  0
ARC
  5
2D3
100
AcDbEntity
  8
0
100
AcDbCircle
 62
7
  6
CONTINUOUS
 10
73.5422951084
 20
122.3360009814
 40
17.4299145877
100
AcDbArc
 50
357.1465779609
 51
359.9977261422
  0
ARC
  5
2D4
100
AcDbEntity
  8
0
100
AcDbCircle
 62
7
  6
CONTINUOUS
 10
142.5850288993
 20
122.3339040423
 40
17.3568831423
100
AcDbArc
 50
176.3038584158
 51
179.9953613437
  0
ARC
  5
2D5
100
AcDbEntity
  8
0
100
AcDbCircle
 62
7
  6
CONTINUOUS
 10
142.5692095506
 20
122.3358432469
 40
17.3410637449
100
AcDbArc
 50
180.0017643452
 51
182.8675325646
  0
CIRCLE
  5
2D6
100
AcDbEntity
  8
0
100
AcDbCircle
 62
7
  6
CONTINUOUS
 10
108.0825266087
 20
148.8603092525
 40
4.7625
  0
ARC
  5
2D7
100
AcDbEntity
  8
0
100
AcDbCircle
 62
7
  6
CONTINUOUS
 10
89.7038156698
 20
259.6353092525
 40
2.0
100
AcDbArc
 50
89.9999954982
 51
171.702779312
  0
ARC
  5
2D8
100
AcDbEntity
  8
0
100
AcDbCircle
 62
7
  6
CONTINUOUS
 10
126.4612375477
 20
259.6353092525
 40
2.0
100
AcDbArc
 50
8.297220688
 51
90.0000045018
  0
ARC
  5
2D9
100
AcDbEntity
  8
0
100
AcDbCircle
 62
7
  6
CONTINUOUS
 10
73.0325266087
 20
157.2603092525
 40
0.4
100
AcDbArc
 50
270.0000007353
 51
360.0
  0
ARC
  5
2DA
100
AcDbEntity
  8
0
100
AcDbCircle
 62
7
  6
CONTINUOUS
 10
143.1325266087
 20
157.2603092525
 40
0.4
100
AcDbArc
 50
180.0
 51
269.9999992647
  0
ARC
  5
2DB
100
AcDbEntity
  8
0
100
AcDbCircle
 62
7
  6
CONTINUOUS
 10
62.1825266087
 20
147.4228092525
 40
0.4
100
AcDbArc
 50
270.0
 51
360.0
  0
ARC
  5
2DC
100
AcDbEntity
  8
0
100
AcDbCircle
 62
7
  6
CONTINUOUS
 10
153.9825266087
 20
147.4228092525
 40
0.4
100
AcDbArc
 50
180.0
 51
270.0
  0
ARC
  5
2DD
100
AcDbEntity
  8
0
100
AcDbCircle
 62
7
  6
CONTINUOUS
 10
62.1825266087
 20
150.3728092525
 40
0.4
100
AcDbArc
 50
0.0
 51
90.0
  0
ARC
  5
2DE
100
AcDbEntity
  8
0
100
AcDbCircle
 62
7
  6
CONTINUOUS
 10
153.9825266087
 20
150.3728092525
 40
0.4
100
AcDbArc
 50
90.0
 51
180.0
  0
ARC
  5
2DF
100
AcDbEntity
  8
0
100
AcDbCircle
 62
7
  6
CONTINUOUS
 10
90.1604322279
 20
83.8353092525
 40
0.3
100
AcDbArc
 50
210.0000000702
 51
270.0000001339
  0
ARC
  5
2E0
100
AcDbEntity
  8
0
100
AcDbCircle
 62
7
  6
CONTINUOUS
 10
126.0046209896
 20
83.8353092525
 40
0.3
100
AcDbArc
 50
269.9999998661
 51
329.9999999298
  0
SPLINE
  5
2E1
100
AcDbEntity
  8
0
100
AcDbSpline
 62
2
  6
CONTINUOUS
 70
0
 71
3
 72
36
 73
32
 74
0
 42
0.0000001
 43
0.0000001
 44
0.0000000001
 40
0.0
 40
0.0
 40
0.0
 40
0.0
 40
0.0344827586
 40
0.0689655172
 40
0.1034482759
 40
0.1379310345
 40
0.1724137931
 40
0.2068965517
 40
0.2413793103
 40
0.275862069
 40
0.3103448276
 40
0.3448275862
 40
0.3793103448
 40
0.4137931034
 40
0.4482758621
 40
0.4827586207
 40
0.5172413793
 40
0.5517241379
 40
0.5862068966
 40
0.6206896552
 40
0.6551724138
 40
0.6896551724
 40
0.724137931
 40
0.7586206897
 40
0.7931034483
 40
0.8275862069
 40
0.8620689655
 40
0.8965517241
 40
0.9310344828
 40
0.9655172414
 40
1.0
 40
1.0
 40
1.0
 40
1.0
 10
125.5825266087
 20
124.3353092525
 30
0.0
 10
125.5825171657
 20
124.3353092525
 30
0.0
 10
125.581639396
 20
124.3275305293
 30
0.0
 10
125.5776718478
 20
124.2925594203
 30
0.0
 10
125.5712761339
 20
124.2347563216
 30
0.0
 10
125.562709155
 20
124.1545088281
 30
0.0
 10
125.5523990587
 20
124.053030537
 30
0.0
 10
125.540771519
 20
123.930931999
 30
0.0
 10
125.5284378446
 20
123.7903792112
 30
0.0
 10
125.5159042875
 20
123.6321348871
 30
0.0
 10
125.5038522416
 20
123.4592998064
 30
0.0
 10
125.4927636373
 20
123.2726431752
 30
0.0
 10
125.4832477582
 20
123.0760103315
 30
0.0
 10
125.4756683754
 20
122.8700143859
 30
0.0
 10
125.4704395109
 20
122.6589577656
 30
0.0
 10
125.467752269
 20
122.4432431357
 30
0.0
 10
125.4677522677
 20
122.2273755466
 30
0.0
 10
125.4704395084
 20
122.0116608813
 30
0.0
 10
125.4756683691
 20
121.8006043183
 30
0.0
 10
125.483247754
 20
121.5946082752
 30
0.0
 10
125.4927636265
 20
121.3979755301
 30
0.0
 10
125.5038522374
 20
121.2113187621
 30
0.0
 10
125.5159042743
 20
121.0384837951
 30
0.0
 10
125.5284378417
 20
120.880239327
 30
0.0
 10
125.5407715072
 20
120.7396866357
 30
0.0
 10
125.5523990573
 20
120.6175879808
 30
0.0
 10
125.5627091476
 20
120.5161097478
 30
0.0
 10
125.5712761336
 20
120.4358621853
 30
0.0
 10
125.5776718456
 20
120.3780591046
 30
0.0
 10
125.5816393962
 20
120.3430879727
 30
0.0
 10
125.5825171658
 20
120.3353092525
 30
0.0
 10
125.5825266087
 20
120.3353092525
 30
0.0
  0
SPLINE
  5
2E2
100
AcDbEntity
  8
0
100
AcDbSpline
 62
2
  6
CONTINUOUS
 70
0
 71
3
 72
36
 73
32
 74
0
 42
0.0000001
 43
0.0000001
 44
0.0000000001
 40
0.0
 40
0.0
 40
0.0
 40
0.0
 40
0.0344827586
 40
0.0689655172
 40
0.1034482759
 40
0.1379310345
 40
0.1724137931
 40
0.2068965517
 40
0.2413793103
 40
0.275862069
 40
0.3103448276
 40
0.3448275862
 40
0.3793103448
 40
0.4137931034
 40
0.4482758621
 40
0.4827586207
 40
0.5172413793
 40
0.5517241379
 40
0.5862068966
 40
0.6206896552
 40
0.6551724138
 40
0.6896551724
 40
0.724137931
 40
0.7586206897
 40
0.7931034483
 40
0.8275862069
 40
0.8620689655
 40
0.8965517241
 40
0.9310344828
 40
0.9655172414
 40
1.0
 40
1.0
 40
1.0
 40
1.0
 10
90.5825266087
 20
120.3353092525
 30
0.0
 10
90.5825360518
 20
120.3353092525
 30
0.0
 10
90.5834138215
 20
120.3430879758
 30
0.0
 10
90.5873813697
 20
120.3780590848
 30
0.0
 10
90.5937770836
 20
120.4358621835
 30
0.0
 10
90.6023440625
 20
120.5161096769
 30
0.0
 10
90.6126541588
 20
120.6175879681
 30
0.0
 10
90.6242816985
 20
120.7396865061
 30
0.0
 10
90.6366153729
 20
120.8802392938
 30
0.0
 10
90.64914893
 20
121.038483618
 30
0.0
 10
90.6612009759
 20
121.2113186986
 30
0.0
 10
90.6722895801
 20
121.3979753298
 30
0.0
 10
90.6818054593
 20
121.5946081736
 30
0.0
 10
90.6893848421
 20
121.8006041192
 30
0.0
 10
90.6946137066
 20
122.0116607394
 30
0.0
 10
90.6973009485
 20
122.2273753694
 30
0.0
 10
90.6973009498
 20
122.4432429585
 30
0.0
 10
90.6946137091
 20
122.6589576237
 30
0.0
 10
90.6893848484
 20
122.8700141867
 30
0.0
 10
90.6818054635
 20
123.0760102299
 30
0.0
 10
90.672289591
 20
123.2726429749
 30
0.0
 10
90.6612009801
 20
123.4592997429
 30
0.0
 10
90.6491489432
 20
123.63213471
 30
0.0
 10
90.6366153758
 20
123.7903791781
 30
0.0
 10
90.6242817103
 20
123.9309318693
 30
0.0
 10
90.6126541602
 20
124.0530305243
 30
0.0
 10
90.6023440699
 20
124.1545087572
 30
0.0
 10
90.5937770839
 20
124.2347563197
 30
0.0
 10
90.5873813719
 20
124.2925594004
 30
0.0
 10
90.5834138213
 20
124.3275305323
 30
0.0
 10
90.5825360517
 20
124.3353092525
 30
0.0
 10
90.5825266087
 20
124.3353092525
 30
0.0
  0
LINE
  5
2E3
100
AcDbEntity
  8
0
100
AcDbLine
 62
7
  6
CONTINUOUS
 10
125.5825266087
 20
120.1853092525
 11
125.5815632184
 21
120.1931589449
  0
SPLINE
  5
2E4
100
AcDbEntity
  8
0
100
AcDbSpline
 62
7
  6
CONTINUOUS
 70
0
 71
3
 72
13
 73
9
 74
0
 42
0.0000001
 43
0.0000001
 44
0.0000000001
 40
0.0
 40
0.0
 40
0.0
 40
0.0
 40
0.0169601362
 40
0.0673315597
 40
0.1503455342
 40
0.2648683978
 40
0.5816374919
 40
1.0
 40
1.0
 40
1.0
 40
1.0
 10
125.3325266087
 20
124.2353092525
 30
0.0
 10
125.3325266087
 20
124.2308683837
 30
0.0
 10
125.3294081847
 20
124.2134100286
 30
0.0
 10
125.3263412126
 20
124.1742053165
 30
0.0
 10
125.3189258272
 20
124.1096828561
 30
0.0
 10
125.3057735237
 20
123.9756759414
 30
0.0
 10
125.2854373845
 20
123.7541150518
 30
0.0
 10
125.2713058719
 20
123.5621345053
 30
0.0
 10
125.2642487379
 20
123.4528173611
 30
0.0
  0
LINE
  5
2E5
100
AcDbEntity
  8
0
100
AcDbLine
 62
7
  6
CONTINUOUS
 10
90.5838827022
 20
119.8949917008
 11
90.5825267084
 21
119.8853086957
  0
SPLINE
  5
2E6
100
AcDbEntity
  8
0
100
AcDbSpline
 62
7
  6
CONTINUOUS
 70
0
 71
3
 72
15
 73
11
 74
0
 42
0.0000001
 43
0.0000001
 44
0.0000000001
 40
0.0
 40
0.0
 40
0.0
 40
0.0
 40
0.3817038163
 40
0.7061408699
 40
0.8308316103
 40
0.923489979
 40
0.9567323507
 40
0.9807211194
 40
0.9951706472
 40
1.0
 40
1.0
 40
1.0
 40
1.0
 10
90.9722096824
 20
122.3353092525
 30
0.0
 10
90.9722098886
 20
122.6159597077
 30
0.0
 10
90.9597040369
 20
123.1347336097
 30
0.0
 10
90.9174097883
 20
123.7459542462
 30
0.0
 10
90.8788889177
 20
124.1400090566
 30
0.0
 10
90.8581003141
 20
124.3270858871
 30
0.0
 10
90.8453806945
 20
124.4309738455
 30
0.0
 10
90.8383302916
 20
124.4925969045
 30
0.0
 10
90.8354305557
 20
124.5076055707
 30
0.0
 10
90.8325266087
 20
124.5388600687
 30
0.0
 10
90.8325266087
 20
124.5353092525
 30
0.0
  0
ENDSEC
  0
SECTION
  2
OBJECTS
  0
DICTIONARY
  5
C
100
AcDbDictionary
280
0
281
1
  3
ACAD_GROUP
350
D
  3
ACAD_MLINESTYLE
350
17
  3
ACAD_LAYOUT
350
1A
  3
ACAD_PLOTSETTINGS
350
19
  3
ACAD_PLOTSTYLENAME
350
E
  0
DICTIONARY
  5
D
102
{ACAD_REACTORS
330
C
102
}
100
AcDbDictionary
280
0
281
1
  0
ACDBDICTIONARYWDFLT
  5
E
102
{ACAD_REACTORS
330
C
102
}
100
AcDbDictionary
281
1
  3
Normal
350
F
100
AcDbDictionaryWithDefault
340
F
  0
DICTIONARY
  5
17
102
{ACAD_REACTORS
330
C
102
}
100
AcDbDictionary
280
0
281
1
  3
Standard
350
18
  0
DICTIONARY
  5
19
102
{ACAD_REACTORS
330
C
102
}
100
AcDbDictionary
281
1
  0
DICTIONARY
  5
1A
102
{ACAD_REACTORS
330
C
102
}
100
AcDbDictionary
281
1
  3
Model
350
2E7
  3
Layout1
350
2E8
  0
ACDBPLACEHOLDER
  5
F
102
{ACAD_REACTORS
330
E
102
}
  0
MLINESTYLE
  5
18
102
{ACAD_REACTORS
330
17
102
}
100
AcDbMlineStyle
  2
STANDARD
 70
0
  3

 62
256
 51
90.0
 52
90.0
 71
2
 49
0.5
 62
256
  6
BYLAYER
 49
-0.5
 62
256
  6
BYLAYER
  0
LAYOUT
  5
2E7
102
{ACAD_REACTORS
330
1A
102
}
100
AcDbPlotSettings
  1

  2
none_device
  4

  6

 40
0.0
 41
0.0
 42
0.0
 43
0.0
 44
210.0
 45
297.0
 46
0.0
 47
0.0
 48
0.0
 49
0.0
140
0.0
141
0.0
142
1.0
143
1.0
 70
1024
 72
1
 73
0
 74
0
  7

 75
0
147
1.0
148
0.0
149
0.0
100
AcDbLayout
  1
Model
 70
0
 71
0
 10
0.0
 20
0.0
 11
210.0
 21
297.0
 12
0.0
 22
0.0
 32
0.0
 14
0.0
 24
0.0
 34
0.0
 15
0.0
 25
0.0
 35
0.0
146
0.0
 13
0.0
 23
0.0
 33
0.0
 16
1.0
 26
0.0
 36
0.0
 17
0.0
 27
1.0
 37
0.0
 76
0
330
211
345
0
346
0
  0
LAYOUT
  5
2E8
102
{ACAD_REACTORS
330
1A
102
}
100
AcDbPlotSettings
  1

  2
none_device
  4

  6

 40
0.0
 41
0.0
 42
0.0
 43
0.0
 44
210.0
 45
297.0
 46
0.0
 47
0.0
 48
0.0
 49
0.0
140
0.0
141
0.0
142
1.0
143
1.0
 70
0
 72
1
 73
0
 74
0
  7

 75
0
147
1.0
148
0.0
149
0.0
100
AcDbLayout
  1
Layout1
 70
0
 71
1
 10
0.0
 20
0.0
 11
210.0
 21
297.0
 12
0.0
 22
0.0
 32
0.0
 14
0.0
 24
0.0
 34
0.0
 15
0.0
 25
0.0
 35
0.0
146
0.0
 13
0.0
 23
0.0
 33
0.0
 16
1.0
 26
0.0
 36
0.0
 17
0.0
 27
1.0
 37
0.0
 76
0
330
212
345
0
346
0
  0
ENDSEC
  0
EOF
