999
DXF file: 334663_m3-12.dxf
999
Pro/ENGINEER 2016050 by Parametric Technology Corporation
  0
SECTION
  2
HEADER
  9
$ACADVER
  1
AC1027
  9
$DWGCODEPAGE
  3
ANSI_1252
  9
$EXTMAX
 10
210.0
 20
297.0
 30
0.0
  9
$EXTMIN
 10
0.0
 20
0.0
 30
0.0
  9
$LIMMIN
 10
0.0
 20
0.0
  9
$LIMMAX
 10
210.0
 20
297.0
  9
$VIEWCTR
 10
105.0
 20
148.5
  9
$VIEWSIZE
 40
297.0
  9
$CLAYER
  8
0
  9
$LTSCALE
 40
19.36
  9
$CELTYPE
  6
BYLAYER
  9
$DIMSCALE
 40
1.0
  9
$DIMASZ
 40
4.76
  9
$DIMEXO
 40
0.1
  9
$DIMDLI
 40
13.376
  9
$DIMEXE
 40
1.0
  9
$DIMCEN
 40
3.168
  9
$DIMLFAC
 40
1.0
  9
$DIMBLK
  1
_FILLED
  9
$DIMALT
 70
0
  9
$DIMALTF
 40
0.0393700787
  9
$DIMTXT
 40
3.0
  9
$DIMTOL
 70
1
  9
$DIMLIM
 70
0
  9
$DIMTFAC
 40
1.0
  9
$DIMTP
 40
0.001
  9
$DIMTM
 40
0.001
  9
$DIMGAP
 40
0.625
  9
$DIMDSEP
 70
46
  9
$AUNITS
 70
0
  9
$PDMODE
 70
3
  9
$PDSIZE
 40
0.3125
  9
$HANDSEED
  5
2C7
  9
$TILEMODE
 70
1
  9
$MEASUREMENT
 70
1
  9
$INSUNITS
 70
4
  0
ENDSEC
  0
SECTION
  2
CLASSES
  0
CLASS
  1
ACDBDICTIONARYWDFLT
  2
AcDbDictionaryWithDefault
  3
AutoCAD 2000
 90
0
 91
1
280
0
281
0
  0
CLASS
  1
ACDBPLACEHOLDER
  2
AcDbPlaceHolder
  3
AutoCAD 2000
 90
0
 91
1
280
0
281
0
  0
CLASS
  1
LAYOUT
  2
AcDbLayout
  3
AutoCAD 2000
 90
0
 91
0
280
0
281
0
  0
ENDSEC
  0
SECTION
  2
TABLES
  0
TABLE
  2
VPORT
  5
8
100
AcDbSymbolTable
 70
2
  0
VPORT
  5
1F4
100
AcDbSymbolTableRecord
100
AcDbViewportTableRecord
  2
*ACTIVE
 70
0
 10
0.0
 20
0.0
 11
1.0
 21
1.0
 12
105.0
 22
148.5
 13
0.0
 23
0.0
 14
1.0
 24
1.0
 15
0.0
 25
0.0
 16
0.0
 26
0.0
 36
1.0
 17
0.0
 27
0.0
 37
0.0
 40
297.0
 41
0.7070707071
 42
50.0
 43
0.0
 44
0.0
 50
0.0
 51
0.0
 71
0
 72
100
 73
1
 74
1
 75
0
 76
0
 77
0
 78
0
  0
ENDTAB
  0
TABLE
  2
LTYPE
  5
5
100
AcDbSymbolTable
 70
6
  0
LTYPE
  5
14
100
AcDbSymbolTableRecord
100
AcDbLinetypeTableRecord
  2
BYBLOCK
 70
0
  3

 72
65
 73
0
 40
0.0
  0
LTYPE
  5
15
100
AcDbSymbolTableRecord
100
AcDbLinetypeTableRecord
  2
BYLAYER
 70
0
  3

 72
65
 73
0
 40
0.0
  0
LTYPE
  5
16
100
AcDbSymbolTableRecord
100
AcDbLinetypeTableRecord
  2
CONTINUOUS
 70
64
  3
Solid line
 72
65
 73
0
 40
0.0
  0
LTYPE
  5
1F5
100
AcDbSymbolTableRecord
100
AcDbLinetypeTableRecord
  2
CENTER
 70
64
  3
____ _ ____ _ ____ _ ____ _ ____ _ ____ _ ____
 72
65
 73
4
 40
0.6
 49
0.375
 74
0
 49
-0.075
 74
0
 49
0.075
 74
0
 49
-0.075
 74
0
  0
LTYPE
  5
1F6
100
AcDbSymbolTableRecord
100
AcDbLinetypeTableRecord
  2
HIDDEN
 70
64
  3
- - - - - - - - - - - - - - - - - - - -
 72
65
 73
2
 40
0.2
 49
0.1
 74
0
 49
-0.1
 74
0
  0
LTYPE
  5
1F7
100
AcDbSymbolTableRecord
100
AcDbLinetypeTableRecord
  2
PHANTOM
 70
64
  3
_____ _ _ _____ _ _ _____ _ _ _____
 72
65
 73
6
 40
0.8
 49
0.45
 74
0
 49
-0.05
 74
0
 49
0.1
 74
0
 49
-0.05
 74
0
 49
0.1
 74
0
 49
-0.05
 74
0
  0
LTYPE
  5
1F8
100
AcDbSymbolTableRecord
100
AcDbLinetypeTableRecord
  2
DOT
 70
64
  3
. . . . . . . . . . . . . . . . . . . .
 72
65
 73
2
 40
0.2
 49
0.1
 74
0
 49
-0.1
 74
0
  0
LTYPE
  5
1F9
100
AcDbSymbolTableRecord
100
AcDbLinetypeTableRecord
  2
DASHED
 70
64
  3
- - - - - - - - - - - - - - - - - - - -
 72
65
 73
2
 40
0.2
 49
0.1
 74
0
 49
-0.1
 74
0
  0
ENDTAB
  0
TABLE
  2
LAYER
  5
2
100
AcDbSymbolTable
 70
36
  0
LAYER
  5
10
100
AcDbSymbolTableRecord
100
AcDbLayerTableRecord
  2
0
 70
0
 62
7
  6
CONTINUOUS
370
-3
390
F
  0
LAYER
  5
1FA
100
AcDbSymbolTableRecord
100
AcDbLayerTableRecord
  2
DEFAULT_1
 70
0
 62
7
  6
CENTER
370
-3
390
F
  0
LAYER
  5
1FB
100
AcDbSymbolTableRecord
100
AcDbLayerTableRecord
  2
DEFAULT_2
 70
0
 62
8
  6
HIDDEN
370
-3
390
F
  0
LAYER
  5
1FC
100
AcDbSymbolTableRecord
100
AcDbLayerTableRecord
  2
DEFAULT_3
 70
0
 62
7
  6
PHANTOM
370
-3
390
F
  0
LAYER
  5
1FD
100
AcDbSymbolTableRecord
100
AcDbLayerTableRecord
  2
0_COMPONENTS
 70
0
 62
7
  6
CONTINUOUS
370
-3
390
F
  0
LAYER
  5
1FE
100
AcDbSymbolTableRecord
100
AcDbLayerTableRecord
  2
1_ALL_PLANES
 70
0
 62
7
  6
CONTINUOUS
370
-3
390
F
  0
LAYER
  5
1FF
100
AcDbSymbolTableRecord
100
AcDbLayerTableRecord
  2
1__DEF_ASM_PLN
 70
0
 62
7
  6
CONTINUOUS
370
-3
390
F
  0
LAYER
  5
200
100
AcDbSymbolTableRecord
100
AcDbLayerTableRecord
  2
1__DEF_PLANES
 70
0
 62
7
  6
CONTINUOUS
370
-3
390
F
  0
LAYER
  5
201
100
AcDbSymbolTableRecord
100
AcDbLayerTableRecord
  2
2_ALL_CSYS
 70
0
 62
7
  6
CONTINUOUS
370
-3
390
F
  0
LAYER
  5
202
100
AcDbSymbolTableRecord
100
AcDbLayerTableRecord
  2
2__DEF_ASM_CSYS
 70
0
 62
7
  6
CONTINUOUS
370
-3
390
F
  0
LAYER
  5
203
100
AcDbSymbolTableRecord
100
AcDbLayerTableRecord
  2
2__DEF_CSYS
 70
0
 62
7
  6
CONTINUOUS
370
-3
390
F
  0
LAYER
  5
204
100
AcDbSymbolTableRecord
100
AcDbLayerTableRecord
  2
3_ALL_AXES
 70
0
 62
7
  6
CONTINUOUS
370
-3
390
F
  0
LAYER
  5
205
100
AcDbSymbolTableRecord
100
AcDbLayerTableRecord
  2
4_ALL_POINTS
 70
0
 62
7
  6
CONTINUOUS
370
-3
390
F
  0
LAYER
  5
206
100
AcDbSymbolTableRecord
100
AcDbLayerTableRecord
  2
5_ALL_CURVES
 70
0
 62
7
  6
CONTINUOUS
370
-3
390
F
  0
LAYER
  5
207
100
AcDbSymbolTableRecord
100
AcDbLayerTableRecord
  2
5_ALL_GTOLS(FREE)
 70
0
 62
7
  6
CONTINUOUS
370
-3
390
F
  0
LAYER
  5
208
100
AcDbSymbolTableRecord
100
AcDbLayerTableRecord
  2
6_ALL_SURFS
 70
0
 62
7
  6
CONTINUOUS
370
-3
390
F
  0
LAYER
  5
209
100
AcDbSymbolTableRecord
100
AcDbLayerTableRecord
  2
CURVE
 70
0
 62
7
  6
CONTINUOUS
370
-3
390
F
  0
LAYER
  5
20A
100
AcDbSymbolTableRecord
100
AcDbLayerTableRecord
  2
GIANNI_CURVE
 70
0
 62
7
  6
CONTINUOUS
370
-3
390
F
  0
LAYER
  5
20B
100
AcDbSymbolTableRecord
100
AcDbLayerTableRecord
  2
XSEC_DATUMS
 70
0
 62
7
  6
CONTINUOUS
370
-3
390
F
  0
ENDTAB
  0
TABLE
  2
STYLE
  5
3
100
AcDbSymbolTable
 70
1
  0
STYLE
  5
11
100
AcDbSymbolTableRecord
100
AcDbTextStyleTableRecord
  2
STANDARD
 70
0
 40
0.0
 41
1.2
 50
0.0
 71
0
 42
0.2
  3
txt
  4

  0
STYLE
  5
20C
100
AcDbSymbolTableRecord
100
AcDbTextStyleTableRecord
  2
TEXTSTYLE_1
 70
0
 40
0.0
 41
0.8
 50
0.0
 71
0
 42
0.2
  3
gdt
  4

  0
STYLE
  5
20D
100
AcDbSymbolTableRecord
100
AcDbTextStyleTableRecord
  2
TEXTSTYLE_2
 70
0
 40
0.0
 41
1.2
 50
0.0
 71
0
 42
0.2
  3
gdt
  4

  0
ENDTAB
  0
TABLE
  2
VIEW
  5
6
100
AcDbSymbolTable
 70
0
  0
ENDTAB
  0
TABLE
  2
UCS
  5
7
100
AcDbSymbolTable
 70
0
  0
ENDTAB
  0
TABLE
  2
APPID
  5
9
100
AcDbSymbolTable
 70
1
  0
APPID
  5
20E
100
AcDbSymbolTableRecord
100
AcDbRegAppTableRecord
  2
ACAD
 70
0
  0
ENDTAB
  0
TABLE
  2
BLOCK_RECORD
  5
1
100
AcDbSymbolTable
 70
0
  0
BLOCK_RECORD
  5
20F
100
AcDbSymbolTableRecord
100
AcDbBlockTableRecord
  2
*Model_Space
  0
BLOCK_RECORD
  5
210
100
AcDbSymbolTableRecord
100
AcDbBlockTableRecord
  2
*Paper_Space
  0
BLOCK_RECORD
  5
211
100
AcDbSymbolTableRecord
100
AcDbBlockTableRecord
  2
_FILLED
  0
BLOCK_RECORD
  5
212
100
AcDbSymbolTableRecord
100
AcDbBlockTableRecord
  2
*D0
  0
BLOCK_RECORD
  5
213
100
AcDbSymbolTableRecord
100
AcDbBlockTableRecord
  2
*D1
  0
BLOCK_RECORD
  5
214
100
AcDbSymbolTableRecord
100
AcDbBlockTableRecord
  2
*D2
  0
BLOCK_RECORD
  5
215
100
AcDbSymbolTableRecord
100
AcDbBlockTableRecord
  2
*D3
  0
ENDTAB
  0
TABLE
  2
DIMSTYLE
  5
A
100
AcDbSymbolTable
 70
1
100
AcDbDimStyleTable
 71
0
  0
DIMSTYLE
105
216
100
AcDbSymbolTableRecord
100
AcDbDimStyleTableRecord
  2
STANDARD
 70
0
  3

  4

 40
1.0
 41
4.76
 42
0.1
 43
0.38
 44
1.0
 45
0.0
 46
0.0
 47
0.001
 48
0.001
140
3.0
141
0.09
142
0.0
143
25.4
144
1.0
145
0.0
146
1.0
147
0.625
 71
1.0
 72
0.0
 73
0
 74
0
 75
0
 76
0
 77
1
 78
8
170
0
171
2
172
0
173
0
174
0
175
0
176
0
177
0
178
5
270
2
271
3
272
3
273
2
274
2
275
0
280
0
281
0
282
0
283
1
284
8
285
0
286
0
287
3
288
0
340
11
278
46
341
211
342
211
343
211
344
211
  0
DIMSTYLE
105
217
100
AcDbSymbolTableRecord
100
AcDbDimStyleTableRecord
  2
DIMSTYLE_1
 70
0
  3

  4

 40
1.0
 41
4.76
 42
0.1
 43
0.38
 44
1.0
 45
0.0
 46
0.0
 47
0.01
 48
0.01
140
3.0
141
0.09
142
0.0
143
25.4
144
1.0
145
0.0
146
1.0
147
0.75
 71
0.0
 72
0.0
 73
0
 74
0
 75
0
 76
0
 77
1
 78
8
170
0
171
2
172
0
173
0
174
0
175
0
176
0
177
0
178
5
270
2
271
3
272
3
273
2
274
2
275
0
280
0
281
0
282
0
283
1
284
8
285
0
286
0
287
3
288
0
340
11
278
46
341
211
342
211
343
211
344
211
  0
DIMSTYLE
105
218
100
AcDbSymbolTableRecord
100
AcDbDimStyleTableRecord
  2
DIMSTYLE_2
 70
0
  3

  4

 40
1.0
 41
4.76
 42
0.1
 43
0.38
 44
1.0
 45
0.0
 46
0.0
 47
0.01
 48
0.01
140
3.0
141
0.09
142
0.0
143
25.4
144
1.0
145
0.0
146
1.0
147
0.75
 71
0.0
 72
0.0
 73
0
 74
0
 75
0
 76
0
 77
1
 78
8
170
0
171
2
172
0
173
0
174
0
175
0
176
0
177
0
178
5
270
2
271
0
272
0
273
2
274
2
275
0
280
0
281
0
282
0
283
1
284
8
285
0
286
0
287
3
288
0
340
11
278
46
341
211
342
211
343
211
344
211
  0
ENDTAB
  0
ENDSEC
  0
SECTION
  2
BLOCKS
  0
BLOCK
  5
20
100
AcDbEntity
  8
0
100
AcDbBlockBegin
  2
*Model_Space
 70
0
 10
0.0
 20
0.0
 30
0.0
  3
*Model_Space
  1

  0
ENDBLK
  5
21
100
AcDbEntity
  8
0
100
AcDbBlockEnd
  0
BLOCK
  5
1C
100
AcDbEntity
  8
0
100
AcDbBlockBegin
  2
*Paper_Space
 70
0
 10
0.0
 20
0.0
 30
0.0
  3
*Paper_Space
  1

  0
ENDBLK
  5
1D
100
AcDbEntity
  8
0
100
AcDbBlockEnd
  0
BLOCK
  5
219
100
AcDbEntity
  8
0
100
AcDbBlockBegin
  2
_FILLED
 70
64
 10
0.0
 20
0.0
  3
_FILLED
  1

  0
SOLID
  5
21A
100
AcDbEntity
  8
0
  6
BYBLOCK
 62
0
100
AcDbTrace
 10
0.0
 20
0.0
 11
-1.0
 21
0.1050420168
 12
-1.0
 22
-0.1050420168
 13
-1.0
 23
-0.1050420168
  0
ENDBLK
  5
21B
100
AcDbEntity
  8
0
  6
BYBLOCK
 62
0
100
AcDbBlockEnd
  0
BLOCK
  5
21C
100
AcDbEntity
  8
0
100
AcDbBlockBegin
 62
2
  6
CONTINUOUS
  2
*D0
 70
65
 10
0.0
 20
0.0
  3
*D0
  1

  0
MTEXT
  5
21D
100
AcDbEntity
  8
0
100
AcDbMText
 62
5
  6
CONTINUOUS
  7
STANDARD
 71
2
 72
1
 10
147.8118647857
 20
111.5150848978
 30
0.0
 11
0.0
 21
1.0
 31
0.0
 44
0.9
  1
41.5
 40
3.0
 41
11.8928571429
  0
LINE
  5
21E
100
AcDbEntity
  8
0
100
AcDbLine
 62
2
  6
CONTINUOUS
 10
135.7398058252
 20
133.7830097087
 11
152.5618647857
 21
133.7830097087
  0
LINE
  5
21F
100
AcDbEntity
  8
0
100
AcDbLine
 62
2
  6
CONTINUOUS
 10
122.8619002446
 20
92.2830097087
 11
152.5618647857
 21
92.2830097087
  0
LINE
  5
220
100
AcDbEntity
  8
0
100
AcDbLine
 62
2
  6
CONTINUOUS
 10
151.5618647857
 20
133.7830097087
 11
151.5618647857
 21
113.0330097087
  0
LINE
  5
221
100
AcDbEntity
  8
0
100
AcDbLine
 62
2
  6
CONTINUOUS
 10
151.5618647857
 20
92.2830097087
 11
151.5618647857
 21
113.0330097087
  0
INSERT
  5
222
100
AcDbEntity
  8
0
100
AcDbBlockReference
 62
2
  6
CONTINUOUS
  2
_FILLED
 10
151.5618647857
 20
133.7830097087
 41
4.76
 42
4.76
 43
4.76
 50
90.0
  0
INSERT
  5
223
100
AcDbEntity
  8
0
100
AcDbBlockReference
 62
2
  6
CONTINUOUS
  2
_FILLED
 10
151.5618647857
 20
92.2830097087
 41
4.76
 42
4.76
 43
4.76
 50
270.0
  0
ENDBLK
  5
224
100
AcDbEntity
  8
0
  6
BYBLOCK
 62
0
100
AcDbBlockEnd
  0
BLOCK
  5
225
100
AcDbEntity
  8
0
100
AcDbBlockBegin
 62
2
  6
CONTINUOUS
  2
*D1
 70
65
 10
0.0
 20
0.0
  3
*D1
  1

  0
MTEXT
  5
226
100
AcDbEntity
  8
0
100
AcDbMText
 62
5
  6
CONTINUOUS
  7
STANDARD
 71
2
 72
1
 10
158.3231781996
 20
126.3922805806
 30
0.0
 11
0.0
 21
1.0
 31
0.0
 44
0.9
  1
68
 40
3.0
 41
7.0714285714
  0
LINE
  5
227
100
AcDbEntity
  8
0
100
AcDbLine
 62
2
  6
CONTINUOUS
 10
127.0023058252
 20
160.5015514525
 11
163.0731781996
 21
160.5015514525
  0
LINE
  5
228
100
AcDbEntity
  8
0
100
AcDbLine
 62
2
  6
CONTINUOUS
 10
104.9398058252
 20
92.2830097087
 11
163.0731781996
 21
92.2830097087
  0
LINE
  5
229
100
AcDbEntity
  8
0
100
AcDbLine
 62
2
  6
CONTINUOUS
 10
162.0731781996
 20
160.5015514525
 11
162.0731781996
 21
126.3922805806
  0
LINE
  5
22A
100
AcDbEntity
  8
0
100
AcDbLine
 62
2
  6
CONTINUOUS
 10
162.0731781996
 20
92.2830097087
 11
162.0731781996
 21
126.3922805806
  0
INSERT
  5
22B
100
AcDbEntity
  8
0
100
AcDbBlockReference
 62
2
  6
CONTINUOUS
  2
_FILLED
 10
162.0731781996
 20
160.5015514525
 41
4.76
 42
4.76
 43
4.76
 50
90.0
  0
INSERT
  5
22C
100
AcDbEntity
  8
0
100
AcDbBlockReference
 62
2
  6
CONTINUOUS
  2
_FILLED
 10
162.0731781996
 20
92.2830097087
 41
4.76
 42
4.76
 43
4.76
 50
270.0
  0
ENDBLK
  5
22D
100
AcDbEntity
  8
0
  6
BYBLOCK
 62
0
100
AcDbBlockEnd
  0
BLOCK
  5
22E
100
AcDbEntity
  8
0
100
AcDbBlockBegin
 62
2
  6
CONTINUOUS
  2
*D2
 70
65
 10
0.0
 20
0.0
  3
*D2
  1

  0
MTEXT
  5
22F
100
AcDbEntity
  8
0
100
AcDbMText
 62
5
  6
CONTINUOUS
  7
TEXTSTYLE_2
 71
2
 72
1
 10
104.8398058252
 20
80.3909671769
 30
0.0
 11
1.0
 21
0.0
 31
0.0
 44
0.9
  1
{\Fgdt;n}\Ftxt;19
 40
3.0
 41
12.1071428571
  0
LINE
  5
230
100
AcDbEntity
  8
0
100
AcDbLine
 62
2
  6
CONTINUOUS
 10
114.3398058252
 20
99.6830097087
 11
114.3398058252
 21
75.6409671769
  0
LINE
  5
231
100
AcDbEntity
  8
0
100
AcDbLine
 62
2
  6
CONTINUOUS
 10
95.3398058252
 20
99.6830097087
 11
95.3398058252
 21
75.6409671769
  0
LINE
  5
232
100
AcDbEntity
  8
0
100
AcDbLine
 62
2
  6
CONTINUOUS
 10
114.3398058252
 20
76.6409671769
 11
122.3398058252
 21
76.6409671769
  0
LINE
  5
233
100
AcDbEntity
  8
0
100
AcDbLine
 62
2
  6
CONTINUOUS
 10
122.3398058252
 20
76.6409671769
 11
104.8398058252
 21
76.6409671769
  0
LINE
  5
234
100
AcDbEntity
  8
0
100
AcDbLine
 62
2
  6
CONTINUOUS
 10
95.3398058252
 20
76.6409671769
 11
87.3398058252
 21
76.6409671769
  0
LINE
  5
235
100
AcDbEntity
  8
0
100
AcDbLine
 62
2
  6
CONTINUOUS
 10
87.3398058252
 20
76.6409671769
 11
104.8398058252
 21
76.6409671769
  0
INSERT
  5
236
100
AcDbEntity
  8
0
100
AcDbBlockReference
 62
2
  6
CONTINUOUS
  2
_FILLED
 10
114.3398058252
 20
76.6409671769
 41
4.76
 42
4.76
 43
4.76
 50
180.0
  0
INSERT
  5
237
100
AcDbEntity
  8
0
100
AcDbBlockReference
 62
2
  6
CONTINUOUS
  2
_FILLED
 10
95.3398058252
 20
76.6409671769
 41
4.76
 42
4.76
 43
4.76
  0
ENDBLK
  5
238
100
AcDbEntity
  8
0
  6
BYBLOCK
 62
0
100
AcDbBlockEnd
  0
BLOCK
  5
239
100
AcDbEntity
  8
0
100
AcDbBlockBegin
 62
2
  6
CONTINUOUS
  2
*D3
 70
65
 10
0.0
 20
0.0
  3
*D3
  1

  0
MTEXT
  5
23A
100
AcDbEntity
  8
0
100
AcDbMText
 62
5
  6
CONTINUOUS
  7
TEXTSTYLE_2
 71
2
 72
1
 10
104.8398058252
 20
70.3565753315
 30
0.0
 11
1.0
 21
0.0
 31
0.0
 44
0.9
  1
{\Fgdt;n}\Ftxt;38.5
 40
3.0
 41
18.5357142857
  0
LINE
  5
23B
100
AcDbEntity
  8
0
100
AcDbLine
 62
2
  6
CONTINUOUS
 10
124.0898058252
 20
96.0580097087
 11
124.0898058252
 21
65.6065753315
  0
LINE
  5
23C
100
AcDbEntity
  8
0
100
AcDbLine
 62
2
  6
CONTINUOUS
 10
85.5898058252
 20
96.0580097087
 11
85.5898058252
 21
65.6065753315
  0
LINE
  5
23D
100
AcDbEntity
  8
0
100
AcDbLine
 62
2
  6
CONTINUOUS
 10
124.0898058252
 20
66.6065753315
 11
104.8398058252
 21
66.6065753315
  0
LINE
  5
23E
100
AcDbEntity
  8
0
100
AcDbLine
 62
2
  6
CONTINUOUS
 10
85.5898058252
 20
66.6065753315
 11
104.8398058252
 21
66.6065753315
  0
INSERT
  5
23F
100
AcDbEntity
  8
0
100
AcDbBlockReference
 62
2
  6
CONTINUOUS
  2
_FILLED
 10
124.0898058252
 20
66.6065753315
 41
4.76
 42
4.76
 43
4.76
  0
INSERT
  5
240
100
AcDbEntity
  8
0
100
AcDbBlockReference
 62
2
  6
CONTINUOUS
  2
_FILLED
 10
85.5898058252
 20
66.6065753315
 41
4.76
 42
4.76
 43
4.76
 50
180.0
  0
ENDBLK
  5
241
100
AcDbEntity
  8
0
  6
BYBLOCK
 62
0
100
AcDbBlockEnd
  0
ENDSEC
  0
SECTION
  2
ENTITIES
  0
DIMENSION
  5
242
100
AcDbEntity
  8
0
100
AcDbDimension
 62
2
  6
CONTINUOUS
  2
*D0
 10
151.5618647857
 20
92.2830097087
 11
151.5618647857
 21
111.0865134994
 70
160
 71
2
 42
41.5
  3
DIMSTYLE_1
100
AcDbAlignedDimension
 13
135.6398058252
 23
133.7830097087
 14
122.7619002446
 24
92.2830097087
 50
270.0
100
AcDbRotatedDimension
  0
DIMENSION
  5
243
100
AcDbEntity
  8
0
100
AcDbDimension
 62
2
  6
CONTINUOUS
  2
*D1
 10
162.0731781996
 20
92.2830097087
 11
162.0731781996
 21
125.9637056176
 70
160
 71
2
 42
68.2185417438
  3
DIMSTYLE_2
100
AcDbAlignedDimension
 13
126.9023058252
 23
160.5015514525
 14
104.8398058252
 24
92.2830097087
 50
270.0
100
AcDbRotatedDimension
  0
DIMENSION
  5
244
100
AcDbEntity
  8
0
100
AcDbDimension
 62
2
  6
CONTINUOUS
  2
*D2
 10
95.3398058252
 20
76.6409671769
 11
104.8398058252
 21
76.6409671769
 70
160
 71
2
 42
19.0
  1
%%c<>
  3
DIMSTYLE_1
100
AcDbAlignedDimension
 13
114.3398058252
 23
99.7830097087
 14
95.3398058252
 24
99.7830097087
 50
180.0
100
AcDbRotatedDimension
  0
DIMENSION
  5
245
100
AcDbEntity
  8
0
100
AcDbDimension
 62
2
  6
CONTINUOUS
  2
*D3
 10
85.5898058252
 20
66.6065753315
 11
104.8398058252
 21
66.6065753315
 70
160
 71
2
 42
38.5
  1
%%c<>
  3
DIMSTYLE_1
100
AcDbAlignedDimension
 13
124.0898058252
 23
96.1580097087
 14
85.5898058252
 24
96.1580097087
 50
180.0
100
AcDbRotatedDimension
  0
LINE
  5
246
100
AcDbEntity
  8
0
100
AcDbLine
 62
7
  6
CONTINUOUS
 10
0.0
 20
0.0
 11
210.0
 21
0.0
  0
LINE
  5
247
100
AcDbEntity
  8
0
100
AcDbLine
 62
7
  6
CONTINUOUS
 10
0.0
 20
0.0
 11
0.0
 21
297.0
  0
LINE
  5
248
100
AcDbEntity
  8
0
100
AcDbLine
 62
7
  6
CONTINUOUS
 10
210.0
 20
0.0
 11
210.0
 21
297.0
  0
LINE
  5
249
100
AcDbEntity
  8
0
100
AcDbLine
 62
7
  6
CONTINUOUS
 10
0.0
 20
297.0
 11
210.0
 21
297.0
  0
LINE
  5
24A
100
AcDbEntity
  8
0
100
AcDbLine
 62
7
  6
CONTINUOUS
 10
86.9177114444
 20
92.2830097087
 11
122.7619002061
 21
92.2830097087
  0
LINE
  5
24B
100
AcDbEntity
  8
0
100
AcDbLine
 62
7
  6
CONTINUOUS
 10
86.6579038232
 20
92.4330097087
 11
123.0217078272
 21
92.4330097087
  0
LINE
  5
24C
100
AcDbEntity
  8
0
100
AcDbLine
 62
7
  6
CONTINUOUS
 10
124.0898058252
 20
94.2830097087
 11
85.5898058252
 21
94.2830097087
  0
LINE
  5
24D
100
AcDbEntity
  8
0
100
AcDbLine
 62
7
  6
CONTINUOUS
 10
124.0898058252
 20
98.0330097087
 11
85.5898058252
 21
98.0330097087
  0
LINE
  5
24E
100
AcDbEntity
  8
0
100
AcDbLine
 62
7
  6
CONTINUOUS
 10
123.8398058252
 20
98.2830097087
 11
85.8398058252
 21
98.2830097087
  0
LINE
  5
24F
100
AcDbEntity
  8
0
100
AcDbLine
 62
7
  6
CONTINUOUS
 10
123.8398058252
 20
102.2830097087
 11
85.8398058252
 21
102.2830097087
  0
LINE
  5
250
100
AcDbEntity
  8
0
100
AcDbLine
 62
7
  6
CONTINUOUS
 10
124.0898058252
 20
102.5330097087
 11
85.5898058252
 21
102.5330097087
  0
LINE
  5
251
100
AcDbEntity
  8
0
100
AcDbLine
 62
7
  6
CONTINUOUS
 10
85.8398058252
 20
102.2830097087
 11
85.5898058252
 21
102.5330097087
  0
LINE
  5
252
100
AcDbEntity
  8
0
100
AcDbLine
 62
7
  6
CONTINUOUS
 10
124.0898058252
 20
106.5330097087
 11
85.5898058252
 21
106.5330097087
  0
LINE
  5
253
100
AcDbEntity
  8
0
100
AcDbLine
 62
7
  6
CONTINUOUS
 10
123.8398058252
 20
106.7830097087
 11
85.8398058252
 21
106.7830097087
  0
LINE
  5
254
100
AcDbEntity
  8
0
100
AcDbLine
 62
7
  6
CONTINUOUS
 10
86.6579038232
 20
92.4330097087
 11
85.5898058252
 21
94.2830097087
  0
LINE
  5
255
100
AcDbEntity
  8
0
100
AcDbLine
 62
7
  6
CONTINUOUS
 10
123.8398058252
 20
110.7830097087
 11
85.8398058252
 21
110.7830097087
  0
LINE
  5
256
100
AcDbEntity
  8
0
100
AcDbLine
 62
7
  6
CONTINUOUS
 10
124.0898058252
 20
111.0330097087
 11
85.5898058252
 21
111.0330097087
  0
LINE
  5
257
100
AcDbEntity
  8
0
100
AcDbLine
 62
7
  6
CONTINUOUS
 10
124.2398058252
 20
115.0828021705
 11
85.4398058252
 21
115.0828021705
  0
LINE
  5
258
100
AcDbEntity
  8
0
100
AcDbLine
 62
7
  6
CONTINUOUS
 10
85.8398058252
 20
110.7830097087
 11
85.5898058252
 21
111.0330097087
  0
LINE
  5
259
100
AcDbEntity
  8
0
100
AcDbLine
 62
7
  6
CONTINUOUS
 10
124.2398058252
 20
119.2830097087
 11
85.4398058252
 21
119.2830097087
  0
LINE
  5
25A
100
AcDbEntity
  8
0
100
AcDbLine
 62
7
  6
CONTINUOUS
 10
123.7398058252
 20
119.7830097087
 11
85.9398058252
 21
119.7830097087
  0
LINE
  5
25B
100
AcDbEntity
  8
0
100
AcDbLine
 62
7
  6
CONTINUOUS
 10
73.3398058252
 20
134.4830097087
 11
74.0398058252
 21
133.7830097087
  0
LINE
  5
25C
100
AcDbEntity
  8
0
100
AcDbLine
 62
7
  6
CONTINUOUS
 10
73.3398058252
 20
158.0830097087
 11
73.3398058252
 21
149.2059570507
  0
LINE
  5
25D
100
AcDbEntity
  8
0
100
AcDbLine
 62
7
  6
CONTINUOUS
 10
73.3398058252
 20
134.4830097087
 11
73.3398058252
 21
139.1600623668
  0
LINE
  5
25E
100
AcDbEntity
  8
0
100
AcDbLine
 62
2
  6
CONTINUOUS
 10
122.3398058252
 20
129.0830097087
 11
122.2834510728
 21
129.0830097087
  0
LINE
  5
25F
100
AcDbEntity
  8
0
100
AcDbLine
 62
7
  6
CONTINUOUS
 10
122.2166536058
 20
129.7830097087
 11
87.423610393
 21
129.7830097087
  0
LINE
  5
260
100
AcDbEntity
  8
0
100
AcDbLine
 62
7
  6
CONTINUOUS
 10
121.9818340905
 20
130.0330097087
 11
87.6623190558
 21
130.0330097087
  0
LINE
  5
261
100
AcDbEntity
  8
0
100
AcDbLine
 62
7
  6
CONTINUOUS
 10
124.0898058252
 20
98.0330097087
 11
123.8398058252
 21
98.2830097087
  0
LINE
  5
262
100
AcDbEntity
  8
0
100
AcDbLine
 62
7
  6
CONTINUOUS
 10
78.3398058252
 20
141.4330097087
 11
78.3398058252
 21
146.9330097087
  0
LINE
  5
263
100
AcDbEntity
  8
0
100
AcDbLine
 62
2
  6
CONTINUOUS
 10
122.3398058252
 20
133.0830097087
 11
122.0655619878
 21
133.0830097087
  0
LINE
  5
264
100
AcDbEntity
  8
0
100
AcDbLine
 62
2
  6
CONTINUOUS
 10
87.5898058252
 20
133.0830097087
 11
87.3398058252
 21
133.0830097087
  0
LINE
  5
265
100
AcDbEntity
  8
0
100
AcDbLine
 62
7
  6
CONTINUOUS
 10
135.6398058252
 20
133.7830097087
 11
74.0398058252
 21
133.7830097087
  0
LINE
  5
266
100
AcDbEntity
  8
0
100
AcDbLine
 62
7
  6
CONTINUOUS
 10
136.3398058252
 20
134.4830097087
 11
73.3398058252
 21
134.4830097087
  0
LINE
  5
267
100
AcDbEntity
  8
0
100
AcDbLine
 62
7
  6
CONTINUOUS
 10
77.2766661044
 20
146.9330097087
 11
73.3398058252
 21
149.2059570507
  0
LINE
  5
268
100
AcDbEntity
  8
0
100
AcDbLine
 62
7
  6
CONTINUOUS
 10
82.9398058252
 20
158.7830097087
 11
82.9398058252
 21
160.2200931963
  0
LINE
  5
269
100
AcDbEntity
  8
0
100
AcDbLine
 62
7
  6
CONTINUOUS
 10
85.4398058252
 20
115.0828021705
 11
85.4398058252
 21
119.2830097087
  0
LINE
  5
26A
100
AcDbEntity
  8
0
100
AcDbLine
 62
7
  6
CONTINUOUS
 10
85.5898058252
 20
94.2830097087
 11
85.5898058252
 21
98.0330097087
  0
LINE
  5
26B
100
AcDbEntity
  8
0
100
AcDbLine
 62
7
  6
CONTINUOUS
 10
85.5898058252
 20
102.5330097087
 11
85.5898058252
 21
106.5330097087
  0
LINE
  5
26C
100
AcDbEntity
  8
0
100
AcDbLine
 62
7
  6
CONTINUOUS
 10
85.5898058252
 20
111.0330097087
 11
85.5898058252
 21
115.0828021705
  0
LINE
  5
26D
100
AcDbEntity
  8
0
100
AcDbLine
 62
7
  6
CONTINUOUS
 10
82.6148058252
 20
160.7830097087
 11
92.0275806962
 21
225.3273175522
  0
LINE
  5
26E
100
AcDbEntity
  8
0
100
AcDbLine
 62
7
  6
CONTINUOUS
 10
74.0398058252
 20
158.7830097087
 11
73.3398058252
 21
158.0830097087
  0
LINE
  5
26F
100
AcDbEntity
  8
0
100
AcDbLine
 62
7
  6
CONTINUOUS
 10
136.3398058252
 20
139.1600623668
 11
110.9422612087
 21
139.1600623668
  0
LINE
  5
270
100
AcDbEntity
  8
0
100
AcDbLine
 62
7
  6
CONTINUOUS
 10
98.7373504418
 20
139.1600623668
 11
73.3398058252
 21
139.1600623668
  0
LINE
  5
271
100
AcDbEntity
  8
0
100
AcDbLine
 62
7
  6
CONTINUOUS
 10
124.0898058252
 20
106.5330097087
 11
123.8398058252
 21
106.7830097087
  0
LINE
  5
272
100
AcDbEntity
  8
0
100
AcDbLine
 62
7
  6
CONTINUOUS
 10
85.8398058252
 20
98.2830097087
 11
85.8398058252
 21
102.2830097087
  0
LINE
  5
273
100
AcDbEntity
  8
0
100
AcDbLine
 62
7
  6
CONTINUOUS
 10
85.8398058252
 20
106.7830097087
 11
85.8398058252
 21
110.7830097087
  0
LINE
  5
274
100
AcDbEntity
  8
0
100
AcDbLine
 62
7
  6
CONTINUOUS
 10
87.3398058252
 20
119.7830097087
 11
87.3398058252
 21
128.9330097087
  0
LINE
  5
275
100
AcDbEntity
  8
0
100
AcDbLine
 62
7
  6
CONTINUOUS
 10
87.5898058252
 20
133.7830097087
 11
87.5898058252
 21
132.9830097087
  0
LINE
  5
276
100
AcDbEntity
  8
0
100
AcDbLine
 62
7
  6
CONTINUOUS
 10
77.2766661044
 20
141.4330097087
 11
98.0987005746
 21
141.4330097087
  0
LINE
  5
277
100
AcDbEntity
  8
0
100
AcDbLine
 62
7
  6
CONTINUOUS
 10
111.5809110759
 20
141.4330097087
 11
132.4029455461
 21
141.4330097087
  0
LINE
  5
278
100
AcDbEntity
  8
0
100
AcDbLine
 62
7
  6
CONTINUOUS
 10
124.2398058252
 20
119.2830097087
 11
123.7398058252
 21
119.7830097087
  0
LINE
  5
279
100
AcDbEntity
  8
0
100
AcDbLine
 62
7
  6
CONTINUOUS
 10
82.9398058252
 20
160.2200931963
 11
82.6148058252
 21
160.7830097087
  0
LINE
  5
27A
100
AcDbEntity
  8
DEFAULT_2
100
AcDbLine
 62
8
  6
HIDDEN
 10
95.3398058252
 20
92.2830097087
 11
95.3398058252
 21
107.2830097087
  0
LINE
  5
27B
100
AcDbEntity
  8
0
100
AcDbLine
 62
7
  6
CONTINUOUS
 10
87.3407141341
 20
128.9404107995
 11
87.3398058252
 21
128.9330097087
  0
LINE
  5
27C
100
AcDbEntity
  8
0
100
AcDbLine
 62
7
  6
CONTINUOUS
 10
97.5898058252
 20
145.8330097087
 11
96.7898058252
 21
145.8330097087
  0
LINE
  5
27D
100
AcDbEntity
  8
0
100
AcDbLine
 62
7
  6
CONTINUOUS
 10
112.0898058252
 20
145.8330097087
 11
112.8898058252
 21
145.8330097087
  0
LINE
  5
27E
100
AcDbEntity
  8
0
100
AcDbLine
 62
7
  6
CONTINUOUS
 10
132.4029359008
 20
146.9330097087
 11
112.8898058252
 21
146.9330097087
  0
LINE
  5
27F
100
AcDbEntity
  8
0
100
AcDbLine
 62
7
  6
CONTINUOUS
 10
96.7898058252
 20
146.9330097087
 11
77.2766757497
 21
146.9330097087
  0
LINE
  5
280
100
AcDbEntity
  8
0
100
AcDbLine
 62
7
  6
CONTINUOUS
 10
73.3398058252
 20
149.2059570507
 11
95.831568977
 21
149.2059570507
  0
LINE
  5
281
100
AcDbEntity
  8
0
100
AcDbLine
 62
7
  6
CONTINUOUS
 10
113.8480426735
 20
149.2059570507
 11
136.3398058252
 21
149.2059570507
  0
LINE
  5
282
100
AcDbEntity
  8
0
100
AcDbLine
 62
7
  6
CONTINUOUS
 10
95.831568977
 20
158.0830097087
 11
95.831568977
 21
149.2059570507
  0
LINE
  5
283
100
AcDbEntity
  8
0
100
AcDbLine
 62
7
  6
CONTINUOUS
 10
96.7898058252
 20
145.8330097087
 11
96.7898058252
 21
157.7830097087
  0
LINE
  5
284
100
AcDbEntity
  8
0
100
AcDbLine
 62
7
  6
CONTINUOUS
 10
97.5898058252
 20
145.8330097087
 11
97.5898058252
 21
156.9830097087
  0
LINE
  5
285
100
AcDbEntity
  8
0
100
AcDbLine
 62
7
  6
CONTINUOUS
 10
95.7898058252
 20
158.7830097087
 11
97.5898058252
 21
156.9830097087
  0
LINE
  5
286
100
AcDbEntity
  8
0
100
AcDbLine
 62
7
  6
CONTINUOUS
 10
73.3398058252
 20
158.0830097087
 11
95.831568977
 21
158.0830097087
  0
LINE
  5
287
100
AcDbEntity
  8
0
100
AcDbLine
 62
7
  6
CONTINUOUS
 10
113.8480426735
 20
158.0830097087
 11
136.3398058252
 21
158.0830097087
  0
LINE
  5
288
100
AcDbEntity
  8
0
100
AcDbLine
 62
7
  6
CONTINUOUS
 10
74.0398165411
 20
158.7830097087
 11
135.6397951094
 21
158.7830097087
  0
LINE
  5
289
100
AcDbEntity
  8
0
100
AcDbLine
 62
7
  6
CONTINUOUS
 10
136.3398058252
 20
139.1600623668
 11
132.4029455461
 21
141.4330097087
  0
LINE
  5
28A
100
AcDbEntity
  8
0
100
AcDbLine
 62
7
  6
CONTINUOUS
 10
73.3398058252
 20
139.1600623668
 11
77.2766661044
 21
141.4330097087
  0
LINE
  5
28B
100
AcDbEntity
  8
0
100
AcDbLine
 62
7
  6
CONTINUOUS
 10
126.7398058252
 20
160.2200931963
 11
82.9398058252
 21
160.2200931963
  0
LINE
  5
28C
100
AcDbEntity
  8
0
100
AcDbLine
 62
7
  6
CONTINUOUS
 10
127.0648058252
 20
160.7830097087
 11
82.6148058252
 21
160.7830097087
  0
LINE
  5
28D
100
AcDbEntity
  8
0
100
AcDbLine
 62
7
  6
CONTINUOUS
 10
112.0898058252
 20
156.9830097087
 11
112.0898058252
 21
145.8330097087
  0
LINE
  5
28E
100
AcDbEntity
  8
0
100
AcDbLine
 62
7
  6
CONTINUOUS
 10
112.8898058252
 20
145.8330097087
 11
112.8898058252
 21
157.7830097087
  0
LINE
  5
28F
100
AcDbEntity
  8
0
100
AcDbLine
 62
7
  6
CONTINUOUS
 10
113.8480426735
 20
158.0830097087
 11
113.8480426735
 21
149.2059570507
  0
LINE
  5
290
100
AcDbEntity
  8
DEFAULT_2
100
AcDbLine
 62
8
  6
HIDDEN
 10
114.3398058252
 20
92.2830097087
 11
114.3398058252
 21
107.2830097087
  0
LINE
  5
291
100
AcDbEntity
  8
0
100
AcDbLine
 62
7
  6
CONTINUOUS
 10
112.0898058252
 20
156.9830097087
 11
113.8898058252
 21
158.7830097087
  0
LINE
  5
292
100
AcDbEntity
  8
0
100
AcDbLine
 62
7
  6
CONTINUOUS
 10
85.4398058252
 20
119.2830097087
 11
85.9398058252
 21
119.7830097087
  0
LINE
  5
293
100
AcDbEntity
  8
0
100
AcDbLine
 62
7
  6
CONTINUOUS
 10
122.0898058252
 20
133.7830097087
 11
122.0898058252
 21
133.2830097087
  0
LINE
  5
294
100
AcDbEntity
  8
0
100
AcDbLine
 62
7
  6
CONTINUOUS
 10
122.3398058252
 20
119.7830097087
 11
122.3398058252
 21
128.6330097087
  0
LINE
  5
295
100
AcDbEntity
  8
0
100
AcDbLine
 62
7
  6
CONTINUOUS
 10
123.8398058252
 20
98.2830097087
 11
123.8398058252
 21
102.2830097087
  0
LINE
  5
296
100
AcDbEntity
  8
0
100
AcDbLine
 62
7
  6
CONTINUOUS
 10
123.8398058252
 20
106.7830097087
 11
123.8398058252
 21
110.7830097087
  0
LINE
  5
297
100
AcDbEntity
  8
0
100
AcDbLine
 62
7
  6
CONTINUOUS
 10
124.0898058252
 20
94.2830097087
 11
124.0898058252
 21
98.0330097087
  0
LINE
  5
298
100
AcDbEntity
  8
0
100
AcDbLine
 62
7
  6
CONTINUOUS
 10
124.0898058252
 20
102.5330097087
 11
124.0898058252
 21
106.5330097087
  0
LINE
  5
299
100
AcDbEntity
  8
0
100
AcDbLine
 62
7
  6
CONTINUOUS
 10
124.0898058252
 20
111.0330097087
 11
124.0898058252
 21
115.0828021705
  0
LINE
  5
29A
100
AcDbEntity
  8
0
100
AcDbLine
 62
7
  6
CONTINUOUS
 10
124.2398058252
 20
115.0828021705
 11
124.2398058252
 21
119.2830097087
  0
LINE
  5
29B
100
AcDbEntity
  8
0
100
AcDbLine
 62
7
  6
CONTINUOUS
 10
126.7398058252
 20
160.2200931963
 11
127.0648058252
 21
160.7830097087
  0
LINE
  5
29C
100
AcDbEntity
  8
0
100
AcDbLine
 62
7
  6
CONTINUOUS
 10
126.7398058252
 20
158.7830097087
 11
126.7398058252
 21
160.2200931963
  0
LINE
  5
29D
100
AcDbEntity
  8
0
100
AcDbLine
 62
7
  6
CONTINUOUS
 10
85.5898058252
 20
106.5330097087
 11
85.8398058252
 21
106.7830097087
  0
LINE
  5
29E
100
AcDbEntity
  8
0
100
AcDbLine
 62
7
  6
CONTINUOUS
 10
132.4029455461
 20
146.9330097087
 11
136.3398058252
 21
149.2059570507
  0
LINE
  5
29F
100
AcDbEntity
  8
0
100
AcDbLine
 62
7
  6
CONTINUOUS
 10
135.6398058252
 20
158.7830097087
 11
136.3398058252
 21
158.0830097087
  0
LINE
  5
2A0
100
AcDbEntity
  8
0
100
AcDbLine
 62
7
  6
CONTINUOUS
 10
127.0648058252
 20
160.7830097087
 11
117.6520309543
 21
225.3273175522
  0
LINE
  5
2A1
100
AcDbEntity
  8
0
100
AcDbLine
 62
7
  6
CONTINUOUS
 10
131.3398058252
 20
141.4330097087
 11
131.3398058252
 21
146.9330097087
  0
LINE
  5
2A2
100
AcDbEntity
  8
0
100
AcDbLine
 62
7
  6
CONTINUOUS
 10
85.5898058252
 20
98.0330097087
 11
85.8398058252
 21
98.2830097087
  0
LINE
  5
2A3
100
AcDbEntity
  8
0
100
AcDbLine
 62
7
  6
CONTINUOUS
 10
136.3398058252
 20
158.0830097087
 11
136.3398058252
 21
149.2059570507
  0
LINE
  5
2A4
100
AcDbEntity
  8
0
100
AcDbLine
 62
7
  6
CONTINUOUS
 10
136.3398058252
 20
134.4830097087
 11
136.3398058252
 21
139.1600623668
  0
LINE
  5
2A5
100
AcDbEntity
  8
0
100
AcDbLine
 62
7
  6
CONTINUOUS
 10
136.3398058252
 20
134.4830097087
 11
135.6398058252
 21
133.7830097087
  0
LINE
  5
2A6
100
AcDbEntity
  8
0
100
AcDbLine
 62
7
  6
CONTINUOUS
 10
123.0217078272
 20
92.4330097087
 11
124.0898058252
 21
94.2830097087
  0
LINE
  5
2A7
100
AcDbEntity
  8
0
100
AcDbLine
 62
7
  6
CONTINUOUS
 10
123.8398058252
 20
110.7830097087
 11
124.0898058252
 21
111.0330097087
  0
LINE
  5
2A8
100
AcDbEntity
  8
0
100
AcDbLine
 62
7
  6
CONTINUOUS
 10
123.8398058252
 20
102.2830097087
 11
124.0898058252
 21
102.5330097087
  0
LINE
  5
2A9
100
AcDbEntity
  8
0
100
AcDbLine
 62
7
  6
CONTINUOUS
 10
92.0275806962
 20
225.3273175522
 11
117.6520309543
 21
225.3273175522
  0
LINE
  5
2AA
100
AcDbEntity
  8
0
100
AcDbLine
 62
7
  6
CONTINUOUS
 10
93.0171135387
 20
226.1830097087
 11
116.6624981118
 21
226.1830097087
  0
ARC
  5
2AB
100
AcDbEntity
  8
0
100
AcDbCircle
 62
7
  6
CONTINUOUS
 10
207.0304983075
 20
46.8862916274
 40
157.257470399
100
AcDbArc
 50
134.8309879126
 51
135.000569684
  0
ARC
  5
2AC
100
AcDbEntity
  8
0
100
AcDbCircle
 62
7
  6
CONTINUOUS
 10
2.6491133475
 20
46.886291632
 40
157.2574703926
100
AcDbArc
 50
44.999430316
 51
45.1690120874
  0
ARC
  5
2AD
100
AcDbEntity
  8
0
100
AcDbCircle
 62
7
  6
CONTINUOUS
 10
167.6048505613
 20
273.5034752893
 40
143.5314494794
100
AcDbArc
 50
239.9965166827
 51
240.4372479696
  0
ARC
  5
2AE
100
AcDbEntity
  8
0
100
AcDbCircle
 62
7
  6
CONTINUOUS
 10
42.0747612496
 20
273.503474979
 40
143.5314491305
100
AcDbArc
 50
299.5627520358
 51
300.0034833238
  0
ARC
  5
2AF
100
AcDbEntity
  8
0
100
AcDbCircle
 62
7
  6
CONTINUOUS
 10
141.4384009195
 20
76.1523332539
 40
76.1140830587
100
AcDbArc
 50
123.3535939391
 51
124.1259373503
  0
ARC
  5
2B0
100
AcDbEntity
  8
0
100
AcDbCircle
 62
7
  6
CONTINUOUS
 10
68.2420422866
 20
76.1535235083
 40
76.1126312442
100
AcDbArc
 50
55.8740781704
 51
56.6464367177
  0
ARC
  5
2B1
100
AcDbEntity
  8
0
100
AcDbCircle
 62
7
  6
CONTINUOUS
 10
69.6398299855
 20
131.1092239926
 40
17.833256932
100
AcDbArc
 50
353.0146121882
 51
354.4943004391
  0
ARC
  5
2B2
100
AcDbEntity
  8
0
100
AcDbCircle
 62
7
  6
CONTINUOUS
 10
139.9642376473
 20
131.0993455006
 40
17.7963380252
100
AcDbArc
 50
184.2418432433
 51
185.7893281922
  0
ARC
  5
2B3
100
AcDbEntity
  8
0
100
AcDbCircle
 62
7
  6
CONTINUOUS
 10
69.7429518292
 20
131.0964561458
 40
17.7293860399
100
AcDbArc
 50
354.5033974457
 51
355.7514809345
  0
ARC
  5
2B4
100
AcDbEntity
  8
0
100
AcDbCircle
 62
7
  6
CONTINUOUS
 10
139.5982401039
 20
131.0626016951
 40
17.4285008668
100
AcDbArc
 50
185.7905187209
 51
186.5930827549
  0
ARC
  5
2B5
100
AcDbEntity
  8
0
100
AcDbCircle
 62
7
  6
CONTINUOUS
 10
139.34530319
 20
131.0828853993
 40
17.3951803134
100
AcDbArc
 50
178.9179386287
 51
183.4601553238
  0
ARC
  5
2B6
100
AcDbEntity
  8
0
100
AcDbCircle
 62
7
  6
CONTINUOUS
 10
70.3927518722
 20
131.0826257217
 40
17.3014347522
100
AcDbArc
 50
356.5219348061
 51
0.0012716193
  0
ARC
  5
2B7
100
AcDbEntity
  8
0
100
AcDbCircle
 62
7
  6
CONTINUOUS
 10
104.8398058252
 20
145.8330097087
 40
8.05
100
AcDbArc
 50
180.0
 51
360.0
  0
ARC
  5
2B8
100
AcDbEntity
  8
0
100
AcDbCircle
 62
7
  6
CONTINUOUS
 10
104.8398058252
 20
145.8330097087
 40
7.2499999905
100
AcDbArc
 50
180.0
 51
360.0
  0
ARC
  5
2B9
100
AcDbEntity
  8
0
100
AcDbCircle
 62
7
  6
CONTINUOUS
 10
116.6624981118
 20
225.1830097087
 40
1.0
100
AcDbArc
 50
8.2972
 51
90.0
  0
ARC
  5
2BA
100
AcDbEntity
  8
0
100
AcDbCircle
 62
7
  6
CONTINUOUS
 10
93.0171135387
 20
225.1830097087
 40
1.0
100
AcDbArc
 50
90.0
 51
171.7028
  0
ARC
  5
2BB
100
AcDbEntity
  8
0
100
AcDbCircle
 62
7
  6
CONTINUOUS
 10
86.9177114444
 20
92.5830097087
 40
0.3
100
AcDbArc
 50
210.0000000012
 51
270.0
  0
ARC
  5
2BC
100
AcDbEntity
  8
0
100
AcDbCircle
 62
7
  6
CONTINUOUS
 10
122.7619002061
 20
92.5830097087
 40
0.3
100
AcDbArc
 50
270.0
 51
329.9999999988
  0
SPLINE
  5
2BD
100
AcDbEntity
  8
0
100
AcDbSpline
 62
2
  6
CONTINUOUS
 70
0
 71
3
 72
36
 73
32
 74
0
 42
0.0000001
 43
0.0000001
 44
0.0000000001
 40
0.0
 40
0.0
 40
0.0
 40
0.0
 40
0.0344827586
 40
0.0689655172
 40
0.1034482759
 40
0.1379310345
 40
0.1724137931
 40
0.2068965517
 40
0.2413793103
 40
0.275862069
 40
0.3103448276
 40
0.3448275862
 40
0.3793103448
 40
0.4137931034
 40
0.4482758621
 40
0.4827586207
 40
0.5172413793
 40
0.5517241379
 40
0.5862068966
 40
0.6206896552
 40
0.6551724138
 40
0.6896551724
 40
0.724137931
 40
0.7586206897
 40
0.7931034483
 40
0.8275862069
 40
0.8620689655
 40
0.8965517241
 40
0.9310344828
 40
0.9655172414
 40
1.0
 40
1.0
 40
1.0
 40
1.0
 10
87.3398058252
 20
133.0830097087
 30
0.0
 10
87.3398152683
 20
133.0830097087
 30
0.0
 10
87.340693038
 20
133.0752309855
 30
0.0
 10
87.3446605862
 20
133.0402598765
 30
0.0
 10
87.3510563001
 20
132.9824567778
 30
0.0
 10
87.359623279
 20
132.9022092843
 30
0.0
 10
87.3699333753
 20
132.8007309932
 30
0.0
 10
87.381560915
 20
132.6786324552
 30
0.0
 10
87.3938945894
 20
132.5380796675
 30
0.0
 10
87.4064281465
 20
132.3798353433
 30
0.0
 10
87.4184801924
 20
132.2070002626
 30
0.0
 10
87.4295687966
 20
132.0203436314
 30
0.0
 10
87.4390846758
 20
131.8237107877
 30
0.0
 10
87.4466640586
 20
131.6177148421
 30
0.0
 10
87.4518929231
 20
131.4066582219
 30
0.0
 10
87.454580165
 20
131.1909435919
 30
0.0
 10
87.4545801663
 20
130.9750760028
 30
0.0
 10
87.4518929256
 20
130.7593613375
 30
0.0
 10
87.4466640649
 20
130.5483047745
 30
0.0
 10
87.43908468
 20
130.3423087314
 30
0.0
 10
87.4295688075
 20
130.1456759863
 30
0.0
 10
87.4184801966
 20
129.9590192184
 30
0.0
 10
87.4064281597
 20
129.7861842513
 30
0.0
 10
87.3938945923
 20
129.6279397832
 30
0.0
 10
87.3815609268
 20
129.487387092
 30
0.0
 10
87.3699333767
 20
129.365288437
 30
0.0
 10
87.3596232864
 20
129.2638102041
 30
0.0
 10
87.3510563004
 20
129.1835626416
 30
0.0
 10
87.3446605884
 20
129.1257595609
 30
0.0
 10
87.3406930378
 20
129.0907884289
 30
0.0
 10
87.3398152682
 20
129.0830097087
 30
0.0
 10
87.3398058252
 20
129.0830097087
 30
0.0
  0
SPLINE
  5
2BE
100
AcDbEntity
  8
0
100
AcDbSpline
 62
2
  6
CONTINUOUS
 70
0
 71
3
 72
36
 73
32
 74
0
 42
0.0000001
 43
0.0000001
 44
0.0000000001
 40
0.0
 40
0.0
 40
0.0
 40
0.0
 40
0.0344827586
 40
0.0689655172
 40
0.1034482759
 40
0.1379310345
 40
0.1724137931
 40
0.2068965517
 40
0.2413793103
 40
0.275862069
 40
0.3103448276
 40
0.3448275862
 40
0.3793103448
 40
0.4137931034
 40
0.4482758621
 40
0.4827586207
 40
0.5172413793
 40
0.5517241379
 40
0.5862068966
 40
0.6206896552
 40
0.6551724138
 40
0.6896551724
 40
0.724137931
 40
0.7586206897
 40
0.7931034483
 40
0.8275862069
 40
0.8620689655
 40
0.8965517241
 40
0.9310344828
 40
0.9655172414
 40
1.0
 40
1.0
 40
1.0
 40
1.0
 10
122.3398058252
 20
129.0830097087
 30
0.0
 10
122.3397963822
 20
129.0830097087
 30
0.0
 10
122.3389186125
 20
129.090788432
 30
0.0
 10
122.3349510643
 20
129.125759541
 30
0.0
 10
122.3285553504
 20
129.1835626397
 30
0.0
 10
122.3199883715
 20
129.2638101331
 30
0.0
 10
122.3096782752
 20
129.3652884243
 30
0.0
 10
122.2980507355
 20
129.4873869623
 30
0.0
 10
122.2857170611
 20
129.62793975
 30
0.0
 10
122.273183504
 20
129.7861840742
 30
0.0
 10
122.2611314581
 20
129.9590191549
 30
0.0
 10
122.2500428538
 20
130.145675786
 30
0.0
 10
122.2405269747
 20
130.3423086298
 30
0.0
 10
122.2329475919
 20
130.5483045754
 30
0.0
 10
122.2277187274
 20
130.7593611956
 30
0.0
 10
122.2250314855
 20
130.9750758256
 30
0.0
 10
122.2250314842
 20
131.1909434147
 30
0.0
 10
122.2277187249
 20
131.40665808
 30
0.0
 10
122.2329475856
 20
131.6177146429
 30
0.0
 10
122.2405269705
 20
131.8237106861
 30
0.0
 10
122.250042843
 20
132.0203434311
 30
0.0
 10
122.2611314539
 20
132.2070001991
 30
0.0
 10
122.2731834908
 20
132.3798351662
 30
0.0
 10
122.2857170582
 20
132.5380796343
 30
0.0
 10
122.2980507237
 20
132.6786323255
 30
0.0
 10
122.3096782738
 20
132.8007309805
 30
0.0
 10
122.3199883641
 20
132.9022092134
 30
0.0
 10
122.3285553501
 20
132.9824567759
 30
0.0
 10
122.3349510621
 20
133.0402598566
 30
0.0
 10
122.3389186127
 20
133.0752309886
 30
0.0
 10
122.3397963823
 20
133.0830097087
 30
0.0
 10
122.3398058252
 20
133.0830097087
 30
0.0
  0
LINE
  5
2BF
100
AcDbEntity
  8
0
100
AcDbLine
 62
7
  6
CONTINUOUS
 10
121.9818340905
 20
130.0330097087
 11
122.2166536058
 21
129.7830097087
  0
SPLINE
  5
2C0
100
AcDbEntity
  8
0
100
AcDbSpline
 62
7
  6
CONTINUOUS
 70
0
 71
3
 72
9
 73
5
 74
0
 42
0.0000001
 43
0.0000001
 44
0.0000000001
 40
0.0
 40
0.0
 40
0.0
 40
0.0
 40
0.0628219131
 40
1.0
 40
1.0
 40
1.0
 40
1.0
 10
122.3398058252
 20
128.6330097087
 30
0.0
 10
122.3409173535
 20
128.6240320583
 30
0.0
 10
122.3009643876
 20
128.918366692
 30
0.0
 10
122.3004942851
 20
128.9274507583
 30
0.0
 10
122.2850002822
 20
129.0615096585
 30
0.0
  0
SPLINE
  5
2C1
100
AcDbEntity
  8
0
100
AcDbSpline
 62
7
  6
CONTINUOUS
 70
0
 71
3
 72
16
 73
12
 74
0
 42
0.0000001
 43
0.0000001
 44
0.0000000001
 40
0.0
 40
0.0
 40
0.0
 40
0.0
 40
0.004645414
 40
0.0185504146
 40
0.0416616779
 40
0.073779029
 40
0.1636620537
 40
0.2853663008
 40
0.4351696705
 40
0.6078566654
 40
1.0
 40
1.0
 40
1.0
 40
1.0
 10
122.0898058252
 20
133.2830097087
 30
0.0
 10
122.0898058252
 20
133.2801025315
 30
0.0
 10
122.0874251316
 20
133.2686457077
 30
0.0
 10
122.0850389149
 20
133.2427214566
 30
0.0
 10
122.0792223826
 20
133.1998169864
 30
0.0
 10
122.068616756
 20
133.1096411578
 30
0.0
 10
122.0510204052
 20
132.9581319643
 30
0.0
 10
122.027937229
 20
132.7331458895
 30
0.0
 10
122.003561476
 20
132.4562178054
 30
0.0
 10
121.9719731233
 20
132.0100902035
 30
0.0
 10
121.9578573875
 20
131.6567492191
 30
0.0
 10
121.9532248963
 20
131.4113831342
 30
0.0
  0
SPLINE
  5
2C2
100
AcDbEntity
  8
0
100
AcDbSpline
 62
7
  6
CONTINUOUS
 70
0
 71
3
 72
22
 73
18
 74
0
 42
0.0000001
 43
0.0000001
 44
0.0000000001
 40
0.0
 40
0.0
 40
0.0
 40
0.0
 40
0.1945595639
 40
0.3818957021
 40
0.5546041421
 40
0.7062166405
 40
0.7722234262
 40
0.8308303645
 40
0.8814388086
 40
0.9235378082
 40
0.9567429226
 40
0.9698930459
 40
0.9806893393
 40
0.989114002
 40
0.9951512172
 40
0.9987851606
 40
1.0
 40
1.0
 40
1.0
 40
1.0
 10
87.6941866201
 20
131.0830097087
 30
0.0
 10
87.6941866976
 20
131.2064768754
 30
0.0
 10
87.691581617
 20
131.4488352328
 30
0.0
 10
87.6804326535
 20
131.8006330045
 30
0.0
 10
87.6637351785
 20
132.1249197581
 30
0.0
 10
87.6465944765
 20
132.3720393183
 30
0.0
 10
87.6323952791
 20
132.5467574265
 30
0.0
 10
87.6226273024
 20
132.657523493
 30
0.0
 10
87.613633423
 20
132.7531273771
 30
0.0
 10
87.6057365678
 20
132.8326356319
 30
0.0
 10
87.5999853119
 20
132.8884842341
 30
0.0
 10
87.5961140446
 20
132.9245285587
 30
0.0
 10
87.5940276512
 20
132.9450005547
 30
0.0
 10
87.5920466334
 20
132.960817225
 30
0.0
 10
87.5913890395
 20
132.9725041638
 30
0.0
 10
87.5895985269
 20
132.97889373
 30
0.0
 10
87.5903330954
 20
132.9824472792
 30
0.0
 10
87.5898058252
 20
132.9830097087
 30
0.0
  0
LINE
  5
2C3
100
AcDbEntity
  8
0
100
AcDbLine
 62
7
  6
CONTINUOUS
 10
87.423610393
 20
129.7830097087
 11
87.6623190558
 21
130.0330097087
  0
SPLINE
  5
2C4
100
AcDbEntity
  8
0
100
AcDbSpline
 62
7
  6
CONTINUOUS
 70
0
 71
3
 72
15
 73
11
 74
0
 42
0.0000001
 43
0.0000001
 44
0.0000000001
 40
0.0
 40
0.0
 40
0.0
 40
0.0
 40
0.1273351858
 40
0.2523453572
 40
0.3765057399
 40
0.4999967729
 40
0.6234866671
 40
0.7476446241
 40
0.8726537282
 40
1.0
 40
1.0
 40
1.0
 40
1.0
 10
110.9422612087
 20
139.1600623668
 30
0.0
 10
110.5242139732
 20
138.7752490872
 30
0.0
 10
109.6217737812
 20
138.0883225016
 30
0.0
 10
108.1076087553
 20
137.3390820421
 30
0.0
 10
106.4983173137
 20
136.8840074943
 30
0.0
 10
104.8398545081
 20
136.7326518768
 30
0.0
 10
103.1814008089
 20
136.8839886316
 30
0.0
 10
101.5721247084
 20
137.3390382443
 30
0.0
 10
100.0579148878
 20
138.0882654394
 30
0.0
 10
99.1554362209
 20
138.775217918
 30
0.0
 10
98.7373504418
 20
139.1600623668
 30
0.0
  0
ENDSEC
  0
SECTION
  2
OBJECTS
  0
DICTIONARY
  5
C
100
AcDbDictionary
280
0
281
1
  3
ACAD_GROUP
350
D
  3
ACAD_MLINESTYLE
350
17
  3
ACAD_LAYOUT
350
1A
  3
ACAD_PLOTSETTINGS
350
19
  3
ACAD_PLOTSTYLENAME
350
E
  0
DICTIONARY
  5
D
102
{ACAD_REACTORS
330
C
102
}
100
AcDbDictionary
280
0
281
1
  0
ACDBDICTIONARYWDFLT
  5
E
102
{ACAD_REACTORS
330
C
102
}
100
AcDbDictionary
281
1
  3
Normal
350
F
100
AcDbDictionaryWithDefault
340
F
  0
DICTIONARY
  5
17
102
{ACAD_REACTORS
330
C
102
}
100
AcDbDictionary
280
0
281
1
  3
Standard
350
18
  0
DICTIONARY
  5
19
102
{ACAD_REACTORS
330
C
102
}
100
AcDbDictionary
281
1
  0
DICTIONARY
  5
1A
102
{ACAD_REACTORS
330
C
102
}
100
AcDbDictionary
281
1
  3
Model
350
2C5
  3
Layout1
350
2C6
  0
ACDBPLACEHOLDER
  5
F
102
{ACAD_REACTORS
330
E
102
}
  0
MLINESTYLE
  5
18
102
{ACAD_REACTORS
330
17
102
}
100
AcDbMlineStyle
  2
STANDARD
 70
0
  3

 62
256
 51
90.0
 52
90.0
 71
2
 49
0.5
 62
256
  6
BYLAYER
 49
-0.5
 62
256
  6
BYLAYER
  0
LAYOUT
  5
2C5
102
{ACAD_REACTORS
330
1A
102
}
100
AcDbPlotSettings
  1

  2
none_device
  4

  6

 40
0.0
 41
0.0
 42
0.0
 43
0.0
 44
210.0
 45
297.0
 46
0.0
 47
0.0
 48
0.0
 49
0.0
140
0.0
141
0.0
142
1.0
143
1.0
 70
1024
 72
1
 73
0
 74
0
  7

 75
0
147
1.0
148
0.0
149
0.0
100
AcDbLayout
  1
Model
 70
0
 71
0
 10
0.0
 20
0.0
 11
210.0
 21
297.0
 12
0.0
 22
0.0
 32
0.0
 14
0.0
 24
0.0
 34
0.0
 15
0.0
 25
0.0
 35
0.0
146
0.0
 13
0.0
 23
0.0
 33
0.0
 16
1.0
 26
0.0
 36
0.0
 17
0.0
 27
1.0
 37
0.0
 76
0
330
20F
345
0
346
0
  0
LAYOUT
  5
2C6
102
{ACAD_REACTORS
330
1A
102
}
100
AcDbPlotSettings
  1

  2
none_device
  4

  6

 40
0.0
 41
0.0
 42
0.0
 43
0.0
 44
210.0
 45
297.0
 46
0.0
 47
0.0
 48
0.0
 49
0.0
140
0.0
141
0.0
142
1.0
143
1.0
 70
0
 72
1
 73
0
 74
0
  7

 75
0
147
1.0
148
0.0
149
0.0
100
AcDbLayout
  1
Layout1
 70
0
 71
1
 10
0.0
 20
0.0
 11
210.0
 21
297.0
 12
0.0
 22
0.0
 32
0.0
 14
0.0
 24
0.0
 34
0.0
 15
0.0
 25
0.0
 35
0.0
146
0.0
 13
0.0
 23
0.0
 33
0.0
 16
1.0
 26
0.0
 36
0.0
 17
0.0
 27
1.0
 37
0.0
 76
0
330
210
345
0
346
0
  0
ENDSEC
  0
EOF
