999
DXF file: 23611-mod.dxf
999
Pro/ENGINEER 2009300 by Parametric Technology Corporation
  0
SECTION
  2
HEADER
  9
$ACADVER
  1
AC1018
  9
$DWGCODEPAGE
  3
ANSI_1252
  9
$EXTMAX
 10
420.0
 20
297.0
 30
0.0
  9
$EXTMIN
 10
0.0
 20
0.0
 30
0.0
  9
$LIMMIN
 10
0.0
 20
0.0
  9
$LIMMAX
 10
420.0
 20
297.0
  9
$VIEWCTR
 10
210.0
 20
148.5
  9
$VIEWSIZE
 40
297.0
  9
$CLAYER
  8
0
  9
$LTSCALE
 40
23.1
  9
$CELTYPE
  6
BYLAYER
  9
$DIMSCALE
 40
1.0
  9
$DIMASZ
 40
4.76
  9
$DIMEXO
 40
2.625
  9
$DIMDLI
 40
15.96
  9
$DIMEXE
 40
7.56
  9
$DIMCEN
 40
3.78
  9
$DIMLFAC
 40
1.0
  9
$DIMBLK
  1
_FILLED
  9
$DIMTXT
 40
1.5
  9
$DIMTOL
 70
1
  9
$DIMLIM
 70
0
  9
$DIMTFAC
 40
1.0
  9
$DIMTP
 40
0.001
  9
$DIMTM
 40
0.001
  9
$PDMODE
 70
3
  9
$PDSIZE
 40
0.3125
  9
$HANDSEED
  5
2F2
  9
$TILEMODE
 70
1
  9
$MEASUREMENT
 70
1
  9
$INSUNITS
 70
4
  0
ENDSEC
  0
SECTION
  2
CLASSES
  0
CLASS
  1
ACDBDICTIONARYWDFLT
  2
AcDbDictionaryWithDefault
  3
AutoCAD 2000
 90
0
 91
1
280
0
281
0
  0
CLASS
  1
ACDBPLACEHOLDER
  2
AcDbPlaceHolder
  3
AutoCAD 2000
 90
0
 91
1
280
0
281
0
  0
CLASS
  1
LAYOUT
  2
AcDbLayout
  3
AutoCAD 2000
 90
0
 91
0
280
0
281
0
  0
ENDSEC
  0
SECTION
  2
TABLES
  0
TABLE
  2
VPORT
  5
8
100
AcDbSymbolTable
 70
2
  0
VPORT
  5
1F4
100
AcDbSymbolTableRecord
100
AcDbViewportTableRecord
  2
*ACTIVE
 70
0
 10
0.0
 20
0.0
 11
1.0
 21
1.0
 12
210.0
 22
148.5
 13
0.0
 23
0.0
 14
1.0
 24
1.0
 15
0.0
 25
0.0
 16
0.0
 26
0.0
 36
1.0
 17
0.0
 27
0.0
 37
0.0
 40
297.0
 41
1.4141414141
 42
50.0
 43
0.0
 44
0.0
 50
0.0
 51
0.0
 71
0
 72
100
 73
1
 74
1
 75
0
 76
0
 77
0
 78
0
  0
ENDTAB
  0
TABLE
  2
LTYPE
  5
5
100
AcDbSymbolTable
 70
6
  0
LTYPE
  5
14
100
AcDbSymbolTableRecord
100
AcDbLinetypeTableRecord
  2
BYBLOCK
 70
0
  3

 72
65
 73
0
 40
0.0
  0
LTYPE
  5
15
100
AcDbSymbolTableRecord
100
AcDbLinetypeTableRecord
  2
BYLAYER
 70
0
  3

 72
65
 73
0
 40
0.0
  0
LTYPE
  5
16
100
AcDbSymbolTableRecord
100
AcDbLinetypeTableRecord
  2
CONTINUOUS
 70
64
  3
Solid line
 72
65
 73
0
 40
0.0
  0
LTYPE
  5
1F5
100
AcDbSymbolTableRecord
100
AcDbLinetypeTableRecord
  2
CENTER
 70
64
  3
____ _ ____ _ ____ _ ____ _ ____ _ ____ _ ____
 72
65
 73
4
 40
0.6
 49
0.375
 74
0
 49
-0.075
 74
0
 49
0.075
 74
0
 49
-0.075
 74
0
  0
LTYPE
  5
1F6
100
AcDbSymbolTableRecord
100
AcDbLinetypeTableRecord
  2
HIDDEN
 70
64
  3
- - - - - - - - - - - - - - - - - - - -
 72
65
 73
2
 40
0.2
 49
0.1
 74
0
 49
-0.1
 74
0
  0
LTYPE
  5
1F7
100
AcDbSymbolTableRecord
100
AcDbLinetypeTableRecord
  2
PHANTOM
 70
64
  3
_____ _ _ _____ _ _ _____ _ _ _____
 72
65
 73
6
 40
0.8
 49
0.45
 74
0
 49
-0.05
 74
0
 49
0.1
 74
0
 49
-0.05
 74
0
 49
0.1
 74
0
 49
-0.05
 74
0
  0
LTYPE
  5
1F8
100
AcDbSymbolTableRecord
100
AcDbLinetypeTableRecord
  2
DOT
 70
64
  3
. . . . . . . . . . . . . . . . . . . .
 72
65
 73
2
 40
0.2
 49
0.1
 74
0
 49
-0.1
 74
0
  0
LTYPE
  5
1F9
100
AcDbSymbolTableRecord
100
AcDbLinetypeTableRecord
  2
DASHED
 70
64
  3
- - - - - - - - - - - - - - - - - - - -
 72
65
 73
2
 40
0.2
 49
0.1
 74
0
 49
-0.1
 74
0
  0
ENDTAB
  0
TABLE
  2
LAYER
  5
2
100
AcDbSymbolTable
 70
36
  0
LAYER
  5
10
100
AcDbSymbolTableRecord
100
AcDbLayerTableRecord
  2
0
 70
0
 62
7
  6
CONTINUOUS
370
-3
390
F
  0
LAYER
  5
1FA
100
AcDbSymbolTableRecord
100
AcDbLayerTableRecord
  2
DEFAULT_1
 70
0
 62
7
  6
CENTER
370
-3
390
F
  0
LAYER
  5
1FB
100
AcDbSymbolTableRecord
100
AcDbLayerTableRecord
  2
DEFAULT_2
 70
0
 62
8
  6
HIDDEN
370
-3
390
F
  0
LAYER
  5
1FC
100
AcDbSymbolTableRecord
100
AcDbLayerTableRecord
  2
DEFAULT_3
 70
0
 62
7
  6
PHANTOM
370
-3
390
F
  0
LAYER
  5
1FD
100
AcDbSymbolTableRecord
100
AcDbLayerTableRecord
  2
1_ALL_PLANES
 70
0
 62
7
  6
CONTINUOUS
370
-3
390
F
  0
LAYER
  5
1FE
100
AcDbSymbolTableRecord
100
AcDbLayerTableRecord
  2
1__DEF_PLANES
 70
0
 62
7
  6
CONTINUOUS
370
-3
390
F
  0
LAYER
  5
1FF
100
AcDbSymbolTableRecord
100
AcDbLayerTableRecord
  2
2_ALL_CSYS
 70
0
 62
7
  6
CONTINUOUS
370
-3
390
F
  0
LAYER
  5
200
100
AcDbSymbolTableRecord
100
AcDbLayerTableRecord
  2
2__DEF_CSYS
 70
0
 62
7
  6
CONTINUOUS
370
-3
390
F
  0
LAYER
  5
201
100
AcDbSymbolTableRecord
100
AcDbLayerTableRecord
  2
3_ALL_AXES
 70
0
 62
7
  6
CONTINUOUS
370
-3
390
F
  0
LAYER
  5
202
100
AcDbSymbolTableRecord
100
AcDbLayerTableRecord
  2
CURVE
 70
0
 62
7
  6
CONTINUOUS
370
-3
390
F
  0
LAYER
  5
203
100
AcDbSymbolTableRecord
100
AcDbLayerTableRecord
  2
XSEC_DATUMS
 70
0
 62
7
  6
CONTINUOUS
370
-3
390
F
  0
ENDTAB
  0
TABLE
  2
STYLE
  5
3
100
AcDbSymbolTable
 70
1
  0
STYLE
  5
11
100
AcDbSymbolTableRecord
100
AcDbTextStyleTableRecord
  2
STANDARD
 70
0
 40
0.0
 41
1.2
 50
0.0
 71
0
 42
0.2
  3
txt
  4

  0
STYLE
  5
204
100
AcDbSymbolTableRecord
100
AcDbTextStyleTableRecord
  2
TEXTSTYLE_1
 70
0
 40
0.0
 41
0.8
 50
0.0
 71
0
 42
0.2
  3
gdt
  4

  0
STYLE
  5
205
100
AcDbSymbolTableRecord
100
AcDbTextStyleTableRecord
  2
TEXTSTYLE_2
 70
0
 40
0.0
 41
1.2
 50
0.0
 71
0
 42
0.2
  3
gdt
  4

  0
ENDTAB
  0
TABLE
  2
VIEW
  5
6
100
AcDbSymbolTable
 70
0
  0
ENDTAB
  0
TABLE
  2
UCS
  5
7
100
AcDbSymbolTable
 70
0
  0
ENDTAB
  0
TABLE
  2
APPID
  5
9
100
AcDbSymbolTable
 70
1
  0
APPID
  5
206
100
AcDbSymbolTableRecord
100
AcDbRegAppTableRecord
  2
ACAD
 70
0
  0
ENDTAB
  0
TABLE
  2
BLOCK_RECORD
  5
1
100
AcDbSymbolTable
 70
0
  0
BLOCK_RECORD
  5
207
100
AcDbSymbolTableRecord
100
AcDbBlockTableRecord
  2
*Model_Space
  0
BLOCK_RECORD
  5
208
100
AcDbSymbolTableRecord
100
AcDbBlockTableRecord
  2
*Paper_Space
  0
BLOCK_RECORD
  5
209
100
AcDbSymbolTableRecord
100
AcDbBlockTableRecord
  2
_FILLED
  0
BLOCK_RECORD
  5
20A
100
AcDbSymbolTableRecord
100
AcDbBlockTableRecord
  2
*D0
  0
BLOCK_RECORD
  5
20B
100
AcDbSymbolTableRecord
100
AcDbBlockTableRecord
  2
*D1
  0
BLOCK_RECORD
  5
20C
100
AcDbSymbolTableRecord
100
AcDbBlockTableRecord
  2
*D2
  0
BLOCK_RECORD
  5
20D
100
AcDbSymbolTableRecord
100
AcDbBlockTableRecord
  2
*D3
  0
BLOCK_RECORD
  5
20E
100
AcDbSymbolTableRecord
100
AcDbBlockTableRecord
  2
*D4
  0
ENDTAB
  0
TABLE
  2
DIMSTYLE
  5
A
100
AcDbSymbolTable
 70
1
100
AcDbDimStyleTable
 71
0
  0
DIMSTYLE
105
20F
100
AcDbSymbolTableRecord
100
AcDbDimStyleTableRecord
  2
STANDARD
 70
0
  3

  4

 40
1.0
 41
4.76
 42
0.0625
 43
0.38
 44
0.18
 45
0.0
 46
0.0
 47
0.001
 48
0.001
140
1.5
141
0.09
142
0.0
143
25.4
144
1.0
145
0.0
146
1.0
147
0.09
 71
1.0
 72
0.0
 73
0
 74
0
 75
0
 76
0
 77
1
 78
8
170
0
171
2
172
0
173
0
174
0
175
0
176
0
177
0
178
5
270
2
271
3
272
3
273
2
274
2
275
0
280
0
281
0
282
0
283
1
284
8
285
0
286
0
287
3
288
0
340
11
341
209
342
209
343
209
344
209
  0
DIMSTYLE
105
210
100
AcDbSymbolTableRecord
100
AcDbDimStyleTableRecord
  2
DIMSTYLE_1
 70
0
  3

  4

 40
1.0
 41
4.76
 42
0.0625
 43
0.38
 44
0.18
 45
0.0
 46
0.0
 47
0.1
 48
0.1
140
1.5
141
0.09
142
0.0
143
25.4
144
1.0
145
0.0
146
1.0
147
0.09
 71
0.0
 72
0.0
 73
0
 74
0
 75
0
 76
0
 77
1
 78
8
170
0
171
2
172
0
173
0
174
0
175
0
176
0
177
0
178
5
270
2
271
3
272
3
273
2
274
2
275
0
280
0
281
0
282
0
283
1
284
8
285
0
286
0
287
3
288
0
340
11
341
209
342
209
343
209
344
209
  0
DIMSTYLE
105
211
100
AcDbSymbolTableRecord
100
AcDbDimStyleTableRecord
  2
DIMSTYLE_2
 70
0
  3

  4

 40
1.0
 41
4.76
 42
0.0625
 43
0.38
 44
0.18
 45
0.0
 46
0.0
 47
0.2
 48
0.2
140
1.5
141
0.09
142
0.0
143
25.4
144
1.0
145
0.0
146
1.0
147
0.09
 71
0.0
 72
0.0
 73
0
 74
0
 75
0
 76
0
 77
1
 78
8
170
0
171
2
172
0
173
0
174
0
175
0
176
0
177
0
178
5
270
2
271
3
272
3
273
2
274
2
275
0
280
0
281
0
282
0
283
1
284
8
285
0
286
0
287
3
288
0
340
11
341
209
342
209
343
209
344
209
  0
DIMSTYLE
105
212
100
AcDbSymbolTableRecord
100
AcDbDimStyleTableRecord
  2
DIMSTYLE_3
 70
0
  3

  4

 40
1.0
 41
4.76
 42
0.0625
 43
0.38
 44
0.18
 45
0.0
 46
0.0
 47
0.3
 48
0.3
140
1.5
141
0.09
142
0.0
143
25.4
144
1.0
145
0.0
146
1.0
147
0.09
 71
0.0
 72
0.0
 73
0
 74
0
 75
0
 76
0
 77
1
 78
8
170
0
171
2
172
0
173
0
174
0
175
0
176
0
177
0
178
5
270
2
271
3
272
3
273
2
274
2
275
0
280
0
281
0
282
0
283
1
284
8
285
0
286
0
287
3
288
0
340
11
341
209
342
209
343
209
344
209
  0
ENDTAB
  0
ENDSEC
  0
SECTION
  2
BLOCKS
  0
BLOCK
  5
20
100
AcDbEntity
  8
0
100
AcDbBlockBegin
  2
*Model_Space
 70
0
 10
0.0
 20
0.0
 30
0.0
  3
*Model_Space
  1

  0
ENDBLK
  5
21
100
AcDbEntity
  8
0
100
AcDbBlockEnd
  0
BLOCK
  5
1C
100
AcDbEntity
  8
0
100
AcDbBlockBegin
  2
*Paper_Space
 70
0
 10
0.0
 20
0.0
 30
0.0
  3
*Paper_Space
  1

  0
ENDBLK
  5
1D
100
AcDbEntity
  8
0
100
AcDbBlockEnd
  0
BLOCK
  5
213
100
AcDbEntity
  8
0
100
AcDbBlockBegin
  2
_FILLED
 70
64
 10
0.0
 20
0.0
  3
_FILLED
  1

  0
SOLID
  5
214
100
AcDbEntity
  8
0
  6
BYBLOCK
 62
0
100
AcDbTrace
 10
0.0
 20
0.0
 11
-1.0
 21
0.1050420168
 12
-1.0
 22
-0.1050420168
 13
-1.0
 23
-0.1050420168
  0
ENDBLK
  5
215
100
AcDbEntity
  8
0
  6
BYBLOCK
 62
0
100
AcDbBlockEnd
  0
BLOCK
  5
216
100
AcDbEntity
  8
0
100
AcDbBlockBegin
 62
2
  6
CONTINUOUS
  2
*D0
 70
65
 10
0.0
 20
0.0
  3
*D0
  1

  0
MTEXT
  5
217
100
AcDbEntity
  8
0
100
AcDbMText
 62
5
  6
CONTINUOUS
  7
STANDARD
 71
1
 72
1
 10
362.5417819398
 20
129.7560011985
 30
0.0
 11
0.0
 21
1.0
 31
0.0
 44
0.9
  1
4.5
 40
1.5
 41
6.9428571429
  0
LINE
  5
218
100
AcDbEntity
  8
0
100
AcDbLine
 62
2
  6
CONTINUOUS
 10
346.0779775434
 20
121.0178079044
 11
365.6846390826
 21
121.0178079044
  0
LINE
  5
219
100
AcDbEntity
  8
0
100
AcDbLine
 62
2
  6
CONTINUOUS
 10
347.0529775434
 20
116.5178079044
 11
365.6846390826
 21
116.5178079044
  0
LINE
  5
21A
100
AcDbEntity
  8
0
100
AcDbLine
 62
2
  6
CONTINUOUS
 10
364.6846390826
 20
121.0178079044
 11
364.6846390826
 21
136.6988583414
  0
LINE
  5
21B
100
AcDbEntity
  8
0
100
AcDbLine
 62
2
  6
CONTINUOUS
 10
364.6846390826
 20
136.6988583414
 11
364.6846390826
 21
118.7678079044
  0
LINE
  5
21C
100
AcDbEntity
  8
0
100
AcDbLine
 62
2
  6
CONTINUOUS
 10
364.6846390826
 20
116.5178079044
 11
364.6846390826
 21
108.5178079044
  0
LINE
  5
21D
100
AcDbEntity
  8
0
100
AcDbLine
 62
2
  6
CONTINUOUS
 10
364.6846390826
 20
108.5178079044
 11
364.6846390826
 21
118.7678079044
  0
INSERT
  5
21E
100
AcDbEntity
  8
0
100
AcDbBlockReference
 62
2
  6
CONTINUOUS
  2
_FILLED
 10
364.6846390826
 20
121.0178079044
 41
4.76
 42
4.76
 43
4.76
 50
270.0
  0
INSERT
  5
21F
100
AcDbEntity
  8
0
100
AcDbBlockReference
 62
2
  6
CONTINUOUS
  2
_FILLED
 10
364.6846390826
 20
116.5178079044
 41
4.76
 42
4.76
 43
4.76
 50
90.0
  0
ENDBLK
  5
220
100
AcDbEntity
  8
0
  6
BYBLOCK
 62
0
100
AcDbBlockEnd
  0
BLOCK
  5
221
100
AcDbEntity
  8
0
100
AcDbBlockBegin
 62
2
  6
CONTINUOUS
  2
*D1
 70
65
 10
0.0
 20
0.0
  3
*D1
  1

  0
MTEXT
  5
222
100
AcDbEntity
  8
0
100
AcDbMText
 62
5
  6
CONTINUOUS
  7
STANDARD
 71
2
 72
1
 10
372.6342574221
 20
108.5178079044
 30
0.0
 11
0.0
 21
1.0
 31
0.0
 44
0.9
  1
16
 40
1.5
 41
4.6285714286
  0
LINE
  5
223
100
AcDbEntity
  8
0
100
AcDbLine
 62
2
  6
CONTINUOUS
 10
347.0529775434
 20
116.5178079044
 11
375.777114565
 21
116.5178079044
  0
LINE
  5
224
100
AcDbEntity
  8
0
100
AcDbLine
 62
2
  6
CONTINUOUS
 10
339.8029775434
 20
100.5178079044
 11
375.777114565
 21
100.5178079044
  0
LINE
  5
225
100
AcDbEntity
  8
0
100
AcDbLine
 62
2
  6
CONTINUOUS
 10
374.777114565
 20
116.5178079044
 11
374.777114565
 21
108.5178079044
  0
LINE
  5
226
100
AcDbEntity
  8
0
100
AcDbLine
 62
2
  6
CONTINUOUS
 10
374.777114565
 20
100.5178079044
 11
374.777114565
 21
108.5178079044
  0
INSERT
  5
227
100
AcDbEntity
  8
0
100
AcDbBlockReference
 62
2
  6
CONTINUOUS
  2
_FILLED
 10
374.777114565
 20
116.5178079044
 41
4.76
 42
4.76
 43
4.76
 50
90.0
  0
INSERT
  5
228
100
AcDbEntity
  8
0
100
AcDbBlockReference
 62
2
  6
CONTINUOUS
  2
_FILLED
 10
374.777114565
 20
100.5178079044
 41
4.76
 42
4.76
 43
4.76
 50
270.0
  0
ENDBLK
  5
229
100
AcDbEntity
  8
0
  6
BYBLOCK
 62
0
100
AcDbBlockEnd
  0
BLOCK
  5
22A
100
AcDbEntity
  8
0
100
AcDbBlockBegin
 62
2
  6
CONTINUOUS
  2
*D2
 70
65
 10
0.0
 20
0.0
  3
*D2
  1

  0
MTEXT
  5
22B
100
AcDbEntity
  8
0
100
AcDbMText
 62
5
  6
CONTINUOUS
  7
TEXTSTYLE_2
 71
2
 72
1
 10
330.2029775434
 20
87.0332545046
 30
0.0
 11
1.0
 21
0.0
 31
0.0
 44
0.9
  1
{\Fgdt;n}\Ftxt;20
 40
1.5
 41
6.6285714286
  0
LINE
  5
22C
100
AcDbEntity
  8
0
100
AcDbLine
 62
2
  6
CONTINUOUS
 10
340.2029775434
 20
100.9178079044
 11
340.2029775434
 21
83.8903973618
  0
LINE
  5
22D
100
AcDbEntity
  8
0
100
AcDbLine
 62
2
  6
CONTINUOUS
 10
320.2029775434
 20
100.9178079044
 11
320.2029775434
 21
83.8903973618
  0
LINE
  5
22E
100
AcDbEntity
  8
0
100
AcDbLine
 62
2
  6
CONTINUOUS
 10
340.2029775434
 20
84.8903973618
 11
330.2029775434
 21
84.8903973618
  0
LINE
  5
22F
100
AcDbEntity
  8
0
100
AcDbLine
 62
2
  6
CONTINUOUS
 10
320.2029775434
 20
84.8903973618
 11
330.2029775434
 21
84.8903973618
  0
INSERT
  5
230
100
AcDbEntity
  8
0
100
AcDbBlockReference
 62
2
  6
CONTINUOUS
  2
_FILLED
 10
340.2029775434
 20
84.8903973618
 41
4.76
 42
4.76
 43
4.76
  0
INSERT
  5
231
100
AcDbEntity
  8
0
100
AcDbBlockReference
 62
2
  6
CONTINUOUS
  2
_FILLED
 10
320.2029775434
 20
84.8903973618
 41
4.76
 42
4.76
 43
4.76
 50
180.0
  0
ENDBLK
  5
232
100
AcDbEntity
  8
0
  6
BYBLOCK
 62
0
100
AcDbBlockEnd
  0
BLOCK
  5
233
100
AcDbEntity
  8
0
100
AcDbBlockBegin
 62
2
  6
CONTINUOUS
  2
*D3
 70
65
 10
0.0
 20
0.0
  3
*D3
  1

  0
MTEXT
  5
234
100
AcDbEntity
  8
0
100
AcDbMText
 62
5
  6
CONTINUOUS
  7
TEXTSTYLE_2
 71
2
 72
1
 10
330.2029775434
 20
75.3424648124
 30
0.0
 11
1.0
 21
0.0
 31
0.0
 44
0.9
  1
{\Fgdt;n}\Ftxt;34.5
 40
1.5
 41
11.2571428571
  0
LINE
  5
235
100
AcDbEntity
  8
0
100
AcDbLine
 62
2
  6
CONTINUOUS
 10
347.4529775434
 20
118.3630329632
 11
347.4529775434
 21
72.1996076695
  0
LINE
  5
236
100
AcDbEntity
  8
0
100
AcDbLine
 62
2
  6
CONTINUOUS
 10
312.9529775434
 20
118.3630329632
 11
312.9529775434
 21
72.1996076695
  0
LINE
  5
237
100
AcDbEntity
  8
0
100
AcDbLine
 62
2
  6
CONTINUOUS
 10
347.4529775434
 20
73.1996076695
 11
330.2029775434
 21
73.1996076695
  0
LINE
  5
238
100
AcDbEntity
  8
0
100
AcDbLine
 62
2
  6
CONTINUOUS
 10
312.9529775434
 20
73.1996076695
 11
330.2029775434
 21
73.1996076695
  0
INSERT
  5
239
100
AcDbEntity
  8
0
100
AcDbBlockReference
 62
2
  6
CONTINUOUS
  2
_FILLED
 10
347.4529775434
 20
73.1996076695
 41
4.76
 42
4.76
 43
4.76
  0
INSERT
  5
23A
100
AcDbEntity
  8
0
100
AcDbBlockReference
 62
2
  6
CONTINUOUS
  2
_FILLED
 10
312.9529775434
 20
73.1996076695
 41
4.76
 42
4.76
 43
4.76
 50
180.0
  0
ENDBLK
  5
23B
100
AcDbEntity
  8
0
  6
BYBLOCK
 62
0
100
AcDbBlockEnd
  0
BLOCK
  5
23C
100
AcDbEntity
  8
0
100
AcDbBlockBegin
 62
2
  6
CONTINUOUS
  2
*D4
 70
65
 10
0.0
 20
0.0
  3
*D4
  1

  0
MTEXT
  5
23D
100
AcDbEntity
  8
0
100
AcDbMText
 62
5
  6
CONTINUOUS
  7
TEXTSTYLE_2
 71
2
 72
1
 10
330.2029775434
 20
184.2630314006
 30
0.0
 11
1.0
 21
0.0
 31
0.0
 44
0.9
  1
{\Fgdt;n}\Ftxt;32
 40
1.5
 41
6.6285714286
  0
LINE
  5
23E
100
AcDbEntity
  8
0
100
AcDbLine
 62
2
  6
CONTINUOUS
 10
346.2029775434
 20
145.9630956695
 11
346.2029775434
 21
183.1201742578
  0
LINE
  5
23F
100
AcDbEntity
  8
0
100
AcDbLine
 62
2
  6
CONTINUOUS
 10
314.2029775434
 20
145.7809441401
 11
314.2029775434
 21
183.1201742578
  0
LINE
  5
240
100
AcDbEntity
  8
0
100
AcDbLine
 62
2
  6
CONTINUOUS
 10
346.2029775434
 20
182.1201742578
 11
330.2029775434
 21
182.1201742578
  0
LINE
  5
241
100
AcDbEntity
  8
0
100
AcDbLine
 62
2
  6
CONTINUOUS
 10
314.2029775434
 20
182.1201742578
 11
330.2029775434
 21
182.1201742578
  0
INSERT
  5
242
100
AcDbEntity
  8
0
100
AcDbBlockReference
 62
2
  6
CONTINUOUS
  2
_FILLED
 10
346.2029775434
 20
182.1201742578
 41
4.76
 42
4.76
 43
4.76
  0
INSERT
  5
243
100
AcDbEntity
  8
0
100
AcDbBlockReference
 62
2
  6
CONTINUOUS
  2
_FILLED
 10
314.2029775434
 20
182.1201742578
 41
4.76
 42
4.76
 43
4.76
 50
180.0
  0
ENDBLK
  5
244
100
AcDbEntity
  8
0
  6
BYBLOCK
 62
0
100
AcDbBlockEnd
  0
ENDSEC
  0
SECTION
  2
ENTITIES
  0
DIMENSION
  5
245
100
AcDbEntity
  8
0
100
AcDbDimension
 62
2
  6
CONTINUOUS
  2
*D0
 10
364.6846390826
 20
116.5178079044
 11
363.2917819398
 21
133.22742977
 70
160
 71
1
 42
4.5
  3
DIMSTYLE_1
100
AcDbAlignedDimension
 13
346.0779775434
 23
121.0178079044
 14
347.0529775434
 24
116.5178079044
 50
270.0
100
AcDbRotatedDimension
  0
DIMENSION
  5
246
100
AcDbEntity
  8
0
100
AcDbDimension
 62
2
  6
CONTINUOUS
  2
*D1
 10
374.777114565
 20
100.5178079044
 11
374.4212277909
 21
106.4488441972
 70
160
 71
2
 42
16.0
  3
DIMSTYLE_2
100
AcDbAlignedDimension
 13
347.0529775434
 23
116.5178079044
 14
339.8029775434
 24
100.5178079044
 50
270.0
100
AcDbRotatedDimension
  0
DIMENSION
  5
247
100
AcDbEntity
  8
0
100
AcDbDimension
 62
2
  6
CONTINUOUS
  2
*D2
 10
320.2029775434
 20
84.8903973618
 11
328.5458346863
 21
86.2832545046
 70
160
 71
2
 42
20.0
  1
%%c<>
  3
DIMSTYLE_2
100
AcDbAlignedDimension
 13
340.2029775434
 23
100.9178079044
 14
320.2029775434
 24
100.9178079044
 50
180.0
100
AcDbRotatedDimension
  0
DIMENSION
  5
248
100
AcDbEntity
  8
0
100
AcDbDimension
 62
2
  6
CONTINUOUS
  2
*D3
 10
312.9529775434
 20
73.1996076695
 11
326.5744061149
 21
74.5924648124
 70
160
 71
2
 42
34.5
  1
%%c<>
  3
DIMSTYLE_3
100
AcDbAlignedDimension
 13
347.4529775434
 23
118.3630329632
 14
312.9529775434
 24
118.3630329632
 50
180.0
100
AcDbRotatedDimension
  0
DIMENSION
  5
249
100
AcDbEntity
  8
0
100
AcDbDimension
 62
2
  6
CONTINUOUS
  2
*D4
 10
314.2029775434
 20
182.1201742578
 11
328.5458346863
 21
183.5130314006
 70
160
 71
2
 42
32.0
  1
%%c<>
  3
DIMSTYLE_3
100
AcDbAlignedDimension
 13
346.2029775434
 23
145.9630956695
 14
314.2029775434
 24
145.7809441401
 50
180.0
100
AcDbRotatedDimension
  0
LINE
  5
24A
100
AcDbEntity
  8
0
100
AcDbLine
 62
7
  6
CONTINUOUS
 10
432.5
 20
-3.0625
 11
232.5
 21
-3.0625
  0
LINE
  5
24B
100
AcDbEntity
  8
0
100
AcDbLine
 62
7
  6
CONTINUOUS
 10
232.5
 20
-3.0625
 11
232.5
 21
283.9375
  0
LINE
  5
24C
100
AcDbEntity
  8
0
100
AcDbLine
 62
7
  6
CONTINUOUS
 10
432.5
 20
283.9375
 11
232.5
 21
283.9375
  0
LINE
  5
24D
100
AcDbEntity
  8
0
100
AcDbLine
 62
7
  6
CONTINUOUS
 10
432.5
 20
-3.0625
 11
432.5
 21
283.9375
  0
LINE
  5
24E
100
AcDbEntity
  8
0
100
AcDbLine
 62
7
  6
CONTINUOUS
 10
320.7029775434
 20
100.5178079044
 11
339.7029775434
 21
100.5178079044
  0
LINE
  5
24F
100
AcDbEntity
  8
0
100
AcDbLine
 62
7
  6
CONTINUOUS
 10
320.2029775434
 20
101.0178079044
 11
340.2029775434
 21
101.0178079044
  0
LINE
  5
250
100
AcDbEntity
  8
DEFAULT_2
100
AcDbLine
 62
8
  6
HIDDEN
 10
332.2029775434
 20
103.5225289819
 11
328.2029775434
 21
103.5225289819
  0
LINE
  5
251
100
AcDbEntity
  8
0
100
AcDbLine
 62
7
  6
CONTINUOUS
 10
320.2029775434
 20
101.0178079044
 11
320.7029775434
 21
100.5178079044
  0
LINE
  5
252
100
AcDbEntity
  8
0
100
AcDbLine
 62
7
  6
CONTINUOUS
 10
335.1459226151
 20
107.8068079044
 11
332.9529775434
 21
107.8068079044
  0
LINE
  5
253
100
AcDbEntity
  8
0
100
AcDbLine
 62
7
  6
CONTINUOUS
 10
325.2600324718
 20
107.8068079044
 11
327.4529775434
 21
107.8068079044
  0
LINE
  5
254
100
AcDbEntity
  8
DEFAULT_2
100
AcDbLine
 62
8
  6
HIDDEN
 10
331.0029775434
 20
162.7796881198
 11
330.2029775434
 21
162.3178079044
  0
LINE
  5
255
100
AcDbEntity
  8
0
100
AcDbLine
 62
7
  6
CONTINUOUS
 10
335.1459226151
 20
108.8068079044
 11
332.9529775434
 21
108.8068079044
  0
LINE
  5
256
100
AcDbEntity
  8
0
100
AcDbLine
 62
7
  6
CONTINUOUS
 10
325.2600324718
 20
108.8068079044
 11
327.4529775434
 21
108.8068079044
  0
LINE
  5
257
100
AcDbEntity
  8
0
100
AcDbLine
 62
7
  6
CONTINUOUS
 10
314.2029775434
 20
148.5178079044
 11
315.2029775434
 21
149.5178079044
  0
LINE
  5
258
100
AcDbEntity
  8
0
100
AcDbLine
 62
7
  6
CONTINUOUS
 10
312.9529775434
 20
117.0178079044
 11
313.4529775434
 21
116.5178079044
  0
LINE
  5
259
100
AcDbEntity
  8
DEFAULT_2
100
AcDbLine
 62
8
  6
HIDDEN
 10
315.2029775434
 20
150.2273268014
 11
315.3741637717
 21
150.5295680115
  0
LINE
  5
25A
100
AcDbEntity
  8
0
100
AcDbLine
 62
7
  6
CONTINUOUS
 10
326.9707335133
 20
113.5178079044
 11
320.2029775434
 21
113.5178079044
  0
LINE
  5
25B
100
AcDbEntity
  8
DEFAULT_2
100
AcDbLine
 62
8
  6
HIDDEN
 10
326.9707335133
 20
113.5178079044
 11
333.4352215736
 21
113.5178079044
  0
LINE
  5
25C
100
AcDbEntity
  8
0
100
AcDbLine
 62
7
  6
CONTINUOUS
 10
333.4352215736
 20
113.5178079044
 11
340.2029775434
 21
113.5178079044
  0
LINE
  5
25D
100
AcDbEntity
  8
0
100
AcDbLine
 62
7
  6
CONTINUOUS
 10
327.768250702
 20
113.9508206063
 11
320.4529775434
 21
113.9508206063
  0
LINE
  5
25E
100
AcDbEntity
  8
DEFAULT_2
100
AcDbLine
 62
8
  6
HIDDEN
 10
327.768250702
 20
113.9508206063
 11
332.6377043849
 21
113.9508206063
  0
LINE
  5
25F
100
AcDbEntity
  8
0
100
AcDbLine
 62
7
  6
CONTINUOUS
 10
332.6377043849
 20
113.9508206063
 11
339.9529775434
 21
113.9508206063
  0
LINE
  5
260
100
AcDbEntity
  8
0
100
AcDbLine
 62
7
  6
CONTINUOUS
 10
320.4529775434
 20
116.3678079044
 11
339.9529775434
 21
116.3678079044
  0
LINE
  5
261
100
AcDbEntity
  8
0
100
AcDbLine
 62
7
  6
CONTINUOUS
 10
313.4529775434
 20
116.5178079044
 11
346.9529775434
 21
116.5178079044
  0
LINE
  5
262
100
AcDbEntity
  8
DEFAULT_2
100
AcDbLine
 62
8
  6
HIDDEN
 10
319.2391042736
 20
116.7678079044
 11
341.1668508133
 21
116.7678079044
  0
LINE
  5
263
100
AcDbEntity
  8
0
100
AcDbLine
 62
7
  6
CONTINUOUS
 10
312.9529775434
 20
117.0178079044
 11
347.4529775434
 21
117.0178079044
  0
LINE
  5
264
100
AcDbEntity
  8
0
100
AcDbLine
 62
7
  6
CONTINUOUS
 10
312.9529775434
 20
118.4630329632
 11
312.9529775434
 21
117.0178079044
  0
LINE
  5
265
100
AcDbEntity
  8
0
100
AcDbLine
 62
7
  6
CONTINUOUS
 10
314.1779775434
 20
135.5178079044
 11
314.1779775434
 21
123.5178079044
  0
LINE
  5
266
100
AcDbEntity
  8
0
100
AcDbLine
 62
7
  6
CONTINUOUS
 10
314.2029775434
 20
148.5178079072
 11
314.2029775434
 21
138.5178079044
  0
LINE
  5
267
100
AcDbEntity
  8
0
100
AcDbLine
 62
7
  6
CONTINUOUS
 10
314.4279775434
 20
121.0178079044
 11
314.4279775434
 21
123.5178079044
  0
LINE
  5
268
100
AcDbEntity
  8
0
100
AcDbLine
 62
7
  6
CONTINUOUS
 10
314.9529775434
 20
137.9938803008
 11
314.9529775434
 21
135.5178079044
  0
LINE
  5
269
100
AcDbEntity
  8
0
100
AcDbLine
 62
7
  6
CONTINUOUS
 10
315.2029775434
 20
165.3526137764
 11
315.2029775434
 21
149.5178079044
  0
LINE
  5
26A
100
AcDbEntity
  8
0
100
AcDbLine
 62
7
  6
CONTINUOUS
 10
347.4529775434
 20
118.4630329632
 11
312.9529775434
 21
118.4630329632
  0
LINE
  5
26B
100
AcDbEntity
  8
DEFAULT_2
100
AcDbLine
 62
8
  6
HIDDEN
 10
315.3744990961
 20
165.4821775187
 11
315.3744990961
 21
154.8178079044
  0
LINE
  5
26C
100
AcDbEntity
  8
0
100
AcDbLine
 62
7
  6
CONTINUOUS
 10
314.4279775434
 20
121.0178079044
 11
345.9779775434
 21
121.0178079044
  0
LINE
  5
26D
100
AcDbEntity
  8
DEFAULT_2
100
AcDbLine
 62
8
  6
HIDDEN
 10
317.8029775434
 20
165.5178079044
 11
317.8029775434
 21
154.8178079044
  0
LINE
  5
26E
100
AcDbEntity
  8
0
100
AcDbLine
 62
7
  6
CONTINUOUS
 10
320.2029775434
 20
113.5178079044
 11
320.2029775434
 21
101.0178079044
  0
LINE
  5
26F
100
AcDbEntity
  8
DEFAULT_2
100
AcDbLine
 62
8
  6
HIDDEN
 10
330.2029775434
 20
143.6725084428
 11
328.2029775434
 21
142.5178079044
  0
LINE
  5
270
100
AcDbEntity
  8
0
100
AcDbLine
 62
7
  6
CONTINUOUS
 10
346.2277897754
 20
123.5178079044
 11
314.1781653115
 21
123.5178079044
  0
LINE
  5
271
100
AcDbEntity
  8
DEFAULT_2
100
AcDbLine
 62
8
  6
HIDDEN
 10
341.1668508133
 20
116.7678079044
 11
341.7029775434
 21
116.5178079044
  0
LINE
  5
272
100
AcDbEntity
  8
0
100
AcDbLine
 62
7
  6
CONTINUOUS
 10
320.4529775434
 20
116.3678079044
 11
320.4529775434
 21
113.9508206063
  0
LINE
  5
273
100
AcDbEntity
  8
0
100
AcDbLine
 62
7
  6
CONTINUOUS
 10
312.9529775434
 20
118.4630329632
 11
314.4279775434
 21
121.0178079044
  0
LINE
  5
274
100
AcDbEntity
  8
0
100
AcDbLine
 62
7
  6
CONTINUOUS
 10
325.2600324718
 20
108.8068079044
 11
325.2600324718
 21
107.8068079044
  0
LINE
  5
275
100
AcDbEntity
  8
0
100
AcDbLine
 62
7
  6
CONTINUOUS
 10
314.2029775434
 20
138.5178079044
 11
314.9529775434
 21
137.9938803008
  0
LINE
  5
276
100
AcDbEntity
  8
0
100
AcDbLine
 62
7
  6
CONTINUOUS
 10
325.522165648
 20
164.7178079044
 11
325.522165648
 21
153.5178079044
  0
LINE
  5
277
100
AcDbEntity
  8
0
100
AcDbLine
 62
7
  6
CONTINUOUS
 10
326.361103001
 20
160.5178079044
 11
326.361103001
 21
159.0178079044
  0
LINE
  5
278
100
AcDbEntity
  8
0
100
AcDbLine
 62
7
  6
CONTINUOUS
 10
327.4529775434
 20
108.8068079044
 11
327.4529775434
 21
107.8068079044
  0
LINE
  5
279
100
AcDbEntity
  8
DEFAULT_2
100
AcDbLine
 62
8
  6
HIDDEN
 10
328.2029775434
 20
142.5178079044
 11
328.2029775434
 21
103.5225289819
  0
LINE
  5
27A
100
AcDbEntity
  8
0
100
AcDbLine
 62
4
  6
CONTINUOUS
 10
330.2029775434
 20
111.7919999952
 11
330.2029775434
 21
102.2669999952
  0
LINE
  5
27B
100
AcDbEntity
  8
3_ALL_AXES
100
AcDbLine
 62
2
  6
CENTER
 10
330.2029775434
 20
94.5178079044
 11
330.2029775434
 21
171.5178079044
  0
LINE
  5
27C
100
AcDbEntity
  8
0
100
AcDbLine
 62
7
  6
CONTINUOUS
 10
314.1781653115
 20
135.5178079044
 11
346.2277897754
 21
135.5178079044
  0
LINE
  5
27D
100
AcDbEntity
  8
0
100
AcDbLine
 62
7
  6
CONTINUOUS
 10
339.9529775434
 20
113.9508206063
 11
340.2029775434
 21
113.5178079044
  0
LINE
  5
27E
100
AcDbEntity
  8
DEFAULT_2
100
AcDbLine
 62
8
  6
HIDDEN
 10
332.2029775434
 20
142.5178079044
 11
332.2029775434
 21
138.5080280771
  0
LINE
  5
27F
100
AcDbEntity
  8
DEFAULT_2
100
AcDbLine
 62
8
  6
HIDDEN
 10
332.2029775434
 20
135.5276213954
 11
332.2029775434
 21
103.5225289819
  0
LINE
  5
280
100
AcDbEntity
  8
0
100
AcDbLine
 62
7
  6
CONTINUOUS
 10
332.9529775434
 20
107.8068079044
 11
332.9529775434
 21
108.8068079044
  0
LINE
  5
281
100
AcDbEntity
  8
0
100
AcDbLine
 62
7
  6
CONTINUOUS
 10
320.4529775434
 20
113.9508206063
 11
320.2029775434
 21
113.5178079044
  0
LINE
  5
282
100
AcDbEntity
  8
0
100
AcDbLine
 62
7
  6
CONTINUOUS
 10
345.4103842034
 20
137.9938803008
 11
314.9529775434
 21
137.9938803008
  0
LINE
  5
283
100
AcDbEntity
  8
0
100
AcDbLine
 62
7
  6
CONTINUOUS
 10
334.0448520859
 20
160.5178079044
 11
334.0448520859
 21
159.0178079044
  0
LINE
  5
284
100
AcDbEntity
  8
0
100
AcDbLine
 62
7
  6
CONTINUOUS
 10
334.8837894388
 20
164.7178079044
 11
334.8837894388
 21
153.5178079044
  0
LINE
  5
285
100
AcDbEntity
  8
0
100
AcDbLine
 62
7
  6
CONTINUOUS
 10
335.1459226151
 20
108.8068079044
 11
335.1459226151
 21
107.8068079044
  0
LINE
  5
286
100
AcDbEntity
  8
0
100
AcDbLine
 62
7
  6
CONTINUOUS
 10
314.2029775434
 20
138.5178079044
 11
346.2029775434
 21
138.5178079044
  0
LINE
  5
287
100
AcDbEntity
  8
DEFAULT_2
100
AcDbLine
 62
8
  6
HIDDEN
 10
332.2029775434
 20
142.5178079044
 11
328.2029775434
 21
142.5178079044
  0
LINE
  5
288
100
AcDbEntity
  8
0
100
AcDbLine
 62
7
  6
CONTINUOUS
 10
347.4529775434
 20
118.4630329632
 11
345.9779775434
 21
121.0178079044
  0
LINE
  5
289
100
AcDbEntity
  8
0
100
AcDbLine
 62
7
  6
CONTINUOUS
 10
339.9529775434
 20
116.3678079044
 11
339.9529775434
 21
113.9508206063
  0
LINE
  5
28A
100
AcDbEntity
  8
0
100
AcDbLine
 62
7
  6
CONTINUOUS
 10
340.2029775434
 20
113.5178079044
 11
340.2029775434
 21
101.0178079044
  0
LINE
  5
28B
100
AcDbEntity
  8
DEFAULT_2
100
AcDbLine
 62
8
  6
HIDDEN
 10
319.2391042736
 20
116.7678079044
 11
318.7029775434
 21
116.5178079044
  0
LINE
  5
28C
100
AcDbEntity
  8
DEFAULT_2
100
AcDbLine
 62
8
  6
HIDDEN
 10
330.2029775434
 20
143.6725084428
 11
332.2029775434
 21
142.5178079044
  0
LINE
  5
28D
100
AcDbEntity
  8
DEFAULT_2
100
AcDbLine
 62
8
  6
HIDDEN
 10
342.6029775434
 20
165.5178079044
 11
342.6029775434
 21
154.8178079044
  0
LINE
  5
28E
100
AcDbEntity
  8
DEFAULT_2
100
AcDbLine
 62
8
  6
HIDDEN
 10
345.0314559907
 20
165.4821812387
 11
345.0314559907
 21
154.8178079044
  0
LINE
  5
28F
100
AcDbEntity
  8
0
100
AcDbLine
 62
7
  6
CONTINUOUS
 10
345.2029775434
 20
149.5178079044
 11
345.2029775434
 21
165.3526359424
  0
LINE
  5
290
100
AcDbEntity
  8
0
100
AcDbLine
 62
7
  6
CONTINUOUS
 10
345.9779775434
 20
121.0178079044
 11
345.9779775434
 21
123.5178079044
  0
LINE
  5
291
100
AcDbEntity
  8
0
100
AcDbLine
 62
7
  6
CONTINUOUS
 10
346.2029775434
 20
148.5178079072
 11
346.2029775434
 21
138.5178079044
  0
LINE
  5
292
100
AcDbEntity
  8
0
100
AcDbLine
 62
7
  6
CONTINUOUS
 10
346.2279775434
 20
135.5178079044
 11
346.2279775434
 21
123.5178079044
  0
LINE
  5
293
100
AcDbEntity
  8
0
100
AcDbLine
 62
7
  6
CONTINUOUS
 10
347.4529775434
 20
118.4630329632
 11
347.4529775434
 21
117.0178079044
  0
LINE
  5
294
100
AcDbEntity
  8
0
100
AcDbLine
 62
7
  6
CONTINUOUS
 10
325.522165648
 20
153.5178079044
 11
334.8837894388
 21
153.5178079044
  0
LINE
  5
295
100
AcDbEntity
  8
DEFAULT_2
100
AcDbLine
 62
8
  6
HIDDEN
 10
345.2029775434
 20
154.8178079044
 11
342.6029775434
 21
154.8178079044
  0
LINE
  5
296
100
AcDbEntity
  8
DEFAULT_2
100
AcDbLine
 62
8
  6
HIDDEN
 10
317.8029775434
 20
154.8178079044
 11
315.2029775434
 21
154.8178079044
  0
LINE
  5
297
100
AcDbEntity
  8
0
100
AcDbLine
 62
7
  6
CONTINUOUS
 10
347.4529775434
 20
117.0178079044
 11
346.9529775434
 21
116.5178079044
  0
LINE
  5
298
100
AcDbEntity
  8
0
100
AcDbLine
 62
7
  6
CONTINUOUS
 10
345.2029775434
 20
149.5178079044
 11
346.2029775434
 21
148.5178079044
  0
LINE
  5
299
100
AcDbEntity
  8
DEFAULT_2
100
AcDbLine
 62
8
  6
HIDDEN
 10
345.0317913151
 20
150.5295680115
 11
345.2029775434
 21
150.2273268014
  0
LINE
  5
29A
100
AcDbEntity
  8
0
100
AcDbLine
 62
7
  6
CONTINUOUS
 10
326.361103001
 20
159.0178079044
 11
334.0448520859
 21
159.0178079044
  0
LINE
  5
29B
100
AcDbEntity
  8
0
100
AcDbLine
 62
7
  6
CONTINUOUS
 10
326.361103001
 20
160.5178079044
 11
334.0448520859
 21
160.5178079044
  0
LINE
  5
29C
100
AcDbEntity
  8
DEFAULT_2
100
AcDbLine
 62
8
  6
HIDDEN
 10
329.4029775434
 20
162.7796881198
 11
330.2029775434
 21
162.3178079044
  0
LINE
  5
29D
100
AcDbEntity
  8
DEFAULT_2
100
AcDbLine
 62
8
  6
HIDDEN
 10
331.0029775434
 20
162.7796881198
 11
329.4029775434
 21
162.7796881198
  0
LINE
  5
29E
100
AcDbEntity
  8
0
100
AcDbLine
 62
7
  6
CONTINUOUS
 10
340.2029775434
 20
101.0178079044
 11
339.7029775434
 21
100.5178079044
  0
LINE
  5
29F
100
AcDbEntity
  8
0
100
AcDbLine
 62
7
  6
CONTINUOUS
 10
315.2029775434
 20
164.7178079044
 11
325.522165648
 21
164.7178079044
  0
LINE
  5
2A0
100
AcDbEntity
  8
0
100
AcDbLine
 62
7
  6
CONTINUOUS
 10
334.8837894388
 20
164.7178079044
 11
345.2029775434
 21
164.7178079044
  0
LINE
  5
2A1
100
AcDbEntity
  8
0
100
AcDbLine
 62
7
  6
CONTINUOUS
 10
315.5822878883
 20
165.5178079044
 11
344.8236671986
 21
165.5178079044
  0
ARC
  5
2A2
100
AcDbEntity
  8
DEFAULT_2
100
AcDbCircle
 62
8
  6
HIDDEN
 10
318.6329331037
 20
106.4232615484
 40
10.0
100
AcDbArc
 50
323.8042815309
 51
343.1376581586
  0
ARC
  5
2A3
100
AcDbEntity
  8
0
100
AcDbCircle
 62
7
  6
CONTINUOUS
 10
329.8341929806
 20
107.8364148273
 40
6.7264875101
100
AcDbArc
 50
57.6323139948
 51
65.3681078381
  0
ARC
  5
2A4
100
AcDbEntity
  8
0
100
AcDbCircle
 62
7
  6
CONTINUOUS
 10
330.5717621063
 20
107.8364148273
 40
6.7264875101
100
AcDbArc
 50
114.6318921619
 51
122.3676860052
  0
ARC
  5
2A5
100
AcDbEntity
  8
0
100
AcDbCircle
 62
7
  6
CONTINUOUS
 10
330.2029775434
 20
107.8068079044
 40
2.75
100
AcDbArc
 50
180.0
 51
360.0
  0
ARC
  5
2A6
100
AcDbEntity
  8
0
100
AcDbCircle
 62
7
  6
CONTINUOUS
 10
330.2029775434
 20
108.8068079044
 40
2.75
100
AcDbArc
 50
0.0
 51
180.0
  0
ARC
  5
2A7
100
AcDbEntity
  8
DEFAULT_2
100
AcDbCircle
 62
8
  6
HIDDEN
 10
320.0529775434
 20
116.3678079044
 40
0.4
100
AcDbArc
 50
22.0482500323
 51
90.0
  0
ARC
  5
2A8
100
AcDbEntity
  8
0
100
AcDbCircle
 62
7
  6
CONTINUOUS
 10
320.0529775434
 20
116.3678079044
 40
0.4
100
AcDbArc
 50
0.0
 51
22.0482500323
  0
ARC
  5
2A9
100
AcDbEntity
  8
DEFAULT_2
100
AcDbCircle
 62
8
  6
HIDDEN
 10
324.4069600542
 20
162.5801655714
 40
5.0
100
AcDbArc
 50
2.2869672118
 51
35.9818161543
  0
ARC
  5
2AA
100
AcDbEntity
  8
DEFAULT_2
100
AcDbCircle
 62
8
  6
HIDDEN
 10
335.9989950327
 20
162.5801655714
 40
5.0
100
AcDbArc
 50
144.0181838457
 51
177.7130327882
  0
ARC
  5
2AB
100
AcDbEntity
  8
DEFAULT_2
100
AcDbCircle
 62
8
  6
HIDDEN
 10
312.8029775434
 20
154.8178079044
 40
5.0
100
AcDbArc
 50
301.0355067972
 51
360.0
  0
ARC
  5
2AC
100
AcDbEntity
  8
0
100
AcDbCircle
 62
7
  6
CONTINUOUS
 10
330.2029775434
 20
160.5178079044
 40
3.8418745425
100
AcDbArc
 50
0.0
 51
180.0
  0
ARC
  5
2AD
100
AcDbEntity
  8
0
100
AcDbCircle
 62
7
  6
CONTINUOUS
 10
330.2029775434
 20
159.0178079044
 40
3.8418745425
100
AcDbArc
 50
180.0
 51
360.0
  0
ARC
  5
2AE
100
AcDbEntity
  8
DEFAULT_2
100
AcDbCircle
 62
8
  6
HIDDEN
 10
315.5875676415
 20
164.8711322617
 40
0.6471314065
100
AcDbArc
 50
99.7792114429
 51
109.2233095464
  0
ARC
  5
2AF
100
AcDbEntity
  8
DEFAULT_2
100
AcDbCircle
 62
8
  6
HIDDEN
 10
315.5826327787
 20
164.8974497297
 40
0.6203582706
100
AcDbArc
 50
90.0318537986
 51
99.7429065395
  0
ARC
  5
2B0
100
AcDbEntity
  8
DEFAULT_2
100
AcDbCircle
 62
8
  6
HIDDEN
 10
315.6476184431
 20
164.9596047344
 40
0.5934321124
100
AcDbArc
 50
133.2909334662
 51
138.5271855849
  0
ARC
  5
2B1
100
AcDbEntity
  8
DEFAULT_2
100
AcDbCircle
 62
8
  6
HIDDEN
 10
315.6192629938
 20
164.9891305753
 40
0.552497524
100
AcDbArc
 50
131.22137884
 51
133.2501327215
  0
ARC
  5
2B2
100
AcDbEntity
  8
DEFAULT_2
100
AcDbCircle
 62
8
  6
HIDDEN
 10
315.6041798748
 20
165.0063989134
 40
0.5295694898
100
AcDbArc
 50
128.5413261476
 51
131.225085956
  0
ARC
  5
2B3
100
AcDbEntity
  8
DEFAULT_2
100
AcDbCircle
 62
8
  6
HIDDEN
 10
315.584113358
 20
165.0319180988
 40
0.4971064487
100
AcDbArc
 50
123.1266683488
 51
128.5649843038
  0
ARC
  5
2B4
100
AcDbEntity
  8
DEFAULT_2
100
AcDbCircle
 62
8
  6
HIDDEN
 10
341.7730219831
 20
106.4232615484
 40
10.0
100
AcDbArc
 50
196.8623418414
 51
216.1957184691
  0
ARC
  5
2B5
100
AcDbEntity
  8
DEFAULT_2
100
AcDbCircle
 62
8
  6
HIDDEN
 10
340.3529775434
 20
116.3678079044
 40
0.4
100
AcDbArc
 50
90.0
 51
157.9517499677
  0
ARC
  5
2B6
100
AcDbEntity
  8
0
100
AcDbCircle
 62
7
  6
CONTINUOUS
 10
340.3529775434
 20
116.3678079044
 40
0.4
100
AcDbArc
 50
157.9517499677
 51
180.0
  0
ARC
  5
2B7
100
AcDbEntity
  8
DEFAULT_2
100
AcDbCircle
 62
8
  6
HIDDEN
 10
360.8953254925
 20
137.0374616511
 40
15.5169370902
100
AcDbArc
 50
184.4821346526
 51
184.8672829779
  0
ARC
  5
2B8
100
AcDbEntity
  8
DEFAULT_2
100
AcDbCircle
 62
8
  6
HIDDEN
 10
360.8358621953
 20
137.0314942888
 40
15.4571959099
100
AcDbArc
 50
183.3610289376
 51
183.9735282577
  0
ARC
  5
2B9
100
AcDbEntity
  8
0
100
AcDbCircle
 62
7
  6
CONTINUOUS
 10
360.7502986443
 20
137.0237865423
 40
15.3712720528
100
AcDbArc
 50
180.0222851253
 51
185.622492427
  0
ARC
  5
2BA
100
AcDbEntity
  8
DEFAULT_2
100
AcDbCircle
 62
8
  6
HIDDEN
 10
360.7320659632
 20
137.0104868606
 40
15.3532079582
100
AcDbArc
 50
176.3276149664
 51
176.7763177948
  0
ARC
  5
2BB
100
AcDbEntity
  8
DEFAULT_2
100
AcDbCircle
 62
8
  6
HIDDEN
 10
360.722745226
 20
137.0234655602
 40
15.3438151926
100
AcDbArc
 50
181.9535979827
 51
182.8090823876
  0
ARC
  5
2BC
100
AcDbEntity
  8
DEFAULT_2
100
AcDbCircle
 62
8
  6
HIDDEN
 10
360.7157315402
 20
137.0233596984
 40
15.3367903384
100
AcDbArc
 50
183.9743108646
 51
184.4820454652
  0
ARC
  5
2BD
100
AcDbEntity
  8
DEFAULT_2
100
AcDbCircle
 62
8
  6
HIDDEN
 10
360.7079848993
 20
137.0204255483
 40
15.3288266235
100
AcDbArc
 50
184.8632491701
 51
185.3379716974
  0
ARC
  5
2BE
100
AcDbEntity
  8
DEFAULT_2
100
AcDbCircle
 62
8
  6
HIDDEN
 10
360.6876313612
 20
137.0130653349
 40
15.308698671
100
AcDbArc
 50
176.776600931
 51
176.9644142115
  0
ARC
  5
2BF
100
AcDbEntity
  8
DEFAULT_2
100
AcDbCircle
 62
8
  6
HIDDEN
 10
360.6709117707
 20
137.0139111277
 40
15.2919577508
100
AcDbArc
 50
176.9642613436
 51
177.2594594616
  0
ARC
  5
2C0
100
AcDbEntity
  8
DEFAULT_2
100
AcDbCircle
 62
8
  6
HIDDEN
 10
360.6484657533
 20
137.0150287892
 40
15.2694839662
100
AcDbArc
 50
177.259621437
 51
177.4290165301
  0
ARC
  5
2C1
100
AcDbEntity
  8
DEFAULT_2
100
AcDbCircle
 62
8
  6
HIDDEN
 10
360.6472350477
 20
137.0189156054
 40
15.2682073337
100
AcDbArc
 50
180.0041567809
 51
181.4479417969
  0
ARC
  5
2C2
100
AcDbEntity
  8
DEFAULT_2
100
AcDbCircle
 62
8
  6
HIDDEN
 10
360.6397219334
 20
137.0153679754
 40
15.2607337329
100
AcDbArc
 50
177.4288161269
 51
177.7713639752
  0
ARC
  5
2C3
100
AcDbEntity
  8
DEFAULT_2
100
AcDbCircle
 62
8
  6
HIDDEN
 10
360.6160574276
 20
137.0190046199
 40
15.2370369896
100
AcDbArc
 50
182.8119890444
 51
183.3626022177
  0
ARC
  5
2C4
100
AcDbEntity
  8
DEFAULT_2
100
AcDbCircle
 62
8
  6
HIDDEN
 10
360.6104410088
 20
137.0165638762
 40
15.231428451
100
AcDbArc
 50
177.7715759168
 51
177.952976932
  0
ARC
  5
2C5
100
AcDbEntity
  8
DEFAULT_2
100
AcDbCircle
 62
8
  6
HIDDEN
 10
360.6068585674
 20
137.0166348297
 40
15.2278457615
100
AcDbArc
 50
177.9527622572
 51
178.3071823975
  0
ARC
  5
2C6
100
AcDbEntity
  8
0
100
AcDbCircle
 62
7
  6
CONTINUOUS
 10
360.59740621
 20
137.0174554341
 40
15.2183784598
100
AcDbArc
 50
176.3213242868
 51
179.998672982
  0
ARC
  5
2C7
100
AcDbEntity
  8
DEFAULT_2
100
AcDbCircle
 62
8
  6
HIDDEN
 10
360.5846091552
 20
137.0172914648
 40
15.2055864243
100
AcDbArc
 50
178.3074225466
 51
178.8611353758
  0
ARC
  5
2C8
100
AcDbEntity
  8
DEFAULT_2
100
AcDbCircle
 62
8
  6
HIDDEN
 10
360.5656626263
 20
137.0177326961
 40
15.1866348685
100
AcDbArc
 50
178.8613789839
 51
179.1099308849
  0
ARC
  5
2C9
100
AcDbEntity
  8
DEFAULT_2
100
AcDbCircle
 62
8
  6
HIDDEN
 10
360.5586227938
 20
137.017793976
 40
15.1795950396
100
AcDbArc
 50
179.1097011425
 51
179.9999474268
  0
ARC
  5
2CA
100
AcDbEntity
  8
DEFAULT_2
100
AcDbCircle
 62
8
  6
HIDDEN
 10
360.5249334196
 20
137.0168225553
 40
15.1458919012
100
AcDbArc
 50
181.4517172195
 51
181.953992476
  0
ARC
  5
2CB
100
AcDbEntity
  8
DEFAULT_2
100
AcDbCircle
 62
8
  6
HIDDEN
 10
347.6029775434
 20
154.8178079044
 40
5.0
100
AcDbArc
 50
180.0
 51
238.9644932028
  0
ARC
  5
2CC
100
AcDbEntity
  8
DEFAULT_2
100
AcDbCircle
 62
8
  6
HIDDEN
 10
344.8183408905
 20
164.8710373106
 40
0.6472328791
100
AcDbArc
 50
70.7754580853
 51
80.2181539255
  0
ARC
  5
2CD
100
AcDbEntity
  8
DEFAULT_2
100
AcDbCircle
 62
8
  6
HIDDEN
 10
344.8233302998
 20
164.8975436742
 40
0.6202643217
100
AcDbArc
 50
80.2563514772
 51
89.9688795926
  0
ARC
  5
2CE
100
AcDbEntity
  8
DEFAULT_2
100
AcDbCircle
 62
8
  6
HIDDEN
 10
344.799734603
 20
165.0039067565
 40
0.5327887167
100
AcDbArc
 50
48.7869285048
 51
51.1735871048
  0
ARC
  5
2CF
100
AcDbEntity
  8
DEFAULT_2
100
AcDbCircle
 62
8
  6
HIDDEN
 10
344.8210627745
 20
165.0308487686
 40
0.4984276703
100
AcDbArc
 50
51.141865356
 51
56.865751892
  0
ARC
  5
2D0
100
AcDbEntity
  8
DEFAULT_2
100
AcDbCircle
 62
8
  6
HIDDEN
 10
409.7463862375
 20
41.5042624237
 40
115.9714081824
100
AcDbArc
 50
123.530337185
 51
123.6940097849
  0
SPLINE
  5
2D1
100
AcDbEntity
  8
DEFAULT_2
100
AcDbSpline
 62
8
  6
HIDDEN
 70
0
 71
3
 72
18
 73
14
 74
12
 42
0.0000001
 43
0.0000001
 44
0.0000000001
 12
0.0
 22
1.6727698027
 32
0.0
 13
-1.1598038214
 23
-1.2054102658
 33
0.0
 40
0.0
 40
0.0
 40
0.0
 40
0.0
 40
0.1832781451
 40
0.359946366
 40
0.5255355551
 40
0.6760391075
 40
0.8063339781
 40
0.8617829636
 40
0.9093770431
 40
0.9479728902
 40
0.976521011
 40
0.9941061596
 40
1.0
 40
1.0
 40
1.0
 40
1.0
 10
331.525853199
 20
137.0178079044
 30
0.0
 10
331.525853199
 20
137.1200019533
 30
0.0
 10
331.5500342361
 20
137.3212757006
 30
0.0
 10
331.6418202999
 20
137.6008017486
 30
0.0
 10
331.7610987969
 20
137.8489050675
 30
0.0
 10
331.8869642913
 20
138.0636763771
 30
0.0
 10
331.9901499535
 20
138.2206760598
 30
0.0
 10
332.0639789515
 20
138.3271295905
 30
0.0
 10
332.1106794118
 20
138.3924148307
 30
0.0
 10
332.1460486961
 20
138.4414330305
 30
0.0
 10
332.1795326947
 20
138.485845244
 30
0.0
 10
332.1870638466
 20
138.4975116807
 30
0.0
 10
332.2052137857
 20
138.5201340922
 30
0.0
 10
332.2029352195
 20
138.517765927
 30
0.0
 11
331.525853199
 21
137.0178079044
 31
0.0
 11
331.5605078609
 21
137.3224251512
 31
0.0
 11
331.6499025575
 21
137.604105414
 31
0.0
 11
331.7682118752
 21
137.8545606059
 31
0.0
 11
331.8946718237
 21
138.0722527513
 31
0.0
 11
332.0139892131
 21
138.2546452194
 31
0.0
 11
332.0668614503
 21
138.3308536023
 31
0.0
 11
332.1130824278
 21
138.3956764418
 31
0.0
 11
332.151074575
 21
138.4478764839
 31
0.0
 11
332.1794409375
 21
138.4862930882
 31
0.0
 11
332.1970311041
 21
138.5098702284
 31
0.0
 11
332.2029352195
 21
138.517765927
 31
0.0
  0
LINE
  5
2D2
100
AcDbEntity
  8
DEFAULT_2
100
AcDbLine
 62
8
  6
HIDDEN
 10
345.4456353706
 20
135.5943776814
 11
345.447910207
 21
135.5702335356
  0
LINE
  5
2D3
100
AcDbEntity
  8
DEFAULT_2
100
AcDbLine
 62
8
  6
HIDDEN
 10
345.447910207
 20
135.5702335356
 11
345.4529775434
 21
135.5178079044
  0
LINE
  5
2D4
100
AcDbEntity
  8
DEFAULT_2
100
AcDbLine
 62
8
  6
HIDDEN
 10
346.2029775439
 20
138.5178079044
 11
346.1729621997
 21
138.4981231771
  0
LINE
  5
2D5
100
AcDbEntity
  8
DEFAULT_2
100
AcDbLine
 62
8
  6
HIDDEN
 10
346.1729621997
 20
138.4981231771
 11
346.1493660851
 21
138.4826400466
  0
LINE
  5
2D6
100
AcDbEntity
  8
DEFAULT_2
100
AcDbLine
 62
8
  6
HIDDEN
 10
346.1493660851
 20
138.4826400466
 11
346.0744394503
 21
138.4334279147
  0
LINE
  5
2D7
100
AcDbEntity
  8
DEFAULT_2
100
AcDbLine
 62
8
  6
HIDDEN
 10
346.0744394503
 20
138.4334279147
 11
346.00213075
 21
138.3858648236
  0
LINE
  5
2D8
100
AcDbEntity
  8
DEFAULT_2
100
AcDbLine
 62
8
  6
HIDDEN
 10
346.00213075
 20
138.3858648236
 11
345.9097365316
 21
138.324988769
  0
LINE
  5
2D9
100
AcDbEntity
  8
DEFAULT_2
100
AcDbLine
 62
8
  6
HIDDEN
 10
345.9097365316
 20
138.324988769
 11
345.7551076847
 21
138.222844118
  0
LINE
  5
2DA
100
AcDbEntity
  8
DEFAULT_2
100
AcDbLine
 62
8
  6
HIDDEN
 10
345.7551076847
 20
138.222844118
 11
345.6862810576
 21
138.1772702394
  0
SPLINE
  5
2DB
100
AcDbEntity
  8
DEFAULT_2
100
AcDbSpline
 62
8
  6
HIDDEN
 70
0
 71
3
 72
9
 73
5
 74
3
 42
0.0000001
 43
0.0000001
 44
0.0000000001
 12
0.0592952954
 22
0.0386384533
 32
0.0
 13
0.0645874542
 23
0.0289365322
 33
0.0
 40
0.0
 40
0.0
 40
0.0
 40
0.0
 40
0.25593764
 40
1.0
 40
1.0
 40
1.0
 40
1.0
 10
315.3124487509
 20
165.4482270737
 30
0.0
 10
315.3175073835
 20
165.4515234185
 30
0.0
 10
315.3375136872
 20
165.4640278782
 30
0.0
 10
315.358480065
 20
165.4750043773
 30
0.0
 10
315.3744990961
 20
165.4821812387
 30
0.0
 11
315.3124487509
 21
165.4482270737
 31
0.0
 11
315.3278110046
 21
165.4578240547
 31
0.0
 11
315.3744990961
 21
165.4821812387
 31
0.0
  0
SPLINE
  5
2DC
100
AcDbEntity
  8
DEFAULT_2
100
AcDbSpline
 62
8
  6
HIDDEN
 70
0
 71
3
 72
9
 73
5
 74
3
 42
0.0000001
 43
0.0000001
 44
0.0000000001
 12
-0.0488950964
 22
0.0552297636
 32
0.0
 13
-0.0554969001
 23
0.0485916796
 33
0.0
 40
0.0
 40
0.0
 40
0.0
 40
0.0
 40
0.2573346335
 40
1.0
 40
1.0
 40
1.0
 40
1.0
 10
345.2029775434
 20
165.352636081
 30
0.0
 10
345.1987834095
 20
165.3573735914
 30
0.0
 10
345.1822053166
 20
165.3755332462
 30
0.0
 10
345.1645069045
 20
165.3926757365
 30
0.0
 10
345.1507683626
 20
165.4047048557
 30
0.0
 11
345.2029775434
 21
165.352636081
 31
0.0
 11
345.1901769858
 21
165.3666524498
 31
0.0
 11
345.1507683626
 21
165.4047048557
 31
0.0
  0
SPLINE
  5
2DD
100
AcDbEntity
  8
DEFAULT_2
100
AcDbSpline
 62
8
  6
HIDDEN
 70
0
 71
3
 72
9
 73
5
 74
3
 42
0.0000001
 43
0.0000001
 44
0.0000000001
 12
-0.0592915888
 22
0.0386372328
 32
0.0
 13
-0.0645839674
 23
0.0289350896
 33
0.0
 40
0.0
 40
0.0
 40
0.0
 40
0.0
 40
0.2559389162
 40
1.0
 40
1.0
 40
1.0
 40
1.0
 10
345.0935046366
 20
165.4482281815
 30
0.0
 10
345.0884462949
 20
165.4515244386
 30
0.0
 10
345.0684406929
 20
165.4640277337
 30
0.0
 10
345.0474741297
 20
165.4750010273
 30
0.0
 10
345.0314559907
 20
165.4821775186
 30
0.0
 11
345.0935046366
 21
165.4482281815
 31
0.0
 11
345.0781429232
 21
165.4578243759
 31
0.0
 11
345.0314559907
 21
165.4821775186
 31
0.0
  0
SPLINE
  5
2DE
100
AcDbEntity
  8
DEFAULT_2
100
AcDbSpline
 62
8
  6
HIDDEN
 70
0
 71
3
 72
18
 73
14
 74
12
 42
0.0000001
 43
0.0000001
 44
0.0000000001
 12
0.0
 22
-1.6727689546
 32
0.0
 13
-1.1665184683
 23
1.1989122732
 33
0.0
 40
0.0
 40
0.0
 40
0.0
 40
0.0
 40
0.1832813882
 40
0.3599471417
 40
0.5255268601
 40
0.6760290444
 40
0.8063220929
 40
0.8617747968
 40
0.9093697252
 40
0.9479663041
 40
0.9765197963
 40
0.9941037329
 40
1.0
 40
1.0
 40
1.0
 40
1.0
 10
331.525853199
 20
137.0178079044
 30
0.0
 10
331.525853199
 20
136.915612099
 30
0.0
 10
331.5500353517
 20
136.7143381511
 30
0.0
 10
331.6418202079
 20
136.4348167501
 30
0.0
 10
331.761099222
 20
136.1867225586
 30
0.0
 10
331.8869503848
 20
135.9719509411
 30
0.0
 10
331.990143421
 20
135.8149560686
 30
0.0
 10
332.0639678987
 20
135.7084972866
 30
0.0
 10
332.1106752774
 20
135.6432141489
 30
0.0
 10
332.1460369574
 20
135.5941838494
 30
0.0
 10
332.1795420456
 20
135.5497870015
 30
0.0
 10
332.1870437021
 20
135.5380869192
 30
0.0
 10
332.2052276248
 20
135.5154938134
 30
0.0
 10
332.2029349233
 20
135.5178501824
 30
0.0
 11
331.525853199
 21
137.0178079044
 31
0.0
 11
331.5605094925
 21
136.7131855397
 31
0.0
 11
331.6499043758
 21
136.4315098235
 31
0.0
 11
331.7682074269
 21
136.1810693478
 31
0.0
 11
331.8946612192
 21
135.9633764205
 31
0.0
 11
332.0139784813
 21
135.7809876434
 31
0.0
 11
332.0668529381
 21
135.7047732873
 31
0.0
 11
332.1130754586
 21
135.6399498535
 31
0.0
 11
332.1510673508
 21
135.5877481523
 31
0.0
 11
332.1794397684
 21
135.5493248799
 31
0.0
 11
332.197028263
 21
135.5257490404
 31
0.0
 11
332.2029349233
 21
135.5178501824
 31
0.0
  0
SPLINE
  5
2DF
100
AcDbEntity
  8
DEFAULT_2
100
AcDbSpline
 62
8
  6
HIDDEN
 70
0
 71
3
 72
11
 73
7
 74
5
 42
0.0000001
 43
0.0000001
 44
0.0000000001
 12
0.0011553499
 22
4.2880374434
 32
0.0
 13
0.0089418847
 23
4.2880289139
 33
0.0
 40
0.0
 40
0.0
 40
0.0
 40
0.0
 40
0.2927713697
 40
0.6172309258
 40
0.8048571371
 40
1.0
 40
1.0
 40
1.0
 40
1.0
 10
315.3744990962
 20
150.5297696722
 30
0.0
 10
315.3746118473
 20
150.9482412041
 30
0.0
 10
315.3745008103
 20
151.8304778852
 30
0.0
 10
315.3743144769
 20
152.9808974024
 30
0.0
 10
315.3748614714
 20
153.9917714817
 30
0.0
 10
315.3739174478
 20
154.538881825
 30
0.0
 10
315.3744990961
 20
154.8178079044
 30
0.0
 11
315.3744990962
 21
150.5297696722
 31
0.0
 11
315.3744993429
 21
151.7851845002
 31
0.0
 11
315.3744893939
 21
153.1764794831
 31
0.0
 11
315.3745576967
 21
153.9810278487
 31
0.0
 11
315.3744990961
 21
154.8178079044
 31
0.0
  0
SPLINE
  5
2E0
100
AcDbEntity
  8
DEFAULT_2
100
AcDbSpline
 62
8
  6
HIDDEN
 70
0
 71
3
 72
11
 73
7
 74
5
 42
0.0000001
 43
0.0000001
 44
0.0000000001
 12
0.0089418847
 22
-4.2880289139
 32
0.0
 13
0.0011553499
 23
-4.2880374434
 33
0.0
 40
0.0
 40
0.0
 40
0.0
 40
0.0
 40
0.1951428629
 40
0.3827690742
 40
0.7072286303
 40
1.0
 40
1.0
 40
1.0
 40
1.0
 10
345.0314559907
 20
154.8178079044
 30
0.0
 10
345.032037639
 20
154.538881825
 30
0.0
 10
345.0310936154
 20
153.9917714817
 30
0.0
 10
345.03164061
 20
152.9808974024
 30
0.0
 10
345.0314542766
 20
151.8304778852
 30
0.0
 10
345.0313432396
 20
150.9482412041
 30
0.0
 10
345.0314559907
 20
150.5297696722
 30
0.0
 11
345.0314559907
 21
154.8178079044
 31
0.0
 11
345.0313973902
 21
153.9810278487
 31
0.0
 11
345.031465693
 21
153.1764794831
 31
0.0
 11
345.0314557439
 21
151.7851845002
 31
0.0
 11
345.0314559907
 21
150.5297696722
 31
0.0
  0
SPLINE
  5
2E1
100
AcDbEntity
  8
DEFAULT_2
100
AcDbSpline
 62
8
  6
HIDDEN
 70
0
 71
3
 72
17
 73
13
 74
11
 42
0.0000001
 43
0.0000001
 44
0.0000000001
 12
-1.1386086965
 22
-1.225445092
 32
0.0
 13
0.0
 23
-1.6727658047
 33
0.0
 40
0.0
 40
0.0
 40
0.0
 40
0.0
 40
0.0059030133
 40
0.0234848994
 40
0.0520481585
 40
0.0906472995
 40
0.1937005354
 40
0.3239972675
 40
0.4745100102
 40
0.6400729911
 40
0.8167246266
 40
1.0
 40
1.0
 40
1.0
 40
1.0
 10
332.202935218
 20
138.5177659254
 30
0.0
 10
332.2006948106
 20
138.5153546525
 30
0.0
 10
332.1935035192
 20
138.5043243673
 30
0.0
 10
332.1755176027
 20
138.4815895141
 30
0.0
 10
332.1477964199
 20
138.4432872766
 30
0.0
 10
332.0917411262
 20
138.3667184589
 30
0.0
 10
332.0045835523
 20
138.2425967107
 30
0.0
 10
331.8869689554
 20
138.0637123662
 30
0.0
 10
331.7610590767
 20
137.8488238572
 30
0.0
 10
331.641830914
 20
137.6007655891
 30
0.0
 10
331.5500152922
 20
137.321263438
 30
0.0
 10
331.525853199
 20
137.1200001636
 30
0.0
 10
331.525853199
 20
137.0178079044
 30
0.0
 11
332.202935218
 21
138.5177659254
 31
0.0
 11
332.1970213061
 21
138.5098584222
 31
0.0
 11
332.1794359358
 21
138.4862846004
 31
0.0
 11
332.1510525451
 21
138.4478492335
 31
0.0
 11
332.1130599463
 21
138.3956428963
 31
0.0
 11
332.0139563418
 21
138.2545943422
 31
0.0
 11
331.8946336755
 21
138.0722022275
 31
0.0
 11
331.768178269
 21
137.8544903612
 31
0.0
 11
331.6499009383
 21
137.6040692773
 31
0.0
 11
331.5605009937
 21
137.3224205286
 31
0.0
 11
331.525853199
 21
137.0178079044
 31
0.0
  0
SPLINE
  5
2E2
100
AcDbEntity
  8
0
100
AcDbSpline
 62
7
  6
CONTINUOUS
 70
0
 71
3
 72
9
 73
5
 74
3
 42
0.0000001
 43
0.0000001
 44
0.0000000001
 12
0.790488081
 22
0.527101384
 32
0.0
 13
0.7977170216
 23
0.5160957554
 33
0.0
 40
0.0
 40
0.0
 40
0.0
 40
0.0
 40
0.6715376153
 40
1.0
 40
1.0
 40
1.0
 40
1.0
 10
345.4103842034
 20
137.9938803008
 30
0.0
 10
345.5873316971
 20
138.1118697696
 30
0.0
 10
345.8516841522
 20
138.2862745272
 30
0.0
 10
346.1156375322
 20
138.4613018902
 30
0.0
 10
346.2029775439
 20
138.5178079044
 30
0.0
 11
345.4103842034
 21
137.9938803008
 31
0.0
 11
345.9421969637
 21
138.3463892515
 31
0.0
 11
346.2029775439
 21
138.5178079044
 31
0.0
  0
SPLINE
  5
2E3
100
AcDbEntity
  8
0
100
AcDbSpline
 62
7
  6
CONTINUOUS
 70
0
 71
3
 72
9
 73
5
 74
3
 42
0.0000001
 43
0.0000001
 44
0.0000000001
 12
-0.2113803916
 22
0.0
 32
0.0
 13
-0.1996362099
 23
-0.0694770007
 33
0.0
 40
0.0
 40
0.0
 40
0.0
 40
0.0
 40
0.2462051511
 40
1.0
 40
1.0
 40
1.0
 40
1.0
 10
315.5822878883
 20
165.5178079044
 30
0.0
 10
315.5649402412
 20
165.5178079044
 30
0.0
 10
315.4945017283
 20
165.5148270545
 30
0.0
 10
315.4246606784
 20
165.4996346538
 30
0.0
 10
315.3744990961
 20
165.4821775187
 30
0.0
 11
315.5822878883
 21
165.5178079044
 31
0.0
 11
315.5302918082
 21
165.5155998759
 31
0.0
 11
315.3744990961
 21
165.4821775187
 31
0.0
  0
SPLINE
  5
2E4
100
AcDbEntity
  8
0
100
AcDbSpline
 62
7
  6
CONTINUOUS
 70
0
 71
3
 72
9
 73
5
 74
3
 42
0.0000001
 43
0.0000001
 44
0.0000000001
 12
-0.1996326963
 22
0.0694754888
 32
0.0
 13
-0.2113765762
 23
0.0
 33
0.0
 40
0.0
 40
0.0
 40
0.0
 40
0.0
 40
0.2548689362
 40
1.0
 40
1.0
 40
1.0
 40
1.0
 10
345.0314559907
 20
165.4821812387
 30
0.0
 10
345.0144959331
 20
165.48808362
 30
0.0
 10
344.9470500654
 20
165.5085520332
 30
0.0
 10
344.876168283
 20
165.5178079044
 30
0.0
 10
344.8236671986
 20
165.5178079044
 30
0.0
 11
345.0314559907
 21
165.4821812387
 31
0.0
 11
344.9798930292
 21
165.4977887991
 31
0.0
 11
344.8236671986
 21
165.5178079044
 31
0.0
  0
SPLINE
  5
2E5
100
AcDbEntity
  8
0
100
AcDbSpline
 62
7
  6
CONTINUOUS
 70
0
 71
3
 72
9
 73
5
 74
3
 42
0.0000001
 43
0.0000001
 44
0.0000000001
 12
0.1430857391
 22
0.1616311728
 32
0.0
 13
0.1969984158
 23
0.0882597808
 33
0.0
 40
0.0
 40
0.0
 40
0.0
 40
0.0
 40
0.2717525444
 40
1.0
 40
1.0
 40
1.0
 40
1.0
 10
315.2029775434
 20
165.3526137764
 30
0.0
 10
315.215938848
 20
165.3672550039
 30
0.0
 10
315.2660615287
 20
165.4188728201
 30
0.0
 10
315.3266778978
 20
165.4607525318
 30
0.0
 10
315.3744990961
 20
165.4821775187
 30
0.0
 11
315.2029775434
 21
165.3526137764
 31
0.0
 11
315.2439557331
 21
165.394590396
 31
0.0
 11
315.3744990961
 21
165.4821775187
 31
0.0
  0
SPLINE
  5
2E6
100
AcDbEntity
  8
0
100
AcDbSpline
 62
7
  6
CONTINUOUS
 70
0
 71
3
 72
9
 73
5
 74
3
 42
0.0000001
 43
0.0000001
 44
0.0000000001
 12
-0.1430809218
 22
0.1616180719
 32
0.0
 13
-0.1969866859
 23
0.088254161
 33
0.0
 40
0.0
 40
0.0
 40
0.0
 40
0.0
 40
0.2717267079
 40
1.0
 40
1.0
 40
1.0
 40
1.0
 10
345.2029775434
 20
165.3526359424
 30
0.0
 10
345.1900179075
 20
165.3672745913
 30
0.0
 10
345.1398783656
 20
165.4188698847
 30
0.0
 10
345.0792760381
 20
165.4607568559
 30
0.0
 10
345.0314559907
 20
165.4821812387
 30
0.0
 11
345.2029775434
 21
165.3526359424
 31
0.0
 11
345.1619968782
 21
165.3945974118
 31
0.0
 11
345.0314559907
 21
165.4821812387
 31
0.0
  0
SPLINE
  5
2E7
100
AcDbEntity
  8
0
100
AcDbSpline
 62
7
  6
CONTINUOUS
 70
0
 71
3
 72
33
 73
29
 74
27
 42
0.0000001
 43
0.0000001
 44
0.0000000001
 12
0.0
 22
9.8394187682
 32
0.0
 13
-0.0
 23
-9.8394187682
 33
0.0
 40
0.0
 40
0.0
 40
0.0
 40
0.0
 40
0.0155368872
 40
0.0233677029
 40
0.0311906685
 40
0.0468160159
 40
0.0624441596
 40
0.07807267
 40
0.0937012596
 40
0.1249519886
 40
0.1562054581
 40
0.1874601804
 40
0.2499656915
 40
0.3749770796
 40
0.4999982582
 40
0.625019435
 40
0.7500308786
 40
0.812536423
 40
0.843791133
 40
0.8750447176
 40
0.9062955231
 40
0.9219243651
 40
0.937553272
 40
0.953182762
 40
0.9688087323
 40
0.9766324112
 40
0.9844645714
 40
1.0
 40
1.0
 40
1.0
 40
1.0
 10
325.522165648
 20
164.7178079044
 30
0.0
 10
325.522165648
 20
164.7687658844
 30
0.0
 10
325.5498110152
 20
164.8460041577
 30
0.0
 10
325.6142523316
 20
164.9254230578
 30
0.0
 10
325.6896914425
 20
164.9954881069
 30
0.0
 10
325.7970816765
 20
165.0666390054
 30
0.0
 10
325.9350720988
 20
165.1349434641
 30
0.0
 10
326.0783725211
 20
165.1911306609
 30
0.0
 10
326.2736470618
 20
165.2538666074
 30
0.0
 10
326.5229062553
 20
165.3146430267
 30
0.0
 10
326.8257369718
 20
165.3687493374
 30
0.0
 10
327.2323042307
 20
165.4226625559
 30
0.0
 10
327.9477795652
 20
165.4814964622
 30
0.0
 10
328.9729012843
 20
165.5082878339
 30
0.0
 10
330.2029614903
 20
165.5131577692
 30
0.0
 10
331.4330219372
 20
165.5082864648
 30
0.0
 10
332.4581437721
 20
165.4814972029
 30
0.0
 10
333.1736199435
 20
165.4226680007
 30
0.0
 10
333.5801872072
 20
165.3687523286
 30
0.0
 10
333.8830196856
 20
165.3146518156
 30
0.0
 10
334.1322792601
 20
165.2538713747
 30
0.0
 10
334.3275577736
 20
165.1911399312
 30
0.0
 10
334.4708648615
 20
165.1349524006
 30
0.0
 10
334.6088668448
 20
165.0666529215
 30
0.0
 10
334.7162607478
 20
164.9954913072
 30
0.0
 10
334.7917068401
 20
164.9254211663
 30
0.0
 10
334.8561488046
 20
164.8459995819
 30
0.0
 10
334.8837894388
 20
164.7687611003
 30
0.0
 10
334.8837894388
 20
164.7178079044
 30
0.0
 11
325.522165648
 21
164.7178079044
 31
0.0
 11
325.568049241
 21
164.8636336134
 31
0.0
 11
325.6156230153
 21
164.9242433684
 31
0.0
 11
325.6717516287
 21
164.976916782
 31
0.0
 11
325.7985984825
 21
165.063791384
 31
0.0
 11
325.9359544034
 21
165.1329226576
 31
0.0
 11
326.0789004711
 21
165.1896087523
 31
0.0
 11
326.225188387
 21
165.2370110408
 31
0.0
 11
326.5235176146
 21
165.3115037477
 31
0.0
 11
326.8260813095
 21
165.3664699603
 31
0.0
 11
327.1308610243
 21
165.407494124
 31
0.0
 11
327.7435583895
 21
165.4608697249
 31
0.0
 11
328.9728504626
 21
165.5037406765
 31
0.0
 11
330.2029615063
 21
165.511534187
 31
0.0
 11
331.4330725268
 21
165.5037399608
 31
0.0
 11
332.6623652553
 21
165.460872116
 31
0.0
 11
333.2750631248
 21
165.4074985275
 31
0.0
 11
333.5798427075
 21
165.3664742949
 31
0.0
 11
333.8824080443
 21
165.311510782
 31
0.0
 11
334.1807380144
 21
165.2370179435
 31
0.0
 11
334.3270292483
 21
165.1896178387
 31
0.0
 11
334.4699803304
 21
165.132933804
 31
0.0
 11
334.6073504946
 21
165.0638013652
 31
0.0
 11
334.7342006531
 21
164.9769207408
 31
0.0
 11
334.7903344263
 21
164.9242425707
 31
0.0
 11
334.837915242
 21
164.863621524
 31
0.0
 11
334.8837894388
 21
164.7178079044
 31
0.0
  0
SPLINE
  5
2E8
100
AcDbEntity
  8
0
100
AcDbSpline
 62
7
  6
CONTINUOUS
 70
0
 71
3
 72
13
 73
9
 74
7
 42
0.0000001
 43
0.0000001
 44
0.0000000001
 12
0.0
 22
-8.7834799036
 32
0.0
 13
8.7834799036
 23
0.0
 33
0.0
 40
0.0
 40
0.0
 40
0.0
 40
0.0
 40
0.2522271832
 40
0.5003368109
 40
0.623979442
 40
0.7481273708
 40
0.873478714
 40
1.0
 40
1.0
 40
1.0
 40
1.0
 10
325.2600324718
 20
107.8068079044
 30
0.0
 10
325.2600324718
 20
107.0683304396
 30
0.0
 10
325.4694646975
 20
105.5954302003
 30
0.0
 10
326.2618829875
 20
103.9117207477
 30
0.0
 10
327.2073087834
 20
102.7993589261
 30
0.0
 10
328.0762346872
 20
102.1221800688
 30
0.0
 10
329.09097362
 20
101.6658638395
 30
0.0
 10
329.8325451524
 20
101.5568079044
 30
0.0
 10
330.2029775434
 20
101.5568079044
 30
0.0
 11
325.2600324718
 21
107.8068079044
 31
0.0
 11
325.5794399526
 21
105.6145215281
 31
0.0
 11
326.5253536942
 21
103.6512469209
 31
0.0
 11
327.2323925647
 21
102.8269172979
 31
0.0
 11
328.096285954
 21
102.1615067157
 31
0.0
 11
329.1031384061
 21
101.715978502
 31
0.0
 11
330.2029775434
 21
101.5568079044
 31
0.0
  0
SPLINE
  5
2E9
100
AcDbEntity
  8
0
100
AcDbSpline
 62
7
  6
CONTINUOUS
 70
0
 71
3
 72
9
 73
5
 74
3
 42
0.0000001
 43
0.0000001
 44
0.0000000001
 12
0.0
 22
5.0955213247
 32
0.0
 13
3.4270595302
 23
3.770888562
 33
0.0
 40
0.0
 40
0.0
 40
0.0
 40
0.0
 40
0.5046834509
 40
1.0
 40
1.0
 40
1.0
 40
1.0
 10
325.2600324718
 20
108.8068079044
 30
0.0
 10
325.2600324718
 20
109.6640163332
 30
0.0
 10
325.5404615871
 20
111.3739691337
 30
0.0
 10
326.40490708
 20
112.8952134013
 30
0.0
 10
326.9707335133
 20
113.5178079044
 30
0.0
 11
325.2600324718
 21
108.8068079044
 31
0.0
 11
325.6918404558
 21
111.3419210141
 31
0.0
 11
326.9707335133
 21
113.5178079044
 31
0.0
  0
SPLINE
  5
2EA
100
AcDbEntity
  8
0
100
AcDbSpline
 62
7
  6
CONTINUOUS
 70
0
 71
3
 72
10
 73
6
 74
4
 42
0.0000001
 43
0.0000001
 44
0.0000000001
 12
2.0878086053
 22
1.5838662768
 32
0.0
 13
2.6206062572
 23
0.0
 33
0.0
 40
0.0
 40
0.0
 40
0.0
 40
0.0
 40
0.4963247355
 40
0.7476628441
 40
1.0
 40
1.0
 40
1.0
 40
1.0
 10
327.768250702
 20
113.9508206063
 30
0.0
 10
328.1136610533
 20
114.2128579433
 30
0.0
 10
328.6951373793
 20
114.5384021558
 30
0.0
 10
329.541466917
 20
114.7671960736
 30
0.0
 10
329.9825521002
 20
114.8068079044
 30
0.0
 10
330.2029775434
 20
114.8068079044
 30
0.0
 11
327.768250702
 21
113.9508206063
 31
0.0
 11
328.9082732427
 21
114.5769958994
 31
0.0
 11
329.5443092027
 21
114.7481359244
 31
0.0
 11
330.2029775434
 21
114.8068079044
 31
0.0
  0
SPLINE
  5
2EB
100
AcDbEntity
  8
0
100
AcDbSpline
 62
7
  6
CONTINUOUS
 70
0
 71
3
 72
13
 73
9
 74
7
 42
0.0000001
 43
0.0000001
 44
0.0000000001
 12
0.0
 22
-8.7834804922
 32
0.0
 13
-8.7834804922
 23
0.0
 33
0.0
 40
0.0
 40
0.0
 40
0.0
 40
0.0
 40
0.2521568671
 40
0.5002609568
 40
0.6239083488
 40
0.7480891439
 40
0.8734895414
 40
1.0
 40
1.0
 40
1.0
 40
1.0
 10
335.1459226151
 20
107.8068079044
 30
0.0
 10
335.1459226151
 20
107.0685362635
 30
0.0
 10
334.9365843671
 20
105.5958638235
 30
0.0
 10
334.1444102396
 20
103.9122827309
 30
0.0
 10
333.1990691053
 20
102.7997231237
 30
0.0
 10
332.3299792515
 20
102.1223308381
 30
0.0
 10
331.3150595412
 20
101.6658905087
 30
0.0
 10
330.5733782584
 20
101.5568079044
 30
0.0
 10
330.2029775434
 20
101.5568079044
 30
0.0
 11
335.1459226151
 21
107.8068079044
 31
0.0
 11
334.8266962124
 21
105.6151191386
 31
0.0
 11
333.880995647
 21
103.6517956665
 31
0.0
 11
333.1740288222
 21
102.8273490708
 31
0.0
 11
332.309956506
 21
102.1616975932
 31
0.0
 11
331.3027223112
 21
101.7159671094
 31
0.0
 11
330.2029775434
 21
101.5568079044
 31
0.0
  0
SPLINE
  5
2EC
100
AcDbEntity
  8
0
100
AcDbSpline
 62
7
  6
CONTINUOUS
 70
0
 71
3
 72
9
 73
5
 74
3
 42
0.0000001
 43
0.0000001
 44
0.0000000001
 12
3.4270595003
 22
-3.7708885291
 32
0.0
 13
0.0
 23
-5.0955212802
 33
0.0
 40
0.0
 40
0.0
 40
0.0
 40
0.0
 40
0.4953198884
 40
1.0
 40
1.0
 40
1.0
 40
1.0
 10
333.4352215736
 20
113.5178079044
 30
0.0
 10
334.0010518166
 20
112.8952092093
 30
0.0
 10
334.8654955097
 20
111.3739630381
 30
0.0
 10
335.1459226151
 20
109.6640106539
 30
0.0
 10
335.1459226151
 20
108.8068079044
 30
0.0
 11
333.4352215736
 21
113.5178079044
 31
0.0
 11
334.7141204477
 21
111.3419047214
 31
0.0
 11
335.1459226151
 21
108.8068079044
 31
0.0
  0
SPLINE
  5
2ED
100
AcDbEntity
  8
0
100
AcDbSpline
 62
7
  6
CONTINUOUS
 70
0
 71
3
 72
10
 73
6
 74
4
 42
0.0000001
 43
0.0000001
 44
0.0000000001
 12
2.620606286
 22
0.0
 32
0.0
 13
2.0878086283
 23
-1.5838662942
 33
0.0
 40
0.0
 40
0.0
 40
0.0
 40
0.0
 40
0.2523371257
 40
0.5036779098
 40
1.0
 40
1.0
 40
1.0
 40
1.0
 10
330.2029775434
 20
114.8068079044
 30
0.0
 10
330.4234029627
 20
114.8068079044
 30
0.0
 10
330.864490464
 20
114.7671958455
 30
0.0
 10
331.7108198513
 20
114.5384009882
 30
0.0
 10
332.2922958708
 20
114.2128565495
 30
0.0
 10
332.6377043849
 20
113.9508206063
 30
0.0
 11
330.2029775434
 21
114.8068079044
 31
0.0
 11
330.8616458097
 21
114.7481358995
 31
0.0
 11
331.4976883803
 21
114.5769934288
 31
0.0
 11
332.6377043849
 21
113.9508206063
 31
0.0
  0
ELLIPSE
  5
2EE
100
AcDbEntity
  8
DEFAULT_2
100
AcDbEllipse
 62
8
  6
HIDDEN
 10
330.2029775434
 20
168.8178079044
 30
0.0
 11
-4.636546379
 21
15.3134724238
 31
0.0
 40
1.0
 41
2.5506981543
 42
3.1444845493
  0
ELLIPSE
  5
2EF
100
AcDbEntity
  8
0
100
AcDbEllipse
 62
7
  6
CONTINUOUS
 10
330.2029775434
 20
168.8178079044
 30
0.0
 11
4.636546379
 21
15.3134724238
 31
0.0
 40
1.0
 41
3.1387007578
 42
3.7324871529
  0
ENDSEC
  0
SECTION
  2
OBJECTS
  0
DICTIONARY
  5
C
100
AcDbDictionary
280
0
281
1
  3
ACAD_GROUP
350
D
  3
ACAD_MLINESTYLE
350
17
  3
ACAD_LAYOUT
350
1A
  3
ACAD_PLOTSETTINGS
350
19
  3
ACAD_PLOTSTYLENAME
350
E
  0
DICTIONARY
  5
D
102
{ACAD_REACTORS
330
C
102
}
100
AcDbDictionary
280
0
281
1
  0
ACDBDICTIONARYWDFLT
  5
E
102
{ACAD_REACTORS
330
C
102
}
100
AcDbDictionary
281
1
  3
Normal
350
F
100
AcDbDictionaryWithDefault
340
F
  0
DICTIONARY
  5
17
102
{ACAD_REACTORS
330
C
102
}
100
AcDbDictionary
280
0
281
1
  3
Standard
350
18
  0
DICTIONARY
  5
19
102
{ACAD_REACTORS
330
C
102
}
100
AcDbDictionary
281
1
  0
DICTIONARY
  5
1A
102
{ACAD_REACTORS
330
C
102
}
100
AcDbDictionary
281
1
  3
Model
350
2F0
  3
Layout1
350
2F1
  0
ACDBPLACEHOLDER
  5
F
102
{ACAD_REACTORS
330
E
102
}
  0
MLINESTYLE
  5
18
102
{ACAD_REACTORS
330
17
102
}
100
AcDbMlineStyle
  2
STANDARD
 70
0
  3

 62
256
 51
90.0
 52
90.0
 71
2
 49
0.5
 62
256
  6
BYLAYER
 49
-0.5
 62
256
  6
BYLAYER
  0
LAYOUT
  5
2F0
102
{ACAD_REACTORS
330
1A
102
}
100
AcDbPlotSettings
  1

  2
none_device
  4
ISO_A3_(420.00_x_297.00_MM)
  6

 40
0.0
 41
0.0
 42
0.0
 43
0.0
 44
420.0
 45
297.0
 46
0.0
 47
0.0
 48
0.0
 49
0.0
140
0.0
141
0.0
142
1.0
143
1.0
 70
1024
 72
1
 73
0
 74
0
  7

 75
0
147
1.0
148
0.0
149
0.0
100
AcDbLayout
  1
Model
 70
0
 71
0
 10
0.0
 20
0.0
 11
420.0
 21
297.0
 12
0.0
 22
0.0
 32
0.0
 14
0.0
 24
0.0
 34
0.0
 15
0.0
 25
0.0
 35
0.0
146
0.0
 13
0.0
 23
0.0
 33
0.0
 16
1.0
 26
0.0
 36
0.0
 17
0.0
 27
1.0
 37
0.0
 76
0
330
207
345
0
346
0
  0
LAYOUT
  5
2F1
102
{ACAD_REACTORS
330
1A
102
}
100
AcDbPlotSettings
  1

  2
none_device
  4
ISO_A3_(420.00_x_297.00_MM)
  6

 40
0.0
 41
0.0
 42
0.0
 43
0.0
 44
420.0
 45
297.0
 46
0.0
 47
0.0
 48
0.0
 49
0.0
140
0.0
141
0.0
142
1.0
143
1.0
 70
0
 72
1
 73
0
 74
0
  7

 75
0
147
1.0
148
0.0
149
0.0
100
AcDbLayout
  1
Layout1
 70
0
 71
1
 10
0.0
 20
0.0
 11
420.0
 21
297.0
 12
0.0
 22
0.0
 32
0.0
 14
0.0
 24
0.0
 34
0.0
 15
0.0
 25
0.0
 35
0.0
146
0.0
 13
0.0
 23
0.0
 33
0.0
 16
1.0
 26
0.0
 36
0.0
 17
0.0
 27
1.0
 37
0.0
 76
0
330
208
345
0
346
0
  0
ENDSEC
  0
EOF
