999
DXF file: 23600-40bt-b.dxf
999
Pro/ENGINEER 2007450 by Parametric Technology Corporation
  0
SECTION
  2
HEADER
  9
$ACADVER
  1
AC1018
  9
$DWGCODEPAGE
  3
ANSI_1252
  9
$EXTMAX
 10
210.0
 20
297.0
 30
0.0
  9
$EXTMIN
 10
0.0
 20
0.0
 30
0.0
  9
$LIMMIN
 10
0.0
 20
0.0
  9
$LIMMAX
 10
210.0
 20
297.0
  9
$VIEWCTR
 10
105.0
 20
148.5
  9
$VIEWSIZE
 40
297.0
  9
$CLAYER
  8
0
  9
$LTSCALE
 40
19.36
  9
$CELTYPE
  6
BYLAYER
  9
$DIMSCALE
 40
1.0
  9
$DIMASZ
 40
4.76
  9
$DIMEXO
 40
2.2
  9
$DIMDLI
 40
13.376
  9
$DIMEXE
 40
6.336
  9
$DIMCEN
 40
3.168
  9
$DIMLFAC
 40
1.0
  9
$DIMBLK
  1
_FILLED
  9
$DIMTXT
 40
3.0
  9
$DIMTOL
 70
1
  9
$DIMLIM
 70
0
  9
$DIMTFAC
 40
1.0
  9
$DIMTP
 40
0.001
  9
$DIMTM
 40
0.001
  9
$PDMODE
 70
3
  9
$PDSIZE
 40
0.3125
  9
$HANDSEED
  5
36A
  9
$TILEMODE
 70
1
  9
$MEASUREMENT
 70
1
  9
$INSUNITS
 70
4
  0
ENDSEC
  0
SECTION
  2
CLASSES
  0
CLASS
  1
ACDBDICTIONARYWDFLT
  2
AcDbDictionaryWithDefault
  3
AutoCAD 2000
 90
0
 91
1
280
0
281
0
  0
CLASS
  1
ACDBPLACEHOLDER
  2
AcDbPlaceHolder
  3
AutoCAD 2000
 90
0
 91
1
280
0
281
0
  0
CLASS
  1
LAYOUT
  2
AcDbLayout
  3
AutoCAD 2000
 90
0
 91
0
280
0
281
0
  0
CLASS
  1
TABLESTYLE
  2
AcDbTableStyle
  3
ObjectDBX Classes
 90
2047
 91
1
280
0
281
0
  0
CLASS
  1
ACAD_TABLE
  2
AcDbTable
  3
ObjectDBX Classes
 90
1025
 91
1
280
0
281
1
  0
ENDSEC
  0
SECTION
  2
TABLES
  0
TABLE
  2
VPORT
  5
8
100
AcDbSymbolTable
 70
2
  0
VPORT
  5
1F4
100
AcDbSymbolTableRecord
100
AcDbViewportTableRecord
  2
*ACTIVE
 70
0
 10
0.0
 20
0.0
 11
1.0
 21
1.0
 12
105.0
 22
148.5
 13
0.0
 23
0.0
 14
1.0
 24
1.0
 15
0.0
 25
0.0
 16
0.0
 26
0.0
 36
1.0
 17
0.0
 27
0.0
 37
0.0
 40
297.0
 41
0.7070707071
 42
50.0
 43
0.0
 44
0.0
 50
0.0
 51
0.0
 71
0
 72
100
 73
1
 74
1
 75
0
 76
0
 77
0
 78
0
  0
ENDTAB
  0
TABLE
  2
LTYPE
  5
5
100
AcDbSymbolTable
 70
6
  0
LTYPE
  5
14
100
AcDbSymbolTableRecord
100
AcDbLinetypeTableRecord
  2
BYBLOCK
 70
0
  3

 72
65
 73
0
 40
0.0
  0
LTYPE
  5
15
100
AcDbSymbolTableRecord
100
AcDbLinetypeTableRecord
  2
BYLAYER
 70
0
  3

 72
65
 73
0
 40
0.0
  0
LTYPE
  5
16
100
AcDbSymbolTableRecord
100
AcDbLinetypeTableRecord
  2
CONTINUOUS
 70
64
  3
Solid line
 72
65
 73
0
 40
0.0
  0
LTYPE
  5
1F5
100
AcDbSymbolTableRecord
100
AcDbLinetypeTableRecord
  2
CENTER
 70
64
  3
____ _ ____ _ ____ _ ____ _ ____ _ ____ _ ____
 72
65
 73
4
 40
0.6
 49
0.375
 74
0
 49
-0.075
 74
0
 49
0.075
 74
0
 49
-0.075
 74
0
  0
LTYPE
  5
1F6
100
AcDbSymbolTableRecord
100
AcDbLinetypeTableRecord
  2
HIDDEN
 70
64
  3
- - - - - - - - - - - - - - - - - - - -
 72
65
 73
2
 40
0.2
 49
0.1
 74
0
 49
-0.1
 74
0
  0
LTYPE
  5
1F7
100
AcDbSymbolTableRecord
100
AcDbLinetypeTableRecord
  2
PHANTOM
 70
64
  3
_____ _ _ _____ _ _ _____ _ _ _____
 72
65
 73
6
 40
0.8
 49
0.45
 74
0
 49
-0.05
 74
0
 49
0.1
 74
0
 49
-0.05
 74
0
 49
0.1
 74
0
 49
-0.05
 74
0
  0
LTYPE
  5
1F8
100
AcDbSymbolTableRecord
100
AcDbLinetypeTableRecord
  2
DOT
 70
64
  3
. . . . . . . . . . . . . . . . . . . .
 72
65
 73
2
 40
0.2
 49
0.1
 74
0
 49
-0.1
 74
0
  0
LTYPE
  5
1F9
100
AcDbSymbolTableRecord
100
AcDbLinetypeTableRecord
  2
DASHED
 70
64
  3
- - - - - - - - - - - - - - - - - - - -
 72
65
 73
2
 40
0.2
 49
0.1
 74
0
 49
-0.1
 74
0
  0
ENDTAB
  0
TABLE
  2
LAYER
  5
2
100
AcDbSymbolTable
 70
36
  0
LAYER
  5
10
100
AcDbSymbolTableRecord
100
AcDbLayerTableRecord
  2
0
 70
0
 62
7
  6
CONTINUOUS
370
-3
390
F
  0
LAYER
  5
1FA
100
AcDbSymbolTableRecord
100
AcDbLayerTableRecord
  2
DEFAULT_1
 70
0
 62
7
  6
CENTER
370
-3
390
F
  0
LAYER
  5
1FB
100
AcDbSymbolTableRecord
100
AcDbLayerTableRecord
  2
DEFAULT_2
 70
0
 62
8
  6
HIDDEN
370
-3
390
F
  0
LAYER
  5
1FC
100
AcDbSymbolTableRecord
100
AcDbLayerTableRecord
  2
DEFAULT_3
 70
0
 62
7
  6
PHANTOM
370
-3
390
F
  0
LAYER
  5
1FD
100
AcDbSymbolTableRecord
100
AcDbLayerTableRecord
  2
0_COMPONENTS
 70
0
 62
7
  6
CONTINUOUS
370
-3
390
F
  0
LAYER
  5
1FE
100
AcDbSymbolTableRecord
100
AcDbLayerTableRecord
  2
1_ALL_PLANES
 70
0
 62
7
  6
CONTINUOUS
370
-3
390
F
  0
LAYER
  5
1FF
100
AcDbSymbolTableRecord
100
AcDbLayerTableRecord
  2
1__DEF_ASM_PLN
 70
0
 62
7
  6
CONTINUOUS
370
-3
390
F
  0
LAYER
  5
200
100
AcDbSymbolTableRecord
100
AcDbLayerTableRecord
  2
1__DEF_PLANES
 70
0
 62
7
  6
CONTINUOUS
370
-3
390
F
  0
LAYER
  5
201
100
AcDbSymbolTableRecord
100
AcDbLayerTableRecord
  2
2_ALL_CSYS
 70
0
 62
7
  6
CONTINUOUS
370
-3
390
F
  0
LAYER
  5
202
100
AcDbSymbolTableRecord
100
AcDbLayerTableRecord
  2
2__DEF_ASM_CSYS
 70
0
 62
7
  6
CONTINUOUS
370
-3
390
F
  0
LAYER
  5
203
100
AcDbSymbolTableRecord
100
AcDbLayerTableRecord
  2
2__DEF_CSYS
 70
0
 62
7
  6
CONTINUOUS
370
-3
390
F
  0
LAYER
  5
204
100
AcDbSymbolTableRecord
100
AcDbLayerTableRecord
  2
3_ALL_AXES
 70
0
 62
7
  6
CONTINUOUS
370
-3
390
F
  0
LAYER
  5
205
100
AcDbSymbolTableRecord
100
AcDbLayerTableRecord
  2
4_ALL_POINTS
 70
0
 62
7
  6
CONTINUOUS
370
-3
390
F
  0
LAYER
  5
206
100
AcDbSymbolTableRecord
100
AcDbLayerTableRecord
  2
5_ALL_CURVES
 70
0
 62
7
  6
CONTINUOUS
370
-3
390
F
  0
LAYER
  5
207
100
AcDbSymbolTableRecord
100
AcDbLayerTableRecord
  2
5_ALL_GTOLS(FREE)
 70
0
 62
7
  6
CONTINUOUS
370
-3
390
F
  0
LAYER
  5
208
100
AcDbSymbolTableRecord
100
AcDbLayerTableRecord
  2
6_ALL_SURFS
 70
0
 62
7
  6
CONTINUOUS
370
-3
390
F
  0
LAYER
  5
209
100
AcDbSymbolTableRecord
100
AcDbLayerTableRecord
  2
CURVE
 70
0
 62
7
  6
CONTINUOUS
370
-3
390
F
  0
LAYER
  5
20A
100
AcDbSymbolTableRecord
100
AcDbLayerTableRecord
  2
GIANNI_ASSI
 70
0
 62
7
  6
CONTINUOUS
370
-3
390
F
  0
LAYER
  5
20B
100
AcDbSymbolTableRecord
100
AcDbLayerTableRecord
  2
GIANNI_PIANI
 70
0
 62
7
  6
CONTINUOUS
370
-3
390
F
  0
ENDTAB
  0
TABLE
  2
STYLE
  5
3
100
AcDbSymbolTable
 70
1
  0
STYLE
  5
11
100
AcDbSymbolTableRecord
100
AcDbTextStyleTableRecord
  2
STANDARD
 70
0
 40
0.0
 41
1.2
 50
0.0
 71
0
 42
0.2
  3
txt
  4

  0
STYLE
  5
20C
100
AcDbSymbolTableRecord
100
AcDbTextStyleTableRecord
  2
TEXTSTYLE_1
 70
0
 40
0.0
 41
0.8
 50
0.0
 71
0
 42
0.2
  3
gdt
  4

  0
STYLE
  5
20D
100
AcDbSymbolTableRecord
100
AcDbTextStyleTableRecord
  2
TEXTSTYLE_2
 70
0
 40
0.0
 41
1.0
 50
0.0
 71
0
 42
0.2
  3
txt
  4

  0
STYLE
  5
20E
100
AcDbSymbolTableRecord
100
AcDbTextStyleTableRecord
  2
TEXTSTYLE_3
 70
0
 40
0.0
 41
1.2
 50
0.0
 71
0
 42
0.2
  3
txt
  4

  0
STYLE
  5
20F
100
AcDbSymbolTableRecord
100
AcDbTextStyleTableRecord
  2
TEXTSTYLE_4
 70
0
 40
0.0
 41
1.0
 50
0.0
 71
0
 42
0.2
  3
bluprntb.ttf
  4

  0
STYLE
  5
210
100
AcDbSymbolTableRecord
100
AcDbTextStyleTableRecord
  2
TEXTSTYLE_5
 70
0
 40
0.0
 41
1.0
 50
0.0
 71
0
 42
0.2
  3
gdt
  4

  0
ENDTAB
  0
TABLE
  2
VIEW
  5
6
100
AcDbSymbolTable
 70
0
  0
ENDTAB
  0
TABLE
  2
UCS
  5
7
100
AcDbSymbolTable
 70
0
  0
ENDTAB
  0
TABLE
  2
APPID
  5
9
100
AcDbSymbolTable
 70
1
  0
APPID
  5
211
100
AcDbSymbolTableRecord
100
AcDbRegAppTableRecord
  2
ACAD
 70
0
  0
ENDTAB
  0
TABLE
  2
BLOCK_RECORD
  5
1
100
AcDbSymbolTable
 70
0
  0
BLOCK_RECORD
  5
212
100
AcDbSymbolTableRecord
100
AcDbBlockTableRecord
  2
*Model_Space
  0
BLOCK_RECORD
  5
213
100
AcDbSymbolTableRecord
100
AcDbBlockTableRecord
  2
*Paper_Space
  0
BLOCK_RECORD
  5
214
100
AcDbSymbolTableRecord
100
AcDbBlockTableRecord
  2
_FILLED
  0
BLOCK_RECORD
  5
215
100
AcDbSymbolTableRecord
100
AcDbBlockTableRecord
  2
*D0
  0
BLOCK_RECORD
  5
216
100
AcDbSymbolTableRecord
100
AcDbBlockTableRecord
  2
*D1
  0
BLOCK_RECORD
  5
217
100
AcDbSymbolTableRecord
100
AcDbBlockTableRecord
  2
*D2
  0
BLOCK_RECORD
  5
218
100
AcDbSymbolTableRecord
100
AcDbBlockTableRecord
  2
*T1
  0
ENDTAB
  0
TABLE
  2
DIMSTYLE
  5
A
100
AcDbSymbolTable
 70
1
100
AcDbDimStyleTable
 71
0
  0
DIMSTYLE
105
219
100
AcDbSymbolTableRecord
100
AcDbDimStyleTableRecord
  2
STANDARD
 70
0
  3

  4

 40
1.0
 41
4.76
 42
0.0625
 43
0.38
 44
0.18
 45
0.0
 46
0.0
 47
0.001
 48
0.001
140
3.0
141
0.09
142
0.0
143
25.4
144
1.0
145
0.0
146
1.0
147
0.09
 71
1.0
 72
0.0
 73
0
 74
0
 75
0
 76
0
 77
1
 78
8
170
0
171
2
172
0
173
0
174
0
175
0
176
0
177
0
178
5
270
2
271
3
272
3
273
2
274
2
275
0
280
0
281
0
282
0
283
1
284
8
285
0
286
0
287
3
288
0
340
11
341
214
342
214
343
214
344
214
  0
DIMSTYLE
105
21A
100
AcDbSymbolTableRecord
100
AcDbDimStyleTableRecord
  2
DIMSTYLE_1
 70
0
  3

  4

 40
1.0
 41
4.76
 42
0.0625
 43
0.38
 44
0.18
 45
0.0
 46
0.0
 47
0.01
 48
0.01
140
3.0
141
0.09
142
0.0
143
25.4
144
1.0
145
0.0
146
1.0
147
0.09
 71
0.0
 72
0.0
 73
0
 74
0
 75
0
 76
0
 77
1
 78
8
170
0
171
2
172
0
173
0
174
0
175
0
176
0
177
0
178
5
270
2
271
3
272
3
273
2
274
2
275
0
280
0
281
0
282
0
283
1
284
8
285
0
286
0
287
3
288
0
340
11
341
214
342
214
343
214
344
214
  0
DIMSTYLE
105
21B
100
AcDbSymbolTableRecord
100
AcDbDimStyleTableRecord
  2
DIMSTYLE_2
 70
0
  3

  4

 40
1.0
 41
4.76
 42
0.0625
 43
0.38
 44
0.18
 45
0.0
 46
0.0
 47
0.0
 48
0.0
140
3.0
141
0.09
142
0.0
143
25.4
144
1.0
145
0.0
146
1.0
147
0.09
 71
0.0
 72
0.0
 73
0
 74
0
 75
0
 76
0
 77
1
 78
8
170
0
171
2
172
0
173
0
174
0
175
0
176
0
177
0
178
5
270
2
271
0
272
0
273
2
274
2
275
0
280
0
281
0
282
0
283
1
284
8
285
0
286
0
287
3
288
0
340
11
341
214
342
214
343
214
344
214
  0
ENDTAB
  0
ENDSEC
  0
SECTION
  2
BLOCKS
  0
BLOCK
  5
20
100
AcDbEntity
  8
0
100
AcDbBlockBegin
  2
*Model_Space
 70
0
 10
0.0
 20
0.0
 30
0.0
  3
*Model_Space
  1

  0
ENDBLK
  5
21
100
AcDbEntity
  8
0
100
AcDbBlockEnd
  0
BLOCK
  5
1C
100
AcDbEntity
  8
0
100
AcDbBlockBegin
  2
*Paper_Space
 70
0
 10
0.0
 20
0.0
 30
0.0
  3
*Paper_Space
  1

  0
ENDBLK
  5
1D
100
AcDbEntity
  8
0
100
AcDbBlockEnd
  0
BLOCK
  5
21C
100
AcDbEntity
  8
0
100
AcDbBlockBegin
  2
_FILLED
 70
64
 10
0.0
 20
0.0
  3
_FILLED
  1

  0
SOLID
  5
21D
100
AcDbEntity
  8
0
  6
BYBLOCK
 62
0
100
AcDbTrace
 10
0.0
 20
0.0
 11
-1.0
 21
0.1050420168
 12
-1.0
 22
-0.1050420168
 13
-1.0
 23
-0.1050420168
  0
ENDBLK
  5
21E
100
AcDbEntity
  8
0
  6
BYBLOCK
 62
0
100
AcDbBlockEnd
  0
BLOCK
  5
21F
100
AcDbEntity
  8
0
100
AcDbBlockBegin
 62
2
  6
CONTINUOUS
  2
*D0
 70
65
 10
0.0
 20
0.0
  3
*D0
  1

  0
MTEXT
  5
220
100
AcDbEntity
  8
0
100
AcDbMText
 62
5
  6
CONTINUOUS
  7
STANDARD
 71
2
 72
1
 10
157.6550448713
 20
129.0
 30
0.0
 11
0.0
 21
1.0
 31
0.0
 44
0.9
  1
82
 40
3.0
 41
4.7142857143
  0
LINE
  5
221
100
AcDbEntity
  8
0
100
AcDbLine
 62
2
  6
CONTINUOUS
 10
125.51
 20
170.0
 11
162.4050448713
 21
170.0
  0
LINE
  5
222
100
AcDbEntity
  8
0
100
AcDbLine
 62
2
  6
CONTINUOUS
 10
125.485
 20
88.0
 11
162.4050448713
 21
88.0
  0
LINE
  5
223
100
AcDbEntity
  8
0
100
AcDbLine
 62
2
  6
CONTINUOUS
 10
161.4050448713
 20
170.0
 11
161.4050448713
 21
129.0
  0
LINE
  5
224
100
AcDbEntity
  8
0
100
AcDbLine
 62
2
  6
CONTINUOUS
 10
161.4050448713
 20
88.0
 11
161.4050448713
 21
129.0
  0
INSERT
  5
225
100
AcDbEntity
  8
0
100
AcDbBlockReference
 62
2
  6
CONTINUOUS
  2
_FILLED
 10
161.4050448713
 20
170.0
 41
4.76
 42
4.76
 43
4.76
 50
90.0
  0
INSERT
  5
226
100
AcDbEntity
  8
0
100
AcDbBlockReference
 62
2
  6
CONTINUOUS
  2
_FILLED
 10
161.4050448713
 20
88.0
 41
4.76
 42
4.76
 43
4.76
 50
270.0
  0
ENDBLK
  5
227
100
AcDbEntity
  8
0
  6
BYBLOCK
 62
0
100
AcDbBlockEnd
  0
BLOCK
  5
228
100
AcDbEntity
  8
0
100
AcDbBlockBegin
 62
2
  6
CONTINUOUS
  2
*D1
 70
65
 10
0.0
 20
0.0
  3
*D1
  1

  0
MTEXT
  5
229
100
AcDbEntity
  8
0
100
AcDbMText
 62
5
  6
CONTINUOUS
  7
STANDARD
 71
2
 72
1
 10
103.185
 20
66.39668974
 30
0.0
 11
1.0
 21
0.0
 31
0.0
 44
0.9
  1
Ø60
 40
3.0
 41
8.3142857143
  0
LINE
  5
22A
100
AcDbEntity
  8
0
100
AcDbLine
 62
2
  6
CONTINUOUS
 10
133.185
 20
107.6
 11
133.185
 21
61.64668974
  0
LINE
  5
22B
100
AcDbEntity
  8
0
100
AcDbLine
 62
2
  6
CONTINUOUS
 10
73.185
 20
107.6
 11
73.185
 21
61.64668974
  0
LINE
  5
22C
100
AcDbEntity
  8
0
100
AcDbLine
 62
2
  6
CONTINUOUS
 10
133.185
 20
62.64668974
 11
103.185
 21
62.64668974
  0
LINE
  5
22D
100
AcDbEntity
  8
0
100
AcDbLine
 62
2
  6
CONTINUOUS
 10
73.185
 20
62.64668974
 11
103.185
 21
62.64668974
  0
INSERT
  5
22E
100
AcDbEntity
  8
0
100
AcDbBlockReference
 62
2
  6
CONTINUOUS
  2
_FILLED
 10
133.185
 20
62.64668974
 41
4.76
 42
4.76
 43
4.76
  0
INSERT
  5
22F
100
AcDbEntity
  8
0
100
AcDbBlockReference
 62
2
  6
CONTINUOUS
  2
_FILLED
 10
73.185
 20
62.64668974
 41
4.76
 42
4.76
 43
4.76
 50
180.0
  0
ENDBLK
  5
230
100
AcDbEntity
  8
0
  6
BYBLOCK
 62
0
100
AcDbBlockEnd
  0
BLOCK
  5
231
100
AcDbEntity
  8
0
100
AcDbBlockBegin
 62
2
  6
CONTINUOUS
  2
*D2
 70
65
 10
0.0
 20
0.0
  3
*D2
  1

  0
MTEXT
  5
232
100
AcDbEntity
  8
0
100
AcDbMText
 62
5
  6
CONTINUOUS
  7
STANDARD
 71
2
 72
1
 10
103.185
 20
86.0134270489
 30
0.0
 11
1.0
 21
0.0
 31
0.0
 44
0.9
  1
Ø32
 40
3.0
 41
8.1
  0
LINE
  5
233
100
AcDbEntity
  8
0
100
AcDbLine
 62
2
  6
CONTINUOUS
 10
119.21
 20
88.4
 11
119.21
 21
81.2634270489
  0
LINE
  5
234
100
AcDbEntity
  8
0
100
AcDbLine
 62
2
  6
CONTINUOUS
 10
87.16
 20
88.4
 11
87.16
 21
81.2634270489
  0
LINE
  5
235
100
AcDbEntity
  8
0
100
AcDbLine
 62
2
  6
CONTINUOUS
 10
119.21
 20
82.2634270489
 11
103.185
 21
82.2634270489
  0
LINE
  5
236
100
AcDbEntity
  8
0
100
AcDbLine
 62
2
  6
CONTINUOUS
 10
87.16
 20
82.2634270489
 11
103.185
 21
82.2634270489
  0
INSERT
  5
237
100
AcDbEntity
  8
0
100
AcDbBlockReference
 62
2
  6
CONTINUOUS
  2
_FILLED
 10
119.21
 20
82.2634270489
 41
4.76
 42
4.76
 43
4.76
  0
INSERT
  5
238
100
AcDbEntity
  8
0
100
AcDbBlockReference
 62
2
  6
CONTINUOUS
  2
_FILLED
 10
87.16
 20
82.2634270489
 41
4.76
 42
4.76
 43
4.76
 50
180.0
  0
ENDBLK
  5
239
100
AcDbEntity
  8
0
  6
BYBLOCK
 62
0
100
AcDbBlockEnd
  0
BLOCK
  5
23A
100
AcDbEntity
  8
0
100
AcDbBlockBegin
  2
*T1
 70
1
 10
0.0
 20
0.0
  3
*T1
  1

  0
LINE
  5
23B
100
AcDbEntity
  8
0
100
AcDbLine
 62
2
  6
CONTINUOUS
 10
199.5
 20
0.0
 11
0.0
 21
0.0
  0
LINE
  5
23C
100
AcDbEntity
  8
0
100
AcDbLine
 62
2
  6
CONTINUOUS
 10
199.5
 20
0.0
 11
199.5
 21
40.0
  0
LINE
  5
23D
100
AcDbEntity
  8
0
100
AcDbLine
 62
2
  6
CONTINUOUS
 10
110.0
 20
5.0
 11
0.0
 21
5.0
  0
LINE
  5
23E
100
AcDbEntity
  8
0
100
AcDbLine
 62
2
  6
CONTINUOUS
 10
199.5
 20
10.0
 11
0.0
 21
10.0
  0
LINE
  5
23F
100
AcDbEntity
  8
0
100
AcDbLine
 62
2
  6
CONTINUOUS
 10
28.0
 20
15.0
 11
0.0
 21
15.0
  0
LINE
  5
240
100
AcDbEntity
  8
0
100
AcDbLine
 62
2
  6
CONTINUOUS
 10
162.0
 20
20.0
 11
0.0
 21
20.0
  0
LINE
  5
241
100
AcDbEntity
  8
0
100
AcDbLine
 62
2
  6
CONTINUOUS
 10
28.0
 20
25.0
 11
0.0
 21
25.0
  0
LINE
  5
242
100
AcDbEntity
  8
0
100
AcDbLine
 62
2
  6
CONTINUOUS
 10
162.0
 20
30.0
 11
0.0
 21
30.0
  0
LINE
  5
243
100
AcDbEntity
  8
0
100
AcDbLine
 62
2
  6
CONTINUOUS
 10
199.5
 20
35.0
 11
162.0
 21
35.0
  0
LINE
  5
244
100
AcDbEntity
  8
0
100
AcDbLine
 62
2
  6
CONTINUOUS
 10
128.0
 20
35.0
 11
0.0
 21
35.0
  0
LINE
  5
245
100
AcDbEntity
  8
0
100
AcDbLine
 62
2
  6
CONTINUOUS
 10
199.5
 20
40.0
 11
0.0
 21
40.0
  0
LINE
  5
246
100
AcDbEntity
  8
0
100
AcDbLine
 62
2
  6
CONTINUOUS
 10
191.0
 20
0.0
 11
191.0
 21
10.0
  0
LINE
  5
247
100
AcDbEntity
  8
0
100
AcDbLine
 62
2
  6
CONTINUOUS
 10
180.0
 20
10.0
 11
180.0
 21
35.0
  0
LINE
  5
248
100
AcDbEntity
  8
0
100
AcDbLine
 62
2
  6
CONTINUOUS
 10
162.0
 20
10.0
 11
162.0
 21
40.0
  0
LINE
  5
249
100
AcDbEntity
  8
0
100
AcDbLine
 62
2
  6
CONTINUOUS
 10
145.0
 20
0.0
 11
145.0
 21
40.0
  0
LINE
  5
24A
100
AcDbEntity
  8
0
100
AcDbLine
 62
2
  6
CONTINUOUS
 10
128.0
 20
0.0
 11
128.0
 21
10.0
  0
LINE
  5
24B
100
AcDbEntity
  8
0
100
AcDbLine
 62
2
  6
CONTINUOUS
 10
128.0
 20
20.0
 11
128.0
 21
40.0
  0
LINE
  5
24C
100
AcDbEntity
  8
0
100
AcDbLine
 62
2
  6
CONTINUOUS
 10
110.0
 20
0.0
 11
110.0
 21
10.0
  0
LINE
  5
24D
100
AcDbEntity
  8
0
100
AcDbLine
 62
2
  6
CONTINUOUS
 10
108.0
 20
10.0
 11
108.0
 21
20.0
  0
LINE
  5
24E
100
AcDbEntity
  8
0
100
AcDbLine
 62
2
  6
CONTINUOUS
 10
100.0
 20
10.0
 11
100.0
 21
20.0
  0
LINE
  5
24F
100
AcDbEntity
  8
0
100
AcDbLine
 62
2
  6
CONTINUOUS
 10
56.0
 20
10.0
 11
56.0
 21
20.0
  0
LINE
  5
250
100
AcDbEntity
  8
0
100
AcDbLine
 62
2
  6
CONTINUOUS
 10
28.0
 20
0.0
 11
28.0
 21
40.0
  0
LINE
  5
251
100
AcDbEntity
  8
0
100
AcDbLine
 62
2
  6
CONTINUOUS
 10
23.0
 20
5.0
 11
23.0
 21
40.0
  0
LINE
  5
252
100
AcDbEntity
  8
0
100
AcDbLine
 62
2
  6
CONTINUOUS
 10
8.0
 20
5.0
 11
8.0
 21
40.0
  0
LINE
  5
253
100
AcDbEntity
  8
0
100
AcDbLine
 62
2
  6
CONTINUOUS
 10
0.0
 20
0.0
 11
0.0
 21
40.0
  0
MTEXT
  5
254
100
AcDbEntity
  8
0
100
AcDbMText
 62
5
  6
CONTINUOUS
  7
TEXTSTYLE_2
 71
3
 72
1
 10
189.5
 20
3.5
 30
0.0
 11
1.0
 21
0.0
 31
0.0
 44
0.9
  1
23600-40BT-B
 40
2.0
 41
30.9230769231
  0
MTEXT
  5
255
100
AcDbEntity
  8
0
100
AcDbMText
 62
5
  6
CONTINUOUS
  7
TEXTSTYLE_2
 71
1
 72
1
 10
129.5
 20
6.8125
 30
0.0
 11
1.0
 21
0.0
 31
0.0
 44
0.9
  1
Peso finito \P7850.000
 40
1.3
 41
14.8
  0
MTEXT
  5
256
100
AcDbEntity
  8
0
100
AcDbMText
 62
5
  6
CONTINUOUS
  7
TEXTSTYLE_2
 71
1
 72
1
 10
29.5
 20
2.8076923077
 30
0.0
 11
1.0
 21
0.0
 31
0.0
 44
0.9
  1
La ditta tutela i propri disegni a norma di legge
 40
1.2
 41
56.5846153846
  0
MTEXT
  5
257
100
AcDbEntity
  8
0
100
AcDbMText
 62
5
  6
CONTINUOUS
  7
TEXTSTYLE_2
 71
2
 72
1
 10
14.0
 20
2.9230769231
 30
0.0
 11
1.0
 21
0.0
 31
0.0
 44
0.9
  1
Modifica
 40
2.0
 41
15.0769230769
  0
MTEXT
  5
258
100
AcDbEntity
  8
0
100
AcDbMText
 62
5
  6
CONTINUOUS
  7
TEXTSTYLE_2
 71
2
 72
1
 10
195.25
 20
7.75
 30
0.0
 11
1.0
 21
0.0
 31
0.0
 44
0.9
  1
esp.
 40
1.3
 41
5.3
  0
MTEXT
  5
259
100
AcDbEntity
  8
0
100
AcDbMText
 62
5
  6
CONTINUOUS
  7
TEXTSTYLE_2
 71
2
 72
1
 10
168.0
 20
7.75
 30
0.0
 11
1.0
 21
0.0
 31
0.0
 44
0.9
  1
cod.disegno
 40
1.3
 41
14.2
  0
MTEXT
  5
25A
100
AcDbEntity
  8
0
100
AcDbMText
 62
5
  6
CONTINUOUS
  7
TEXTSTYLE_2
 71
1
 72
1
 10
29.5
 20
7.5769230769
 30
0.0
 11
1.0
 21
0.0
 31
0.0
 44
0.9
  1
Cod.Cad 23600-40BT-B
 40
1.6
 41
39.2615384615
  0
MTEXT
  5
25B
100
AcDbEntity
  8
0
100
AcDbMText
 62
5
  6
CONTINUOUS
  7
TEXTSTYLE_2
 71
2
 72
1
 10
25.5
 20
7.75
 30
0.0
 11
1.0
 21
0.0
 31
0.0
 44
0.9
  1
Esp
 40
1.3
 41
4.3
  0
MTEXT
  5
25C
100
AcDbEntity
  8
0
100
AcDbMText
 62
5
  6
CONTINUOUS
  7
TEXTSTYLE_2
 71
2
 72
1
 10
15.5
 20
7.75
 30
0.0
 11
1.0
 21
0.0
 31
0.0
 44
0.9
  1
DATA
 40
1.3
 41
7.0
  0
MTEXT
  5
25D
100
AcDbEntity
  8
0
100
AcDbMText
 62
5
  6
CONTINUOUS
  7
TEXTSTYLE_2
 71
2
 72
1
 10
4.0
 20
7.75
 30
0.0
 11
1.0
 21
0.0
 31
0.0
 44
0.9
  1
N°
 40
1.3
 41
2.9
  0
MTEXT
  5
25E
100
AcDbEntity
  8
0
100
AcDbMText
 62
5
  6
CONTINUOUS
  7
TEXTSTYLE_3
 71
2
 72
1
 10
189.75
 20
23.5
 30
0.0
 11
1.0
 21
0.0
 31
0.0
 44
1.2
  1
Murisengo \PAlessandria\PITALY
 40
2.3
 41
21.7925
  0
MTEXT
  5
25F
100
AcDbEntity
  8
0
100
AcDbMText
 62
5
  6
CONTINUOUS
  7
TEXTSTYLE_2
 71
2
 72
1
 10
104.0
 20
15.275
 30
0.0
 11
1.0
 21
0.0
 31
0.0
 44
0.9
  1
00
 40
1.3
 41
3.7
  0
MTEXT
  5
260
100
AcDbEntity
  8
0
100
AcDbMText
 62
5
  6
CONTINUOUS
  7
TEXTSTYLE_2
 71
1
 72
1
 10
57.5
 20
12.8173076923
 30
0.0
 11
1.0
 21
0.0
 31
0.0
 44
0.9
  1
---
 40
1.5
 41
4.8461538462
  0
MTEXT
  5
261
100
AcDbEntity
  8
0
100
AcDbMText
 62
5
  6
CONTINUOUS
  7
TEXTSTYLE_2
 71
1
 72
1
 10
29.5
 20
12.8384615385
 30
0.0
 11
1.0
 21
0.0
 31
0.0
 44
0.9
  1
---
 40
1.6
 41
5.1692307692
  0
MTEXT
  5
262
100
AcDbEntity
  8
0
100
AcDbMText
 62
5
  6
CONTINUOUS
  7
TEXTSTYLE_2
 71
1
 72
1
 10
146.5
 20
17.7115384615
 30
0.0
 11
1.0
 21
0.0
 31
0.0
 44
0.9
  1
Peso grezzo Kg. 
 40
1.0
 41
17.3076923077
  0
MTEXT
  5
263
100
AcDbEntity
  8
0
100
AcDbMText
 62
5
  6
CONTINUOUS
  7
TEXTSTYLE_2
 71
1
 72
1
 10
109.5
 20
17.775
 30
0.0
 11
1.0
 21
0.0
 31
0.0
 44
0.9
  1
Dimens.grezze 
 40
1.3
 41
18.9
  0
MTEXT
  5
264
100
AcDbEntity
  8
0
100
AcDbMText
 62
5
  6
CONTINUOUS
  7
TEXTSTYLE_2
 71
1
 72
1
 10
57.5
 20
17.8173076923
 30
0.0
 11
1.0
 21
0.0
 31
0.0
 44
0.9
  1
Tratt.termici
 40
1.5
 41
17.5384615385
  0
MTEXT
  5
265
100
AcDbEntity
  8
0
100
AcDbMText
 62
5
  6
CONTINUOUS
  7
TEXTSTYLE_2
 71
1
 72
1
 10
29.5
 20
17.775
 30
0.0
 11
1.0
 21
0.0
 31
0.0
 44
0.9
  1
Materiale 
 40
1.3
 41
12.2
  0
MTEXT
  5
266
100
AcDbEntity
  8
0
100
AcDbMText
 62
5
  6
CONTINUOUS
  7
TEXTSTYLE_2
 71
1
 72
1
 10
146.5
 20
27.75
 30
0.0
 11
1.0
 21
0.0
 31
0.0
 44
1.2
  1
Scala\P1:1
 40
1.3
 41
6.4
  0
MTEXT
  5
267
100
AcDbEntity
  8
0
100
AcDbMText
 62
5
  6
CONTINUOUS
  7
TEXTSTYLE_2
 71
1
 72
1
 10
129.5
 20
27.75
 30
0.0
 11
1.0
 21
0.0
 31
0.0
 44
1.2
  1
Visto
 40
1.3
 41
6.0
  0
MTEXT
  5
268
100
AcDbEntity
  8
0
100
AcDbMText
 62
5
  6
CONTINUOUS
  7
TEXTSTYLE_4
 71
2
 72
1
 10
189.75
 20
32.0
 30
0.0
 11
1.0
 21
0.0
 31
0.0
 44
0.9
  1
S.C.M.
 40
4.0
 41
16.0772200772
  0
MTEXT
  5
269
100
AcDbEntity
  8
0
100
AcDbMText
 62
5
  6
CONTINUOUS
  7
TEXTSTYLE_2
 71
1
 72
1
 10
29.5
 20
27.8076923077
 30
0.0
 11
1.0
 21
0.0
 31
0.0
 44
0.9
  1
Descrizione
 40
1.2
 41
12.2769230769
  0
MTEXT
  5
26A
100
AcDbEntity
  8
0
100
AcDbMText
 62
5
  6
CONTINUOUS
  7
TEXTSTYLE_2
 71
1
 72
1
 10
146.5
 20
37.75
 30
0.0
 11
1.0
 21
0.0
 31
0.0
 44
1.2
  1
Data\P18-Dec-13
 40
1.3
 41
11.6
  0
MTEXT
  5
26B
100
AcDbEntity
  8
0
100
AcDbMText
 62
5
  6
CONTINUOUS
  7
TEXTSTYLE_2
 71
1
 72
1
 10
129.5
 20
37.75
 30
0.0
 11
1.0
 21
0.0
 31
0.0
 44
1.2
  1
Firma\Pcalvo
 40
1.3
 41
6.7
  0
MTEXT
  5
26C
100
AcDbEntity
  8
0
100
AcDbMText
 62
5
  6
CONTINUOUS
  7
TEXTSTYLE_2
 71
1
 72
1
 10
29.5
 20
32.775
 30
0.0
 11
1.0
 21
0.0
 31
0.0
 44
0.9
  1
Macchina o codice prenotante 23600
 40
1.3
 41
47.15
  0
MTEXT
  5
26D
100
AcDbEntity
  8
0
100
AcDbMText
 62
5
  6
CONTINUOUS
  7
TEXTSTYLE_2
 71
1
 72
1
 10
163.5
 20
37.75
 30
0.0
 11
1.0
 21
0.0
 31
0.0
 44
0.9
  1
Rugosita' \Fgdt;{\Fgdt;a}\Ftxt;0.8=rettifica
 40
1.3
 41
30.2875
  0
MTEXT
  5
26E
100
AcDbEntity
  8
0
100
AcDbMText
 62
5
  6
CONTINUOUS
  7
TEXTSTYLE_2
 71
1
 72
1
 10
29.5
 20
37.75
 30
0.0
 11
1.0
 21
0.0
 31
0.0
 44
0.9
  1
Toleranze generali per quote senza valori:\Fgdt;{\Fgdt;n}\Ftxt;=H11-h11 - lineari\Fgdt;{\Fgdt;`}\Ftxt;0.2
 40
1.3
 41
80.5
  0
ENDBLK
  5
26F
100
AcDbEntity
  8
0
100
AcDbBlockEnd
  0
ENDSEC
  0
SECTION
  2
ENTITIES
  0
MTEXT
  5
270
100
AcDbEntity
  8
0
100
AcDbMText
 62
1
  6
CONTINUOUS
  7
STANDARD
 71
1
 72
1
 10
195.75169125
 20
7.1807382227
 30
0.0
 11
1.0
 21
0.0
 31
0.0
 44
0.9
  1
11_A4V
 40
2.0
 41
8.8095238095
  0
DIMENSION
  5
271
100
AcDbEntity
  8
0
100
AcDbDimension
 62
2
  6
CONTINUOUS
  2
*D0
 10
161.4050448713
 20
88.0
 11
160.211218395
 21
126.8927221501
 70
160
 71
2
 42
82.0
  3
DIMSTYLE_1
100
AcDbAlignedDimension
 13
125.51
 23
170.0
 14
125.485
 24
88.0
 50
270.0
100
AcDbRotatedDimension
  0
DIMENSION
  5
272
100
AcDbEntity
  8
0
100
AcDbDimension
 62
2
  6
CONTINUOUS
  2
*D1
 10
73.185
 20
62.64668974
 11
101.1064285714
 21
64.89668974
 70
160
 71
2
 42
60.0
  1
Ø<>
  3
DIMSTYLE_1
100
AcDbAlignedDimension
 13
133.185
 23
107.6
 14
73.185
 24
107.6
 50
180.0
100
AcDbRotatedDimension
  0
DIMENSION
  5
273
100
AcDbEntity
  8
0
100
AcDbDimension
 62
2
  6
CONTINUOUS
  2
*D2
 10
87.16
 20
82.2634270489
 11
101.16
 21
84.5134270489
 70
160
 71
2
 42
32.05
  1
Ø<>
  3
DIMSTYLE_2
100
AcDbAlignedDimension
 13
119.21
 23
88.4
 14
87.16
 24
88.4
 50
180.0
100
AcDbRotatedDimension
  0
ACAD_TABLE
  5
274
100
AcDbEntity
  8
0
 62
7
  6
CONTINUOUS
100
AcDbBlockReference
  2
*T1
 10
6.5140409578
 20
7.9963478044
 30
0.0
100
AcDbTable
342
       369
343
218
 11
1.0
 21
0.0
 31
0.0
 90
6
 91
8
 92
15
 93
4
 94
0
 95
0
 96
0
 70
1
141
5.0
141
5.0
141
5.0
141
5.0
141
5.0
141
5.0
141
5.0
141
5.0
142
8.0
142
15.0
142
5.0
142
28.0
142
44.0
142
8.0
142
2.0
142
18.0
142
8.5
142
8.5
142
17.0
142
9.0
142
9.0
142
11.0
142
8.5
171
1
172
0
173
0
174
0
175
3
176
1
177
33
178
0
145
0.0
170
1
171
1
172
0
173
1
174
0
175
1
176
1
177
33
178
0
145
0.0
170
1
171
1
172
0
173
1
174
0
175
1
176
1
177
33
178
0
145
0.0
  1
Modifica
170
5
140
2.0
171
1
172
0
173
0
174
0
175
4
176
1
177
33
178
0
145
0.0
170
1
171
1
172
0
173
1
174
0
175
1
176
1
177
33
178
0
145
0.0
170
1
171
1
172
0
173
1
174
0
175
1
176
1
177
33
178
0
145
0.0
170
1
171
1
172
0
173
1
174
0
175
1
176
1
177
33
178
0
145
0.0
  1
La ditta tutela i propri disegni a norma di legge
170
1
140
1.2
171
1
172
0
173
0
174
0
175
1
176
2
177
33
178
0
145
0.0
170
1
171
1
172
0
173
0
174
0
175
2
176
2
177
33
178
0
145
0.0
170
1
171
1
172
0
173
1
174
0
175
1
176
1
177
33
178
0
145
0.0
  1
Peso finito \P7850.000
170
4
140
1.3
171
1
172
0
173
0
174
0
175
4
176
1
177
33
178
0
145
0.0
170
1
171
1
172
0
173
1
174
0
175
1
176
1
177
33
178
0
145
0.0
170
1
171
1
172
0
173
1
174
0
175
1
176
1
177
33
178
0
145
0.0
170
1
171
1
172
0
173
1
174
0
175
1
176
1
177
33
178
0
145
0.0
  1
23600-40BT-B
170
9
140
2.0
171
1
172
0
173
0
174
0
175
1
176
1
177
33
178
0
145
0.0
170
1
171
1
172
0
173
0
174
0
175
1
176
1
177
33
178
0
145
0.0
  1
N°
170
2
140
1.3
171
1
172
0
173
0
174
0
175
1
176
1
177
33
178
0
145
0.0
  1
DATA
170
2
140
1.3
171
1
172
0
173
0
174
0
175
1
176
1
177
33
178
0
145
0.0
  1
Esp
170
2
140
1.3
171
1
172
0
173
0
174
0
175
4
176
1
177
33
178
0
145
0.0
170
1
171
1
172
0
173
1
174
0
175
1
176
1
177
33
178
0
145
0.0
170
1
171
1
172
0
173
1
174
0
175
1
176
1
177
33
178
0
145
0.0
170
1
171
1
172
0
173
1
174
0
175
1
176
1
177
33
178
0
145
0.0
  1
Cod.Cad 23600-40BT-B
170
1
140
1.6
171
1
172
0
173
1
174
0
175
1
176
1
177
33
178
0
145
0.0
170
1
171
1
172
0
173
1
174
0
175
1
176
1
177
33
178
0
145
0.0
170
1
171
1
172
0
173
1
174
0
175
1
176
1
177
33
178
0
145
0.0
170
1
171
1
172
0
173
0
174
0
175
4
176
1
177
33
178
0
145
0.0
170
1
171
1
172
0
173
1
174
0
175
1
176
1
177
33
178
0
145
0.0
170
1
171
1
172
0
173
1
174
0
175
1
176
1
177
33
178
0
145
0.0
170
1
171
1
172
0
173
1
174
0
175
1
176
1
177
33
178
0
145
0.0
  1
cod.disegno
170
2
140
1.3
171
1
172
0
173
0
174
0
175
1
176
1
177
33
178
0
145
0.0
  1
esp.
170
2
140
1.3
171
1
172
0
173
0
174
0
175
1
176
1
177
33
178
0
145
0.0
170
1
171
1
172
0
173
0
174
0
175
1
176
1
177
33
178
0
145
0.0
170
1
171
1
172
0
173
0
174
0
175
1
176
1
177
33
178
0
145
0.0
170
1
171
1
172
0
173
0
174
0
175
1
176
1
177
33
178
0
145
0.0
  1
---
170
4
140
1.6
171
1
172
0
173
0
174
0
175
1
176
1
177
33
178
0
145
0.0
  1
---
170
4
140
1.5
171
1
172
0
173
0
174
0
175
1
176
2
177
33
178
0
145
0.0
  1
00
170
5
140
1.3
171
1
172
0
173
0
174
0
175
4
176
1
177
33
178
0
145
0.0
170
1
171
1
172
0
173
1
174
0
175
1
176
1
177
33
178
0
145
0.0
170
1
171
1
172
0
173
1
174
0
175
1
176
1
177
33
178
0
145
0.0
170
1
171
1
172
0
173
1
174
0
175
1
176
1
177
33
178
0
145
0.0
  1
 
170
4
140
1.6
171
1
172
0
173
0
174
0
175
1
176
1
177
33
178
0
145
0.0
  1
 
170
4
140
1.3
171
1
172
0
173
0
174
0
175
2
176
5
177
33
178
0
145
0.0
170
1
171
1
172
0
173
1
174
0
175
1
176
1
177
33
178
0
145
0.0
170
1
171
1
172
0
173
0
174
0
175
2
176
3
177
33
178
0
145
0.0
170
1
171
1
172
0
173
1
174
0
175
1
176
1
177
33
178
0
145
0.0
  1
Murisengo \PAlessandria\PITALY
170
2
140
2.3
171
1
172
0
173
0
174
0
175
1
176
1
177
33
178
0
145
0.0
170
1
171
1
172
0
173
0
174
0
175
1
176
1
177
33
178
0
145
0.0
170
1
171
1
172
0
173
0
174
0
175
1
176
1
177
33
178
0
145
0.0
170
1
171
1
172
0
173
0
174
0
175
1
176
1
177
33
178
0
145
0.0
  1
Materiale 
170
4
140
1.3
171
1
172
0
173
0
174
0
175
1
176
1
177
33
178
0
145
0.0
  1
Tratt.termici
170
4
140
1.5
171
1
172
0
173
1
174
0
175
1
176
1
177
33
178
0
145
0.0
170
1
171
1
172
0
173
0
174
0
175
4
176
1
177
33
178
0
145
0.0
170
1
171
1
172
0
173
1
174
0
175
1
176
1
177
33
178
0
145
0.0
170
1
171
1
172
0
173
1
174
0
175
1
176
1
177
33
178
0
145
0.0
170
1
171
1
172
0
173
1
174
0
175
1
176
1
177
33
178
0
145
0.0
  1
Dimens.grezze 
170
4
140
1.3
171
1
172
0
173
0
174
0
175
1
176
1
177
33
178
0
145
0.0
  1
Peso grezzo Kg. 
170
4
140
1.0
171
1
172
0
173
1
174
0
175
1
176
1
177
33
178
0
145
0.0
170
1
171
1
172
0
173
1
174
0
175
1
176
1
177
33
178
0
145
0.0
170
1
171
1
172
0
173
1
174
0
175
1
176
1
177
33
178
0
145
0.0
170
1
171
1
172
0
173
1
174
0
175
1
176
1
177
33
178
0
145
0.0
170
1
171
1
172
0
173
0
174
0
175
1
176
1
177
33
178
0
145
0.0
170
1
171
1
172
0
173
0
174
0
175
1
176
1
177
33
178
0
145
0.0
170
1
171
1
172
0
173
0
174
0
175
1
176
1
177
33
178
0
145
0.0
170
1
171
1
172
0
173
0
174
0
175
1
176
1
177
33
178
0
145
0.0
170
7
171
1
172
0
173
0
174
0
175
4
176
1
177
33
178
0
145
0.0
170
1
171
1
172
0
173
1
174
0
175
1
176
1
177
33
178
0
145
0.0
170
1
171
1
172
0
173
1
174
0
175
1
176
1
177
33
178
0
145
0.0
170
1
171
1
172
0
173
1
174
0
175
1
176
1
177
33
178
0
145
0.0
170
1
171
1
172
0
173
0
174
0
175
2
176
2
177
33
178
0
145
0.0
170
1
171
1
172
0
173
1
174
0
175
1
176
1
177
33
178
0
145
0.0
  1
Visto
170
1
140
1.3
171
1
172
0
173
0
174
0
175
1
176
2
177
33
178
0
145
0.0
  1
Scala\P1:1
170
1
140
1.3
171
1
172
0
173
1
174
0
175
1
176
1
177
33
178
0
145
0.0
170
1
171
1
172
0
173
1
174
0
175
1
176
1
177
33
178
0
145
0.0
170
1
171
1
172
0
173
1
174
0
175
1
176
1
177
33
178
0
145
0.0
170
1
171
1
172
0
173
1
174
0
175
1
176
1
177
33
178
0
145
0.0
170
1
171
1
172
0
173
0
174
0
175
1
176
1
177
33
178
0
145
0.0
170
1
171
1
172
0
173
0
174
0
175
1
176
1
177
33
178
0
145
0.0
170
1
171
1
172
0
173
0
174
0
175
1
176
1
177
33
178
0
145
0.0
170
1
171
1
172
0
173
0
174
0
175
1
176
1
177
33
178
0
145
0.0
  1
Descrizione
170
1
140
1.2
171
1
172
0
173
0
174
0
175
1
176
1
177
33
178
0
145
0.0
170
1
171
1
172
0
173
0
174
0
175
1
176
1
177
33
178
0
145
0.0
170
1
171
1
172
0
173
0
174
0
175
1
176
1
177
33
178
0
145
0.0
170
1
171
1
172
0
173
0
174
0
175
1
176
1
177
33
178
0
145
0.0
170
1
171
1
172
0
173
1
174
0
175
1
176
1
177
33
178
0
145
0.0
170
1
171
1
172
0
173
1
174
0
175
1
176
1
177
33
178
0
145
0.0
170
1
171
1
172
0
173
1
174
0
175
1
176
1
177
33
178
0
145
0.0
170
1
171
1
172
0
173
1
174
0
175
1
176
1
177
33
178
0
145
0.0
170
1
171
1
172
0
173
1
174
0
175
1
176
1
177
33
178
0
145
0.0
170
1
171
1
172
0
173
0
174
0
175
2
176
2
177
33
178
0
145
0.0
170
1
171
1
172
0
173
1
174
0
175
1
176
1
177
33
178
0
145
0.0
  1
S.C.M.
170
5
140
4.0
171
1
172
0
173
0
174
0
175
1
176
1
177
33
178
0
145
0.0
170
1
171
1
172
0
173
0
174
0
175
1
176
1
177
33
178
0
145
0.0
170
1
171
1
172
0
173
0
174
0
175
1
176
1
177
33
178
0
145
0.0
170
1
171
1
172
0
173
0
174
0
175
5
176
1
177
33
178
0
145
0.0
170
1
171
1
172
0
173
1
174
0
175
1
176
1
177
33
178
0
145
0.0
170
1
171
1
172
0
173
1
174
0
175
1
176
1
177
33
178
0
145
0.0
170
1
171
1
172
0
173
1
174
0
175
1
176
1
177
33
178
0
145
0.0
170
1
171
1
172
0
173
1
174
0
175
1
176
1
177
33
178
0
145
0.0
  1
Macchina o codice prenotante 23600
170
4
140
1.3
171
1
172
0
173
0
174
0
175
2
176
2
177
33
178
0
145
0.0
170
1
171
1
172
0
173
1
174
0
175
1
176
1
177
33
178
0
145
0.0
  1
Firma\Pcalvo
170
1
140
1.3
171
1
172
0
173
0
174
0
175
1
176
2
177
33
178
0
145
0.0
  1
Data\P18-Dec-13
170
1
140
1.3
171
1
172
0
173
1
174
0
175
1
176
1
177
33
178
0
145
0.0
170
1
171
1
172
0
173
1
174
0
175
1
176
1
177
33
178
0
145
0.0
170
1
171
1
172
0
173
1
174
0
175
1
176
1
177
33
178
0
145
0.0
170
1
171
1
172
0
173
1
174
0
175
1
176
1
177
33
178
0
145
0.0
170
1
171
1
172
0
173
0
174
0
175
1
176
1
177
33
178
0
145
0.0
170
1
171
1
172
0
173
0
174
0
175
1
176
1
177
33
178
0
145
0.0
170
1
171
1
172
0
173
0
174
0
175
1
176
1
177
33
178
0
145
0.0
170
1
171
1
172
0
173
0
174
0
175
5
176
1
177
33
178
0
145
0.0
170
1
171
1
172
0
173
1
174
0
175
1
176
1
177
33
178
0
145
0.0
170
1
171
1
172
0
173
1
174
0
175
1
176
1
177
33
178
0
145
0.0
170
1
171
1
172
0
173
1
174
0
175
1
176
1
177
33
178
0
145
0.0
170
1
171
1
172
0
173
1
174
0
175
1
176
1
177
33
178
0
145
0.0
  1
Toleranze generali per quote senza valori:\Fgdt;{\Fgdt;n}\Ftxt;=H11-h11 - lineari\Fgdt;{\Fgdt;`}\Ftxt;0.2
170
1
140
1.3
171
1
172
0
173
1
174
0
175
1
176
1
177
33
178
0
145
0.0
170
1
171
1
172
0
173
1
174
0
175
1
176
1
177
33
178
0
145
0.0
170
1
171
1
172
0
173
1
174
0
175
1
176
1
177
33
178
0
145
0.0
170
1
171
1
172
0
173
0
174
0
175
4
176
1
177
33
178
0
145
0.0
170
1
171
1
172
0
173
1
174
0
175
1
176
1
177
33
178
0
145
0.0
170
1
171
1
172
0
173
1
174
0
175
1
176
1
177
33
178
0
145
0.0
170
1
171
1
172
0
173
1
174
0
175
1
176
1
177
33
178
0
145
0.0
  1
Rugosita' \Fgdt;{\Fgdt;a}\Ftxt;0.8=rettifica
170
1
140
1.3
  0
LINE
  5
275
100
AcDbEntity
  8
0
100
AcDbLine
 62
7
  6
CONTINUOUS
 10
6.0
 20
8.0
 11
206.0
 21
8.0
  0
LINE
  5
276
100
AcDbEntity
  8
0
100
AcDbLine
 62
7
  6
CONTINUOUS
 10
171.2282773496
 20
33.7149474723
 11
169.1393546477
 21
33.7149474723
  0
LINE
  5
277
100
AcDbEntity
  8
0
100
AcDbLine
 62
7
  6
CONTINUOUS
 10
172.019276355
 20
34.4033739123
 11
168.936916035
 21
34.4033739123
  0
LINE
  5
278
100
AcDbEntity
  8
0
100
AcDbLine
 62
7
  6
CONTINUOUS
 10
172.019276355
 20
35.4682267923
 11
175.101638235
 21
35.4682267923
  0
LINE
  5
279
100
AcDbEntity
  8
0
100
AcDbLine
 62
7
  6
CONTINUOUS
 10
172.8102755778
 20
36.1566547923
 11
174.899197401
 21
36.1566547923
  0
ARC
  5
27A
100
AcDbEntity
  8
0
100
AcDbCircle
 62
7
  6
CONTINUOUS
 10
172.019276355
 20
34.9358003523
 40
3.12800748
100
AcDbArc
 50
202.9729996606
 51
9.80019
  0
ARC
  5
27B
100
AcDbEntity
  8
0
100
AcDbCircle
 62
7
  6
CONTINUOUS
 10
172.019276355
 20
34.9358003523
 40
3.12800748
100
AcDbArc
 50
22.9730306967
 51
189.80019
  0
ARC
  5
27C
100
AcDbEntity
  8
0
100
AcDbCircle
 62
7
  6
CONTINUOUS
 10
172.019276355
 20
33.6047334723
 40
0.79864044
100
AcDbArc
 50
172.0677513564
 51
90.0
  0
ARC
  5
27D
100
AcDbEntity
  8
0
100
AcDbCircle
 62
7
  6
CONTINUOUS
 10
172.019276355
 20
36.2668672323
 40
0.79864044
100
AcDbArc
 50
352.0678643545
 51
270.0
  0
HATCH
  5
27E
100
AcDbEntity
  8
0
100
AcDbHatch
 62
2
  6
CONTINUOUS
 10
0.0
 20
0.0
 30
0.0
210
0.0
220
0.0
230
1.0
  2
XSEC0001
 70
0
 71
1
 91
1
 92
1
 93
8
 72
2
 10
172.019276355
 20
34.9358003523
 40
3.12800748
 50
202.9729996606
 51
9.80019
 73
1
 72
1
 10
172.019276355
 20
35.4682267923
 11
175.101638235
 21
35.4682267923
 72
2
 10
172.019276355
 20
36.2668672323
 40
0.79864044
 50
352.0678643545
 51
270.0
 73
1
 72
1
 10
172.8102755778
 20
36.1566547923
 11
174.899197401
 21
36.1566547923
 72
2
 10
172.019276355
 20
34.9358003523
 40
3.12800748
 50
22.9730306967
 51
189.80019
 73
1
 72
1
 10
172.019276355
 20
34.4033739123
 11
168.936916035
 21
34.4033739123
 72
2
 10
172.019276355
 20
33.6047334723
 40
0.79864044
 50
172.0677513564
 51
90.0
 73
1
 72
1
 10
171.2282773496
 20
33.7149474723
 11
169.1393546477
 21
33.7149474723
 97
8
330
276
330
277
330
278
330
279
330
27A
330
27B
330
27C
330
27D
 75
0
 76
0
 52
45.0
 41
0.0625
 77
0
 78
1
 53
45.0
 43
0.0
 44
0.0
 45
-0.0441941738
 46
0.0441941738
 79
0
 98
1
 10
0.0
 20
0.0
  0
LINE
  5
27F
100
AcDbEntity
  8
0
100
AcDbLine
 62
7
  6
CONTINUOUS
 10
184.2985437835
 20
34.5250336323
 11
186.4170262949
 21
34.5250336323
  0
LINE
  5
280
100
AcDbEntity
  8
0
100
AcDbLine
 62
7
  6
CONTINUOUS
 10
184.2985437835
 20
35.3465670723
 11
186.4170262949
 21
35.3465670723
  0
ARC
  5
281
100
AcDbEntity
  8
0
100
AcDbCircle
 62
7
  6
CONTINUOUS
 10
183.316106835
 20
34.9358003523
 40
3.12800748
100
AcDbArc
 50
7.5458171814
 51
352.4541828186
  0
ARC
  5
282
100
AcDbEntity
  8
0
100
AcDbCircle
 62
7
  6
CONTINUOUS
 10
183.316106835
 20
34.9358003523
 40
1.06485288
100
AcDbArc
 50
22.690292832
 51
337.309707168
  0
HATCH
  5
283
100
AcDbEntity
  8
0
100
AcDbHatch
 62
2
  6
CONTINUOUS
 10
0.0
 20
0.0
 30
0.0
210
0.0
220
0.0
230
1.0
  2
XSEC0002
 70
0
 71
1
 91
1
 92
1
 93
4
 72
2
 10
183.316106835
 20
34.9358003523
 40
3.12800748
 50
7.5458171814
 51
352.4541828186
 73
1
 72
1
 10
184.2985437835
 20
35.3465670723
 11
186.4170262949
 21
35.3465670723
 72
2
 10
183.316106835
 20
34.9358003523
 40
1.06485288
 50
22.690292832
 51
337.309707168
 73
1
 72
1
 10
184.2985437835
 20
34.5250336323
 11
186.4170262949
 21
34.5250336323
 97
4
330
27F
330
280
330
281
330
282
 75
0
 76
0
 52
45.0
 41
0.0625
 77
0
 78
1
 53
45.0
 43
0.0
 44
0.0
 45
-0.0441941738
 46
0.0441941738
 79
0
 98
1
 10
0.0
 20
0.0
  0
LINE
  5
284
100
AcDbEntity
  8
0
100
AcDbLine
 62
7
  6
CONTINUOUS
 10
6.0
 20
8.0
 11
6.0
 21
295.0
  0
LINE
  5
285
100
AcDbEntity
  8
0
100
AcDbLine
 62
7
  6
CONTINUOUS
 10
176.559057315
 20
25.2303570723
 11
177.295302435
 21
23.3285392323
  0
LINE
  5
286
100
AcDbEntity
  8
0
100
AcDbLine
 62
7
  6
CONTINUOUS
 10
177.419431635
 20
25.5887779923
 11
176.469731715
 21
28.0419778323
  0
LINE
  5
287
100
AcDbEntity
  8
0
100
AcDbLine
 62
7
  6
CONTINUOUS
 10
177.057265155
 20
22.0845910768
 11
177.057265155
 21
23.1512389929
  0
LINE
  5
288
100
AcDbEntity
  8
0
100
AcDbLine
 62
7
  6
CONTINUOUS
 10
178.278118035
 20
23.1512389929
 11
178.278118035
 21
22.0845910768
  0
LINE
  5
289
100
AcDbEntity
  8
0
100
AcDbLine
 62
7
  6
CONTINUOUS
 10
178.865651475
 20
28.0419778323
 11
177.915951555
 21
25.5887779923
  0
LINE
  5
28A
100
AcDbEntity
  8
0
100
AcDbLine
 62
7
  6
CONTINUOUS
 10
178.783386435
 20
25.2485934723
 11
178.040080755
 21
23.3285392323
  0
ARC
  5
28B
100
AcDbEntity
  8
0
100
AcDbCircle
 62
7
  6
CONTINUOUS
 10
177.667691595
 20
25.1524584723
 40
3.12800748
100
AcDbArc
 50
281.2534074978
 51
67.481686
  0
ARC
  5
28C
100
AcDbEntity
  8
0
100
AcDbCircle
 62
7
  6
CONTINUOUS
 10
177.667691595
 20
25.1524584723
 40
3.12800748
100
AcDbArc
 50
112.518314
 51
258.7465925022
  0
ARC
  5
28D
100
AcDbEntity
  8
0
100
AcDbCircle
 62
7
  6
CONTINUOUS
 10
176.735944155
 20
24.6200320323
 40
2.12970732
100
AcDbArc
 50
316.3960898475
 51
16.653117
  0
ARC
  5
28E
100
AcDbEntity
  8
0
100
AcDbCircle
 62
7
  6
CONTINUOUS
 10
178.599439035
 20
24.6200320323
 40
2.12970732
100
AcDbArc
 50
162.892264
 51
223.6039101525
  0
ARC
  5
28F
100
AcDbEntity
  8
0
100
AcDbCircle
 62
7
  6
CONTINUOUS
 10
177.667691595
 20
23.4727019523
 40
0.39931944
100
AcDbArc
 50
201.162777
 51
338.837223
  0
ARC
  5
290
100
AcDbEntity
  8
0
100
AcDbCircle
 62
7
  6
CONTINUOUS
 10
177.667691595
 20
25.6848864723
 40
0.266214
100
AcDbArc
 50
201.162777
 51
338.837223
  0
HATCH
  5
291
100
AcDbEntity
  8
0
100
AcDbHatch
 62
2
  6
CONTINUOUS
 10
0.0
 20
0.0
 30
0.0
210
0.0
220
0.0
230
1.0
  2
XSEC0003
 70
0
 71
1
 91
1
 92
1
 93
12
 72
2
 10
177.667691595
 20
23.4727019523
 40
0.39931944
 50
201.162777
 51
338.837223
 73
1
 72
1
 10
178.783386435
 20
25.2485934723
 11
178.040080755
 21
23.3285392323
 72
2
 10
176.735944155
 20
24.6200320323
 40
2.12970732
 50
316.3960898475
 51
16.653117
 73
1
 72
1
 10
178.278118035
 20
23.1512389929
 11
178.278118035
 21
22.0845910768
 72
2
 10
177.667691595
 20
25.1524584723
 40
3.12800748
 50
281.2534074978
 51
67.481686
 73
1
 72
1
 10
178.865651475
 20
28.0419778323
 11
177.915951555
 21
25.5887779923
 72
2
 10
177.667691595
 20
25.6848864723
 40
0.266214
 50
201.162777
 51
338.837223
 73
1
 72
1
 10
177.419431635
 20
25.5887779923
 11
176.469731715
 21
28.0419778323
 72
2
 10
177.667691595
 20
25.1524584723
 40
3.12800748
 50
112.518314
 51
258.7465925023
 73
1
 72
1
 10
177.057265155
 20
22.0845910768
 11
177.057265155
 21
23.1512389929
 72
2
 10
178.599439035
 20
24.6200320323
 40
2.12970732
 50
162.892264
 51
223.6039101525
 73
1
 72
1
 10
176.559057315
 20
25.2303570723
 11
177.295302435
 21
23.3285392323
 97
12
330
285
330
286
330
287
330
288
330
289
330
28A
330
28B
330
28C
330
28D
330
28E
330
28F
330
290
 75
0
 76
0
 52
45.0
 41
0.0625
 77
0
 78
1
 53
45.0
 43
0.0
 44
0.0
 45
-0.0441941738
 46
0.0441941738
 79
0
 98
1
 10
0.0
 20
0.0
  0
LINE
  5
292
100
AcDbEntity
  8
0
100
AcDbLine
 62
7
  6
CONTINUOUS
 10
206.0
 20
8.0
 11
206.0
 21
295.0
  0
LINE
  5
293
100
AcDbEntity
  8
0
100
AcDbLine
 62
7
  6
CONTINUOUS
 10
6.0
 20
295.0
 11
206.0
 21
295.0
  0
LINE
  5
294
100
AcDbEntity
  8
0
100
AcDbLine
 62
7
  6
CONTINUOUS
 10
80.985
 20
88.0
 11
125.385
 21
88.0
  0
LINE
  5
295
100
AcDbEntity
  8
0
100
AcDbLine
 62
7
  6
CONTINUOUS
 10
80.685
 20
88.3
 11
125.685
 21
88.3
  0
LINE
  5
296
100
AcDbEntity
  8
0
100
AcDbLine
 62
7
  6
CONTINUOUS
 10
125.685
 20
90.2
 11
80.685
 21
90.2
  0
LINE
  5
297
100
AcDbEntity
  8
0
100
AcDbLine
 62
7
  6
CONTINUOUS
 10
125.685
 20
91.95
 11
80.685
 21
91.95
  0
LINE
  5
298
100
AcDbEntity
  8
0
100
AcDbLine
 62
7
  6
CONTINUOUS
 10
76.485
 20
93.7
 11
129.885
 21
93.7
  0
LINE
  5
299
100
AcDbEntity
  8
0
100
AcDbLine
 62
7
  6
CONTINUOUS
 10
76.285
 20
93.9
 11
130.085
 21
93.9
  0
LINE
  5
29A
100
AcDbEntity
  8
0
100
AcDbLine
 62
7
  6
CONTINUOUS
 10
131.2436088896
 20
95.7
 11
75.1263911104
 21
95.7
  0
LINE
  5
29B
100
AcDbEntity
  8
0
100
AcDbLine
 62
7
  6
CONTINUOUS
 10
74.6302521709
 20
96.1379826326
 11
131.7397478291
 21
96.1379826326
  0
LINE
  5
29C
100
AcDbEntity
  8
0
100
AcDbLine
 62
7
  6
CONTINUOUS
 10
80.685
 20
88.3
 11
80.985
 21
88.0
  0
LINE
  5
29D
100
AcDbEntity
  8
0
100
AcDbLine
 62
7
  6
CONTINUOUS
 10
76.485
 20
93.7
 11
76.285
 21
93.9
  0
LINE
  5
29E
100
AcDbEntity
  8
0
100
AcDbLine
 62
7
  6
CONTINUOUS
 10
73.185
 20
107.7
 11
133.185
 21
107.7
  0
LINE
  5
29F
100
AcDbEntity
  8
DEFAULT_2
100
AcDbLine
 62
8
  6
HIDDEN
 10
94.435
 20
229.4669872981
 11
94.685
 21
229.9
  0
LINE
  5
2A0
100
AcDbEntity
  8
0
100
AcDbLine
 62
7
  6
CONTINUOUS
 10
73.185
 20
121.5
 11
133.185
 21
121.5
  0
LINE
  5
2A1
100
AcDbEntity
  8
0
100
AcDbLine
 62
7
  6
CONTINUOUS
 10
71.685
 20
167.3
 11
71.685
 21
158.4229473419
  0
LINE
  5
2A2
100
AcDbEntity
  8
0
100
AcDbLine
 62
7
  6
CONTINUOUS
 10
71.685
 20
148.3770526581
 11
71.685
 21
143.7
  0
LINE
  5
2A3
100
AcDbEntity
  8
0
100
AcDbLine
 62
7
  6
CONTINUOUS
 10
73.185
 20
126.5
 11
133.185
 21
126.5
  0
LINE
  5
2A4
100
AcDbEntity
  8
0
100
AcDbLine
 62
7
  6
CONTINUOUS
 10
73.185
 20
127.7
 11
133.185
 21
127.7
  0
LINE
  5
2A5
100
AcDbEntity
  8
0
100
AcDbLine
 62
7
  6
CONTINUOUS
 10
71.685
 20
143.7
 11
72.385
 21
143.0
  0
LINE
  5
2A6
100
AcDbEntity
  8
0
100
AcDbLine
 62
7
  6
CONTINUOUS
 10
75.0510254038
 20
138.1
 11
74.685
 21
138.7339745962
  0
LINE
  5
2A7
100
AcDbEntity
  8
0
100
AcDbLine
 62
7
  6
CONTINUOUS
 10
73.185
 20
107.7
 11
74.6302521709
 21
96.1379826326
  0
LINE
  5
2A8
100
AcDbEntity
  8
0
100
AcDbLine
 62
7
  6
CONTINUOUS
 10
73.185
 20
135.1857864376
 11
73.185
 21
132.7
  0
LINE
  5
2A9
100
AcDbEntity
  8
0
100
AcDbLine
 62
7
  6
CONTINUOUS
 10
73.185
 20
127.7
 11
73.185
 21
126.5
  0
LINE
  5
2AA
100
AcDbEntity
  8
0
100
AcDbLine
 62
7
  6
CONTINUOUS
 10
73.185
 20
121.5
 11
73.185
 21
107.7
  0
LINE
  5
2AB
100
AcDbEntity
  8
0
100
AcDbLine
 62
7
  6
CONTINUOUS
 10
74.685
 20
143.0
 11
74.685
 21
138.7339745962
  0
LINE
  5
2AC
100
AcDbEntity
  8
0
100
AcDbLine
 62
7
  6
CONTINUOUS
 10
76.285
 20
93.9
 11
76.285
 21
95.7
  0
LINE
  5
2AD
100
AcDbEntity
  8
0
100
AcDbLine
 62
7
  6
CONTINUOUS
 10
76.685
 20
150.65
 11
76.685
 21
156.15
  0
LINE
  5
2AE
100
AcDbEntity
  8
0
100
AcDbLine
 62
7
  6
CONTINUOUS
 10
72.385
 20
168.0
 11
71.685
 21
167.3
  0
LINE
  5
2AF
100
AcDbEntity
  8
0
100
AcDbLine
 62
7
  6
CONTINUOUS
 10
73.185
 20
132.7
 11
133.185
 21
132.7
  0
LINE
  5
2B0
100
AcDbEntity
  8
0
100
AcDbLine
 62
7
  6
CONTINUOUS
 10
133.185
 20
135.1857864376
 11
73.185
 21
135.1857864376
  0
LINE
  5
2B1
100
AcDbEntity
  8
0
100
AcDbLine
 62
7
  6
CONTINUOUS
 10
80.685
 20
93.7
 11
80.685
 21
91.95
  0
LINE
  5
2B2
100
AcDbEntity
  8
0
100
AcDbLine
 62
7
  6
CONTINUOUS
 10
80.685
 20
90.2
 11
80.685
 21
88.3
  0
LINE
  5
2B3
100
AcDbEntity
  8
0
100
AcDbLine
 62
7
  6
CONTINUOUS
 10
81.285
 20
169.4370834875
 11
81.285
 21
168.0
  0
LINE
  5
2B4
100
AcDbEntity
  8
0
100
AcDbLine
 62
7
  6
CONTINUOUS
 10
81.685
 20
90.2
 11
81.685
 21
91.95
  0
LINE
  5
2B5
100
AcDbEntity
  8
0
100
AcDbLine
 62
7
  6
CONTINUOUS
 10
90.372774871
 20
234.5443078435
 11
80.96
 21
170.0
  0
LINE
  5
2B6
100
AcDbEntity
  8
DEFAULT_2
100
AcDbLine
 62
8
  6
HIDDEN
 10
110.285
 20
222.0421161675
 11
111.935
 21
224.9
  0
LINE
  5
2B7
100
AcDbEntity
  8
DEFAULT_2
100
AcDbLine
 62
8
  6
HIDDEN
 10
108.185
 20
194.1875644347
 11
110.285
 21
195.4
  0
LINE
  5
2B8
100
AcDbEntity
  8
0
100
AcDbLine
 62
7
  6
CONTINUOUS
 10
74.8921067812
 20
136.8928932188
 11
131.4778932188
 21
136.8928932188
  0
LINE
  5
2B9
100
AcDbEntity
  8
0
100
AcDbLine
 62
7
  6
CONTINUOUS
 10
75.0510254038
 20
138.1
 11
131.3189745962
 21
138.1
  0
LINE
  5
2BA
100
AcDbEntity
  8
0
100
AcDbLine
 62
7
  6
CONTINUOUS
 10
131.685
 20
138.7339745962
 11
74.685
 21
138.7339745962
  0
LINE
  5
2BB
100
AcDbEntity
  8
DEFAULT_2
100
AcDbLine
 62
8
  6
HIDDEN
 10
87.16
 20
101.5
 11
87.16
 21
88.5
  0
LINE
  5
2BC
100
AcDbEntity
  8
0
100
AcDbLine
 62
7
  6
CONTINUOUS
 10
72.385
 20
143.0
 11
133.985
 21
143.0
  0
LINE
  5
2BD
100
AcDbEntity
  8
0
100
AcDbLine
 62
7
  6
CONTINUOUS
 10
71.685
 20
143.7
 11
134.685
 21
143.7
  0
LINE
  5
2BE
100
AcDbEntity
  8
GIANNI_ASSI
100
AcDbLine
 62
8
  6
HIDDEN
 10
86.754308578
 20
150.9245303322
 11
86.6230419787
 21
150.9723509486
  0
LINE
  5
2BF
100
AcDbEntity
  8
0
100
AcDbLine
 62
7
  6
CONTINUOUS
 10
75.6218602792
 20
156.15
 11
71.685
 21
158.4229473419
  0
LINE
  5
2C0
100
AcDbEntity
  8
GIANNI_ASSI
100
AcDbLine
 62
8
  6
HIDDEN
 10
75.4200177063
 20
167.9987449312
 11
83.8136937374
 21
155.242007858
  0
LINE
  5
2C1
100
AcDbEntity
  8
GIANNI_ASSI
100
AcDbLine
 62
8
  6
HIDDEN
 10
85.9119666107
 20
152.0530456854
 11
86.6230419787
 21
150.9723509486
  0
LINE
  5
2C2
100
AcDbEntity
  8
GIANNI_ASSI
100
AcDbLine
 62
8
  6
HIDDEN
 10
80.2065807712
 20
168.0012550688
 11
88.599746165
 21
155.2452940638
  0
LINE
  5
2C3
100
AcDbEntity
  8
0
100
AcDbLine
 62
7
  6
CONTINUOUS
 10
134.685
 20
148.3770526581
 11
109.2874553834
 21
148.3770526581
  0
LINE
  5
2C4
100
AcDbEntity
  8
0
100
AcDbLine
 62
7
  6
CONTINUOUS
 10
97.0825446166
 20
148.3770526581
 11
71.685
 21
148.3770526581
  0
LINE
  5
2C5
100
AcDbEntity
  8
0
100
AcDbLine
 62
7
  6
CONTINUOUS
 10
75.6218602792
 20
150.65
 11
96.4438947494
 21
150.65
  0
LINE
  5
2C6
100
AcDbEntity
  8
0
100
AcDbLine
 62
7
  6
CONTINUOUS
 10
109.9261052506
 20
150.65
 11
130.7481397208
 21
150.65
  0
LINE
  5
2C7
100
AcDbEntity
  8
DEFAULT_2
100
AcDbLine
 62
8
  6
HIDDEN
 10
98.185
 20
152.2867513459
 11
103.185
 21
149.4
  0
LINE
  5
2C8
100
AcDbEntity
  8
0
100
AcDbLine
 62
7
  6
CONTINUOUS
 10
80.96
 20
170.0
 11
81.285
 21
169.4370834875
  0
LINE
  5
2C9
100
AcDbEntity
  8
0
100
AcDbLine
 62
7
  6
CONTINUOUS
 10
94.1767631518
 20
167.3
 11
94.1767631518
 21
158.4229473419
  0
LINE
  5
2CA
100
AcDbEntity
  8
DEFAULT_2
100
AcDbLine
 62
8
  6
HIDDEN
 10
94.435
 20
224.9
 11
94.435
 21
229.4669872981
  0
LINE
  5
2CB
100
AcDbEntity
  8
DEFAULT_2
100
AcDbLine
 62
8
  6
HIDDEN
 10
94.685
 20
229.9
 11
94.685
 21
234.4
  0
LINE
  5
2CC
100
AcDbEntity
  8
0
100
AcDbLine
 62
7
  6
CONTINUOUS
 10
95.135
 20
155.05
 11
95.135
 21
167.0
  0
LINE
  5
2CD
100
AcDbEntity
  8
0
100
AcDbLine
 62
7
  6
CONTINUOUS
 10
95.935
 20
155.05
 11
95.935
 21
166.2
  0
LINE
  5
2CE
100
AcDbEntity
  8
DEFAULT_2
100
AcDbLine
 62
8
  6
HIDDEN
 10
96.085
 20
195.4
 11
96.085
 21
222.0421161675
  0
LINE
  5
2CF
100
AcDbEntity
  8
DEFAULT_2
100
AcDbLine
 62
8
  6
HIDDEN
 10
98.185
 20
194.1875644347
 11
98.185
 21
152.2867513459
  0
LINE
  5
2D0
100
AcDbEntity
  8
GIANNI_ASSI
100
AcDbLine
 62
8
  6
HIDDEN
 10
89.428763653
 20
152.0626444252
 11
88.9161777393
 21
151.1258078983
  0
LINE
  5
2D1
100
AcDbEntity
  8
GIANNI_ASSI
100
AcDbLine
 62
8
  6
HIDDEN
 10
86.8012875249
 20
150.9268862708
 11
88.9161777393
 21
151.1258078983
  0
LINE
  5
2D2
100
AcDbEntity
  8
GIANNI_ASSI
100
AcDbLine
 62
8
  6
HIDDEN
 10
86.754308578
 20
150.9245303322
 11
86.8012875249
 21
150.9268862708
  0
LINE
  5
2D3
100
AcDbEntity
  8
GIANNI_ASSI
100
AcDbLine
 62
8
  6
HIDDEN
 10
78.2831455492
 20
151.95
 11
86.079570193
 21
151.95
  0
LINE
  5
2D4
100
AcDbEntity
  8
GIANNI_ASSI
100
AcDbLine
 62
8
  6
HIDDEN
 10
89.2773270686
 20
151.95
 11
99.0346318251
 21
151.95
  0
LINE
  5
2D5
100
AcDbEntity
  8
GIANNI_ASSI
100
AcDbLine
 62
8
  6
HIDDEN
 10
107.3353681749
 20
151.95
 11
117.0926729314
 21
151.95
  0
LINE
  5
2D6
100
AcDbEntity
  8
GIANNI_ASSI
100
AcDbLine
 62
8
  6
HIDDEN
 10
120.290429807
 20
151.95
 11
128.0868544508
 21
151.95
  0
LINE
  5
2D7
100
AcDbEntity
  8
GIANNI_ASSI
100
AcDbLine
 62
8
  6
HIDDEN
 10
98.185
 20
152.2867513459
 11
108.185
 21
152.2867513459
  0
LINE
  5
2D8
100
AcDbEntity
  8
0
100
AcDbLine
 62
7
  6
CONTINUOUS
 10
95.935
 20
155.05
 11
95.135
 21
155.05
  0
LINE
  5
2D9
100
AcDbEntity
  8
0
100
AcDbLine
 62
7
  6
CONTINUOUS
 10
110.435
 20
155.05
 11
111.235
 21
155.05
  0
LINE
  5
2DA
100
AcDbEntity
  8
GIANNI_ASSI
100
AcDbLine
 62
8
  6
HIDDEN
 10
78.2831455492
 20
155.35
 11
83.8424386803
 21
155.35
  0
LINE
  5
2DB
100
AcDbEntity
  8
GIANNI_ASSI
100
AcDbLine
 62
8
  6
HIDDEN
 10
88.4310501711
 20
155.35
 11
98.4865368961
 21
155.35
  0
LINE
  5
2DC
100
AcDbEntity
  8
GIANNI_ASSI
100
AcDbLine
 62
8
  6
HIDDEN
 10
107.8834631039
 20
155.35
 11
117.9389498289
 21
155.35
  0
LINE
  5
2DD
100
AcDbEntity
  8
GIANNI_ASSI
100
AcDbLine
 62
8
  6
HIDDEN
 10
122.5275613197
 20
155.35
 11
128.0868544508
 21
155.35
  0
LINE
  5
2DE
100
AcDbEntity
  8
0
100
AcDbLine
 62
7
  6
CONTINUOUS
 10
130.7481300756
 20
156.15
 11
111.235
 21
156.15
  0
LINE
  5
2DF
100
AcDbEntity
  8
0
100
AcDbLine
 62
7
  6
CONTINUOUS
 10
95.135
 20
156.15
 11
75.6218699244
 21
156.15
  0
LINE
  5
2E0
100
AcDbEntity
  8
GIANNI_ASSI
100
AcDbLine
 62
8
  6
HIDDEN
 10
119.615691422
 20
150.9245303322
 11
119.5687124751
 21
150.9268862708
  0
LINE
  5
2E1
100
AcDbEntity
  8
GIANNI_ASSI
100
AcDbLine
 62
8
  6
HIDDEN
 10
119.5687124751
 20
150.9268862708
 11
117.4538222607
 21
151.1258078983
  0
LINE
  5
2E2
100
AcDbEntity
  8
0
100
AcDbLine
 62
7
  6
CONTINUOUS
 10
73.185
 20
135.1857864376
 11
74.8921067812
 21
136.8928932188
  0
LINE
  5
2E3
100
AcDbEntity
  8
0
100
AcDbLine
 62
7
  6
CONTINUOUS
 10
71.685
 20
148.3770526581
 11
75.6218602792
 21
150.65
  0
LINE
  5
2E4
100
AcDbEntity
  8
0
100
AcDbLine
 62
7
  6
CONTINUOUS
 10
71.685
 20
158.4229473419
 11
94.1767631518
 21
158.4229473419
  0
LINE
  5
2E5
100
AcDbEntity
  8
0
100
AcDbLine
 62
7
  6
CONTINUOUS
 10
112.1932368482
 20
158.4229473419
 11
134.685
 21
158.4229473419
  0
LINE
  5
2E6
100
AcDbEntity
  8
0
100
AcDbLine
 62
7
  6
CONTINUOUS
 10
95.935
 20
166.2
 11
94.135
 21
168.0
  0
LINE
  5
2E7
100
AcDbEntity
  8
DEFAULT_2
100
AcDbLine
 62
8
  6
HIDDEN
 10
108.185
 20
194.1875644347
 11
108.185
 21
152.2867513459
  0
LINE
  5
2E8
100
AcDbEntity
  8
0
100
AcDbLine
 62
7
  6
CONTINUOUS
 10
110.435
 20
166.2
 11
112.235
 21
168.0
  0
LINE
  5
2E9
100
AcDbEntity
  8
0
100
AcDbLine
 62
7
  6
CONTINUOUS
 10
71.685
 20
167.3
 11
94.1767631518
 21
167.3
  0
LINE
  5
2EA
100
AcDbEntity
  8
0
100
AcDbLine
 62
7
  6
CONTINUOUS
 10
112.1932368482
 20
167.3
 11
134.685
 21
167.3
  0
LINE
  5
2EB
100
AcDbEntity
  8
0
100
AcDbLine
 62
7
  6
CONTINUOUS
 10
134.685
 20
148.3770526581
 11
130.7481397208
 21
150.65
  0
LINE
  5
2EC
100
AcDbEntity
  8
0
100
AcDbLine
 62
7
  6
CONTINUOUS
 10
133.185
 20
135.1857864376
 11
131.4778932188
 21
136.8928932188
  0
LINE
  5
2ED
100
AcDbEntity
  8
DEFAULT_2
100
AcDbLine
 62
8
  6
HIDDEN
 10
110.285
 20
195.4
 11
110.285
 21
222.0421161675
  0
LINE
  5
2EE
100
AcDbEntity
  8
0
100
AcDbLine
 62
7
  6
CONTINUOUS
 10
110.435
 20
166.2
 11
110.435
 21
155.05
  0
LINE
  5
2EF
100
AcDbEntity
  8
0
100
AcDbLine
 62
7
  6
CONTINUOUS
 10
111.235
 20
155.05
 11
111.235
 21
167.0
  0
LINE
  5
2F0
100
AcDbEntity
  8
DEFAULT_2
100
AcDbLine
 62
8
  6
HIDDEN
 10
111.685
 20
229.9
 11
111.685
 21
234.4
  0
LINE
  5
2F1
100
AcDbEntity
  8
DEFAULT_2
100
AcDbLine
 62
8
  6
HIDDEN
 10
111.935
 20
224.9
 11
111.935
 21
229.4669872981
  0
LINE
  5
2F2
100
AcDbEntity
  8
0
100
AcDbLine
 62
7
  6
CONTINUOUS
 10
112.1932368482
 20
167.3
 11
112.1932368482
 21
158.4229473419
  0
LINE
  5
2F3
100
AcDbEntity
  8
DEFAULT_2
100
AcDbLine
 62
8
  6
HIDDEN
 10
108.185
 20
152.2867513459
 11
103.185
 21
149.4
  0
LINE
  5
2F4
100
AcDbEntity
  8
0
100
AcDbLine
 62
7
  6
CONTINUOUS
 10
72.3850107158
 20
168.0
 11
133.9849892842
 21
168.0
  0
LINE
  5
2F5
100
AcDbEntity
  8
0
100
AcDbLine
 62
7
  6
CONTINUOUS
 10
81.285
 20
169.4370834875
 11
125.085
 21
169.4370834875
  0
LINE
  5
2F6
100
AcDbEntity
  8
0
100
AcDbLine
 62
7
  6
CONTINUOUS
 10
80.96
 20
170.0
 11
125.41
 21
170.0
  0
LINE
  5
2F7
100
AcDbEntity
  8
GIANNI_ASSI
100
AcDbLine
 62
8
  6
HIDDEN
 10
116.9414099639
 20
152.0623271112
 11
117.4538222607
 21
151.1258078983
  0
LINE
  5
2F8
100
AcDbEntity
  8
DEFAULT_2
100
AcDbLine
 62
8
  6
HIDDEN
 10
119.21
 20
101.5
 11
119.21
 21
88.5
  0
LINE
  5
2F9
100
AcDbEntity
  8
0
100
AcDbLine
 62
7
  6
CONTINUOUS
 10
125.41
 20
170.0
 11
125.085
 21
169.4370834875
  0
LINE
  5
2FA
100
AcDbEntity
  8
GIANNI_ASSI
100
AcDbLine
 62
8
  6
HIDDEN
 10
126.1634192288
 20
168.0012550688
 11
117.772722211
 21
155.2490455101
  0
LINE
  5
2FB
100
AcDbEntity
  8
GIANNI_ASSI
100
AcDbLine
 62
8
  6
HIDDEN
 10
119.615691422
 20
150.9245303322
 11
119.7469580213
 21
150.9723509486
  0
LINE
  5
2FC
100
AcDbEntity
  8
0
100
AcDbLine
 62
7
  6
CONTINUOUS
 10
124.685
 20
90.2
 11
124.685
 21
91.95
  0
LINE
  5
2FD
100
AcDbEntity
  8
0
100
AcDbLine
 62
7
  6
CONTINUOUS
 10
125.085
 20
169.4370834875
 11
125.085
 21
168.0
  0
LINE
  5
2FE
100
AcDbEntity
  8
GIANNI_ASSI
100
AcDbLine
 62
8
  6
HIDDEN
 10
130.9499822937
 20
167.9987449312
 11
122.5598778502
 21
155.2474359689
  0
LINE
  5
2FF
100
AcDbEntity
  8
GIANNI_ASSI
100
AcDbLine
 62
8
  6
HIDDEN
 10
120.4578468365
 20
152.0527621618
 11
119.7469580213
 21
150.9723509486
  0
LINE
  5
300
100
AcDbEntity
  8
GIANNI_ASSI
100
AcDbLine
 62
8
  6
HIDDEN
 10
120.290429807
 20
151.95
 11
120.4555653909
 21
152.0492952094
  0
LINE
  5
301
100
AcDbEntity
  8
0
100
AcDbLine
 62
7
  6
CONTINUOUS
 10
130.7481397208
 20
156.15
 11
134.685
 21
158.4229473419
  0
LINE
  5
302
100
AcDbEntity
  8
0
100
AcDbLine
 62
7
  6
CONTINUOUS
 10
125.685
 20
93.7
 11
125.685
 21
91.95
  0
LINE
  5
303
100
AcDbEntity
  8
0
100
AcDbLine
 62
7
  6
CONTINUOUS
 10
125.685
 20
90.2
 11
125.685
 21
88.3
  0
LINE
  5
304
100
AcDbEntity
  8
0
100
AcDbLine
 62
7
  6
CONTINUOUS
 10
129.685
 20
150.65
 11
129.685
 21
156.15
  0
LINE
  5
305
100
AcDbEntity
  8
0
100
AcDbLine
 62
7
  6
CONTINUOUS
 10
130.085
 20
93.9
 11
130.085
 21
95.7
  0
LINE
  5
306
100
AcDbEntity
  8
DEFAULT_2
100
AcDbLine
 62
8
  6
HIDDEN
 10
98.185
 20
194.1875644347
 11
96.085
 21
195.4
  0
LINE
  5
307
100
AcDbEntity
  8
0
100
AcDbLine
 62
7
  6
CONTINUOUS
 10
133.985
 20
168.0
 11
134.685
 21
167.3
  0
LINE
  5
308
100
AcDbEntity
  8
DEFAULT_2
100
AcDbLine
 62
8
  6
HIDDEN
 10
96.085
 20
222.0421161675
 11
94.435
 21
224.9
  0
LINE
  5
309
100
AcDbEntity
  8
0
100
AcDbLine
 62
7
  6
CONTINUOUS
 10
115.997225129
 20
234.5443078435
 11
125.41
 21
170.0
  0
LINE
  5
30A
100
AcDbEntity
  8
0
100
AcDbLine
 62
7
  6
CONTINUOUS
 10
131.685
 20
143.0
 11
131.685
 21
138.7339745962
  0
LINE
  5
30B
100
AcDbEntity
  8
0
100
AcDbLine
 62
7
  6
CONTINUOUS
 10
133.185
 20
135.1857864376
 11
133.185
 21
132.7
  0
LINE
  5
30C
100
AcDbEntity
  8
0
100
AcDbLine
 62
7
  6
CONTINUOUS
 10
133.185
 20
127.7
 11
133.185
 21
126.5
  0
LINE
  5
30D
100
AcDbEntity
  8
0
100
AcDbLine
 62
7
  6
CONTINUOUS
 10
133.185
 20
121.5
 11
133.185
 21
107.7
  0
LINE
  5
30E
100
AcDbEntity
  8
0
100
AcDbLine
 62
7
  6
CONTINUOUS
 10
134.685
 20
167.3
 11
134.685
 21
158.4229473419
  0
LINE
  5
30F
100
AcDbEntity
  8
0
100
AcDbLine
 62
7
  6
CONTINUOUS
 10
134.685
 20
148.3770526581
 11
134.685
 21
143.7
  0
LINE
  5
310
100
AcDbEntity
  8
DEFAULT_2
100
AcDbLine
 62
8
  6
HIDDEN
 10
108.185
 20
194.1875644347
 11
98.185
 21
194.1875644347
  0
LINE
  5
311
100
AcDbEntity
  8
0
100
AcDbLine
 62
7
  6
CONTINUOUS
 10
133.185
 20
107.7
 11
131.7397478291
 21
96.1379826326
  0
LINE
  5
312
100
AcDbEntity
  8
0
100
AcDbLine
 62
7
  6
CONTINUOUS
 10
131.3189745962
 20
138.1
 11
131.685
 21
138.7339745962
  0
LINE
  5
313
100
AcDbEntity
  8
0
100
AcDbLine
 62
7
  6
CONTINUOUS
 10
134.685
 20
143.7
 11
133.985
 21
143.0
  0
LINE
  5
314
100
AcDbEntity
  8
DEFAULT_2
100
AcDbLine
 62
8
  6
HIDDEN
 10
110.285
 20
195.4
 11
96.085
 21
195.4
  0
LINE
  5
315
100
AcDbEntity
  8
DEFAULT_2
100
AcDbLine
 62
8
  6
HIDDEN
 10
111.935
 20
229.4669872981
 11
111.685
 21
229.9
  0
LINE
  5
316
100
AcDbEntity
  8
0
100
AcDbLine
 62
7
  6
CONTINUOUS
 10
129.885
 20
93.7
 11
130.085
 21
93.9
  0
LINE
  5
317
100
AcDbEntity
  8
0
100
AcDbLine
 62
7
  6
CONTINUOUS
 10
125.685
 20
88.3
 11
125.385
 21
88.0
  0
LINE
  5
318
100
AcDbEntity
  8
DEFAULT_2
100
AcDbLine
 62
8
  6
HIDDEN
 10
111.935
 20
229.4669872981
 11
94.435
 21
229.4669872981
  0
LINE
  5
319
100
AcDbEntity
  8
DEFAULT_2
100
AcDbLine
 62
8
  6
HIDDEN
 10
111.685
 20
229.9
 11
94.685
 21
229.9
  0
LINE
  5
31A
100
AcDbEntity
  8
0
100
AcDbLine
 62
7
  6
CONTINUOUS
 10
90.372774871
 20
234.5443078435
 11
115.997225129
 21
234.5443078435
  0
LINE
  5
31B
100
AcDbEntity
  8
0
100
AcDbLine
 62
7
  6
CONTINUOUS
 10
115.0076922865
 20
235.4
 11
91.3623077135
 21
235.4
  0
ARC
  5
31C
100
AcDbEntity
  8
0
100
AcDbCircle
 62
7
  6
CONTINUOUS
 10
177.667691595
 20
31.6746874323
 40
6.5222274
100
AcDbArc
 50
181.8915297563
 51
238.108482453
  0
ARC
  5
31D
100
AcDbEntity
  8
0
100
AcDbCircle
 62
7
  6
CONTINUOUS
 10
177.667691595
 20
31.6746874323
 40
6.5222274
100
AcDbArc
 50
301.891517547
 51
358.1084702437
  0
ARC
  5
31E
100
AcDbEntity
  8
0
100
AcDbCircle
 62
7
  6
CONTINUOUS
 10
177.667691595
 20
31.6746874323
 40
6.5222274
100
AcDbArc
 50
61.8915124211
 51
118.1084875789
  0
ARC
  5
31F
100
AcDbEntity
  8
0
100
AcDbCircle
 62
7
  6
CONTINUOUS
 10
172.019276355
 20
34.9358003523
 40
3.5836672
100
AcDbArc
 50
255.9457715019
 51
44.0542458333
  0
ARC
  5
320
100
AcDbEntity
  8
0
100
AcDbCircle
 62
7
  6
CONTINUOUS
 10
183.316106835
 20
34.9358003523
 40
3.5836672
100
AcDbArc
 50
135.9457541667
 51
284.0542284981
  0
ARC
  5
321
100
AcDbEntity
  8
0
100
AcDbCircle
 62
7
  6
CONTINUOUS
 10
177.667691595
 20
25.1524584723
 40
3.5836672
100
AcDbArc
 50
15.9457827551
 51
164.0542172449
  0
CIRCLE
  5
322
100
AcDbEntity
  8
0
100
AcDbCircle
 62
7
  6
CONTINUOUS
 10
177.667691595
 20
31.6746874323
 40
1.26451416
  0
CIRCLE
  5
323
100
AcDbEntity
  8
0
100
AcDbCircle
 62
7
  6
CONTINUOUS
 10
177.667691595
 20
31.6746874323
 40
1.06485288
  0
HATCH
  5
324
100
AcDbEntity
  8
0
100
AcDbHatch
 62
2
  6
CONTINUOUS
 10
0.0
 20
0.0
 30
0.0
210
0.0
220
0.0
230
1.0
  2
XSEC0004
 70
0
 71
1
 91
3
 92
1
 93
6
 72
2
 10
177.667691595
 20
25.1524584723
 40
3.5836672
 50
15.9457827551
 51
164.0542172449
 73
1
 72
2
 10
177.667691595
 20
31.6746874323
 40
6.5222274
 50
301.891517547
 51
358.1084702437
 73
1
 72
2
 10
183.316106835
 20
34.9358003523
 40
3.5836672
 50
135.9457541667
 51
284.0542284981
 73
1
 72
2
 10
177.667691595
 20
31.6746874323
 40
6.5222274
 50
61.8915124211
 51
118.1084875789
 73
1
 72
2
 10
172.019276355
 20
34.9358003523
 40
3.5836672
 50
255.9457715019
 51
44.0542458333
 73
1
 72
2
 10
177.667691595
 20
31.6746874323
 40
6.5222274
 50
181.8915297563
 51
238.108482453
 73
1
 97
8
330
31C
330
31D
330
31E
330
31F
330
320
330
321
330
322
330
323
 92
1
 93
1
 72
2
 10
177.667691595
 20
31.6746874323
 40
1.26451416
 50
0.0
 51
360.0
 73
1
 97
8
330
31C
330
31D
330
31E
330
31F
330
320
330
321
330
322
330
323
 92
1
 93
1
 72
2
 10
177.667691595
 20
31.6746874323
 40
1.06485288
 50
0.0
 51
360.0
 73
1
 97
8
330
31C
330
31D
330
31E
330
31F
330
320
330
321
330
322
330
323
 75
0
 76
0
 52
45.0
 41
0.0625
 77
0
 78
1
 53
45.0
 43
0.0
 44
0.0
 45
-0.0441941738
 46
0.0441941738
 79
0
 98
1
 10
0.0
 20
0.0
  0
ARC
  5
325
100
AcDbEntity
  8
0
100
AcDbCircle
 62
7
  6
CONTINUOUS
 10
0.7444405757
 20
55.8527791199
 40
157.6112852985
100
AcDbArc
 50
44.9995950429
 51
45.1687961272
  0
ARC
  5
326
100
AcDbEntity
  8
0
100
AcDbCircle
 62
7
  6
CONTINUOUS
 10
65.1651267992
 20
83.2466697587
 40
78.6685883002
100
AcDbArc
 50
55.8844738629
 51
56.6317013555
  0
ARC
  5
327
100
AcDbEntity
  8
GIANNI_ASSI
100
AcDbCircle
 62
8
  6
HIDDEN
 10
84.3335709174
 20
158.3331672848
 40
7.795697259
100
AcDbArc
 50
307.6834003865
 51
309.0530480924
  0
ARC
  5
328
100
AcDbEntity
  8
0
100
AcDbCircle
 62
7
  6
CONTINUOUS
 10
68.8548729811
 20
124.0
 40
5.0
100
AcDbArc
 50
330.0
 51
30.0
  0
ARC
  5
329
100
AcDbEntity
  8
0
100
AcDbCircle
 62
7
  6
CONTINUOUS
 10
68.8548729811
 20
130.2
 40
5.0
100
AcDbArc
 50
330.0
 51
30.0
  0
ARC
  5
32A
100
AcDbEntity
  8
0
100
AcDbCircle
 62
7
  6
CONTINUOUS
 10
74.185
 20
137.6
 40
1.0
100
AcDbArc
 50
315.0
 51
30.0
  0
ARC
  5
32B
100
AcDbEntity
  8
0
100
AcDbCircle
 62
7
  6
CONTINUOUS
 10
75.1263911093
 20
96.2
 40
0.5
100
AcDbArc
 50
187.1250163665
 51
270.0000001345
  0
ARC
  5
32C
100
AcDbEntity
  8
0
100
AcDbCircle
 62
7
  6
CONTINUOUS
 10
40.1782381198
 20
283.1417602571
 40
144.017161137
100
AcDbArc
 50
299.5637038663
 51
300.0029487479
  0
ARC
  5
32D
100
AcDbEntity
  8
DEFAULT_2
100
AcDbCircle
 62
8
  6
HIDDEN
 10
93.685
 20
234.4
 40
1.0
100
AcDbArc
 50
0.0
 51
89.9999998969
  0
ARC
  5
32E
100
AcDbEntity
  8
0
100
AcDbCircle
 62
7
  6
CONTINUOUS
 10
91.3623077135
 20
234.4
 40
1.0
100
AcDbArc
 50
90.0
 51
171.7028
  0
ARC
  5
32F
100
AcDbEntity
  8
0
100
AcDbCircle
 62
7
  6
CONTINUOUS
 10
141.1832668839
 20
83.2789326513
 40
78.6297592436
100
AcDbArc
 50
123.3680798294
 51
124.1156769906
  0
ARC
  5
330
100
AcDbEntity
  8
0
100
AcDbCircle
 62
7
  6
CONTINUOUS
 10
131.2436088907
 20
96.2
 40
0.5
100
AcDbArc
 50
269.9999998655
 51
352.8749836335
  0
ARC
  5
331
100
AcDbEntity
  8
0
100
AcDbCircle
 62
7
  6
CONTINUOUS
 10
103.185
 20
155.05
 40
8.05
100
AcDbArc
 50
180.0
 51
360.0
  0
ARC
  5
332
100
AcDbEntity
  8
0
100
AcDbCircle
 62
7
  6
CONTINUOUS
 10
103.185
 20
155.05
 40
7.2499999905
100
AcDbArc
 50
180.0
 51
360.0
  0
ARC
  5
333
100
AcDbEntity
  8
0
100
AcDbCircle
 62
7
  6
CONTINUOUS
 10
137.5151270189
 20
130.2
 40
5.0
100
AcDbArc
 50
150.0
 51
210.0
  0
ARC
  5
334
100
AcDbEntity
  8
0
100
AcDbCircle
 62
7
  6
CONTINUOUS
 10
137.5151270189
 20
124.0
 40
5.0
100
AcDbArc
 50
150.0
 51
210.0
  0
ARC
  5
335
100
AcDbEntity
  8
0
100
AcDbCircle
 62
7
  6
CONTINUOUS
 10
132.185
 20
137.6
 40
1.0
100
AcDbArc
 50
150.0
 51
225.0
  0
ARC
  5
336
100
AcDbEntity
  8
0
100
AcDbCircle
 62
7
  6
CONTINUOUS
 10
205.6255594554
 20
55.8527791578
 40
157.6112852936
100
AcDbArc
 50
134.8312038906
 51
135.0004049749
  0
ARC
  5
337
100
AcDbEntity
  8
0
100
AcDbCircle
 62
7
  6
CONTINUOUS
 10
166.1917506999
 20
283.141740803
 40
144.0171386992
100
AcDbArc
 50
239.997051234
 51
240.4362961838
  0
ARC
  5
338
100
AcDbEntity
  8
DEFAULT_2
100
AcDbCircle
 62
8
  6
HIDDEN
 10
112.685
 20
234.4
 40
1.0
100
AcDbArc
 50
90.0000001031
 51
180.0
  0
ARC
  5
339
100
AcDbEntity
  8
0
100
AcDbCircle
 62
7
  6
CONTINUOUS
 10
115.0076922865
 20
234.4
 40
1.0
100
AcDbArc
 50
8.2972
 51
90.0
  0
SPLINE
  5
33A
100
AcDbEntity
  8
GIANNI_ASSI
100
AcDbSpline
 62
8
  6
HIDDEN
 70
0
 71
3
 72
21
 73
17
 74
15
 42
0.0000001
 43
0.0000001
 44
0.0000000001
 12
-5.3325553834
 22
0.0
 32
0.0
 13
5.3325553834
 23
0.0
 33
0.0
 40
0.0
 40
0.0
 40
0.0
 40
0.0
 40
0.0333676509
 40
0.0879354177
 40
0.1598936111
 40
0.2460206391
 40
0.3407452709
 40
0.4372890143
 40
0.5281199057
 40
0.6081829756
 40
0.6796625762
 40
0.7506060342
 40
0.8242961389
 40
0.8969222595
 40
0.958163954
 40
1.0
 40
1.0
 40
1.0
 40
1.0
 10
122.5275613197
 20
155.35
 30
0.0
 10
122.4682497042
 20
155.35
 30
0.0
 10
122.315074742
 20
155.305882306
 30
0.0
 10
122.050457295
 20
155.206396755
 30
0.0
 10
121.7060149179
 20
155.0484394891
 30
0.0
 10
121.3059139958
 20
154.8441830416
 30
0.0
 10
120.8769303638
 20
154.6005285637
 30
0.0
 10
120.4547120721
 20
154.3294326866
 30
0.0
 10
120.0769078024
 20
154.0394461944
 30
0.0
 10
119.7746834075
 20
153.7289990013
 30
0.0
 10
119.580742791
 20
153.3745928695
 30
0.0
 10
119.5482570671
 20
152.980784015
 30
0.0
 10
119.6542127213
 20
152.6040086215
 30
0.0
 10
119.837195191
 20
152.279134707
 30
0.0
 10
120.0422351077
 20
152.0449476736
 30
0.0
 10
120.2160654629
 20
151.95
 30
0.0
 10
120.290429807
 20
151.95
 30
0.0
 11
122.5275613197
 21
155.35
 31
0.0
 11
122.3531041264
 21
155.3149928961
 31
0.0
 11
122.080066615
 21
155.2143789849
 31
0.0
 11
121.7301806805
 21
155.0568300142
 31
0.0
 11
121.3210032823
 21
154.8482410538
 31
0.0
 11
120.8820783092
 21
154.5982501097
 31
0.0
 11
120.4503410866
 21
154.3178083046
 31
0.0
 11
120.0696979797
 21
154.0182817282
 31
0.0
 11
119.7798525713
 21
153.7048043816
 31
0.0
 11
119.6061544488
 21
153.3655128923
 31
0.0
 11
119.5708714575
 21
152.9888518972
 31
0.0
 11
119.6693506384
 21
152.6084353987
 31
0.0
 11
119.85847543
 21
152.2704712166
 31
0.0
 11
120.0837808248
 21
152.0340636617
 31
0.0
 11
120.290429807
 21
151.95
 31
0.0
  0
SPLINE
  5
33B
100
AcDbEntity
  8
GIANNI_ASSI
100
AcDbSpline
 62
8
  6
HIDDEN
 70
0
 71
3
 72
18
 73
14
 74
12
 42
0.0000001
 43
0.0000001
 44
0.0000000001
 12
-3.4634962637
 22
0.0
 32
0.0
 13
2.0250958902
 23
-2.8097674289
 33
0.0
 40
0.0
 40
0.0
 40
0.0
 40
0.0
 40
0.0620016753
 40
0.1541904163
 40
0.268413701
 40
0.3896256691
 40
0.5058506457
 40
0.6118129483
 40
0.7068094757
 40
0.7909611636
 40
0.8663062898
 40
0.9358822325
 40
1.0
 40
1.0
 40
1.0
 40
1.0
 10
107.8834631039
 20
155.35
 30
0.0
 10
107.811882247
 20
155.35
 30
0.0
 10
107.6422512004
 20
155.260538339
 30
0.0
 10
107.4359895676
 20
155.030209074
 30
0.0
 10
107.242068307
 20
154.7014631771
 30
0.0
 10
107.1017174702
 20
154.3186529105
 30
0.0
 10
107.0275739381
 20
153.9273868063
 30
0.0
 10
107.0156126156
 20
153.5600728125
 30
0.0
 10
107.0508784444
 20
153.2318444823
 30
0.0
 10
107.1184126796
 20
152.9452136657
 30
0.0
 10
107.2076167524
 20
152.695697521
 30
0.0
 10
107.3127337915
 20
152.4779908364
 30
0.0
 10
107.3948520344
 20
152.3468033508
 30
0.0
 10
107.4381335769
 20
152.2867513459
 30
0.0
 11
107.8834631039
 21
155.35
 31
0.0
 11
107.6837308303
 21
155.271124208
 31
0.0
 11
107.4601909602
 21
155.043134179
 31
0.0
 11
107.2568887854
 21
154.703756783
 31
0.0
 11
107.1110632488
 21
154.3100800208
 31
0.0
 11
107.0361920575
 21
153.9145593533
 31
0.0
 11
107.0242170126
 21
153.5477547364
 31
0.0
 11
107.0593565723
 21
153.220616464
 31
0.0
 11
107.1262571923
 21
152.9369393787
 31
0.0
 11
107.2143072576
 21
152.6912850775
 31
0.0
 11
107.3195109128
 21
152.4744864797
 31
0.0
 11
107.4381335769
 21
152.2867513459
 31
0.0
  0
SPLINE
  5
33C
100
AcDbEntity
  8
GIANNI_ASSI
100
AcDbSpline
 62
8
  6
HIDDEN
 70
0
 71
3
 72
16
 73
12
 74
10
 42
0.0000001
 43
0.0000001
 44
0.0000000001
 12
-3.2642135313
 22
0.0
 32
0.0
 13
2.7409746247
 23
-1.7726105282
 33
0.0
 40
0.0
 40
0.0
 40
0.0
 40
0.0
 40
0.0648287246
 40
0.1590566469
 40
0.2717858434
 40
0.3869798263
 40
0.4971900918
 40
0.6073848601
 40
0.7247040422
 40
0.8534968847
 40
1.0
 40
1.0
 40
1.0
 40
1.0
 10
88.4310501711
 20
155.35
 30
0.0
 10
88.3605119044
 20
155.35
 30
0.0
 10
88.1952974176
 20
155.2639256247
 30
0.0
 10
87.9967633898
 20
155.0455465985
 30
0.0
 10
87.8161745915
 20
154.7410758181
 30
0.0
 10
87.7017834087
 20
154.3874344654
 30
0.0
 10
87.7015710391
 20
154.0135812867
 30
0.0
 10
87.8487901626
 20
153.6676479787
 30
0.0
 10
88.1014472207
 20
153.3695001785
 30
0.0
 10
88.427919079
 20
153.0925562151
 30
0.0
 10
88.6746703669
 20
152.9220730513
 30
0.0
 10
88.8085241407
 20
152.8355087298
 30
0.0
 11
88.4310501711
 21
155.35
 31
0.0
 11
88.2339793134
 21
155.2729033034
 31
0.0
 11
88.0175676062
 21
155.0543364587
 31
0.0
 11
87.8299489502
 21
154.7377882681
 31
0.0
 11
87.7199761447
 21
154.3782116613
 31
0.0
 11
87.7256287574
 21
154.0185062328
 31
0.0
 11
87.8602649422
 21
153.6849546614
 31
0.0
 11
88.1001582346
 21
153.3864489925
 31
0.0
 11
88.4170957405
 21
153.1102372106
 31
0.0
 11
88.8085241407
 21
152.8355087298
 31
0.0
  0
SPLINE
  5
33D
100
AcDbEntity
  8
GIANNI_ASSI
100
AcDbSpline
 62
8
  6
HIDDEN
 70
0
 71
3
 72
17
 73
13
 74
11
 42
0.0000001
 43
0.0000001
 44
0.0000000001
 12
-3.7500504153
 22
0.0
 32
0.0
 13
3.7500504153
 23
0.0
 33
0.0
 40
0.0
 40
0.0
 40
0.0
 40
0.0
 40
0.0512364773
 40
0.1269415307
 40
0.2317707024
 40
0.3595735924
 40
0.5002182185
 40
0.6404082142
 40
0.7685720033
 40
0.8731069111
 40
0.9487905614
 40
1.0
 40
1.0
 40
1.0
 40
1.0
 10
78.2831455492
 20
155.35
 30
0.0
 10
78.2190990915
 20
155.35
 30
0.0
 10
78.067027942
 20
155.2589800178
 30
0.0
 10
77.9362143183
 20
154.9958409831
 30
0.0
 10
77.8303807012
 20
154.6242881325
 30
0.0
 10
77.7675103585
 20
154.16060539
 30
0.0
 10
77.745390496
 20
153.6497437634
 30
0.0
 10
77.7676031609
 20
153.1384445495
 30
0.0
 10
77.8304489859
 20
152.6752334571
 30
0.0
 10
77.936433096
 20
152.303676143
 30
0.0
 10
78.067106097
 20
152.0409381686
 30
0.0
 10
78.2191328904
 20
151.95
 30
0.0
 10
78.2831455492
 20
151.95
 30
0.0
 11
78.2831455492
 21
155.35
 31
0.0
 11
78.1094423641
 21
155.2678736205
 31
0.0
 11
77.9596735247
 21
155.0266947723
 31
0.0
 11
77.8465240156
 21
154.6502159027
 31
0.0
 11
77.7766276535
 21
154.1760728599
 31
0.0
 11
77.7530040306
 21
153.6491777444
 31
0.0
 11
77.776621927
 21
153.1239889767
 31
0.0
 11
77.8467942833
 21
152.6485186104
 31
0.0
 11
77.9597465432
 21
152.2731327449
 31
0.0
 11
78.1095185915
 21
152.0320503746
 31
0.0
 11
78.2831455492
 21
151.95
 31
0.0
  0
SPLINE
  5
33E
100
AcDbEntity
  8
GIANNI_ASSI
100
AcDbSpline
 62
8
  6
HIDDEN
 70
0
 71
3
 72
14
 73
10
 74
8
 42
0.0000001
 43
0.0000001
 44
0.0000000001
 12
-0.4180935746
 22
0.766961978
 32
0.0
 13
-0.4330462244
 23
0.7581689453
 33
0.0
 40
0.0
 40
0.0
 40
0.0
 40
0.0
 40
0.0112603372
 40
0.0878242413
 40
0.1887828801
 40
0.3231082839
 40
0.5008449537
 40
0.7265073122
 40
1.0
 40
1.0
 40
1.0
 40
1.0
 10
116.9423604955
 20
152.0605807821
 30
0.0
 10
116.940791204
 20
152.0634595322
 30
0.0
 10
116.9287113918
 20
152.0859992303
 30
0.0
 10
116.9048328791
 20
152.1354941159
 30
0.0
 10
116.8668751136
 20
152.2179339615
 30
0.0
 10
116.8154178236
 20
152.3265777898
 30
0.0
 10
116.7449552229
 20
152.4663401143
 30
0.0
 10
116.6516452981
 20
152.6398663314
 30
0.0
 10
116.5802423037
 20
152.7663908423
 30
0.0
 10
116.5407639784
 20
152.8355087298
 30
0.0
 11
116.9423604955
 21
152.0605807821
 31
0.0
 11
116.9377095567
 21
152.0692473511
 31
0.0
 11
116.9080759269
 21
152.1291703253
 31
0.0
 11
116.8708121967
 21
152.2090563086
 31
0.0
 11
116.8204533481
 21
152.3149774685
 31
0.0
 11
116.7507018752
 21
152.4536049893
 31
0.0
 11
116.657708529
 21
152.6273108504
 31
0.0
 11
116.5407639784
 21
152.8355087298
 31
0.0
  0
SPLINE
  5
33F
100
AcDbEntity
  8
GIANNI_ASSI
100
AcDbSpline
 62
8
  6
HIDDEN
 70
0
 71
3
 72
14
 73
10
 74
8
 42
0.0000001
 43
0.0000001
 44
0.0000000001
 12
-3.6016780145
 22
0.2847106638
 32
0.0
 13
-2.2789528832
 23
2.8140059592
 33
0.0
 40
0.0
 40
0.0
 40
0.0
 40
0.0
 40
0.0723545711
 40
0.2021530469
 40
0.3647715129
 40
0.5438927959
 40
0.7211461805
 40
0.8783876531
 40
1.0
 40
1.0
 40
1.0
 40
1.0
 10
119.5686760715
 20
150.926425753
 30
0.0
 10
119.4818101155
 20
150.933292459
 30
0.0
 10
119.2428890364
 20
151.0021493052
 30
0.0
 10
118.8387380421
 20
151.1726615507
 30
0.0
 10
118.3356798243
 20
151.442186274
 30
0.0
 10
117.8039326901
 20
151.7734233156
 30
0.0
 10
117.2984771502
 20
152.1335209539
 30
0.0
 10
116.8734749541
 20
152.4836596177
 30
0.0
 10
116.6331469146
 20
152.7214361068
 30
0.0
 10
116.5407639784
 20
152.8355087298
 30
0.0
 11
119.5686760715
 21
150.926425753
 31
0.0
 11
119.312695423
 21
150.9858674977
 31
0.0
 11
118.8774698124
 21
151.1633197153
 31
0.0
 11
118.3565567836
 21
151.4379105846
 31
0.0
 11
117.805661778
 21
151.7802758841
 31
0.0
 11
117.2836964524
 21
152.1538037243
 31
0.0
 11
116.846478779
 21
152.5185497535
 31
0.0
 11
116.5407639784
 21
152.8355087298
 31
0.0
  0
SPLINE
  5
340
100
AcDbEntity
  8
GIANNI_ASSI
100
AcDbSpline
 62
8
  6
HIDDEN
 70
0
 71
3
 72
14
 73
10
 74
8
 42
0.0000001
 43
0.0000001
 44
0.0000000001
 12
-1.8255963678
 22
2.0552350788
 32
0.0
 13
2.5963758085
 23
1.3853399377
 33
0.0
 40
0.0
 40
0.0
 40
0.0
 40
0.0
 40
0.0055536882
 40
0.0674466558
 40
0.1861845402
 40
0.3569890181
 40
0.5638247466
 40
0.7857582393
 40
1.0
 40
1.0
 40
1.0
 40
1.0
 10
86.6247483653
 20
150.9738666745
 30
0.0
 10
86.6213687676
 20
150.9776713862
 30
0.0
 10
86.5854374258
 20
151.0262841384
 30
0.0
 10
86.686784422
 20
151.2379871476
 30
0.0
 10
86.8973991736
 20
151.4713584893
 30
0.0
 10
87.2653339077
 20
151.8124682658
 30
0.0
 10
87.7292285648
 20
152.1668150174
 30
0.0
 10
88.2537052031
 20
152.5204843657
 30
0.0
 10
88.6231067658
 20
152.736576174
 30
0.0
 10
88.8085241407
 20
152.8355087298
 30
0.0
 11
86.6247483653
 21
150.9738666745
 31
0.0
 11
86.6159440024
 21
150.9858674977
 31
0.0
 11
86.6570072928
 21
151.1633197153
 31
0.0
 11
86.8731072196
 21
151.4379105846
 31
0.0
 11
87.2411344705
 21
151.7802758841
 31
0.0
 11
87.7217329162
 21
152.1538037243
 31
0.0
 11
88.2635082795
 21
152.5185497535
 31
0.0
 11
88.8085241407
 21
152.8355087298
 31
0.0
  0
SPLINE
  5
341
100
AcDbEntity
  8
GIANNI_ASSI
100
AcDbSpline
 62
8
  6
HIDDEN
 70
0
 71
3
 72
19
 73
15
 74
13
 42
0.0000001
 43
0.0000001
 44
0.0000000001
 12
-2.4117169792
 22
3.2579797305
 32
0.0
 13
-3.0061572249
 23
3.6785412619
 33
0.0
 40
0.0
 40
0.0
 40
0.0
 40
0.0
 40
0.058526726
 40
0.1465646816
 40
0.2482734791
 40
0.3522857156
 40
0.4519438586
 40
0.5554670899
 40
0.6639569066
 40
0.7686057871
 40
0.8623283866
 40
0.9388268665
 40
0.9920182817
 40
1.0
 40
1.0
 40
1.0
 40
1.0
 10
85.9133545399
 20
152.0485464512
 30
0.0
 10
85.8663045736
 20
152.1121060802
 30
0.0
 10
85.8198089777
 20
152.3076895446
 30
0.0
 10
85.7777512956
 20
152.6310814721
 30
0.0
 10
85.7342661984
 20
153.0198019137
 30
0.0
 10
85.6166791068
 20
153.4114648498
 30
0.0
 10
85.40158777
 20
153.7619827062
 30
0.0
 10
85.1239094857
 20
154.0700306906
 30
0.0
 10
84.8142589286
 20
154.3536825572
 30
0.0
 10
84.5012914992
 20
154.616490865
 30
0.0
 10
84.2249461335
 20
154.8468597207
 30
0.0
 10
83.9891713331
 20
155.0476433159
 30
0.0
 10
83.8818569142
 20
155.1639748101
 30
0.0
 10
83.8133318521
 20
155.2383300764
 30
0.0
 10
83.805333752
 20
155.2481171031
 30
0.0
 11
85.9133545399
 21
152.0485464512
 31
0.0
 11
85.8326260783
 21
152.2675629763
 31
0.0
 11
85.7809400878
 21
152.6141198706
 31
0.0
 11
85.7226884824
 21
153.0147064127
 31
0.0
 11
85.5982635605
 21
153.409532252
 31
0.0
 11
85.3949698629
 21
153.7501104377
 31
0.0
 11
85.1239404029
 21
154.0604400509
 31
0.0
 11
84.808181475
 21
154.3549519694
 31
0.0
 11
84.4909500062
 21
154.6248361485
 31
0.0
 11
84.2050511455
 21
154.8644230004
 31
0.0
 11
83.9770212937
 21
155.0661656554
 31
0.0
 11
83.8308590084
 21
155.2193125438
 31
0.0
 11
83.805333752
 21
155.2481171031
 31
0.0
  0
SPLINE
  5
342
100
AcDbEntity
  8
GIANNI_ASSI
100
AcDbSpline
 62
8
  6
HIDDEN
 70
0
 71
3
 72
13
 73
9
 74
7
 42
0.0000001
 43
0.0000001
 44
0.0000000001
 12
-0.3039042721
 22
-0.3227817545
 32
0.0
 13
0.4433349384
 23
-0.0
 33
0.0
 40
0.0
 40
0.0
 40
0.0
 40
0.0
 40
0.2794700175
 40
0.5031958778
 40
0.6714745286
 40
0.7883313793
 40
0.8783619579
 40
1.0
 40
1.0
 40
1.0
 40
1.0
 10
107.4381335769
 20
152.2867513459
 30
0.0
 10
107.4098228662
 20
152.2566820718
 30
0.0
 10
107.3605278612
 20
152.2011039619
 30
0.0
 10
107.3012438872
 20
152.1206271695
 30
0.0
 10
107.2668323035
 20
152.0546438538
 30
0.0
 10
107.2523995269
 20
151.9973631756
 30
0.0
 10
107.2829064394
 20
151.9521344837
 30
0.0
 10
107.3173927102
 20
151.95
 30
0.0
 10
107.3353681749
 20
151.95
 30
0.0
 11
107.4381335769
 21
152.2867513459
 31
0.0
 11
107.3565685927
 21
152.1934878928
 31
0.0
 11
107.2989870588
 21
152.1127281969
 31
0.0
 11
107.2662503271
 21
152.0456906391
 31
0.0
 11
107.2600359271
 21
151.9942579845
 31
0.0
 11
107.2826544166
 21
151.9613717037
 31
0.0
 11
107.3353681749
 21
151.95
 31
0.0
  0
SPLINE
  5
343
100
AcDbEntity
  8
GIANNI_ASSI
100
AcDbSpline
 62
8
  6
HIDDEN
 70
0
 71
3
 72
16
 73
12
 74
10
 42
0.0000001
 43
0.0000001
 44
0.0000000001
 12
-0.2200314996
 22
-1.1124073918
 32
0.0
 13
1.133959464
 23
0.0
 33
0.0
 40
0.0
 40
0.0
 40
0.0
 40
0.0
 40
0.1920604861
 40
0.3504326016
 40
0.4815474138
 40
0.5930546183
 40
0.6913876086
 40
0.7811309505
 40
0.8643931925
 40
0.9384811221
 40
1.0
 40
1.0
 40
1.0
 40
1.0
 10
88.8085241407
 20
152.8355087298
 30
0.0
 10
88.7944376884
 20
152.7642922284
 30
0.0
 10
88.7773615583
 20
152.6322212724
 30
0.0
 10
88.7877945942
 20
152.4492749923
 30
0.0
 10
88.8290944075
 20
152.3021163599
 30
0.0
 10
88.8910409434
 20
152.1879594676
 30
0.0
 10
88.9646777121
 20
152.1010214434
 30
0.0
 10
89.0442346007
 20
152.035545657
 30
0.0
 10
89.1253261583
 20
151.9883672614
 30
0.0
 10
89.2028717911
 20
151.9586504713
 30
0.0
 10
89.254073764
 20
151.95
 30
0.0
 10
89.2773270686
 20
151.95
 30
0.0
 11
88.8085241407
 21
152.8355087298
 31
0.0
 11
88.7831298173
 21
152.6192054883
 31
0.0
 11
88.7954315546
 21
152.4400397587
 31
0.0
 11
88.8366896088
 21
152.2972000479
 31
0.0
 11
88.8972333784
 21
152.186192384
 31
0.0
 11
88.9692261785
 21
152.1010422746
 31
0.0
 11
89.0477632858
 21
152.0363267318
 31
0.0
 11
89.1294877987
 21
151.989045801
 31
0.0
 11
89.2082671469
 21
151.9598576259
 31
0.0
 11
89.2773270686
 21
151.95
 31
0.0
  0
SPLINE
  5
344
100
AcDbEntity
  8
GIANNI_ASSI
100
AcDbSpline
 62
8
  6
HIDDEN
 70
0
 71
3
 72
18
 73
14
 74
12
 42
0.0000001
 43
0.0000001
 44
0.0000000001
 12
2.1399270318
 22
1.8244496678
 32
0.0
 13
1.5524198743
 23
2.3537359089
 33
0.0
 40
0.0
 40
0.0
 40
0.0
 40
0.0
 40
0.1047905442
 40
0.2146711384
 40
0.3274289499
 40
0.4446018393
 40
0.5701509387
 40
0.691542273
 40
0.7911161375
 40
0.8671896059
 40
0.9264185887
 40
0.9729866128
 40
1.0
 40
1.0
 40
1.0
 40
1.0
 10
116.5407639784
 20
152.8355087298
 30
0.0
 10
116.6155120178
 20
152.8992370877
 30
0.0
 10
116.7674038841
 20
153.0312618563
 30
0.0
 10
116.9909269478
 20
153.2418037372
 30
0.0
 10
117.20643717
 20
153.4769566235
 30
0.0
 10
117.3995092624
 20
153.7503747053
 30
0.0
 10
117.5375890957
 20
154.0656594085
 30
0.0
 10
117.6052238251
 20
154.3847302729
 30
0.0
 10
117.637471606
 20
154.6612528577
 30
0.0
 10
117.6628793292
 20
154.879967365
 30
0.0
 10
117.6925649106
 20
155.0480494099
 30
0.0
 10
117.7286328895
 20
155.1676596061
 30
0.0
 10
117.7598857742
 20
155.2297290891
 30
0.0
 10
117.7738644806
 20
155.2509232156
 30
0.0
 11
116.5407639784
 21
152.8355087298
 31
0.0
 11
116.7625289466
 21
153.0295640203
 31
0.0
 11
116.9863350172
 21
153.2426106408
 31
0.0
 11
117.1986010113
 21
153.4781670152
 31
0.0
 11
117.3856884359
 21
153.74940447
 31
0.0
 11
117.527418509
 21
154.0727642257
 31
0.0
 11
117.6037056095
 21
154.4054953749
 31
0.0
 11
117.640000931
 21
154.6831447235
 31
0.0
 11
117.6670560357
 21
154.8953531782
 31
0.0
 11
117.6982242461
 21
155.0589687137
 31
0.0
 11
117.7384574638
 21
155.1835890097
 31
0.0
 11
117.7738644806
 21
155.2509232156
 31
0.0
  0
SPLINE
  5
345
100
AcDbEntity
  8
GIANNI_ASSI
100
AcDbSpline
 62
8
  6
HIDDEN
 70
0
 71
3
 72
12
 73
8
 74
6
 42
0.0000001
 43
0.0000001
 44
0.0000000001
 12
0.8701645065
 22
0.0
 32
0.0
 13
0.7663877984
 23
0.4121116485
 33
0.0
 40
0.0
 40
0.0
 40
0.0
 40
0.0
 40
0.1209649537
 40
0.290880432
 40
0.5013599184
 40
0.7396804806
 40
1.0
 40
1.0
 40
1.0
 40
1.0
 10
107.3353681749
 20
151.95
 30
0.0
 10
107.3704546446
 20
151.95
 30
0.0
 10
107.4540734723
 20
151.9683665064
 30
0.0
 10
107.5905486618
 20
152.0179067663
 30
0.0
 10
107.7544548693
 20
152.0916051399
 30
0.0
 10
107.9385027929
 20
152.1833675468
 30
0.0
 10
108.0663799491
 20
152.2509911105
 30
0.0
 10
108.1328818502
 20
152.2867513459
 30
0.0
 11
107.3353681749
 21
151.95
 31
0.0
 11
107.4392342174
 21
151.9670701038
 31
0.0
 11
107.5789529547
 21
152.0154395515
 31
0.0
 11
107.7465493666
 21
152.0893044053
 31
0.0
 11
107.9324408491
 21
152.1812284543
 31
0.0
 11
108.1328818502
 21
152.2867513459
 31
0.0
  0
SPLINE
  5
346
100
AcDbEntity
  8
GIANNI_ASSI
100
AcDbSpline
 62
8
  6
HIDDEN
 70
0
 71
3
 72
12
 73
8
 74
6
 42
0.0000001
 43
0.0000001
 44
0.0000000001
 12
0.1978070924
 22
0.0
 32
0.0
 13
0.0946895892
 23
0.1737672699
 33
0.0
 40
0.0
 40
0.0
 40
0.0
 40
0.0
 40
0.2057381416
 40
0.3923979677
 40
0.5806095407
 40
0.7941324085
 40
1.0
 40
1.0
 40
1.0
 40
1.0
 10
89.2773270686
 20
151.95
 30
0.0
 10
89.2908925565
 20
151.95
 30
0.0
 10
89.3169653017
 20
151.9526303063
 30
0.0
 10
89.3528913088
 20
151.9674804195
 30
0.0
 10
89.3830017685
 20
151.9927039301
 30
0.0
 10
89.4072374454
 20
152.0248533912
 30
0.0
 10
89.4211948348
 20
152.0487514367
 30
0.0
 10
89.427692674
 20
152.0606757865
 30
0.0
 11
89.2773270686
 21
151.95
 31
0.0
 11
89.3177401702
 21
151.9547940973
 31
0.0
 11
89.3518005718
 21
151.9690478758
 31
0.0
 11
89.3807112809
 21
151.9925044916
 31
0.0
 11
89.4068245202
 21
152.0257009816
 31
0.0
 11
89.427692674
 21
152.0606757865
 31
0.0
  0
SPLINE
  5
347
100
AcDbEntity
  8
GIANNI_ASSI
100
AcDbSpline
 62
8
  6
HIDDEN
 70
0
 71
3
 72
12
 73
8
 74
6
 42
0.0000001
 43
0.0000001
 44
0.0000000001
 12
1.9141746134
 22
0.0
 32
0.0
 13
-0.000380589
 23
1.9153118195
 33
0.0
 40
0.0
 40
0.0
 40
0.0
 40
0.0
 40
0.1049632043
 40
0.2607535058
 40
0.4715001899
 40
0.7241859502
 40
1.0
 40
1.0
 40
1.0
 40
1.0
 10
78.2831455492
 20
151.95
 30
0.0
 10
78.3501181829
 20
151.95
 30
0.0
 10
78.5089553712
 20
152.0417634585
 30
0.0
 10
78.6680347987
 20
152.2997545004
 30
0.0
 10
78.8059720415
 20
152.6724392494
 30
0.0
 10
78.8949505711
 20
153.137310576
 30
0.0
 10
78.9159073725
 20
153.4747322858
 30
0.0
 10
78.9158723819
 20
153.6508222556
 30
0.0
 11
78.2831455492
 21
151.95
 31
0.0
 11
78.4665120149
 21
152.0321263795
 31
0.0
 11
78.6419026414
 21
152.2733052277
 31
0.0
 11
78.7868164896
 21
152.6497840973
 31
0.0
 11
78.8824158232
 21
153.1239271401
 31
0.0
 11
78.9158723819
 21
153.6508222556
 31
0.0
  0
SPLINE
  5
348
100
AcDbEntity
  8
GIANNI_ASSI
100
AcDbSpline
 62
8
  6
HIDDEN
 70
0
 71
3
 72
12
 73
8
 74
6
 42
0.0000001
 43
0.0000001
 44
0.0000000001
 12
-0.0003802637
 22
1.9136747162
 32
0.0
 13
-1.9125384821
 23
0.0
 33
0.0
 40
0.0
 40
0.0
 40
0.0
 40
0.0
 40
0.2751593439
 40
0.5287796531
 40
0.7391225144
 40
0.895003782
 40
1.0
 40
1.0
 40
1.0
 40
1.0
 10
78.9158723819
 20
153.6508222556
 30
0.0
 10
78.9158375041
 20
153.8263440821
 30
0.0
 10
78.8948212878
 20
154.1636404616
 30
0.0
 10
78.8058678937
 20
154.6280444452
 30
0.0
 10
78.6677681646
 20
155.0007152653
 30
0.0
 10
78.5088713622
 20
155.2583161741
 30
0.0
 10
78.350081985
 20
155.35
 30
0.0
 10
78.2831455492
 20
155.35
 30
0.0
 11
78.9158723819
 21
153.6508222556
 31
0.0
 11
78.882423861
 21
154.1760110233
 31
0.0
 11
78.7864562761
 21
154.6514813896
 31
0.0
 11
78.6418127695
 21
155.0268672551
 31
0.0
 11
78.4664270648
 21
155.2679496254
 31
0.0
 11
78.2831455492
 21
155.35
 31
0.0
  0
SPLINE
  5
349
100
AcDbEntity
  8
GIANNI_ASSI
100
AcDbSpline
 62
8
  6
HIDDEN
 70
0
 71
3
 72
12
 73
8
 74
6
 42
0.0000001
 43
0.0000001
 44
0.0000000001
 12
-1.9125384821
 22
0.0
 32
0.0
 13
-0.0003802637
 23
1.9136747162
 33
0.0
 40
0.0
 40
0.0
 40
0.0
 40
0.0
 40
0.104996218
 40
0.2608774856
 40
0.4712203469
 40
0.7248406561
 40
1.0
 40
1.0
 40
1.0
 40
1.0
 10
128.0868544508
 20
151.95
 30
0.0
 10
128.019918015
 20
151.95
 30
0.0
 10
127.8611286378
 20
152.0416838259
 30
0.0
 10
127.7022318354
 20
152.2992847347
 30
0.0
 10
127.5641321063
 20
152.6719555548
 30
0.0
 10
127.4751787122
 20
153.1363595384
 30
0.0
 10
127.4541624959
 20
153.4736559179
 30
0.0
 10
127.4541276181
 20
153.6491777444
 30
0.0
 11
128.0868544508
 21
151.95
 31
0.0
 11
127.9035729352
 21
152.0320503746
 31
0.0
 11
127.7281872305
 21
152.2731327449
 31
0.0
 11
127.5835437239
 21
152.6485186104
 31
0.0
 11
127.487576139
 21
153.1239889767
 31
0.0
 11
127.4541276181
 21
153.6491777444
 31
0.0
  0
SPLINE
  5
34A
100
AcDbEntity
  8
GIANNI_ASSI
100
AcDbSpline
 62
8
  6
HIDDEN
 70
0
 71
3
 72
12
 73
8
 74
6
 42
0.0000001
 43
0.0000001
 44
0.0000000001
 12
-0.000380589
 22
1.9153118195
 32
0.0
 13
1.9141746134
 23
0.0
 33
0.0
 40
0.0
 40
0.0
 40
0.0
 40
0.0
 40
0.2758140498
 40
0.5284998101
 40
0.7392464942
 40
0.8950367957
 40
1.0
 40
1.0
 40
1.0
 40
1.0
 10
127.4541276181
 20
153.6491777444
 30
0.0
 10
127.4540926275
 20
153.8252677142
 30
0.0
 10
127.4750494289
 20
154.162689424
 30
0.0
 10
127.5640279585
 20
154.6275607506
 30
0.0
 10
127.7019652013
 20
155.0002454996
 30
0.0
 10
127.8610446288
 20
155.2582365415
 30
0.0
 10
128.0198818171
 20
155.35
 30
0.0
 10
128.0868544508
 20
155.35
 30
0.0
 11
127.4541276181
 21
153.6491777444
 31
0.0
 11
127.4875841768
 21
154.1760728599
 31
0.0
 11
127.5831835104
 21
154.6502159027
 31
0.0
 11
127.7280973586
 21
155.0266947723
 31
0.0
 11
127.9034879851
 21
155.2678736205
 31
0.0
 11
128.0868544508
 21
155.35
 31
0.0
  0
SPLINE
  5
34B
100
AcDbEntity
  8
GIANNI_ASSI
100
AcDbSpline
 62
8
  6
HIDDEN
 70
0
 71
3
 72
10
 73
6
 74
4
 42
0.0000001
 43
0.0000001
 44
0.0000000001
 12
0.0837881631
 22
0.1163944892
 32
0.0
 13
-0.1445997055
 23
0.0
 33
0.0
 40
0.0
 40
0.0
 40
0.0
 40
0.0
 40
0.3213208918
 40
0.61833946
 40
1.0
 40
1.0
 40
1.0
 40
1.0
 10
122.5628071916
 20
155.2495372646
 30
0.0
 10
122.5717814874
 20
155.2620039249
 30
0.0
 10
122.5864803899
 20
155.2879432137
 30
0.0
 10
122.5895586494
 20
155.3464373181
 30
0.0
 10
122.5459573203
 20
155.35
 30
0.0
 10
122.5275613197
 20
155.35
 30
0.0
 11
122.5628071916
 21
155.2495372646
 31
0.0
 11
122.583602832
 21
155.2917251568
 31
0.0
 11
122.5805469731
 21
155.3345651023
 31
0.0
 11
122.5275613197
 21
155.35
 31
0.0
  0
SPLINE
  5
34C
100
AcDbEntity
  8
GIANNI_ASSI
100
AcDbSpline
 62
8
  6
HIDDEN
 70
0
 71
3
 72
10
 73
6
 74
4
 42
0.0000001
 43
0.0000001
 44
0.0000000001
 12
0.1102765276
 22
0.1671982091
 32
0.0
 13
0.1997581883
 23
-0.0
 33
0.0
 40
0.0
 40
0.0
 40
0.0
 40
0.0
 40
0.1457625492
 40
0.5849971258
 40
1.0
 40
1.0
 40
1.0
 40
1.0
 10
117.7738644806
 20
155.2509232156
 30
0.0
 10
117.7792225432
 20
155.2590469613
 30
0.0
 10
117.8022034589
 20
155.2907111658
 30
0.0
 10
117.853149871
 20
155.3368017748
 30
0.0
 10
117.9113164215
 20
155.35
 30
0.0
 10
117.9389498289
 20
155.35
 30
0.0
 11
117.7738644806
 21
155.2509232156
 31
0.0
 11
117.7910983379
 21
155.2745344921
 31
0.0
 11
117.8582566207
 21
155.3309986052
 31
0.0
 11
117.9389498289
 21
155.35
 31
0.0
  0
SPLINE
  5
34D
100
AcDbEntity
  8
GIANNI_ASSI
100
AcDbSpline
 62
8
  6
HIDDEN
 70
0
 71
3
 72
9
 73
5
 74
3
 42
0.0000001
 43
0.0000001
 44
0.0000000001
 12
-0.11012439
 22
0.134755797
 32
0.0
 13
0.1457986582
 23
0.0
 33
0.0
 40
0.0
 40
0.0
 40
0.0
 40
0.0
 40
0.5265982175
 40
1.0
 40
1.0
 40
1.0
 40
1.0
 10
83.805333752
 20
155.2481171031
 30
0.0
 10
83.7860033162
 20
155.2717711573
 30
0.0
 10
83.7597540978
 20
155.3176363531
 30
0.0
 10
83.8194315654
 20
155.35
 30
0.0
 10
83.8424386803
 20
155.35
 30
0.0
 11
83.805333752
 21
155.2481171031
 31
0.0
 11
83.7821856913
 21
155.3163321618
 31
0.0
 11
83.8424386803
 21
155.35
 31
0.0
  0
SPLINE
  5
34E
100
AcDbEntity
  8
GIANNI_ASSI
100
AcDbSpline
 62
8
  6
HIDDEN
 70
0
 71
3
 72
9
 73
5
 74
3
 42
0.0000001
 43
0.0000001
 44
0.0000000001
 12
-0.1145115193
 22
0.1604741355
 32
0.0
 13
-0.1957633814
 23
0.0
 33
0.0
 40
0.0
 40
0.0
 40
0.0
 40
0.0
 40
0.1816558308
 40
1.0
 40
1.0
 40
1.0
 40
1.0
 10
88.5977311441
 20
155.2515085688
 30
0.0
 10
88.590797249
 20
155.2612255896
 30
0.0
 10
88.5490284989
 20
155.3125902461
 30
0.0
 10
88.4844507783
 20
155.35
 30
0.0
 10
88.4310501711
 20
155.35
 30
0.0
 11
88.5977311441
 21
155.2515085688
 31
0.0
 11
88.5748695054
 21
155.2794264727
 31
0.0
 11
88.4310501711
 21
155.35
 31
0.0
  0
SPLINE
  5
34F
100
AcDbEntity
  8
GIANNI_ASSI
100
AcDbSpline
 62
8
  6
HIDDEN
 70
0
 71
3
 72
18
 73
14
 74
12
 42
0.0000001
 43
0.0000001
 44
0.0000000001
 12
0.6156616782
 22
3.1186955657
 32
0.0
 13
-3.1788836615
 23
0.0
 33
0.0
 40
0.0
 40
0.0
 40
0.0
 40
0.0
 40
0.0686219988
 40
0.146263669
 40
0.2322992027
 40
0.3377281719
 40
0.4584987424
 40
0.5813857123
 40
0.6966122398
 40
0.7988120128
 40
0.8841696366
 40
0.9490215976
 40
1.0
 40
1.0
 40
1.0
 40
1.0
 10
108.1328818502
 20
152.2867513459
 30
0.0
 10
108.1469644952
 20
152.3580883871
 30
0.0
 10
108.165722279
 20
152.5122879526
 30
0.0
 10
108.178832393
 20
152.7581101285
 30
0.0
 10
108.1841288007
 20
153.0432564417
 30
0.0
 10
108.1850706709
 20
153.3741087628
 30
0.0
 10
108.1849454136
 20
153.7439904183
 30
0.0
 10
108.185032019
 20
154.1243570277
 30
0.0
 10
108.1810684568
 20
154.4846762172
 30
0.0
 10
108.1667735475
 20
154.8061976207
 30
0.0
 10
108.1269158294
 20
155.069264089
 30
0.0
 10
108.0590685055
 20
155.2787965776
 30
0.0
 10
107.9374812407
 20
155.35
 30
0.0
 10
107.8834631039
 20
155.35
 30
0.0
 11
108.1328818502
 21
152.2867513459
 31
0.0
 11
108.162253605
 21
152.5029062648
 31
0.0
 11
108.1770049937
 21
152.7492788823
 31
0.0
 11
108.1831028344
 21
153.0227078481
 31
0.0
 11
108.18485853
 21
153.3578496767
 31
0.0
 11
108.1849820974
 21
153.7417652504
 31
0.0
 11
108.1842799204
 21
154.1324080001
 31
0.0
 11
108.1787449708
 21
154.4986579048
 31
0.0
 11
108.1598138259
 21
154.8229870559
 31
0.0
 11
108.1149796584
 21
155.0905993769
 31
0.0
 11
108.0285203215
 21
155.2777501865
 31
0.0
 11
107.8834631039
 21
155.35
 31
0.0
  0
SPLINE
  5
350
100
AcDbEntity
  8
GIANNI_ASSI
100
AcDbSpline
 62
8
  6
HIDDEN
 70
0
 71
3
 72
17
 73
13
 74
11
 42
0.0000001
 43
0.0000001
 44
0.0000000001
 12
-0.6156049918
 22
3.1184084149
 32
0.0
 13
3.178590969
 23
0.0
 33
0.0
 40
0.0
 40
0.0
 40
0.0
 40
0.0
 40
0.0922181151
 40
0.1939404326
 40
0.3138222117
 40
0.4458418513
 40
0.5759478785
 40
0.6948434062
 40
0.797804518
 40
0.8829064045
 40
0.9481712316
 40
1.0
 40
1.0
 40
1.0
 40
1.0
 10
98.2371181498
 20
152.2867513459
 30
0.0
 10
98.2181948391
 20
152.3826092614
 30
0.0
 10
98.1977293519
 20
152.5877588938
 30
0.0
 10
98.1867680024
 20
152.9199876425
 30
0.0
 10
98.1848908619
 20
153.2947332948
 30
0.0
 10
98.1850842811
 20
153.6994375945
 30
0.0
 10
98.184865451
 20
154.1032339874
 30
0.0
 10
98.1886676236
 20
154.4758600507
 30
0.0
 10
98.2027956348
 20
154.8017703093
 30
0.0
 10
98.2425072118
 20
155.0658993817
 30
0.0
 10
98.3091131559
 20
155.2765591725
 30
0.0
 10
98.4316227444
 20
155.35
 30
0.0
 10
98.4865368961
 20
155.35
 30
0.0
 11
98.2371181498
 21
152.2867513459
 31
0.0
 11
98.2018278778
 21
152.5777428946
 31
0.0
 11
98.1887853527
 21
152.9008133746
 31
0.0
 11
98.1852870328
 21
153.2818524564
 31
0.0
 11
98.1850133959
 21
153.7014888013
 31
0.0
 11
98.1856324483
 21
154.115042181
 31
0.0
 11
98.191084082
 21
154.4929231088
 31
0.0
 11
98.2098596151
 21
154.8196553492
 31
0.0
 11
98.253932647
 21
155.0865448946
 31
0.0
 11
98.3396155641
 21
155.275473503
 31
0.0
 11
98.4865368961
 21
155.35
 31
0.0
  0
SPLINE
  5
351
100
AcDbEntity
  8
GIANNI_ASSI
100
AcDbSpline
 62
8
  6
HIDDEN
 70
0
 71
3
 72
10
 73
6
 74
4
 42
0.0000001
 43
0.0000001
 44
0.0000000001
 12
-0.2269148532
 22
0.0
 32
0.0
 13
-0.2116649325
 23
0.08154504
 33
0.0
 40
0.0
 40
0.0
 40
0.0
 40
0.0
 40
0.3977912013
 40
0.9257799152
 40
1.0
 40
1.0
 40
1.0
 40
1.0
 10
99.0346318251
 20
151.95
 30
0.0
 10
99.0045435811
 20
151.95
 30
0.0
 10
98.9349575611
 20
151.9635493344
 30
0.0
 10
98.8633136668
 20
151.9876114921
 30
0.0
 10
98.8207554646
 20
152.0037857655
 30
0.0
 10
98.8155188682
 20
152.0058031921
 30
0.0
 11
99.0346318251
 21
151.95
 31
0.0
 11
98.945345624
 21
151.9632550422
 31
0.0
 11
98.8312546645
 21
151.9998244994
 31
0.0
 11
98.8155188682
 21
152.0058031921
 31
0.0
  0
SPLINE
  5
352
100
AcDbEntity
  8
GIANNI_ASSI
100
AcDbSpline
 62
8
  6
HIDDEN
 70
0
 71
3
 72
9
 73
5
 74
3
 42
0.0000001
 43
0.0000001
 44
0.0000000001
 12
-0.2681807265
 22
0.10331805
 32
0.0
 13
-0.2581153936
 23
0.1266003635
 33
0.0
 40
0.0
 40
0.0
 40
0.0
 40
0.0
 40
0.4420218258
 40
1.0
 40
1.0
 40
1.0
 40
1.0
 10
98.8155188682
 20
152.0058031921
 30
0.0
 10
98.7760049567
 20
152.0210261365
 30
0.0
 10
98.6877127403
 20
152.0585576486
 30
0.0
 10
98.6011274591
 20
152.0996285364
 30
0.0
 10
98.5531198737
 20
152.1231752829
 30
0.0
 11
98.8155188682
 21
152.0058031921
 31
0.0
 11
98.6982842899
 21
152.0548971664
 31
0.0
 11
98.5531198737
 21
152.1231752829
 31
0.0
  0
SPLINE
  5
353
100
AcDbEntity
  8
GIANNI_ASSI
100
AcDbSpline
 62
8
  6
HIDDEN
 70
0
 71
3
 72
9
 73
5
 74
3
 42
0.0000001
 43
0.0000001
 44
0.0000000001
 12
-0.3194712096
 22
0.1566941463
 32
0.0
 13
-0.3134054989
 23
0.1685283313
 33
0.0
 40
0.0
 40
0.0
 40
0.0
 40
0.0
 40
0.4877468054
 40
1.0
 40
1.0
 40
1.0
 40
1.0
 10
98.5531198737
 20
152.1231752829
 30
0.0
 10
98.5011795197
 20
152.1486509727
 30
0.0
 10
98.3954213585
 20
152.2023945107
 30
0.0
 10
98.2906324724
 20
152.2579749539
 30
0.0
 10
98.2371181498
 20
152.2867513459
 30
0.0
 11
98.5531198737
 21
152.1231752829
 31
0.0
 11
98.3982436968
 21
152.2015144448
 31
0.0
 11
98.2371181498
 21
152.2867513459
 31
0.0
  0
SPLINE
  5
354
100
AcDbEntity
  8
GIANNI_ASSI
100
AcDbSpline
 62
8
  6
HIDDEN
 70
0
 71
3
 72
12
 73
8
 74
6
 42
0.0000001
 43
0.0000001
 44
0.0000000001
 12
-0.197703506
 22
0.0
 32
0.0
 13
-0.0946696769
 23
0.1736645743
 33
0.0
 40
0.0
 40
0.0
 40
0.0
 40
0.0
 40
0.2047573822
 40
0.3904298429
 40
0.5771376105
 40
0.7883806681
 40
1.0
 40
1.0
 40
1.0
 40
1.0
 10
117.0926729314
 20
151.95
 30
0.0
 10
117.0791791806
 20
151.95
 30
0.0
 10
117.0532540299
 20
151.9526020492
 30
0.0
 10
117.0175292109
 20
151.9672558236
 30
0.0
 10
116.9875678904
 20
151.9921237583
 30
0.0
 10
116.9631238017
 20
152.0242557837
 30
0.0
 10
116.9490384734
 20
152.0483305217
 30
0.0
 10
116.9423604955
 20
152.0605807821
 30
0.0
 11
117.0926729314
 21
151.95
 31
0.0
 11
117.0524701529
 21
151.9547400837
 31
0.0
 11
117.0185712228
 21
151.9688236516
 31
0.0
 11
116.9898117247
 21
151.9919633279
 31
0.0
 11
116.9638555332
 21
152.0246812966
 31
0.0
 11
116.9423604955
 21
152.0605807821
 31
0.0
  0
SPLINE
  5
355
100
AcDbEntity
  8
GIANNI_ASSI
100
AcDbSpline
 62
8
  6
HIDDEN
 70
0
 71
3
 72
9
 73
5
 74
3
 42
0.0000001
 43
0.0000001
 44
0.0000000001
 12
-0.1942769914
 22
0.0
 32
0.0
 13
-0.1177242706
 23
0.1590332907
 33
0.0
 40
0.0
 40
0.0
 40
0.0
 40
0.0
 40
0.8896119648
 40
1.0
 40
1.0
 40
1.0
 40
1.0
 10
86.079570193
 20
151.95
 30
0.0
 10
86.0219598143
 20
151.95
 30
0.0
 10
85.9591149111
 20
151.9908001711
 30
0.0
 10
85.9176863235
 20
152.0426946604
 30
0.0
 10
85.9133545399
 20
152.0485464512
 30
0.0
 11
86.079570193
 21
151.95
 31
0.0
 11
85.9270937332
 21
152.031372789
 31
0.0
 11
85.9133545399
 21
152.0485464512
 31
0.0
  0
SPLINE
  5
356
100
AcDbEntity
  8
GIANNI_ASSI
100
AcDbSpline
 62
8
  6
HIDDEN
 70
0
 71
3
 72
14
 73
10
 74
8
 42
0.0000001
 43
0.0000001
 44
0.0000000001
 12
1.8255963678
 22
2.0552350788
 32
0.0
 13
-2.5963758085
 23
1.3853399377
 33
0.0
 40
0.0
 40
0.0
 40
0.0
 40
0.0
 40
0.0055536882
 40
0.0674466558
 40
0.1861845402
 40
0.3569890181
 40
0.5638247466
 40
0.7857582393
 40
1.0
 40
1.0
 40
1.0
 40
1.0
 10
119.7452516347
 20
150.9738666745
 30
0.0
 10
119.7486312324
 20
150.9776713862
 30
0.0
 10
119.7845625742
 20
151.0262841384
 30
0.0
 10
119.683215578
 20
151.2379871476
 30
0.0
 10
119.4726008264
 20
151.4713584893
 30
0.0
 10
119.1046660923
 20
151.8124682658
 30
0.0
 10
118.6407714352
 20
152.1668150174
 30
0.0
 10
118.1162947969
 20
152.5204843657
 30
0.0
 10
117.7468932342
 20
152.736576174
 30
0.0
 10
117.5614758593
 20
152.8355087298
 30
0.0
 11
119.7452516347
 21
150.9738666745
 31
0.0
 11
119.7540559976
 21
150.9858674977
 31
0.0
 11
119.7129927072
 21
151.1633197153
 31
0.0
 11
119.4968927804
 21
151.4379105846
 31
0.0
 11
119.1288655295
 21
151.7802758841
 31
0.0
 11
118.6482670838
 21
152.1538037243
 31
0.0
 11
118.1064917205
 21
152.5185497535
 31
0.0
 11
117.5614758593
 21
152.8355087298
 31
0.0
  0
SPLINE
  5
357
100
AcDbEntity
  8
GIANNI_ASSI
100
AcDbSpline
 62
8
  6
HIDDEN
 70
0
 71
3
 72
22
 73
18
 74
16
 42
0.0000001
 43
0.0000001
 44
0.0000000001
 12
2.4275229529
 22
3.2651356072
 32
0.0
 13
2.3102848322
 23
3.2093366523
 33
0.0
 40
0.0
 40
0.0
 40
0.0
 40
0.0
 40
0.0598990228
 40
0.149170493
 40
0.2508688865
 40
0.3554913406
 40
0.4553919519
 40
0.5488283206
 40
0.6346688274
 40
0.7128622172
 40
0.782325931
 40
0.8425903986
 40
0.8934255149
 40
0.934675975
 40
0.9676437906
 40
0.9932791376
 40
1.0
 40
1.0
 40
1.0
 40
1.0
 10
120.4565522099
 20
152.0485615413
 30
0.0
 10
120.5050209608
 20
152.113754352
 30
0.0
 10
120.5511266647
 20
152.3133961728
 30
0.0
 10
120.5931205614
 20
152.640804498
 30
0.0
 10
120.637911776
 20
153.0325880106
 30
0.0
 10
120.7593304277
 20
153.4251846455
 30
0.0
 10
120.9715111387
 20
153.763757869
 30
0.0
 10
121.2195548652
 20
154.0407071742
 30
0.0
 10
121.4688738816
 20
154.2753527206
 30
0.0
 10
121.7036095829
 20
154.478376675
 30
0.0
 10
121.9157140635
 20
154.6554965038
 30
0.0
 10
122.1000957804
 20
154.809081499
 30
0.0
 10
122.2543731719
 20
154.9402303986
 30
0.0
 10
122.3780581076
 20
155.0512787165
 30
0.0
 10
122.474179573
 20
155.1428029536
 30
0.0
 10
122.530574823
 20
155.2093551051
 30
0.0
 10
122.5576314894
 20
155.2423474279
 30
0.0
 10
122.5628071916
 20
155.2495372646
 30
0.0
 11
120.4565522099
 21
152.0485615413
 31
0.0
 11
120.5386403187
 21
152.2732859379
 31
0.0
 11
120.5903783721
 21
152.6254341754
 31
0.0
 11
120.6497489639
 21
153.0265392956
 31
0.0
 11
120.7780936047
 21
153.4234373803
 31
0.0
 11
120.9852185772
 21
153.763655042
 31
0.0
 11
121.23019266
 21
154.0443140397
 31
0.0
 11
121.4779392459
 21
154.2804415407
 31
0.0
 11
121.7129990233
 21
154.4852369512
 31
0.0
 11
121.9251366708
 21
154.6632856986
 31
0.0
 11
122.1094467899
 21
154.8174370996
 31
0.0
 11
122.2634169668
 21
154.9492436653
 31
0.0
 11
122.3856440796
 21
155.0592889443
 31
0.0
 11
122.4793961747
 21
155.1514195239
 31
0.0
 11
122.5463535146
 21
155.2286426421
 31
0.0
 11
122.5628071916
 21
155.2495372646
 31
0.0
  0
SPLINE
  5
358
100
AcDbEntity
  8
GIANNI_ASSI
100
AcDbSpline
 62
8
  6
HIDDEN
 70
0
 71
3
 72
13
 73
9
 74
7
 42
0.0000001
 43
0.0000001
 44
0.0000000001
 12
2.613365472
 22
0.2065851015
 32
0.0
 13
2.0788100698
 23
1.606821189
 33
0.0
 40
0.0
 40
0.0
 40
0.0
 40
0.0
 40
0.0997173456
 40
0.2786025117
 40
0.5027194062
 40
0.7495800898
 40
0.9938664804
 40
1.0
 40
1.0
 40
1.0
 40
1.0
 10
86.8013239285
 20
150.926425753
 30
0.0
 10
86.8881898845
 20
150.933292459
 30
0.0
 10
87.1271109636
 20
151.0021493052
 30
0.0
 10
87.5312619579
 20
151.1726615507
 30
0.0
 10
88.0343201757
 20
151.442186274
 30
0.0
 10
88.5660673099
 20
151.7734233156
 30
0.0
 10
88.9211594615
 20
152.0263987705
 30
0.0
 10
89.0948132271
 20
152.1603620938
 30
0.0
 10
89.0990633679
 20
152.1636472502
 30
0.0
 11
86.8013239285
 21
150.926425753
 31
0.0
 11
87.057304577
 21
150.9858674977
 31
0.0
 11
87.4925301876
 21
151.1633197153
 31
0.0
 11
88.0134432164
 21
151.4379105846
 31
0.0
 11
88.564338222
 21
151.7802758841
 31
0.0
 11
89.0863035476
 21
152.1538037243
 31
0.0
 11
89.0990633679
 21
152.1636472502
 31
0.0
  0
SPLINE
  5
359
100
AcDbEntity
  8
GIANNI_ASSI
100
AcDbSpline
 62
8
  6
HIDDEN
 70
0
 71
3
 72
9
 73
5
 74
3
 42
0.0000001
 43
0.0000001
 44
0.0000000001
 12
0.6266899568
 22
0.5087877293
 32
0.0
 13
0.5080609818
 23
0.6273436546
 33
0.0
 40
0.0
 40
0.0
 40
0.0
 40
0.0
 40
0.4544969628
 40
1.0
 40
1.0
 40
1.0
 40
1.0
 10
89.2451693101
 20
152.2793175194
 30
0.0
 10
89.340112204
 20
152.3563983453
 30
0.0
 10
89.5447172633
 20
152.5313401807
 30
0.0
 10
89.7368530854
 20
152.7214361068
 30
0.0
 10
89.8292360216
 20
152.8355087298
 30
0.0
 11
89.2451693101
 21
152.2793175194
 31
0.0
 11
89.523521221
 21
152.5185497535
 31
0.0
 11
89.8292360216
 21
152.8355087298
 31
0.0
  0
SPLINE
  5
35A
100
AcDbEntity
  8
GIANNI_ASSI
100
AcDbSpline
 62
8
  6
HIDDEN
 70
0
 71
3
 72
14
 73
10
 74
8
 42
0.0000001
 43
0.0000001
 44
0.0000000001
 12
0.4179103827
 22
0.7669179566
 32
0.0
 13
0.432992202
 23
0.7580743641
 33
0.0
 40
0.0
 40
0.0
 40
0.0
 40
0.0
 40
0.0132185067
 40
0.0904840787
 40
0.191738553
 40
0.3250880698
 40
0.5012048619
 40
0.7263774236
 40
1.0
 40
1.0
 40
1.0
 40
1.0
 10
89.427692674
 20
152.0606757865
 30
0.0
 10
89.4295340577
 20
152.0640549565
 30
0.0
 10
89.4419444935
 20
152.0872925805
 30
0.0
 10
89.4661341052
 20
152.1375837966
 30
0.0
 10
89.5040925693
 20
152.2200178892
 30
0.0
 10
89.5553009106
 20
152.3280224564
 30
0.0
 10
89.6253742628
 20
152.4669529237
 30
0.0
 10
89.7184014248
 20
152.6399490338
 30
0.0
 10
89.7897438743
 20
152.766366643
 30
0.0
 10
89.8292360216
 20
152.8355087298
 30
0.0
 11
89.427692674
 21
152.0606757865
 31
0.0
 11
89.4331388181
 21
152.0708549396
 31
0.0
 11
89.4629589759
 21
152.1313596785
 31
0.0
 11
89.5003158403
 21
152.2114750687
 31
0.0
 11
89.5503357493
 21
152.3165978123
 31
0.0
 11
89.6194679091
 21
152.4539321658
 31
0.0
 11
89.7122511954
 21
152.6272375813
 31
0.0
 11
89.8292360216
 21
152.8355087298
 31
0.0
  0
SPLINE
  5
35B
100
AcDbEntity
  8
GIANNI_ASSI
100
AcDbSpline
 62
8
  6
HIDDEN
 70
0
 71
3
 72
12
 73
8
 74
6
 42
0.0000001
 43
0.0000001
 44
0.0000000001
 12
1.8742068771
 22
0.0
 32
0.0
 13
0.0002658987
 23
-1.8743942519
 33
0.0
 40
0.0
 40
0.0
 40
0.0
 40
0.0
 40
0.1024635961
 40
0.2538969879
 40
0.4630580892
 40
0.719497587
 40
1.0
 40
1.0
 40
1.0
 40
1.0
 10
128.0868544508
 20
155.35
 30
0.0
 10
128.1508671096
 20
155.35
 30
0.0
 10
128.302893903
 20
155.2590618314
 30
0.0
 10
128.433566904
 20
154.996323857
 30
0.0
 10
128.5395510141
 20
154.6247665429
 30
0.0
 10
128.6023968391
 20
154.1615554505
 30
0.0
 10
128.6169711077
 20
153.8260796258
 30
0.0
 10
128.6169959694
 20
153.6508222556
 30
0.0
 11
128.0868544508
 21
155.35
 31
0.0
 11
128.2604814085
 21
155.2679496254
 31
0.0
 11
128.4102534568
 21
155.0268672551
 31
0.0
 11
128.5232057167
 21
154.6514813896
 31
0.0
 11
128.593378073
 21
154.1760110233
 31
0.0
 11
128.6169959694
 21
153.6508222556
 31
0.0
  0
SPLINE
  5
35C
100
AcDbEntity
  8
GIANNI_ASSI
100
AcDbSpline
 62
8
  6
HIDDEN
 70
0
 71
3
 72
12
 73
8
 74
6
 42
0.0000001
 43
0.0000001
 44
0.0000000001
 12
0.0002661309
 22
-1.8760310766
 32
0.0
 13
-1.8758435382
 23
0.0
 33
0.0
 40
0.0
 40
0.0
 40
0.0
 40
0.0
 40
0.2811665407
 40
0.5366608136
 40
0.7462276941
 40
0.8975717488
 40
1.0
 40
1.0
 40
1.0
 40
1.0
 10
128.6169959694
 20
153.6508222556
 30
0.0
 10
128.6170209118
 20
153.4749965329
 30
0.0
 10
128.6024896415
 20
153.13939461
 30
0.0
 10
128.5396192988
 20
152.6757118675
 30
0.0
 10
128.4337856817
 20
152.3041590169
 30
0.0
 10
128.302972058
 20
152.0410199822
 30
0.0
 10
128.1509009085
 20
151.95
 30
0.0
 10
128.0868544508
 20
151.95
 30
0.0
 11
128.6169959694
 21
153.6508222556
 31
0.0
 11
128.5933723465
 21
153.1239271401
 31
0.0
 11
128.5234759844
 21
152.6497840973
 31
0.0
 11
128.4103264753
 21
152.2733052277
 31
0.0
 11
128.2605576359
 21
152.0321263795
 31
0.0
 11
128.0868544508
 21
151.95
 31
0.0
  0
SPLINE
  5
35D
100
AcDbEntity
  8
GIANNI_ASSI
100
AcDbSpline
 62
8
  6
HIDDEN
 70
0
 71
3
 72
18
 73
14
 74
12
 42
0.0000001
 43
0.0000001
 44
0.0000000001
 12
3.4637901845
 22
0.0
 32
0.0
 13
-2.0252677448
 23
-2.8100058726
 33
0.0
 40
0.0
 40
0.0
 40
0.0
 40
0.0
 40
0.0624906396
 40
0.1498780245
 40
0.2507711564
 40
0.3517330076
 40
0.4532302188
 40
0.5590130631
 40
0.6622851485
 40
0.7576644136
 40
0.8457662791
 40
0.9268054074
 40
1.0
 40
1.0
 40
1.0
 40
1.0
 10
98.4865368961
 20
155.35
 30
0.0
 10
98.5586883841
 20
155.35
 30
0.0
 10
98.7235750191
 20
155.2625021971
 30
0.0
 10
98.9178025523
 20
155.0492513959
 30
0.0
 10
99.0945845105
 20
154.7626726076
 30
0.0
 10
99.2287547073
 20
154.4380718726
 30
0.0
 10
99.3171877787
 20
154.0920644771
 30
0.0
 10
99.3552519518
 20
153.7342299135
 30
0.0
 10
99.3413953871
 20
153.3817841159
 30
0.0
 10
99.2828427218
 20
153.0549425925
 30
0.0
 10
99.1908705596
 20
152.7628674197
 30
0.0
 10
99.0747375495
 20
152.5076126094
 30
0.0
 10
98.9812793056
 20
152.3553104243
 30
0.0
 10
98.9318664231
 20
152.2867513459
 30
0.0
 11
98.4865368961
 21
155.35
 31
0.0
 11
98.6877011531
 21
155.2700908223
 31
0.0
 11
98.9007174381
 21
155.0550414174
 31
0.0
 11
99.0860250927
 21
154.7587439329
 31
0.0
 11
99.2206940911
 21
154.4360028403
 31
0.0
 11
99.3077913723
 21
154.0953974325
 31
0.0
 11
99.3465626592
 21
153.7310449027
 31
0.0
 11
99.3325171959
 21
153.3736079185
 31
0.0
 11
99.2742417244
 21
153.0484144494
 31
0.0
 11
99.1823789428
 21
152.7574028571
 31
0.0
 11
99.0655821191
 21
152.5021531434
 31
0.0
 11
98.9318664231
 21
152.2867513459
 31
0.0
  0
SPLINE
  5
35E
100
AcDbEntity
  8
GIANNI_ASSI
100
AcDbSpline
 62
8
  6
HIDDEN
 70
0
 71
3
 72
13
 73
9
 74
7
 42
0.0000001
 43
0.0000001
 44
0.0000000001
 12
0.3039023016
 22
-0.3227796617
 32
0.0
 13
-0.443332064
 23
-0.0
 33
0.0
 40
0.0
 40
0.0
 40
0.0
 40
0.0
 40
0.2799908909
 40
0.503322311
 40
0.6712869809
 40
0.7882356664
 40
0.8783715043
 40
1.0
 40
1.0
 40
1.0
 40
1.0
 10
98.9318664231
 20
152.2867513459
 30
0.0
 10
98.9602297152
 20
152.2566262243
 30
0.0
 10
99.0095338817
 20
152.2010318543
 30
0.0
 10
99.068788192
 20
152.120568354
 30
0.0
 10
99.1031484482
 20
152.0546627386
 30
0.0
 10
99.1176147933
 20
151.9974119972
 30
0.0
 10
99.0871095273
 20
151.9521329012
 30
0.0
 10
99.0526057625
 20
151.95
 30
0.0
 10
99.0346318251
 20
151.95
 30
0.0
 11
98.9318664231
 21
152.2867513459
 31
0.0
 11
99.0135751878
 21
152.1933079331
 31
0.0
 11
99.0710414444
 21
152.1126816013
 31
0.0
 11
99.1037224866
 21
152.0457722954
 31
0.0
 11
99.1099723581
 21
151.9943032649
 31
0.0
 11
99.087341432
 21
151.9613692195
 31
0.0
 11
99.0346318251
 21
151.95
 31
0.0
  0
SPLINE
  5
35F
100
AcDbEntity
  8
GIANNI_ASSI
100
AcDbSpline
 62
8
  6
HIDDEN
 70
0
 71
3
 72
16
 73
12
 74
10
 42
0.0000001
 43
0.0000001
 44
0.0000000001
 12
0.2200359508
 22
-1.1124298956
 32
0.0
 13
-1.1339824039
 23
0.0
 33
0.0
 40
0.0
 40
0.0
 40
0.0
 40
0.0
 40
0.1878935871
 40
0.3435995469
 40
0.473219886
 40
0.5842605467
 40
0.6832833049
 40
0.7749607642
 40
0.860869128
 40
0.9369717758
 40
1.0
 40
1.0
 40
1.0
 40
1.0
 10
117.5614758593
 20
152.8355087298
 30
0.0
 10
117.575256974
 20
152.7658359153
 30
0.0
 10
117.5921730762
 20
152.6363963057
 30
0.0
 10
117.5831122116
 20
152.4566167308
 30
0.0
 10
117.5441461272
 20
152.3107074513
 30
0.0
 10
117.4843339679
 20
152.1959825164
 30
0.0
 10
117.4116159243
 20
152.1071904129
 30
0.0
 10
117.33139519
 20
152.0393461514
 30
0.0
 10
117.2485701819
 20
151.9901243014
 30
0.0
 10
117.1690219083
 20
151.9590754691
 30
0.0
 10
117.1164972304
 20
151.95
 30
0.0
 10
117.0926729314
 20
151.95
 30
0.0
 11
117.5614758593
 21
152.8355087298
 31
0.0
 11
117.5867319364
 21
152.6239428715
 31
0.0
 11
117.5758863993
 21
152.447708457
 31
0.0
 11
117.5368899191
 21
152.3059886393
 31
0.0
 11
117.4784076479
 21
152.1944753853
 31
0.0
 11
117.4073251945
 21
152.1075481538
 31
0.0
 11
117.3279961214
 21
152.0403565631
 31
0.0
 11
117.244138682
 21
151.9907752339
 31
0.0
 11
117.1633998268
 21
151.960299578
 31
0.0
 11
117.0926729314
 21
151.95
 31
0.0
  0
SPLINE
  5
360
100
AcDbEntity
  8
GIANNI_ASSI
100
AcDbSpline
 62
8
  6
HIDDEN
 70
0
 71
3
 72
15
 73
11
 74
9
 42
0.0000001
 43
0.0000001
 44
0.0000000001
 12
-2.1384035372
 22
1.8231507734
 32
0.0
 13
-1.6437626963
 23
2.3035359185
 33
0.0
 40
0.0
 40
0.0
 40
0.0
 40
0.0
 40
0.1450434292
 40
0.283643928
 40
0.4157238715
 40
0.5485859613
 40
0.688843698
 40
0.8197130158
 40
0.9320611802
 40
1.0
 40
1.0
 40
1.0
 40
1.0
 10
89.8292360216
 20
152.8355087298
 30
0.0
 10
89.7258488943
 20
152.9236540765
 30
0.0
 10
89.5258340737
 20
153.0986722395
 30
0.0
 10
89.2497155813
 20
153.3739071963
 30
0.0
 10
89.0154923087
 20
153.6726442474
 30
0.0
 10
88.8455892196
 20
154.016082661
 30
0.0
 10
88.7613027912
 20
154.3872585894
 30
0.0
 10
88.7252175966
 20
154.7455875437
 30
0.0
 10
88.6837469067
 20
155.0313618532
 30
0.0
 10
88.6349562433
 20
155.199342065
 30
0.0
 10
88.5977311441
 20
155.2515085688
 30
0.0
 11
89.8292360216
 21
152.8355087298
 31
0.0
 11
89.5243297986
 21
153.1059873746
 31
0.0
 11
89.2513297997
 21
153.3837757708
 31
0.0
 11
89.0265546254
 21
153.6791298518
 31
0.0
 11
88.8623064342
 21
154.0144160199
 31
0.0
 11
88.7676543733
 21
154.3970198527
 31
0.0
 11
88.7207158708
 21
154.7617676069
 31
0.0
 11
88.6682121277
 21
155.0730805082
 31
0.0
 11
88.5977311441
 21
155.2515085688
 31
0.0
  0
SPLINE
  5
361
100
AcDbEntity
  8
GIANNI_ASSI
100
AcDbSpline
 62
8
  6
HIDDEN
 70
0
 71
3
 72
21
 73
17
 74
15
 42
0.0000001
 43
0.0000001
 44
0.0000000001
 12
5.3323461678
 22
0.0
 32
0.0
 13
-5.3323461678
 23
0.0
 33
0.0
 40
0.0
 40
0.0
 40
0.0
 40
0.0
 40
0.0332665811
 40
0.0878328639
 40
0.1596831732
 40
0.2454187076
 40
0.3386728965
 40
0.4333040526
 40
0.5229017939
 40
0.6032630564
 40
0.675549661
 40
0.7466132769
 40
0.8208662893
 40
0.8949020994
 40
0.9574634267
 40
1.0
 40
1.0
 40
1.0
 40
1.0
 10
83.8424386803
 20
155.35
 30
0.0
 10
83.9015683224
 20
155.35
 30
0.0
 10
84.0545705357
 20
155.3060133051
 30
0.0
 10
84.3188434509
 20
155.2066823174
 30
0.0
 10
84.6624800609
 20
155.0491522757
 30
0.0
 10
85.0594903887
 20
154.846578406
 30
0.0
 10
85.4827724049
 20
154.606526786
 30
0.0
 10
85.8985506839
 20
154.340685165
 30
0.0
 10
86.2737297646
 20
154.0557285587
 30
0.0
 10
86.5791756154
 20
153.7492318922
 30
0.0
 10
86.7820289785
 20
153.397643603
 30
0.0
 10
86.8244965649
 20
153.0018720583
 30
0.0
 10
86.7227968333
 20
152.6195894177
 30
0.0
 10
86.5394722089
 20
152.2880065589
 30
0.0
 10
86.332039
 20
152.0480407688
 30
0.0
 10
86.1551767708
 20
151.95
 30
0.0
 10
86.079570193
 20
151.95
 30
0.0
 11
83.8424386803
 21
155.35
 31
0.0
 11
84.0163710852
 21
155.3151524785
 31
0.0
 11
84.2894092021
 21
155.2145961285
 31
0.0
 11
84.6387757746
 21
155.0573315494
 31
0.0
 11
85.0461219715
 21
154.8497866142
 31
0.0
 11
85.4783940229
 21
154.603998131
 31
0.0
 11
85.9021832237
 21
154.3300820635
 31
0.0
 11
86.2794077951
 21
154.0368890586
 31
0.0
 11
86.5743750481
 21
153.7260536878
 31
0.0
 11
86.757198843
 21
153.3867121009
 31
0.0
 11
86.8009796394
 21
153.0103139309
 31
0.0
 11
86.7076074442
 21
152.6255382725
 31
0.0
 11
86.5179178742
 21
152.2793118696
 31
0.0
 11
86.2893048314
 21
152.0363630298
 31
0.0
 11
86.079570193
 21
151.95
 31
0.0
  0
SPLINE
  5
362
100
AcDbEntity
  8
GIANNI_ASSI
100
AcDbSpline
 62
8
  6
HIDDEN
 70
0
 71
3
 72
16
 73
12
 74
10
 42
0.0000001
 43
0.0000001
 44
0.0000000001
 12
3.2642559714
 22
0.0
 32
0.0
 13
-2.7410102618
 23
-1.772633575
 33
0.0
 40
0.0
 40
0.0
 40
0.0
 40
0.0
 40
0.0644298432
 40
0.1578675015
 40
0.2694154047
 40
0.3841112031
 40
0.494930378
 40
0.6047438058
 40
0.7223769261
 40
0.8534294403
 40
1.0
 40
1.0
 40
1.0
 40
1.0
 10
117.9389498289
 20
155.35
 30
0.0
 10
118.0090549957
 20
155.35
 30
0.0
 10
118.1731521843
 20
155.2649818359
 30
0.0
 10
118.3705130117
 20
155.0489589287
 30
0.0
 10
118.550672567
 20
154.747446388
 30
0.0
 10
118.666647541
 20
154.3956991839
 30
0.0
 10
118.6701838914
 20
154.0221578188
 30
0.0
 10
118.5256667534
 20
153.6743805148
 30
0.0
 10
118.2727158677
 20
153.3731351227
 30
0.0
 10
117.9442181829
 20
153.0940509453
 30
0.0
 10
117.6953929954
 20
152.9221140283
 30
0.0
 10
117.5614758593
 20
152.8355087298
 30
0.0
 11
117.9389498289
 21
155.35
 31
0.0
 11
118.1349293426
 21
155.2736806716
 31
0.0
 11
118.350048714
 21
155.0574600414
 31
0.0
 11
118.5368273426
 21
154.7448936001
 31
0.0
 11
118.6485253902
 21
154.3875474875
 31
0.0
 11
118.6458269603
 21
154.0258153988
 31
0.0
 11
118.5142495335
 21
153.6923782475
 31
0.0
 11
118.2752002248
 21
153.3918793074
 31
0.0
 11
117.9530836413
 21
153.1103756769
 31
0.0
 11
117.5614758593
 21
152.8355087298
 31
0.0
  0
SPLINE
  5
363
100
AcDbEntity
  8
0
100
AcDbSpline
 62
2
  6
CONTINUOUS
 70
0
 71
3
 72
17
 73
13
 74
11
 42
0.0000001
 43
0.0000001
 44
0.0000000001
 12
0.0129332933
 22
6.2790937901
 32
0.0
 13
-0.0129328354
 23
-6.279096448
 33
0.0
 40
0.0
 40
0.0
 40
0.0
 40
0.0
 40
0.1
 40
0.2
 40
0.3
 40
0.4
 40
0.5
 40
0.6
 40
0.7
 40
0.8
 40
0.9
 40
1.0
 40
1.0
 40
1.0
 40
1.0
 10
128.6998732611
 20
153.65
 30
0.0
 10
128.7003043709
 20
153.8593031263
 30
0.0
 10
128.6818471909
 20
154.2779803756
 30
0.0
 10
128.6023016231
 20
154.8450237541
 30
0.0
 10
128.4717962009
 20
155.2949162765
 30
0.0
 10
128.2968984405
 20
155.5836801698
 30
0.0
 10
128.0892622483
 20
155.6831587264
 30
0.0
 10
127.8671848227
 20
155.5836849248
 30
0.0
 10
127.6543591609
 20
155.2949169106
 30
0.0
 10
127.4771021049
 20
154.8450330673
 30
0.0
 10
127.359076552
 20
154.2779811389
 30
0.0
 10
127.3322237823
 20
153.8593032149
 30
0.0
 10
127.3317926878
 20
153.65
 30
0.0
 11
128.6998732611
 21
153.65
 31
0.0
 11
128.6732038913
 21
154.2678182931
 31
0.0
 11
128.5938083141
 21
154.8254986114
 31
0.0
 11
128.4643974778
 21
155.268061505
 31
0.0
 11
128.2914420352
 21
155.5521326137
 31
0.0
 11
128.0868553761
 21
155.65
 31
0.0
 11
127.8687267833
 21
155.5521358893
 31
0.0
 11
127.6602872619
 21
155.2680642724
 31
0.0
 11
127.4869740221
 21
154.8255050531
 31
0.0
 11
127.372034285
 21
154.2678203126
 31
0.0
 11
127.3317926878
 21
153.65
 31
0.0
  0
SPLINE
  5
364
100
AcDbEntity
  8
0
100
AcDbSpline
 62
2
  6
CONTINUOUS
 70
0
 71
3
 72
17
 73
13
 74
11
 42
0.0000001
 43
0.0000001
 44
0.0000000001
 12
0.0129332933
 22
-6.2790937901
 32
0.0
 13
-0.0129328354
 23
6.2790964481
 33
0.0
 40
0.0
 40
0.0
 40
0.0
 40
0.0
 40
0.1
 40
0.2
 40
0.3
 40
0.4
 40
0.5
 40
0.6
 40
0.7
 40
0.8
 40
0.9
 40
1.0
 40
1.0
 40
1.0
 40
1.0
 10
127.3317926878
 20
153.65
 30
0.0
 10
127.3322237976
 20
153.4406968737
 30
0.0
 10
127.3590769023
 20
153.0220196244
 30
0.0
 10
127.4770992437
 20
152.4549762459
 30
0.0
 10
127.6543590378
 20
152.0050837235
 30
0.0
 10
127.8671794056
 20
151.7163198302
 30
0.0
 10
128.0892620229
 20
151.6168412736
 30
0.0
 10
128.2968936563
 20
151.7163150752
 30
0.0
 10
128.4717961983
 20
152.0050830894
 30
0.0
 10
128.6022995542
 20
152.4549669327
 30
0.0
 10
128.68184748
 20
153.0220188611
 30
0.0
 10
128.7003043556
 20
153.4406967851
 30
0.0
 10
128.6998732611
 20
153.65
 30
0.0
 11
127.3317926878
 21
153.65
 31
0.0
 11
127.3720340163
 21
153.0321817069
 31
0.0
 11
127.4869721525
 21
152.4745013886
 31
0.0
 11
127.6602858001
 21
152.031938495
 31
0.0
 11
127.8687231138
 21
151.7478673863
 31
0.0
 11
128.0868535256
 21
151.65
 31
0.0
 11
128.2914388077
 21
151.7478641107
 31
0.0
 11
128.4643963339
 21
152.0319357276
 31
0.0
 11
128.5938069825
 21
152.4744949469
 31
0.0
 11
128.6732037113
 21
153.0321796874
 31
0.0
 11
128.6998732611
 21
153.65
 31
0.0
  0
SPLINE
  5
365
100
AcDbEntity
  8
0
100
AcDbSpline
 62
7
  6
CONTINUOUS
 70
0
 71
3
 72
17
 73
13
 74
11
 42
0.0000001
 43
0.0000001
 44
0.0000000001
 12
-9.8426804896
 22
-9.0685383516
 32
0.0
 13
-9.8426610795
 23
9.0685648264
 33
0.0
 40
0.0
 40
0.0
 40
0.0
 40
0.0
 40
0.0572293716
 40
0.1135607132
 40
0.1693797103
 40
0.3353592429
 40
0.5000074283
 40
0.6646568357
 40
0.8306365116
 40
0.8864535043
 40
0.9427800198
 40
1.0
 40
1.0
 40
1.0
 40
1.0
 10
109.2874553834
 20
148.3770526581
 30
0.0
 10
109.0996919102
 20
148.2040570742
 30
0.0
 10
108.7124389379
 20
147.8764498445
 30
0.0
 10
108.0956630531
 20
147.4383681594
 30
0.0
 10
107.0261432559
 20
146.8076722588
 30
0.0
 10
105.3992765091
 20
146.1805259284
 30
0.0
 10
103.1848941198
 20
145.9100876337
 30
0.0
 10
100.9705172517
 20
146.1805770108
 30
0.0
 10
99.3436672746
 20
146.8077599688
 30
0.0
 10
98.2741890473
 20
147.4384673258
 30
0.0
 10
97.6574791904
 20
147.8765165483
 30
0.0
 10
97.2702769072
 20
148.2040849581
 30
0.0
 10
97.0825446166
 20
148.3770526581
 30
0.0
 11
109.2874553834
 21
148.3770526581
 31
0.0
 11
108.7027061249
 21
147.882467485
 31
0.0
 11
108.0880248822
 21
147.4460620649
 31
0.0
 11
107.4446351113
 21
147.0665333434
 31
0.0
 11
105.3719085792
 21
146.2680901539
 31
0.0
 11
103.1849006077
 21
146.0000000005
 31
0.0
 11
100.9978825386
 21
146.268142182
 31
0.0
 11
98.9251734046
 21
147.0666358688
 31
0.0
 11
98.2818158348
 21
147.4461663824
 31
0.0
 11
97.6671944392
 21
147.8825445357
 31
0.0
 11
97.0825446166
 21
148.3770526581
 31
0.0
  0
ENDSEC
  0
SECTION
  2
OBJECTS
  0
DICTIONARY
  5
C
100
AcDbDictionary
280
0
281
1
  3
ACAD_GROUP
350
D
  3
ACAD_MLINESTYLE
350
17
  3
ACAD_LAYOUT
350
1A
  3
ACAD_PLOTSETTINGS
350
19
  3
ACAD_PLOTSTYLENAME
350
E
  3
ACAD_TABLESTYLE
350
       366
  0
DICTIONARY
  5
D
102
{ACAD_REACTORS
330
C
102
}
100
AcDbDictionary
280
0
281
1
  0
ACDBDICTIONARYWDFLT
  5
E
102
{ACAD_REACTORS
330
C
102
}
100
AcDbDictionary
281
1
  3
Normal
350
F
100
AcDbDictionaryWithDefault
340
F
  0
DICTIONARY
  5
17
102
{ACAD_REACTORS
330
C
102
}
100
AcDbDictionary
280
0
281
1
  3
Standard
350
18
  0
DICTIONARY
  5
366
330
C
100
AcDbDictionary
281
1
  3
Standard
350
       369
  0
DICTIONARY
  5
19
102
{ACAD_REACTORS
330
C
102
}
100
AcDbDictionary
281
1
  0
DICTIONARY
  5
1A
102
{ACAD_REACTORS
330
C
102
}
100
AcDbDictionary
281
1
  3
Model
350
367
  3
Layout1
350
368
  0
ACDBPLACEHOLDER
  5
F
102
{ACAD_REACTORS
330
E
102
}
  0
MLINESTYLE
  5
18
102
{ACAD_REACTORS
330
17
102
}
100
AcDbMlineStyle
  2
STANDARD
 70
0
  3

 62
256
 51
90.0
 52
90.0
 71
2
 49
0.5
 62
256
  6
BYLAYER
 49
-0.5
 62
256
  6
BYLAYER
  0
LAYOUT
  5
367
102
{ACAD_REACTORS
330
1A
102
}
100
AcDbPlotSettings
  1

  2
none_device
  4

  6

 40
0.0
 41
0.0
 42
0.0
 43
0.0
 44
210.0
 45
297.0
 46
0.0
 47
0.0
 48
0.0
 49
0.0
140
0.0
141
0.0
142
1.0
143
1.0
 70
1024
 72
1
 73
0
 74
0
  7

 75
0
147
1.0
148
0.0
149
0.0
100
AcDbLayout
  1
Model
 70
0
 71
0
 10
0.0
 20
0.0
 11
210.0
 21
297.0
 12
0.0
 22
0.0
 32
0.0
 14
0.0
 24
0.0
 34
0.0
 15
0.0
 25
0.0
 35
0.0
146
0.0
 13
0.0
 23
0.0
 33
0.0
 16
1.0
 26
0.0
 36
0.0
 17
0.0
 27
1.0
 37
0.0
 76
0
330
212
345
0
346
0
  0
LAYOUT
  5
368
102
{ACAD_REACTORS
330
1A
102
}
100
AcDbPlotSettings
  1

  2
none_device
  4

  6

 40
0.0
 41
0.0
 42
0.0
 43
0.0
 44
210.0
 45
297.0
 46
0.0
 47
0.0
 48
0.0
 49
0.0
140
0.0
141
0.0
142
1.0
143
1.0
 70
0
 72
1
 73
0
 74
0
  7

 75
0
147
1.0
148
0.0
149
0.0
100
AcDbLayout
  1
Layout1
 70
0
 71
1
 10
0.0
 20
0.0
 11
210.0
 21
297.0
 12
0.0
 22
0.0
 32
0.0
 14
0.0
 24
0.0
 34
0.0
 15
0.0
 25
0.0
 35
0.0
146
0.0
 13
0.0
 23
0.0
 33
0.0
 16
1.0
 26
0.0
 36
0.0
 17
0.0
 27
1.0
 37
0.0
 76
0
330
213
345
0
346
0
  0
TABLESTYLE
  5
369
102
{ACAD_REACTORS
330
366
330
274
102
}
330
366
100
AcDbTableStyle
  3
Standard
 70
0
 71
0
 40
0.06
 41
0.06
280
1
281
1
  7
Standard
140
0.18
170
1
 62
0
 63
7
283
0
  7
Standard
140
0.18
170
1
 62
0
 63
7
283
0
  7
Standard
140
0.18
170
1
 62
0
 63
7
283
0
  0
ENDSEC
  0
EOF
