999
DXF file: 21880-h100a.dxf
999
Pro/ENGINEER 2016260 by Parametric Technology Corporation
  0
SECTION
  2
HEADER
  9
$ACADVER
  1
AC1027
  9
$DWGCODEPAGE
  3
ANSI_1252
  9
$EXTMAX
 10
210.0
 20
297.0
 30
0.0
  9
$EXTMIN
 10
0.0
 20
0.0
 30
0.0
  9
$LIMMIN
 10
0.0
 20
0.0
  9
$LIMMAX
 10
210.0
 20
297.0
  9
$VIEWCTR
 10
105.0
 20
148.5
  9
$VIEWSIZE
 40
297.0
  9
$CLAYER
  8
0
  9
$LTSCALE
 40
19.36
  9
$CELTYPE
  6
BYLAYER
  9
$DIMSCALE
 40
1.0
  9
$DIMASZ
 40
4.76
  9
$DIMEXO
 40
0.1
  9
$DIMDLI
 40
13.376
  9
$DIMEXE
 40
1.0
  9
$DIMCEN
 40
3.168
  9
$DIMLFAC
 40
1.0
  9
$DIMBLK
  1
_FILLED
  9
$DIMALT
 70
0
  9
$DIMALTF
 40
25.4
  9
$DIMTXT
 40
3.0
  9
$DIMTOL
 70
1
  9
$DIMLIM
 70
0
  9
$DIMTFAC
 40
1.0
  9
$DIMTP
 40
0.001
  9
$DIMTM
 40
0.001
  9
$DIMGAP
 40
0.625
  9
$DIMDSEP
 70
46
  9
$AUNITS
 70
0
  9
$PDMODE
 70
3
  9
$PDSIZE
 40
0.3125
  9
$HANDSEED
  5
2F2
  9
$TILEMODE
 70
1
  9
$MEASUREMENT
 70
1
  9
$INSUNITS
 70
4
  0
ENDSEC
  0
SECTION
  2
CLASSES
  0
CLASS
  1
ACDBDICTIONARYWDFLT
  2
AcDbDictionaryWithDefault
  3
AutoCAD 2000
 90
0
 91
1
280
0
281
0
  0
CLASS
  1
ACDBPLACEHOLDER
  2
AcDbPlaceHolder
  3
AutoCAD 2000
 90
0
 91
1
280
0
281
0
  0
CLASS
  1
LAYOUT
  2
AcDbLayout
  3
AutoCAD 2000
 90
0
 91
0
280
0
281
0
  0
ENDSEC
  0
SECTION
  2
TABLES
  0
TABLE
  2
VPORT
  5
8
100
AcDbSymbolTable
 70
2
  0
VPORT
  5
1F4
100
AcDbSymbolTableRecord
100
AcDbViewportTableRecord
  2
*ACTIVE
 70
0
 10
0.0
 20
0.0
 11
1.0
 21
1.0
 12
105.0
 22
148.5
 13
0.0
 23
0.0
 14
1.0
 24
1.0
 15
0.0
 25
0.0
 16
0.0
 26
0.0
 36
1.0
 17
0.0
 27
0.0
 37
0.0
 40
297.0
 41
0.7070707071
 42
50.0
 43
0.0
 44
0.0
 50
0.0
 51
0.0
 71
0
 72
100
 73
1
 74
1
 75
0
 76
0
 77
0
 78
0
  0
ENDTAB
  0
TABLE
  2
LTYPE
  5
5
100
AcDbSymbolTable
 70
6
  0
LTYPE
  5
14
100
AcDbSymbolTableRecord
100
AcDbLinetypeTableRecord
  2
BYBLOCK
 70
0
  3

 72
65
 73
0
 40
0.0
  0
LTYPE
  5
15
100
AcDbSymbolTableRecord
100
AcDbLinetypeTableRecord
  2
BYLAYER
 70
0
  3

 72
65
 73
0
 40
0.0
  0
LTYPE
  5
16
100
AcDbSymbolTableRecord
100
AcDbLinetypeTableRecord
  2
CONTINUOUS
 70
64
  3
Solid line
 72
65
 73
0
 40
0.0
  0
LTYPE
  5
1F5
100
AcDbSymbolTableRecord
100
AcDbLinetypeTableRecord
  2
CENTER
 70
64
  3
____ _ ____ _ ____ _ ____ _ ____ _ ____ _ ____
 72
65
 73
4
 40
0.6
 49
0.375
 74
0
 49
-0.075
 74
0
 49
0.075
 74
0
 49
-0.075
 74
0
  0
LTYPE
  5
1F6
100
AcDbSymbolTableRecord
100
AcDbLinetypeTableRecord
  2
HIDDEN
 70
64
  3
- - - - - - - - - - - - - - - - - - - -
 72
65
 73
2
 40
0.2
 49
0.1
 74
0
 49
-0.1
 74
0
  0
LTYPE
  5
1F7
100
AcDbSymbolTableRecord
100
AcDbLinetypeTableRecord
  2
PHANTOM
 70
64
  3
_____ _ _ _____ _ _ _____ _ _ _____
 72
65
 73
6
 40
0.8
 49
0.45
 74
0
 49
-0.05
 74
0
 49
0.1
 74
0
 49
-0.05
 74
0
 49
0.1
 74
0
 49
-0.05
 74
0
  0
LTYPE
  5
1F8
100
AcDbSymbolTableRecord
100
AcDbLinetypeTableRecord
  2
DOT
 70
64
  3
. . . . . . . . . . . . . . . . . . . .
 72
65
 73
2
 40
0.2
 49
0.1
 74
0
 49
-0.1
 74
0
  0
LTYPE
  5
1F9
100
AcDbSymbolTableRecord
100
AcDbLinetypeTableRecord
  2
DASHED
 70
64
  3
- - - - - - - - - - - - - - - - - - - -
 72
65
 73
2
 40
0.2
 49
0.1
 74
0
 49
-0.1
 74
0
  0
ENDTAB
  0
TABLE
  2
LAYER
  5
2
100
AcDbSymbolTable
 70
36
  0
LAYER
  5
10
100
AcDbSymbolTableRecord
100
AcDbLayerTableRecord
  2
0
 70
0
 62
7
  6
CONTINUOUS
370
-3
390
F
  0
LAYER
  5
1FA
100
AcDbSymbolTableRecord
100
AcDbLayerTableRecord
  2
DEFAULT_1
 70
0
 62
7
  6
CENTER
370
-3
390
F
  0
LAYER
  5
1FB
100
AcDbSymbolTableRecord
100
AcDbLayerTableRecord
  2
DEFAULT_2
 70
0
 62
8
  6
HIDDEN
370
-3
390
F
  0
LAYER
  5
1FC
100
AcDbSymbolTableRecord
100
AcDbLayerTableRecord
  2
DEFAULT_3
 70
0
 62
7
  6
PHANTOM
370
-3
390
F
  0
LAYER
  5
1FD
100
AcDbSymbolTableRecord
100
AcDbLayerTableRecord
  2
0_COMPONENTS
 70
0
 62
7
  6
CONTINUOUS
370
-3
390
F
  0
LAYER
  5
1FE
100
AcDbSymbolTableRecord
100
AcDbLayerTableRecord
  2
1_ALL_PLANES
 70
0
 62
7
  6
CONTINUOUS
370
-3
390
F
  0
LAYER
  5
1FF
100
AcDbSymbolTableRecord
100
AcDbLayerTableRecord
  2
1__DEF_ASM_PLN
 70
0
 62
7
  6
CONTINUOUS
370
-3
390
F
  0
LAYER
  5
200
100
AcDbSymbolTableRecord
100
AcDbLayerTableRecord
  2
1__DEF_PLANES
 70
0
 62
7
  6
CONTINUOUS
370
-3
390
F
  0
LAYER
  5
201
100
AcDbSymbolTableRecord
100
AcDbLayerTableRecord
  2
2_ALL_CSYS
 70
0
 62
7
  6
CONTINUOUS
370
-3
390
F
  0
LAYER
  5
202
100
AcDbSymbolTableRecord
100
AcDbLayerTableRecord
  2
2__DEF_ASM_CSYS
 70
0
 62
7
  6
CONTINUOUS
370
-3
390
F
  0
LAYER
  5
203
100
AcDbSymbolTableRecord
100
AcDbLayerTableRecord
  2
2__DEF_CSYS
 70
0
 62
7
  6
CONTINUOUS
370
-3
390
F
  0
LAYER
  5
204
100
AcDbSymbolTableRecord
100
AcDbLayerTableRecord
  2
3_ALL_AXES
 70
0
 62
7
  6
CONTINUOUS
370
-3
390
F
  0
LAYER
  5
205
100
AcDbSymbolTableRecord
100
AcDbLayerTableRecord
  2
4_ALL_POINTS
 70
0
 62
7
  6
CONTINUOUS
370
-3
390
F
  0
LAYER
  5
206
100
AcDbSymbolTableRecord
100
AcDbLayerTableRecord
  2
5_ALL_CURVES
 70
0
 62
7
  6
CONTINUOUS
370
-3
390
F
  0
LAYER
  5
207
100
AcDbSymbolTableRecord
100
AcDbLayerTableRecord
  2
5_ALL_GTOLS(FREE)
 70
0
 62
7
  6
CONTINUOUS
370
-3
390
F
  0
LAYER
  5
208
100
AcDbSymbolTableRecord
100
AcDbLayerTableRecord
  2
6_ALL_SURFS
 70
0
 62
7
  6
CONTINUOUS
370
-3
390
F
  0
LAYER
  5
209
100
AcDbSymbolTableRecord
100
AcDbLayerTableRecord
  2
CURVA
 70
0
 62
7
  6
CONTINUOUS
370
-3
390
F
  0
LAYER
  5
20A
100
AcDbSymbolTableRecord
100
AcDbLayerTableRecord
  2
CURVE
 70
0
 62
7
  6
CONTINUOUS
370
-3
390
F
  0
LAYER
  5
20B
100
AcDbSymbolTableRecord
100
AcDbLayerTableRecord
  2
GIANNI_CURVE
 70
0
 62
7
  6
CONTINUOUS
370
-3
390
F
  0
LAYER
  5
20C
100
AcDbSymbolTableRecord
100
AcDbLayerTableRecord
  2
GIANNI_PIANI
 70
0
 62
7
  6
CONTINUOUS
370
-3
390
F
  0
LAYER
  5
20D
100
AcDbSymbolTableRecord
100
AcDbLayerTableRecord
  2
PIANI_INUTILI
 70
0
 62
7
  6
CONTINUOUS
370
-3
390
F
  0
LAYER
  5
20E
100
AcDbSymbolTableRecord
100
AcDbLayerTableRecord
  2
PIANI_SCORD
 70
0
 62
7
  6
CONTINUOUS
370
-3
390
F
  0
LAYER
  5
20F
100
AcDbSymbolTableRecord
100
AcDbLayerTableRecord
  2
SCHETCK
 70
0
 62
7
  6
CONTINUOUS
370
-3
390
F
  0
LAYER
  5
210
100
AcDbSymbolTableRecord
100
AcDbLayerTableRecord
  2
XSEC_DATUMS
 70
0
 62
7
  6
CONTINUOUS
370
-3
390
F
  0
ENDTAB
  0
TABLE
  2
STYLE
  5
3
100
AcDbSymbolTable
 70
1
  0
STYLE
  5
11
100
AcDbSymbolTableRecord
100
AcDbTextStyleTableRecord
  2
STANDARD
 70
0
 40
0.0
 41
1.2
 50
0.0
 71
0
 42
0.2
  3
txt
  4

  0
STYLE
  5
211
100
AcDbSymbolTableRecord
100
AcDbTextStyleTableRecord
  2
TEXTSTYLE_1
 70
0
 40
0.0
 41
0.8
 50
0.0
 71
0
 42
0.2
  3
gdt
  4

  0
STYLE
  5
212
100
AcDbSymbolTableRecord
100
AcDbTextStyleTableRecord
  2
TEXTSTYLE_2
 70
0
 40
0.0
 41
1.2
 50
0.0
 71
0
 42
0.2
  3
gdt
  4

  0
ENDTAB
  0
TABLE
  2
VIEW
  5
6
100
AcDbSymbolTable
 70
0
  0
ENDTAB
  0
TABLE
  2
UCS
  5
7
100
AcDbSymbolTable
 70
0
  0
ENDTAB
  0
TABLE
  2
APPID
  5
9
100
AcDbSymbolTable
 70
1
  0
APPID
  5
213
100
AcDbSymbolTableRecord
100
AcDbRegAppTableRecord
  2
ACAD
 70
0
  0
ENDTAB
  0
TABLE
  2
BLOCK_RECORD
  5
1
100
AcDbSymbolTable
 70
0
  0
BLOCK_RECORD
  5
214
100
AcDbSymbolTableRecord
100
AcDbBlockTableRecord
  2
*Model_Space
  0
BLOCK_RECORD
  5
215
100
AcDbSymbolTableRecord
100
AcDbBlockTableRecord
  2
*Paper_Space
  0
BLOCK_RECORD
  5
216
100
AcDbSymbolTableRecord
100
AcDbBlockTableRecord
  2
_FILLED
  0
BLOCK_RECORD
  5
217
100
AcDbSymbolTableRecord
100
AcDbBlockTableRecord
  2
*D0
  0
BLOCK_RECORD
  5
218
100
AcDbSymbolTableRecord
100
AcDbBlockTableRecord
  2
*D1
  0
BLOCK_RECORD
  5
219
100
AcDbSymbolTableRecord
100
AcDbBlockTableRecord
  2
*D2
  0
BLOCK_RECORD
  5
21A
100
AcDbSymbolTableRecord
100
AcDbBlockTableRecord
  2
*D3
  0
ENDTAB
  0
TABLE
  2
DIMSTYLE
  5
A
100
AcDbSymbolTable
 70
1
100
AcDbDimStyleTable
 71
0
  0
DIMSTYLE
105
21B
100
AcDbSymbolTableRecord
100
AcDbDimStyleTableRecord
  2
STANDARD
 70
0
  3

  4

 40
1.0
 41
4.76
 42
0.1
 43
0.38
 44
1.0
 45
0.0
 46
0.0
 47
0.001
 48
0.001
140
3.0
141
0.09
142
0.0
143
25.4
144
1.0
145
0.0
146
1.0
147
0.625
 71
1.0
 72
0.0
 73
0
 74
0
 75
0
 76
0
 77
1
 78
8
170
0
171
2
172
0
173
0
174
0
175
0
176
0
177
0
178
5
270
2
271
3
272
3
273
2
274
2
275
0
280
0
281
0
282
0
283
1
284
8
285
0
286
0
287
3
288
0
340
11
278
46
341
216
342
216
343
216
344
216
  0
DIMSTYLE
105
21C
100
AcDbSymbolTableRecord
100
AcDbDimStyleTableRecord
  2
DIMSTYLE_1
 70
0
  3

  4

 40
1.0
 41
4.76
 42
0.1
 43
0.38
 44
1.0
 45
0.0
 46
0.0
 47
0.001
 48
0.001
140
3.0
141
0.09
142
0.0
143
25.4
144
1.0
145
0.0
146
1.0
147
0.75
 71
0.0
 72
0.0
 73
0
 74
0
 75
0
 76
0
 77
1
 78
8
170
0
171
2
172
0
173
0
174
0
175
0
176
0
177
0
178
5
270
2
271
3
272
3
273
2
274
2
275
0
280
0
281
0
282
0
283
1
284
8
285
0
286
0
287
3
288
0
340
11
278
46
341
216
342
216
343
216
344
216
  0
DIMSTYLE
105
21D
100
AcDbSymbolTableRecord
100
AcDbDimStyleTableRecord
  2
DIMSTYLE_2
 70
0
  3

  4

 40
1.0
 41
4.76
 42
0.1
 43
0.38
 44
1.0
 45
0.0
 46
0.0
 47
0.01
 48
0.01
140
3.0
141
0.09
142
0.0
143
25.4
144
1.0
145
0.0
146
1.0
147
0.75
 71
0.0
 72
0.0
 73
0
 74
0
 75
0
 76
0
 77
1
 78
8
170
0
171
2
172
0
173
0
174
0
175
0
176
0
177
0
178
5
270
2
271
3
272
3
273
2
274
2
275
0
280
0
281
0
282
0
283
1
284
8
285
0
286
0
287
3
288
0
340
11
278
46
341
216
342
216
343
216
344
216
  0
DIMSTYLE
105
21E
100
AcDbSymbolTableRecord
100
AcDbDimStyleTableRecord
  2
DIMSTYLE_3
 70
0
  3

  4

 40
1.0
 41
4.76
 42
0.1
 43
0.38
 44
1.0
 45
0.0
 46
0.0
 47
0.0
 48
0.0
140
3.0
141
0.09
142
0.0
143
25.4
144
1.0
145
0.0
146
1.0
147
0.75
 71
0.0
 72
0.0
 73
0
 74
0
 75
0
 76
0
 77
1
 78
8
170
0
171
2
172
0
173
0
174
0
175
0
176
0
177
0
178
5
270
2
271
1
272
1
273
2
274
2
275
0
280
0
281
0
282
0
283
1
284
8
285
0
286
0
287
3
288
0
340
11
278
46
341
216
342
216
343
216
344
216
  0
ENDTAB
  0
ENDSEC
  0
SECTION
  2
BLOCKS
  0
BLOCK
  5
20
100
AcDbEntity
  8
0
100
AcDbBlockBegin
  2
*Model_Space
 70
0
 10
0.0
 20
0.0
 30
0.0
  3
*Model_Space
  1

  0
ENDBLK
  5
21
100
AcDbEntity
  8
0
100
AcDbBlockEnd
  0
BLOCK
  5
1C
100
AcDbEntity
  8
0
100
AcDbBlockBegin
  2
*Paper_Space
 70
0
 10
0.0
 20
0.0
 30
0.0
  3
*Paper_Space
  1

  0
ENDBLK
  5
1D
100
AcDbEntity
  8
0
100
AcDbBlockEnd
  0
BLOCK
  5
21F
100
AcDbEntity
  8
0
100
AcDbBlockBegin
  2
_FILLED
 70
64
 10
0.0
 20
0.0
  3
_FILLED
  1

  0
SOLID
  5
220
100
AcDbEntity
  8
0
  6
BYBLOCK
 62
0
100
AcDbTrace
 10
0.0
 20
0.0
 11
-1.0
 21
0.1050420168
 12
-1.0
 22
-0.1050420168
 13
-1.0
 23
-0.1050420168
  0
ENDBLK
  5
221
100
AcDbEntity
  8
0
  6
BYBLOCK
 62
0
100
AcDbBlockEnd
  0
BLOCK
  5
222
100
AcDbEntity
  8
0
100
AcDbBlockBegin
 62
2
  6
CONTINUOUS
  2
*D0
 70
65
 10
0.0
 20
0.0
  3
*D0
  1

  0
MTEXT
  5
223
100
AcDbEntity
  8
0
100
AcDbMText
 62
5
  6
CONTINUOUS
  7
STANDARD
 71
2
 72
1
 10
160.4883006031
 20
125.4926630435
 30
0.0
 11
0.0
 21
1.0
 31
0.0
 44
0.9
  1
87
 40
3.0
 41
7.0714285714
  0
LINE
  5
224
100
AcDbEntity
  8
0
100
AcDbLine
 62
2
  6
CONTINUOUS
 10
150.3294836957
 20
168.9926630435
 11
165.2383006031
 21
168.9926630435
  0
LINE
  5
225
100
AcDbEntity
  8
0
100
AcDbLine
 62
2
  6
CONTINUOUS
 10
135.5794836957
 20
81.9926630435
 11
165.2383006031
 21
81.9926630435
  0
LINE
  5
226
100
AcDbEntity
  8
0
100
AcDbLine
 62
2
  6
CONTINUOUS
 10
164.2383006031
 20
168.9926630435
 11
164.2383006031
 21
125.4926630435
  0
LINE
  5
227
100
AcDbEntity
  8
0
100
AcDbLine
 62
2
  6
CONTINUOUS
 10
164.2383006031
 20
81.9926630435
 11
164.2383006031
 21
125.4926630435
  0
INSERT
  5
228
100
AcDbEntity
  8
0
100
AcDbBlockReference
 62
2
  6
CONTINUOUS
  2
_FILLED
 10
164.2383006031
 20
168.9926630435
 41
4.76
 42
4.76
 43
4.76
 50
90.0
  0
INSERT
  5
229
100
AcDbEntity
  8
0
100
AcDbBlockReference
 62
2
  6
CONTINUOUS
  2
_FILLED
 10
164.2383006031
 20
81.9926630435
 41
4.76
 42
4.76
 43
4.76
 50
270.0
  0
ENDBLK
  5
22A
100
AcDbEntity
  8
0
  6
BYBLOCK
 62
0
100
AcDbBlockEnd
  0
BLOCK
  5
22B
100
AcDbEntity
  8
0
100
AcDbBlockBegin
 62
2
  6
CONTINUOUS
  2
*D1
 70
65
 10
0.0
 20
0.0
  3
*D1
  1

  0
MTEXT
  5
22C
100
AcDbEntity
  8
0
100
AcDbMText
 62
5
  6
CONTINUOUS
  7
TEXTSTYLE_2
 71
2
 72
1
 10
100.7294836957
 20
68.491822156
 30
0.0
 11
1.0
 21
0.0
 31
0.0
 44
0.9
  1
{\Fgdt;n}\Ftxt;48
 40
3.0
 41
13.0714285714
  0
LINE
  5
22D
100
AcDbEntity
  8
0
100
AcDbLine
 62
2
  6
CONTINUOUS
 10
124.7294836957
 20
82.6926630435
 11
124.7294836957
 21
63.741822156
  0
LINE
  5
22E
100
AcDbEntity
  8
0
100
AcDbLine
 62
2
  6
CONTINUOUS
 10
76.7294836957
 20
82.6926630435
 11
76.7294836957
 21
63.741822156
  0
LINE
  5
22F
100
AcDbEntity
  8
0
100
AcDbLine
 62
2
  6
CONTINUOUS
 10
124.7294836957
 20
64.741822156
 11
100.7294836957
 21
64.741822156
  0
LINE
  5
230
100
AcDbEntity
  8
0
100
AcDbLine
 62
2
  6
CONTINUOUS
 10
76.7294836957
 20
64.741822156
 11
100.7294836957
 21
64.741822156
  0
INSERT
  5
231
100
AcDbEntity
  8
0
100
AcDbBlockReference
 62
2
  6
CONTINUOUS
  2
_FILLED
 10
124.7294836957
 20
64.741822156
 41
4.76
 42
4.76
 43
4.76
  0
INSERT
  5
232
100
AcDbEntity
  8
0
100
AcDbBlockReference
 62
2
  6
CONTINUOUS
  2
_FILLED
 10
76.7294836957
 20
64.741822156
 41
4.76
 42
4.76
 43
4.76
 50
180.0
  0
ENDBLK
  5
233
100
AcDbEntity
  8
0
  6
BYBLOCK
 62
0
100
AcDbBlockEnd
  0
BLOCK
  5
234
100
AcDbEntity
  8
0
100
AcDbBlockBegin
 62
2
  6
CONTINUOUS
  2
*D2
 70
65
 10
0.0
 20
0.0
  3
*D2
  1

  0
MTEXT
  5
235
100
AcDbEntity
  8
0
100
AcDbMText
 62
5
  6
CONTINUOUS
  7
TEXTSTYLE_2
 71
2
 72
1
 10
100.7294836957
 20
57.524782156
 30
0.0
 11
1.0
 21
0.0
 31
0.0
 44
0.9
  1
{\Fgdt;n}\Ftxt;72
 40
3.0
 41
13.0714285714
  0
LINE
  5
236
100
AcDbEntity
  8
0
100
AcDbLine
 62
2
  6
CONTINUOUS
 10
136.7294836957
 20
84.8926630435
 11
136.7294836957
 21
52.774782156
  0
LINE
  5
237
100
AcDbEntity
  8
0
100
AcDbLine
 62
2
  6
CONTINUOUS
 10
64.7294836957
 20
84.8926630435
 11
64.7294836957
 21
52.774782156
  0
LINE
  5
238
100
AcDbEntity
  8
0
100
AcDbLine
 62
2
  6
CONTINUOUS
 10
136.7294836957
 20
53.774782156
 11
100.7294836957
 21
53.774782156
  0
LINE
  5
239
100
AcDbEntity
  8
0
100
AcDbLine
 62
2
  6
CONTINUOUS
 10
64.7294836957
 20
53.774782156
 11
100.7294836957
 21
53.774782156
  0
INSERT
  5
23A
100
AcDbEntity
  8
0
100
AcDbBlockReference
 62
2
  6
CONTINUOUS
  2
_FILLED
 10
136.7294836957
 20
53.774782156
 41
4.76
 42
4.76
 43
4.76
  0
INSERT
  5
23B
100
AcDbEntity
  8
0
100
AcDbBlockReference
 62
2
  6
CONTINUOUS
  2
_FILLED
 10
64.7294836957
 20
53.774782156
 41
4.76
 42
4.76
 43
4.76
 50
180.0
  0
ENDBLK
  5
23C
100
AcDbEntity
  8
0
  6
BYBLOCK
 62
0
100
AcDbBlockEnd
  0
BLOCK
  5
23D
100
AcDbEntity
  8
0
100
AcDbBlockBegin
 62
2
  6
CONTINUOUS
  2
*D3
 70
65
 10
0.0
 20
0.0
  3
*D3
  1

  0
MTEXT
  5
23E
100
AcDbEntity
  8
0
100
AcDbMText
 62
5
  6
CONTINUOUS
  7
STANDARD
 71
2
 72
1
 10
170.9737792439
 20
139.9676630435
 30
0.0
 11
0.0
 21
1.0
 31
0.0
 44
0.9
  1
116
 40
3.0
 41
8.6785714286
  0
LINE
  5
23F
100
AcDbEntity
  8
0
100
AcDbLine
 62
2
  6
CONTINUOUS
 10
135.5794836957
 20
81.9926630435
 11
175.7237792439
 21
81.9926630435
  0
LINE
  5
240
100
AcDbEntity
  8
0
100
AcDbLine
 62
2
  6
CONTINUOUS
 10
150.3294836957
 20
197.9426630435
 11
175.7237792439
 21
197.9426630435
  0
LINE
  5
241
100
AcDbEntity
  8
0
100
AcDbLine
 62
2
  6
CONTINUOUS
 10
174.7237792439
 20
81.9926630435
 11
174.7237792439
 21
139.9676630435
  0
LINE
  5
242
100
AcDbEntity
  8
0
100
AcDbLine
 62
2
  6
CONTINUOUS
 10
174.7237792439
 20
197.9426630435
 11
174.7237792439
 21
139.9676630435
  0
INSERT
  5
243
100
AcDbEntity
  8
0
100
AcDbBlockReference
 62
2
  6
CONTINUOUS
  2
_FILLED
 10
174.7237792439
 20
81.9926630435
 41
4.76
 42
4.76
 43
4.76
 50
270.0
  0
INSERT
  5
244
100
AcDbEntity
  8
0
100
AcDbBlockReference
 62
2
  6
CONTINUOUS
  2
_FILLED
 10
174.7237792439
 20
197.9426630435
 41
4.76
 42
4.76
 43
4.76
 50
90.0
  0
ENDBLK
  5
245
100
AcDbEntity
  8
0
  6
BYBLOCK
 62
0
100
AcDbBlockEnd
  0
ENDSEC
  0
SECTION
  2
ENTITIES
  0
DIMENSION
  5
246
100
AcDbEntity
  8
0
100
AcDbDimension
 62
2
  6
CONTINUOUS
  2
*D0
 10
164.2383006031
 20
81.9926630435
 11
164.2383006031
 21
125.0640965364
 70
160
 71
2
 42
87.0
  3
DIMSTYLE_1
100
AcDbAlignedDimension
 13
150.2294836957
 23
168.9926630435
 14
135.4794836957
 24
81.9926630435
 50
270.0
100
AcDbRotatedDimension
  0
DIMENSION
  5
247
100
AcDbEntity
  8
0
100
AcDbDimension
 62
2
  6
CONTINUOUS
  2
*D1
 10
76.7294836957
 20
64.741822156
 11
100.7294836957
 21
64.741822156
 70
160
 71
2
 42
48.0
  1
%%c<>
  3
DIMSTYLE_2
100
AcDbAlignedDimension
 13
124.7294836957
 23
82.7926630435
 14
76.7294836957
 24
82.7926630435
 50
180.0
100
AcDbRotatedDimension
  0
DIMENSION
  5
248
100
AcDbEntity
  8
0
100
AcDbDimension
 62
2
  6
CONTINUOUS
  2
*D2
 10
64.7294836957
 20
53.774782156
 11
100.7294836957
 21
53.774782156
 70
160
 71
2
 42
72.0
  1
%%c<>
  3
DIMSTYLE_2
100
AcDbAlignedDimension
 13
136.7294836957
 23
84.9926630435
 14
64.7294836957
 24
84.9926630435
 50
180.0
100
AcDbRotatedDimension
  0
DIMENSION
  5
249
100
AcDbEntity
  8
0
100
AcDbDimension
 62
2
  6
CONTINUOUS
  2
*D3
 10
174.7237792439
 20
197.9426630435
 11
174.7237792439
 21
139.5390979458
 70
160
 71
2
 42
115.95
  3
DIMSTYLE_3
100
AcDbAlignedDimension
 13
135.4794836957
 23
81.9926630435
 14
150.2294836957
 24
197.9426630435
 50
90.0
100
AcDbRotatedDimension
  0
LINE
  5
24A
100
AcDbEntity
  8
0
100
AcDbLine
 62
7
  6
CONTINUOUS
 10
0.0
 20
0.0
 11
210.0
 21
0.0
  0
LINE
  5
24B
100
AcDbEntity
  8
0
100
AcDbLine
 62
7
  6
CONTINUOUS
 10
0.0
 20
0.0
 11
0.0
 21
297.0
  0
LINE
  5
24C
100
AcDbEntity
  8
0
100
AcDbLine
 62
7
  6
CONTINUOUS
 10
210.0
 20
0.0
 11
210.0
 21
297.0
  0
LINE
  5
24D
100
AcDbEntity
  8
0
100
AcDbLine
 62
7
  6
CONTINUOUS
 10
0.0
 20
297.0
 11
210.0
 21
297.0
  0
LINE
  5
24E
100
AcDbEntity
  8
0
100
AcDbLine
 62
7
  6
CONTINUOUS
 10
65.979766756
 20
81.9926630435
 11
135.4792006353
 21
81.9926630435
  0
LINE
  5
24F
100
AcDbEntity
  8
0
100
AcDbLine
 62
7
  6
CONTINUOUS
 10
64.7294836957
 20
84.9926630435
 11
136.7294836957
 21
84.9926630435
  0
LINE
  5
250
100
AcDbEntity
  8
0
100
AcDbLine
 62
7
  6
CONTINUOUS
 10
64.7294836957
 20
84.9926630435
 11
65.9794836957
 21
81.9926630435
  0
LINE
  5
251
100
AcDbEntity
  8
0
100
AcDbLine
 62
7
  6
CONTINUOUS
 10
51.2294836957
 20
197.9426630435
 11
50.7294836957
 21
197.4426630435
  0
LINE
  5
252
100
AcDbEntity
  8
0
100
AcDbLine
 62
7
  6
CONTINUOUS
 10
64.7294836957
 20
106.9926630435
 11
136.7294836957
 21
106.9926630435
  0
LINE
  5
253
100
AcDbEntity
  8
0
100
AcDbLine
 62
7
  6
CONTINUOUS
 10
64.5794836957
 20
107.2524706646
 11
136.8794836957
 21
107.2524706646
  0
LINE
  5
254
100
AcDbEntity
  8
0
100
AcDbLine
 62
7
  6
CONTINUOUS
 10
64.5794836957
 20
107.2524706646
 11
64.7294836957
 21
106.9926630435
  0
LINE
  5
255
100
AcDbEntity
  8
0
100
AcDbLine
 62
7
  6
CONTINUOUS
 10
50.7294836957
 20
197.4426630435
 11
50.7294836957
 21
181.1902583077
  0
LINE
  5
256
100
AcDbEntity
  8
0
100
AcDbLine
 62
7
  6
CONTINUOUS
 10
50.7294836957
 20
174.6950677793
 11
50.7294836957
 21
169.4926630435
  0
LINE
  5
257
100
AcDbEntity
  8
0
100
AcDbLine
 62
7
  6
CONTINUOUS
 10
54.7294836957
 20
176.0676630435
 11
54.7294836957
 21
179.8176630435
  0
LINE
  5
258
100
AcDbEntity
  8
0
100
AcDbLine
 62
7
  6
CONTINUOUS
 10
110.7394836957
 20
246.3426630435
 11
112.2394836957
 21
247.8426630435
  0
LINE
  5
259
100
AcDbEntity
  8
0
100
AcDbLine
 62
7
  6
CONTINUOUS
 10
61.8997270649
 20
193.1443226911
 11
61.8997270649
 21
181.1902583077
  0
LINE
  5
25A
100
AcDbEntity
  8
0
100
AcDbLine
 62
7
  6
CONTINUOUS
 10
61.8997270649
 20
174.6950677793
 11
61.8997270649
 21
169.4926630435
  0
LINE
  5
25B
100
AcDbEntity
  8
0
100
AcDbLine
 62
7
  6
CONTINUOUS
 10
65.1269461769
 20
245.9427458303
 11
62.8472024457
 21
200.4426630435
  0
LINE
  5
25C
100
AcDbEntity
  8
0
100
AcDbLine
 62
7
  6
CONTINUOUS
 10
63.1794836957
 20
198.7426630435
 11
63.1794836957
 21
199.2025725361
  0
LINE
  5
25D
100
AcDbEntity
  8
0
100
AcDbLine
 62
7
  6
CONTINUOUS
 10
64.5794836957
 20
134.7328554223
 11
64.5794836957
 21
107.2524706646
  0
LINE
  5
25E
100
AcDbEntity
  8
0
100
AcDbLine
 62
7
  6
CONTINUOUS
 10
64.7294836957
 20
159.9926630435
 11
64.7294836957
 21
134.9926630435
  0
LINE
  5
25F
100
AcDbEntity
  8
0
100
AcDbLine
 62
7
  6
CONTINUOUS
 10
64.7294836957
 20
106.9926630435
 11
64.7294836957
 21
84.9926630435
  0
LINE
  5
260
100
AcDbEntity
  8
0
100
AcDbLine
 62
7
  6
CONTINUOUS
 10
67.2071031119
 20
176.0676630435
 11
67.2071031119
 21
179.8176630435
  0
LINE
  5
261
100
AcDbEntity
  8
0
100
AcDbLine
 62
7
  6
CONTINUOUS
 10
67.4794836957
 20
166.9926630435
 11
67.4794836957
 21
159.9926630435
  0
LINE
  5
262
100
AcDbEntity
  8
0
100
AcDbLine
 62
7
  6
CONTINUOUS
 10
68.7294836957
 20
168.9926630435
 11
68.7294836957
 21
182.9926630435
  0
LINE
  5
263
100
AcDbEntity
  8
0
100
AcDbLine
 62
7
  6
CONTINUOUS
 10
69.2294836957
 20
169.4926630435
 11
69.2294836957
 21
182.9926630435
  0
LINE
  5
264
100
AcDbEntity
  8
0
100
AcDbLine
 62
7
  6
CONTINUOUS
 10
89.1039705569
 20
237.8426630435
 11
89.0011482864
 21
237.52683894
  0
LINE
  5
265
100
AcDbEntity
  8
0
100
AcDbLine
 62
7
  6
CONTINUOUS
 10
50.7294836957
 20
174.6950677793
 11
53.1068884315
 21
176.0676630435
  0
LINE
  5
266
100
AcDbEntity
  8
0
100
AcDbLine
 62
7
  6
CONTINUOUS
 10
50.7294836957
 20
169.4926630435
 11
51.2294836957
 21
168.9926630435
  0
LINE
  5
267
100
AcDbEntity
  8
0
100
AcDbLine
 62
7
  6
CONTINUOUS
 10
69.6209243084
 20
182.9926630435
 11
69.6209243084
 21
181.1902583077
  0
LINE
  5
268
100
AcDbEntity
  8
0
100
AcDbLine
 62
7
  6
CONTINUOUS
 10
69.6209243084
 20
174.6950677793
 11
69.6209243084
 21
169.4926630435
  0
LINE
  5
269
100
AcDbEntity
  8
0
100
AcDbLine
 62
7
  6
CONTINUOUS
 10
64.5794836957
 20
134.7328554223
 11
136.8794836957
 21
134.7328554223
  0
LINE
  5
26A
100
AcDbEntity
  8
0
100
AcDbLine
 62
7
  6
CONTINUOUS
 10
64.7294836957
 20
134.9926630435
 11
136.7294836957
 21
134.9926630435
  0
LINE
  5
26B
100
AcDbEntity
  8
0
100
AcDbLine
 62
7
  6
CONTINUOUS
 10
63.1794836957
 20
199.2025725361
 11
62.8472024457
 21
200.4426630435
  0
LINE
  5
26C
100
AcDbEntity
  8
DEFAULT_2
100
AcDbLine
 62
8
  6
HIDDEN
 10
76.7294836957
 20
134.9926630435
 11
76.7294836957
 21
82.7926630435
  0
LINE
  5
26D
100
AcDbEntity
  8
0
100
AcDbLine
 62
7
  6
CONTINUOUS
 10
69.2294836957
 20
169.4926630435
 11
69.7294836957
 21
168.9926630435
  0
LINE
  5
26E
100
AcDbEntity
  8
0
100
AcDbLine
 62
7
  6
CONTINUOUS
 10
64.7294836957
 20
134.9926630435
 11
64.5794836957
 21
134.7328554223
  0
LINE
  5
26F
100
AcDbEntity
  8
0
100
AcDbLine
 62
7
  6
CONTINUOUS
 10
90.2406091197
 20
182.9926630435
 11
90.2406091197
 21
181.1902583077
  0
LINE
  5
270
100
AcDbEntity
  8
0
100
AcDbLine
 62
7
  6
CONTINUOUS
 10
90.2406091197
 20
174.6950677793
 11
90.2406091197
 21
169.6500325693
  0
LINE
  5
271
100
AcDbEntity
  8
0
100
AcDbLine
 62
7
  6
CONTINUOUS
 10
90.7194836957
 20
246.3426630435
 11
90.7194836957
 21
239.8426630435
  0
LINE
  5
272
100
AcDbEntity
  8
0
100
AcDbLine
 62
7
  6
CONTINUOUS
 10
90.7294836957
 20
169.4926630435
 11
90.7294836957
 21
182.9926630435
  0
LINE
  5
273
100
AcDbEntity
  8
0
100
AcDbLine
 62
7
  6
CONTINUOUS
 10
91.2294836957
 20
169.9926630435
 11
91.2294836957
 21
182.9926630435
  0
LINE
  5
274
100
AcDbEntity
  8
0
100
AcDbLine
 62
7
  6
CONTINUOUS
 10
91.2294836957
 20
169.9926630435
 11
90.2294836957
 21
168.9926630435
  0
LINE
  5
275
100
AcDbEntity
  8
0
100
AcDbLine
 62
7
  6
CONTINUOUS
 10
53.1068884315
 20
179.8176630435
 11
50.7294836957
 21
181.1902583077
  0
LINE
  5
276
100
AcDbEntity
  8
3_ALL_AXES
100
AcDbLine
 62
7
  6
CENTER
 10
100.7294836957
 20
253.8426630435
 11
100.7294836957
 21
75.9926630435
  0
LINE
  5
277
100
AcDbEntity
  8
0
100
AcDbLine
 62
7
  6
CONTINUOUS
 10
64.729776938
 20
159.9926630435
 11
136.7291904533
 21
159.9926630435
  0
LINE
  5
278
100
AcDbEntity
  8
0
100
AcDbLine
 62
7
  6
CONTINUOUS
 10
133.9794836957
 20
166.9926630435
 11
67.4794836957
 21
166.9926630435
  0
LINE
  5
279
100
AcDbEntity
  8
0
100
AcDbLine
 62
7
  6
CONTINUOUS
 10
51.2294973978
 20
168.9926630435
 11
150.229472165
 21
168.9926630435
  0
LINE
  5
27A
100
AcDbEntity
  8
0
100
AcDbLine
 62
7
  6
CONTINUOUS
 10
90.4294836957
 20
169.1926630435
 11
111.0294836957
 21
169.1926630435
  0
LINE
  5
27B
100
AcDbEntity
  8
0
100
AcDbLine
 62
7
  6
CONTINUOUS
 10
150.7294836957
 20
169.4926630435
 11
111.3582268592
 21
169.4926630435
  0
LINE
  5
27C
100
AcDbEntity
  8
0
100
AcDbLine
 62
7
  6
CONTINUOUS
 10
90.1007405321
 20
169.4926630435
 11
69.6209243084
 21
169.4926630435
  0
LINE
  5
27D
100
AcDbEntity
  8
0
100
AcDbLine
 62
7
  6
CONTINUOUS
 10
69.1624939444
 20
169.4926630435
 11
50.7294836957
 21
169.4926630435
  0
LINE
  5
27E
100
AcDbEntity
  8
0
100
AcDbLine
 62
7
  6
CONTINUOUS
 10
110.2294836957
 20
182.9926630435
 11
110.2294836957
 21
169.9926630435
  0
LINE
  5
27F
100
AcDbEntity
  8
0
100
AcDbLine
 62
7
  6
CONTINUOUS
 10
110.7294836957
 20
169.4926630435
 11
110.7294836957
 21
182.9926630435
  0
LINE
  5
280
100
AcDbEntity
  8
0
100
AcDbLine
 62
7
  6
CONTINUOUS
 10
110.7394836957
 20
246.3426630435
 11
110.7394836957
 21
239.8426630435
  0
LINE
  5
281
100
AcDbEntity
  8
0
100
AcDbLine
 62
7
  6
CONTINUOUS
 10
111.2183582716
 20
182.9926630435
 11
111.2183582716
 21
181.1902583077
  0
LINE
  5
282
100
AcDbEntity
  8
0
100
AcDbLine
 62
7
  6
CONTINUOUS
 10
111.2183582716
 20
174.6950677793
 11
111.2183582716
 21
169.6500325693
  0
LINE
  5
283
100
AcDbEntity
  8
0
100
AcDbLine
 62
7
  6
CONTINUOUS
 10
148.3520789598
 20
179.8176630435
 11
150.7294836957
 21
181.1902583077
  0
LINE
  5
284
100
AcDbEntity
  8
0
100
AcDbLine
 62
7
  6
CONTINUOUS
 10
150.7294836957
 20
174.6950677793
 11
111.2183582716
 21
174.6950677793
  0
LINE
  5
285
100
AcDbEntity
  8
0
100
AcDbLine
 62
7
  6
CONTINUOUS
 10
90.2406091197
 20
174.6950677793
 11
69.6209243084
 21
174.6950677793
  0
LINE
  5
286
100
AcDbEntity
  8
0
100
AcDbLine
 62
7
  6
CONTINUOUS
 10
61.8997270649
 20
174.6950677793
 11
50.7294836957
 21
174.6950677793
  0
LINE
  5
287
100
AcDbEntity
  8
0
100
AcDbLine
 62
7
  6
CONTINUOUS
 10
53.1068988934
 20
176.0676630435
 11
67.2071031119
 21
176.0676630435
  0
LINE
  5
288
100
AcDbEntity
  8
0
100
AcDbLine
 62
7
  6
CONTINUOUS
 10
69.2294836957
 20
176.0676630435
 11
90.7294836957
 21
176.0676630435
  0
LINE
  5
289
100
AcDbEntity
  8
0
100
AcDbLine
 62
7
  6
CONTINUOUS
 10
110.7294836957
 20
176.0676630435
 11
148.3520742249
 21
176.0676630435
  0
LINE
  5
28A
100
AcDbEntity
  8
0
100
AcDbLine
 62
7
  6
CONTINUOUS
 10
111.2294836957
 20
168.9926630435
 11
110.7294836957
 21
169.4926630435
  0
LINE
  5
28B
100
AcDbEntity
  8
0
100
AcDbLine
 62
7
  6
CONTINUOUS
 10
110.6433595693
 20
169.5787871698
 11
110.2294836957
 21
169.9926630435
  0
LINE
  5
28C
100
AcDbEntity
  8
0
100
AcDbLine
 62
7
  6
CONTINUOUS
 10
148.3520742249
 20
179.8176630435
 11
110.7294836957
 21
179.8176630435
  0
LINE
  5
28D
100
AcDbEntity
  8
0
100
AcDbLine
 62
7
  6
CONTINUOUS
 10
90.7294836957
 20
179.8176630435
 11
69.2294836957
 21
179.8176630435
  0
LINE
  5
28E
100
AcDbEntity
  8
0
100
AcDbLine
 62
7
  6
CONTINUOUS
 10
53.1068988934
 20
179.8176630435
 11
67.2071031119
 21
179.8176630435
  0
LINE
  5
28F
100
AcDbEntity
  8
0
100
AcDbLine
 62
7
  6
CONTINUOUS
 10
150.7294836957
 20
181.1902583077
 11
111.2183582716
 21
181.1902583077
  0
LINE
  5
290
100
AcDbEntity
  8
0
100
AcDbLine
 62
7
  6
CONTINUOUS
 10
90.2406091197
 20
181.1902583077
 11
69.6209243084
 21
181.1902583077
  0
LINE
  5
291
100
AcDbEntity
  8
0
100
AcDbLine
 62
7
  6
CONTINUOUS
 10
61.8997270649
 20
181.1902583077
 11
50.7294836957
 21
181.1902583077
  0
LINE
  5
292
100
AcDbEntity
  8
0
100
AcDbLine
 62
7
  6
CONTINUOUS
 10
91.2294836957
 20
182.9926630435
 11
90.2406091197
 21
182.9926630435
  0
LINE
  5
293
100
AcDbEntity
  8
0
100
AcDbLine
 62
7
  6
CONTINUOUS
 10
68.7294836957
 20
182.9926630435
 11
69.6209243084
 21
182.9926630435
  0
LINE
  5
294
100
AcDbEntity
  8
0
100
AcDbLine
 62
7
  6
CONTINUOUS
 10
110.2294836957
 20
182.9926630435
 11
111.2183582716
 21
182.9926630435
  0
LINE
  5
295
100
AcDbEntity
  8
0
100
AcDbLine
 62
7
  6
CONTINUOUS
 10
136.7294836957
 20
134.9926630435
 11
136.8794836957
 21
134.7328554223
  0
LINE
  5
296
100
AcDbEntity
  8
DEFAULT_2
100
AcDbLine
 62
8
  6
HIDDEN
 10
124.7294836957
 20
134.9926630435
 11
124.7294836957
 21
82.7926630435
  0
LINE
  5
297
100
AcDbEntity
  8
0
100
AcDbLine
 62
7
  6
CONTINUOUS
 10
138.2794836957
 20
199.2025725361
 11
138.6117649457
 21
200.4426630435
  0
LINE
  5
298
100
AcDbEntity
  8
0
100
AcDbLine
 62
7
  6
CONTINUOUS
 10
150.7294836957
 20
169.4926630435
 11
150.2294836957
 21
168.9926630435
  0
LINE
  5
299
100
AcDbEntity
  8
0
100
AcDbLine
 62
7
  6
CONTINUOUS
 10
150.7294836957
 20
197.4426630435
 11
50.7294836957
 21
197.4426630435
  0
LINE
  5
29A
100
AcDbEntity
  8
0
100
AcDbLine
 62
7
  6
CONTINUOUS
 10
150.2294836957
 20
197.9426630435
 11
51.2294836957
 21
197.9426630435
  0
LINE
  5
29B
100
AcDbEntity
  8
0
100
AcDbLine
 62
7
  6
CONTINUOUS
 10
133.9794836957
 20
166.9926630435
 11
133.9794836957
 21
159.9926630435
  0
LINE
  5
29C
100
AcDbEntity
  8
0
100
AcDbLine
 62
7
  6
CONTINUOUS
 10
136.7294836957
 20
159.9926630435
 11
136.7294836957
 21
134.9926630435
  0
LINE
  5
29D
100
AcDbEntity
  8
0
100
AcDbLine
 62
7
  6
CONTINUOUS
 10
136.7294836957
 20
106.9926630435
 11
136.7294836957
 21
84.9926630435
  0
LINE
  5
29E
100
AcDbEntity
  8
0
100
AcDbLine
 62
7
  6
CONTINUOUS
 10
136.8794836957
 20
134.7328554223
 11
136.8794836957
 21
107.2524706646
  0
LINE
  5
29F
100
AcDbEntity
  8
0
100
AcDbLine
 62
7
  6
CONTINUOUS
 10
138.2794836957
 20
198.7426630435
 11
138.2794836957
 21
199.2025725361
  0
LINE
  5
2A0
100
AcDbEntity
  8
0
100
AcDbLine
 62
7
  6
CONTINUOUS
 10
63.1794836957
 20
198.7426630435
 11
138.2794836957
 21
198.7426630435
  0
LINE
  5
2A1
100
AcDbEntity
  8
0
100
AcDbLine
 62
7
  6
CONTINUOUS
 10
63.1794836957
 20
199.2025725361
 11
138.2794836957
 21
199.2025725361
  0
LINE
  5
2A2
100
AcDbEntity
  8
0
100
AcDbLine
 62
7
  6
CONTINUOUS
 10
138.6117649457
 20
200.4426630435
 11
62.8472024457
 21
200.4426630435
  0
LINE
  5
2A3
100
AcDbEntity
  8
0
100
AcDbLine
 62
7
  6
CONTINUOUS
 10
150.7294836957
 20
174.6950677793
 11
148.3520789598
 21
176.0676630435
  0
LINE
  5
2A4
100
AcDbEntity
  8
0
100
AcDbLine
 62
7
  6
CONTINUOUS
 10
112.3549968344
 20
237.8426630435
 11
112.4578191049
 21
237.52683894
  0
LINE
  5
2A5
100
AcDbEntity
  8
0
100
AcDbLine
 62
7
  6
CONTINUOUS
 10
136.3320212144
 20
245.9427458303
 11
138.6117649457
 21
200.4426630435
  0
LINE
  5
2A6
100
AcDbEntity
  8
0
100
AcDbLine
 62
7
  6
CONTINUOUS
 10
146.7294836957
 20
176.0676630435
 11
146.7294836957
 21
179.8176630435
  0
LINE
  5
2A7
100
AcDbEntity
  8
0
100
AcDbLine
 62
7
  6
CONTINUOUS
 10
150.7294836957
 20
197.4426630435
 11
150.7294836957
 21
196.4426630435
  0
LINE
  5
2A8
100
AcDbEntity
  8
0
100
AcDbLine
 62
7
  6
CONTINUOUS
 10
150.7294836957
 20
185.4426630435
 11
150.7294836957
 21
181.1902583077
  0
LINE
  5
2A9
100
AcDbEntity
  8
0
100
AcDbLine
 62
7
  6
CONTINUOUS
 10
150.7294836957
 20
174.6950677793
 11
150.7294836957
 21
169.4926630435
  0
LINE
  5
2AA
100
AcDbEntity
  8
0
100
AcDbLine
 62
7
  6
CONTINUOUS
 10
89.2194836957
 20
247.8426630435
 11
90.7194836957
 21
246.3426630435
  0
LINE
  5
2AB
100
AcDbEntity
  8
0
100
AcDbLine
 62
7
  6
CONTINUOUS
 10
150.2294836957
 20
197.9426630435
 11
150.7294836957
 21
197.4426630435
  0
LINE
  5
2AC
100
AcDbEntity
  8
0
100
AcDbLine
 62
7
  6
CONTINUOUS
 10
136.7294836957
 20
84.9926630435
 11
135.4794836957
 21
81.9926630435
  0
LINE
  5
2AD
100
AcDbEntity
  8
0
100
AcDbLine
 62
7
  6
CONTINUOUS
 10
136.8794836957
 20
107.2524706646
 11
136.7294836957
 21
106.9926630435
  0
LINE
  5
2AE
100
AcDbEntity
  8
0
100
AcDbLine
 62
7
  6
CONTINUOUS
 10
112.4578191049
 20
237.52683894
 11
89.0011482864
 21
237.52683894
  0
LINE
  5
2AF
100
AcDbEntity
  8
0
100
AcDbLine
 62
7
  6
CONTINUOUS
 10
88.6705563472
 20
237.8426630435
 11
112.7884110441
 21
237.8426630435
  0
LINE
  5
2B0
100
AcDbEntity
  8
0
100
AcDbLine
 62
7
  6
CONTINUOUS
 10
84.6338777177
 20
239.8426630435
 11
90.7194836957
 21
239.8426630435
  0
LINE
  5
2B1
100
AcDbEntity
  8
0
100
AcDbLine
 62
7
  6
CONTINUOUS
 10
110.7394836957
 20
239.8426630435
 11
116.8250896758
 21
239.8426630435
  0
LINE
  5
2B2
100
AcDbEntity
  8
0
100
AcDbLine
 62
7
  6
CONTINUOUS
 10
65.1269461769
 20
245.9427458303
 11
85.6382298162
 21
245.9427458303
  0
LINE
  5
2B3
100
AcDbEntity
  8
0
100
AcDbLine
 62
7
  6
CONTINUOUS
 10
115.8207375751
 20
245.9427458303
 11
136.3320212144
 21
245.9427458303
  0
LINE
  5
2B4
100
AcDbEntity
  8
0
100
AcDbLine
 62
7
  6
CONTINUOUS
 10
85.7911558617
 20
246.3426630435
 11
90.7194836957
 21
246.3426630435
  0
LINE
  5
2B5
100
AcDbEntity
  8
0
100
AcDbLine
 62
7
  6
CONTINUOUS
 10
110.7394836957
 20
246.3426630435
 11
115.6678115296
 21
246.3426630435
  0
LINE
  5
2B6
100
AcDbEntity
  8
0
100
AcDbLine
 62
7
  6
CONTINUOUS
 10
67.1244404663
 20
247.8426630435
 11
89.2194836957
 21
247.8426630435
  0
LINE
  5
2B7
100
AcDbEntity
  8
0
100
AcDbLine
 62
7
  6
CONTINUOUS
 10
112.2394836957
 20
247.8426630435
 11
134.334526925
 21
247.8426630435
  0
ARC
  5
2B8
100
AcDbEntity
  8
0
100
AcDbCircle
 62
7
  6
CONTINUOUS
 10
10.8880121401
 20
0.9208023222
 40
200.6581014811
100
AcDbArc
 50
59.9995728926
 51
60.1606311208
  0
ARC
  5
2B9
100
AcDbEntity
  8
0
100
AcDbCircle
 62
7
  6
CONTINUOUS
 10
58.657283669
 20
122.7933910149
 40
70.414568245
100
AcDbArc
 50
41.5447412116
 51
41.7160585229
  0
ARC
  5
2BA
100
AcDbEntity
  8
0
100
AcDbCircle
 62
7
  6
CONTINUOUS
 10
39.0027652018
 20
172.3753270719
 40
30.913137039
100
AcDbArc
 50
39.6695660178
 51
42.2100210149
  0
ARC
  5
2BB
100
AcDbEntity
  8
0
100
AcDbCircle
 62
7
  6
CONTINUOUS
 10
54.466426506
 20
148.4492597846
 40
30.3067853943
100
AcDbArc
 50
59.9975875348
 51
60.8485029534
  0
ARC
  5
2BC
100
AcDbEntity
  8
0
100
AcDbCircle
 62
7
  6
CONTINUOUS
 10
41.617665923
 20
174.5593279928
 40
27.5061724664
100
AcDbArc
 50
38.3595360805
 51
39.6448518704
  0
ARC
  5
2BD
100
AcDbEntity
  8
0
100
AcDbCircle
 62
7
  6
CONTINUOUS
 10
65.4794836957
 20
166.9926630435
 40
2.0
100
AcDbArc
 50
0.0
 51
89.9999872417
  0
ARC
  5
2BE
100
AcDbEntity
  8
0
100
AcDbCircle
 62
7
  6
CONTINUOUS
 10
135.9794836957
 20
166.9926630435
 40
2.0
100
AcDbArc
 50
90.0000127583
 51
180.0
  0
ARC
  5
2BF
100
AcDbEntity
  8
0
100
AcDbCircle
 62
7
  6
CONTINUOUS
 10
10.8880121489
 20
354.9645237495
 40
200.6581014636
100
AcDbArc
 50
299.8393688792
 51
300.0004271074
  0
ARC
  5
2C0
100
AcDbEntity
  8
0
100
AcDbCircle
 62
7
  6
CONTINUOUS
 10
46.7581088903
 20
192.354266516
 40
32.3320466748
100
AcDbArc
 50
314.5110112358
 51
315.0015186495
  0
ARC
  5
2C1
100
AcDbEntity
  8
0
100
AcDbCircle
 62
7
  6
CONTINUOUS
 10
54.4664265058
 20
207.4360663026
 40
30.3067853946
100
AcDbArc
 50
299.1514970466
 51
300.0024124652
  0
ARC
  5
2C2
100
AcDbEntity
  8
0
100
AcDbCircle
 62
7
  6
CONTINUOUS
 10
59.2141899797
 20
183.228754117
 40
10.2728092352
100
AcDbArc
 50
67.5599500169
 51
74.8455518958
  0
ARC
  5
2C3
100
AcDbEntity
  8
0
100
AcDbCircle
 62
7
  6
CONTINUOUS
 10
100.7294836957
 20
182.9926630435
 40
10.0
100
AcDbArc
 50
0.0
 51
180.0
  0
ARC
  5
2C4
100
AcDbEntity
  8
0
100
AcDbCircle
 62
7
  6
CONTINUOUS
 10
59.2294836957
 20
182.9926630435
 40
10.0
100
AcDbArc
 50
0.0
 51
68.2395607054
  0
ARC
  5
2C5
100
AcDbEntity
  8
0
100
AcDbCircle
 62
7
  6
CONTINUOUS
 10
100.7294836957
 20
182.9926630435
 40
9.5
100
AcDbArc
 50
0.0
 51
180.0
  0
ARC
  5
2C6
100
AcDbEntity
  8
0
100
AcDbCircle
 62
7
  6
CONTINUOUS
 10
59.2294836957
 20
182.9926630435
 40
9.5
100
AcDbArc
 50
0.0
 51
65.3868462317
  0
ARC
  5
2C7
100
AcDbEntity
  8
0
100
AcDbCircle
 62
7
  6
CONTINUOUS
 10
100.7249396763
 20
212.9311055355
 40
6.4877914255
100
AcDbArc
 50
179.7126003087
 51
270.0401295425
  0
ARC
  5
2C8
100
AcDbEntity
  8
0
100
AcDbCircle
 62
7
  6
CONTINUOUS
 10
100.7340326163
 20
212.931103875
 40
6.4877880428
100
AcDbArc
 50
269.9598271632
 51
0.2874145719
  0
CIRCLE
  5
2C9
100
AcDbEntity
  8
0
100
AcDbCircle
 62
7
  6
CONTINUOUS
 10
100.7294836957
 20
212.9426630435
 40
6.0
  0
ARC
  5
2CA
100
AcDbEntity
  8
0
100
AcDbCircle
 62
7
  6
CONTINUOUS
 10
112.4441442853
 20
240.4860038417
 40
2.9599580219
100
AcDbArc
 50
277.4267961545
 51
279.8963757176
  0
ARC
  5
2CB
100
AcDbEntity
  8
0
100
AcDbCircle
 62
7
  6
CONTINUOUS
 10
89.010827175
 20
240.4613822678
 40
2.9350216706
100
AcDbArc
 50
259.6978899511
 51
264.7159909765
  0
ARC
  5
2CC
100
AcDbEntity
  8
0
100
AcDbCircle
 62
7
  6
CONTINUOUS
 10
112.4567623468
 20
240.386107354
 40
2.8592686093
100
AcDbArc
 50
270.0211759683
 51
277.434818626
  0
ARC
  5
2CD
100
AcDbEntity
  8
0
100
AcDbCircle
 62
7
  6
CONTINUOUS
 10
89.0014623226
 20
240.3710361033
 40
2.8441971807
100
AcDbArc
 50
264.7362331819
 51
269.9936738037
  0
ARC
  5
2CE
100
AcDbEntity
  8
0
100
AcDbCircle
 62
7
  6
CONTINUOUS
 10
92.7194836957
 20
239.8426630435
 40
2.0
100
AcDbArc
 50
180.0
 51
270.0
  0
ARC
  5
2CF
100
AcDbEntity
  8
0
100
AcDbCircle
 62
7
  6
CONTINUOUS
 10
108.7394836957
 20
239.8426630435
 40
2.0
100
AcDbArc
 50
270.0
 51
360.0
  0
ARC
  5
2D0
100
AcDbEntity
  8
0
100
AcDbCircle
 62
7
  6
CONTINUOUS
 10
134.3345269251
 20
245.8426630435
 40
2.0
100
AcDbArc
 50
2.868358622
 51
90.0
  0
ARC
  5
2D1
100
AcDbEntity
  8
0
100
AcDbCircle
 62
7
  6
CONTINUOUS
 10
67.1244404662
 20
245.8426630435
 40
2.0
100
AcDbArc
 50
90.0
 51
177.131641378
  0
ARC
  5
2D2
100
AcDbEntity
  8
0
100
AcDbCircle
 62
7
  6
CONTINUOUS
 10
139.2794836957
 20
198.7426630435
 40
1.0
100
AcDbArc
 50
180.0
 51
234.6418826191
  0
ARC
  5
2D3
100
AcDbEntity
  8
0
100
AcDbCircle
 62
7
  6
CONTINUOUS
 10
62.1794836957
 20
198.7426630435
 40
1.0
100
AcDbArc
 50
305.3581173809
 51
360.0
  0
ARC
  5
2D4
100
AcDbEntity
  8
0
100
AcDbCircle
 62
7
  6
CONTINUOUS
 10
170.1639512864
 20
-66.6551168399
 40
264.5204223911
100
AcDbArc
 50
113.4229294509
 51
114.1599235294
  0
ARC
  5
2D5
100
AcDbEntity
  8
0
100
AcDbCircle
 62
7
  6
CONTINUOUS
 10
190.5709935703
 20
0.9207297027
 40
200.6581835309
100
AcDbArc
 50
119.8393680541
 51
120.0004262151
  0
ARC
  5
2D6
100
AcDbEntity
  8
0
100
AcDbCircle
 62
7
  6
CONTINUOUS
 10
142.8020665635
 20
122.7930507491
 40
70.4150804439
100
AcDbArc
 50
138.2839421002
 51
138.4552581653
  0
ARC
  5
2D7
100
AcDbEntity
  8
0
100
AcDbCircle
 62
7
  6
CONTINUOUS
 10
170.1639512872
 20
422.5404429286
 40
264.5204223931
100
AcDbArc
 50
245.8400764706
 51
246.5770705491
  0
ARC
  5
2D8
100
AcDbEntity
  8
0
100
AcDbCircle
 62
7
  6
CONTINUOUS
 10
270.2148798311
 20
268.7412991535
 40
230.7498529614
100
AcDbArc
 50
205.4747658903
 51
205.6123666157
  0
ARC
  5
2D9
100
AcDbEntity
  8
0
100
AcDbCircle
 62
7
  6
CONTINUOUS
 10
190.5709935615
 20
354.964596369
 40
200.6581835134
100
AcDbArc
 50
239.9995737849
 51
240.1606319459
  0
ARC
  5
2DA
100
AcDbEntity
  8
0
100
AcDbCircle
 62
7
  6
CONTINUOUS
 10
205.8187992263
 20
190.9426630435
 40
55.3631889041
100
AcDbArc
 50
174.2986043209
 51
185.7013956791
  0
SPLINE
  5
2DB
100
AcDbEntity
  8
0
100
AcDbSpline
 62
7
  6
CONTINUOUS
 70
0
 71
3
 72
9
 73
5
 74
0
 42
0.0000001
 43
0.0000001
 44
0.0000000001
 40
0.0
 40
0.0
 40
0.0
 40
0.0
 40
0.7492554847
 40
1.0
 40
1.0
 40
1.0
 40
1.0
 10
113.9753153506
 20
237.9207006339
 30
0.0
 10
113.7332636185
 20
237.7998575
 30
0.0
 10
113.3950015617
 20
237.6637710863
 30
0.0
 10
113.0420555139
 20
237.5856420497
 30
0.0
 10
112.9528627578
 20
237.5700894041
 30
0.0
  0
SPLINE
  5
2DC
100
AcDbEntity
  8
0
100
AcDbSpline
 62
7
  6
CONTINUOUS
 70
0
 71
3
 72
10
 73
6
 74
0
 42
0.0000001
 43
0.0000001
 44
0.0000000001
 40
0.0
 40
0.0
 40
0.0
 40
0.0
 40
0.5001493548
 40
0.7501571551
 40
1.0
 40
1.0
 40
1.0
 40
1.0
 10
115.8207375751
 20
245.9427458303
 30
0.0
 10
115.9532807883
 20
244.9203239626
 30
0.0
 10
116.1672441149
 20
243.3885505769
 30
0.0
 10
116.5100041304
 20
241.3558192002
 30
0.0
 10
116.7108930513
 20
240.3448534605
 30
0.0
 10
116.8250896758
 20
239.8426630435
 30
0.0
  0
SPLINE
  5
2DD
100
AcDbEntity
  8
0
100
AcDbSpline
 62
7
  6
CONTINUOUS
 70
0
 71
3
 72
11
 73
7
 74
0
 42
0.0000001
 43
0.0000001
 44
0.0000000001
 40
0.0
 40
0.0
 40
0.0
 40
0.0
 40
0.2502102752
 40
0.5007268738
 40
0.7504320017
 40
1.0
 40
1.0
 40
1.0
 40
1.0
 10
100.7294836957
 20
219.4420366158
 30
0.0
 10
101.5733391754
 20
219.442034325
 30
0.0
 10
103.2805925912
 20
219.1045350658
 30
0.0
 10
105.4364945398
 20
217.6601489105
 30
0.0
 10
106.8778472922
 20
215.5060031341
 30
0.0
 10
107.2186614709
 20
213.8053324939
 30
0.0
 10
107.2218520701
 20
212.9636491953
 30
0.0
  0
SPLINE
  5
2DE
100
AcDbEntity
  8
0
100
AcDbSpline
 62
7
  6
CONTINUOUS
 70
0
 71
3
 72
11
 73
7
 74
0
 42
0.0000001
 43
0.0000001
 44
0.0000000001
 40
0.0
 40
0.0
 40
0.0
 40
0.0
 40
0.2495792611
 40
0.4993598826
 40
0.7498386889
 40
1.0
 40
1.0
 40
1.0
 40
1.0
 10
94.2371153212
 20
212.9636491953
 30
0.0
 10
94.2406571429
 20
213.8053680583
 30
0.0
 10
94.5810748424
 20
215.5063200588
 30
0.0
 10
96.0228730564
 20
217.6605566808
 30
0.0
 10
98.178837244
 20
219.1046558142
 30
0.0
 10
99.8857943701
 20
219.4420388828
 30
0.0
 10
100.7294836957
 20
219.4420366158
 30
0.0
  0
SPLINE
  5
2DF
100
AcDbEntity
  8
0
100
AcDbSpline
 62
7
  6
CONTINUOUS
 70
0
 71
3
 72
24
 73
20
 74
0
 42
0.0000001
 43
0.0000001
 44
0.0000000001
 40
0.0
 40
0.0
 40
0.0
 40
0.0
 40
0.1216445937
 40
0.1803063805
 40
0.2371416477
 40
0.291593505
 40
0.3176565498
 40
0.3427486399
 40
0.3669928441
 40
0.3918969712
 40
0.4203541994
 40
0.4521879353
 40
0.5196544722
 40
0.5885811987
 40
0.6577636063
 40
0.7268595071
 40
0.7957104171
 40
0.8642220209
 40
1.0
 40
1.0
 40
1.0
 40
1.0
 10
85.7911558617
 20
246.3426630435
 30
0.0
 10
85.6709862553
 20
246.4187967532
 30
0.0
 10
85.4942954949
 20
246.5339918736
 30
0.0
 10
85.2679953202
 20
246.6944011519
 30
0.0
 10
85.1106902698
 20
246.8159276569
 30
0.0
 10
84.9903913177
 20
246.9229081114
 30
0.0
 10
84.9082785465
 20
247.0154833275
 30
0.0
 10
84.8588859857
 20
247.0888745684
 30
0.0
 10
84.8278368636
 20
247.1718754094
 30
0.0
 10
84.8379950882
 20
247.2662604693
 30
0.0
 10
84.8980582248
 20
247.3495342538
 30
0.0
 10
85.0154000422
 20
247.4428584817
 30
0.0
 10
85.1924750523
 20
247.5318858119
 30
0.0
 10
85.4174324651
 20
247.6166207116
 30
0.0
 10
85.6498891565
 20
247.6858401229
 30
0.0
 10
85.8855759662
 20
247.7421051358
 30
0.0
 10
86.1230677177
 20
247.7862510022
 30
0.0
 10
86.4397010082
 20
247.8289358618
 30
0.0
 10
86.6788281212
 20
247.8426630435
 30
0.0
 10
86.8376134638
 20
247.8426630435
 30
0.0
  0
SPLINE
  5
2E0
100
AcDbEntity
  8
0
100
AcDbSpline
 62
7
  6
CONTINUOUS
 70
0
 71
3
 72
8
 73
4
 74
0
 42
0.0000001
 43
0.0000001
 44
0.0000000001
 40
0.0
 40
0.0
 40
0.0
 40
0.0
 40
1.0
 40
1.0
 40
1.0
 40
1.0
 10
85.6382298162
 20
245.9427458303
 30
0.0
 10
85.6565779647
 20
246.0842811662
 30
0.0
 10
85.7152771878
 20
246.2217856978
 30
0.0
 10
85.7911558617
 20
246.3426630435
 30
0.0
  0
SPLINE
  5
2E1
100
AcDbEntity
  8
0
100
AcDbSpline
 62
7
  6
CONTINUOUS
 70
0
 71
3
 72
8
 73
4
 74
0
 42
0.0000001
 43
0.0000001
 44
0.0000000001
 40
0.0
 40
0.0
 40
0.0
 40
0.0
 40
1.0
 40
1.0
 40
1.0
 40
1.0
 10
115.6678115296
 20
246.3426630435
 30
0.0
 10
115.7436902035
 20
246.2217856978
 30
0.0
 10
115.8023894266
 20
246.0842811662
 30
0.0
 10
115.8207375751
 20
245.9427458303
 30
0.0
  0
SPLINE
  5
2E2
100
AcDbEntity
  8
0
100
AcDbSpline
 62
7
  6
CONTINUOUS
 70
0
 71
3
 72
24
 73
20
 74
0
 42
0.0000001
 43
0.0000001
 44
0.0000000001
 40
0.0
 40
0.0
 40
0.0
 40
0.0
 40
0.1357678877
 40
0.2042743283
 40
0.2731200241
 40
0.3422106922
 40
0.4113879159
 40
0.4803095643
 40
0.5477716999
 40
0.5796053728
 40
0.6080774921
 40
0.6330049693
 40
0.6572627021
 40
0.6823577572
 40
0.7084213967
 40
0.762871792
 40
0.8197043402
 40
0.8783629302
 40
1.0
 40
1.0
 40
1.0
 40
1.0
 10
114.6213539275
 20
247.8426630435
 30
0.0
 10
114.7801273633
 20
247.8426630435
 30
0.0
 10
115.0192364264
 20
247.8289379099
 30
0.0
 10
115.3358461901
 20
247.786259284
 30
0.0
 10
115.573320336
 20
247.7421198763
 30
0.0
 10
115.808990349
 20
247.6858632674
 30
0.0
 10
116.041430311
 20
247.6166541319
 30
0.0
 10
116.2663780019
 20
247.5319371934
 30
0.0
 10
116.4434400284
 20
247.4429214447
 30
0.0
 10
116.560826973
 20
247.3496319572
 30
0.0
 10
116.6209355082
 20
247.2663402849
 30
0.0
 10
116.6311541957
 20
247.1718917455
 30
0.0
 10
116.6000639188
 20
247.0888497162
 30
0.0
 10
116.5506597352
 20
247.0154453757
 30
0.0
 10
116.4685382965
 20
246.9228733685
 30
0.0
 10
116.3482420685
 20
246.815897684
 30
0.0
 10
116.1909425179
 20
246.6943778935
 30
0.0
 10
115.9646535568
 20
246.5339805034
 30
0.0
 10
115.7879736235
 20
246.4187919936
 30
0.0
 10
115.6678115296
 20
246.3426630435
 30
0.0
  0
LINE
  5
2E3
100
AcDbEntity
  8
0
100
AcDbLine
 62
7
  6
CONTINUOUS
 10
111.0435422753
 20
169.1786044726
 11
111.3582272015
 21
169.4926624856
  0
LINE
  5
2E4
100
AcDbEntity
  8
0
100
AcDbLine
 62
7
  6
CONTINUOUS
 10
90.1007372136
 20
169.4926576086
 11
90.4154229682
 21
169.1786009484
  0
SPLINE
  5
2E5
100
AcDbEntity
  8
0
100
AcDbSpline
 62
7
  6
CONTINUOUS
 70
0
 71
3
 72
21
 73
17
 74
0
 42
0.0000001
 43
0.0000001
 44
0.0000000001
 40
0.0
 40
0.0
 40
0.0
 40
0.0
 40
0.0622072704
 40
0.1246761406
 40
0.1874466657
 40
0.2504358335
 40
0.3133964414
 40
0.3761115332
 40
0.5000002095
 40
0.6238896986
 40
0.686604865
 40
0.7495653966
 40
0.8125546073
 40
0.8753249502
 40
0.9377937515
 40
1.0
 40
1.0
 40
1.0
 40
1.0
 10
90.2406091197
 20
182.9926630435
 30
0.0
 10
90.2404937857
 20
183.6744883176
 30
0.0
 10
90.374061942
 20
185.0447482577
 30
0.0
 10
90.9700428028
 20
187.0239724289
 30
0.0
 10
91.9441892342
 20
188.8579455772
 30
0.0
 10
93.2631115082
 20
190.4688250949
 30
0.0
 10
94.873468763
 20
191.7883058469
 30
0.0
 10
97.3002511454
 20
193.082514335
 30
0.0
 10
100.7294997127
 20
193.7648615006
 30
0.0
 10
104.1587474148
 20
193.0825034628
 30
0.0
 10
106.585534588
 20
191.7882844961
 30
0.0
 10
108.1958847063
 20
190.4687941011
 30
0.0
 10
109.5147996236
 20
188.857912197
 30
0.0
 10
110.4889406862
 20
187.0239383845
 30
0.0
 10
111.0849063114
 20
185.044724577
 30
0.0
 10
111.2184751315
 20
183.6744771164
 30
0.0
 10
111.2183582716
 20
182.9926630435
 30
0.0
  0
LINE
  5
2E6
100
AcDbEntity
  8
0
100
AcDbLine
 62
7
  6
CONTINUOUS
 10
110.8953012862
 20
169.3268454604
 11
111.2183586389
 21
169.6500319635
  0
SPLINE
  5
2E7
100
AcDbEntity
  8
0
100
AcDbSpline
 62
7
  6
CONTINUOUS
 70
0
 71
3
 72
9
 73
5
 74
0
 42
0.0000001
 43
0.0000001
 44
0.0000000001
 40
0.0
 40
0.0
 40
0.0
 40
0.0
 40
0.2525676652
 40
1.0
 40
1.0
 40
1.0
 40
1.0
 10
87.4836520407
 20
237.9207006339
 30
0.0
 10
87.5835280754
 20
237.9133525665
 30
0.0
 10
87.9783495065
 20
237.8780175723
 30
0.0
 10
88.3741908553
 20
237.8426630435
 30
0.0
 10
88.6705563472
 20
237.8426630435
 30
0.0
  0
SPLINE
  5
2E8
100
AcDbEntity
  8
0
100
AcDbSpline
 62
7
  6
CONTINUOUS
 70
0
 71
3
 72
16
 73
12
 74
0
 42
0.0000001
 43
0.0000001
 44
0.0000000001
 40
0.0
 40
0.0
 40
0.0
 40
0.0
 40
0.2483222501
 40
0.3720970979
 40
0.4957268355
 40
0.6193959911
 40
0.7434576855
 40
0.8059594564
 40
0.8691692221
 40
0.9337776581
 40
1.0
 40
1.0
 40
1.0
 40
1.0
 10
87.4836520407
 20
237.9207006339
 30
0.0
 10
87.1873900894
 20
237.9762745524
 30
0.0
 10
86.7503043216
 20
238.1013823145
 30
0.0
 10
86.1953481715
 20
238.334786067
 30
0.0
 10
85.7940744194
 20
238.540517306
 30
0.0
 10
85.4097059574
 20
238.776770278
 30
0.0
 10
85.1070251786
 20
239.0023304419
 30
0.0
 10
84.8849414964
 20
239.2094509757
 30
0.0
 10
84.7353845526
 20
239.3862243232
 30
0.0
 10
84.6219008142
 20
239.5973501739
 30
0.0
 10
84.6160534617
 20
239.7642791975
 30
0.0
 10
84.6338777124
 20
239.8426630198
 30
0.0
  0
LINE
  5
2E9
100
AcDbEntity
  8
0
100
AcDbLine
 62
7
  6
CONTINUOUS
 10
90.240605793
 20
169.6500270833
 11
90.5636639599
 21
169.3268419078
  0
SPLINE
  5
2EA
100
AcDbEntity
  8
0
100
AcDbSpline
 62
7
  6
CONTINUOUS
 70
0
 71
3
 72
13
 73
9
 74
0
 42
0.0000001
 43
0.0000001
 44
0.0000000001
 40
0.0
 40
0.0
 40
0.0
 40
0.0
 40
0.1380231423
 40
0.2704316145
 40
0.3988085843
 40
0.5238911014
 40
0.7651921897
 40
1.0
 40
1.0
 40
1.0
 40
1.0
 10
63.1354912248
 20
192.7237004638
 30
0.0
 10
63.6617464809
 20
192.506612847
 30
0.0
 10
64.6600772589
 20
191.9957240111
 30
0.0
 10
65.9891391116
 20
191.015898502
 30
0.0
 10
67.1161287215
 20
189.8831730238
 30
0.0
 10
68.3265355984
 20
188.2324321446
 30
0.0
 10
69.3482694969
 20
185.9348910052
 30
0.0
 10
69.6210007463
 20
183.9611218036
 30
0.0
 10
69.6209243084
 20
182.9926630436
 30
0.0
  0
SPLINE
  5
2EB
100
AcDbEntity
  8
0
100
AcDbSpline
 62
7
  6
CONTINUOUS
 70
0
 71
3
 72
10
 73
6
 74
0
 42
0.0000001
 43
0.0000001
 44
0.0000000001
 40
0.0
 40
0.0
 40
0.0
 40
0.0
 40
0.2498426723
 40
0.4998505067
 40
1.0
 40
1.0
 40
1.0
 40
1.0
 10
84.6338777177
 20
239.8426630435
 30
0.0
 10
84.7480742639
 20
240.3448531172
 30
0.0
 10
84.9489647714
 20
241.3558182557
 30
0.0
 10
85.2917229711
 20
243.3885499835
 30
0.0
 10
85.5056865654
 20
244.9203236724
 30
0.0
 10
85.6382298162
 20
245.9427458303
 30
0.0
  0
SPLINE
  5
2EC
100
AcDbEntity
  8
0
100
AcDbSpline
 62
7
  6
CONTINUOUS
 70
0
 71
3
 72
17
 73
13
 74
0
 42
0.0000001
 43
0.0000001
 44
0.0000000001
 40
0.0
 40
0.0
 40
0.0
 40
0.0
 40
0.311275574
 40
0.4644020905
 40
0.6121366147
 40
0.7458800093
 40
0.8014533742
 40
0.8447541407
 40
0.877258343
 40
0.9101832211
 40
0.9511367808
 40
1.0
 40
1.0
 40
1.0
 40
1.0
 10
63.1861341413
 20
191.6294979528
 30
0.0
 10
63.1294942875
 20
191.701084727
 30
0.0
 10
63.0467802965
 20
191.8093435407
 30
0.0
 10
62.944994701
 20
191.9573515659
 30
0.0
 10
62.8787508057
 20
192.0661325573
 30
0.0
 10
62.834433971
 20
192.1552566662
 30
0.0
 10
62.8161140753
 20
192.2210273016
 30
0.0
 10
62.8134392716
 20
192.2603358013
 30
0.0
 10
62.8301421811
 20
192.290828398
 30
0.0
 10
62.8626253348
 20
192.2991535114
 30
0.0
 10
62.8983340199
 20
192.2938255193
 30
0.0
 10
62.9234418953
 20
192.2853955885
 30
0.0
 10
62.9367503008
 20
192.2800832621
 30
0.0
  0
SPLINE
  5
2ED
100
AcDbEntity
  8
0
100
AcDbSpline
 62
7
  6
CONTINUOUS
 70
0
 71
3
 72
9
 73
5
 74
0
 42
0.0000001
 43
0.0000001
 44
0.0000000001
 40
0.0
 40
0.0
 40
0.0
 40
0.0
 40
0.2474237834
 40
1.0
 40
1.0
 40
1.0
 40
1.0
 10
112.7884110441
 20
237.8426630435
 30
0.0
 10
112.8865379598
 20
237.8426630435
 30
0.0
 10
113.283218188
 20
237.85352503
 30
0.0
 10
113.6776522616
 20
237.8988010018
 30
0.0
 10
113.9753153506
 20
237.9207006339
 30
0.0
  0
SPLINE
  5
2EE
100
AcDbEntity
  8
0
100
AcDbSpline
 62
7
  6
CONTINUOUS
 70
0
 71
3
 72
16
 73
12
 74
0
 42
0.0000001
 43
0.0000001
 44
0.0000000001
 40
0.0
 40
0.0
 40
0.0
 40
0.0
 40
0.0662223421
 40
0.1308307782
 40
0.194040544
 40
0.2565423149
 40
0.3806040093
 40
0.5042731648
 40
0.6279029023
 40
0.7516777501
 40
1.0
 40
1.0
 40
1.0
 40
1.0
 10
116.8250896749
 20
239.8426630475
 30
0.0
 10
116.8429139259
 20
239.7642792243
 30
0.0
 10
116.8370665866
 20
239.5973501999
 30
0.0
 10
116.7235828523
 20
239.3862243421
 30
0.0
 10
116.5740259098
 20
239.2094509911
 30
0.0
 10
116.3519422275
 20
239.0023304538
 30
0.0
 10
116.0492614474
 20
238.7767702869
 30
0.0
 10
115.6648929832
 20
238.5405173123
 30
0.0
 10
115.2636192286
 20
238.334786071
 30
0.0
 10
114.7086630749
 20
238.1013823161
 30
0.0
 10
114.271577304
 20
237.9762745528
 30
0.0
 10
113.9753153506
 20
237.9207006339
 30
0.0
  0
SPLINE
  5
2EF
100
AcDbEntity
  8
0
100
AcDbSpline
 62
7
  6
CONTINUOUS
 70
0
 71
3
 72
8
 73
4
 74
0
 42
0.0000001
 43
0.0000001
 44
0.0000000001
 40
0.0
 40
0.0
 40
0.0
 40
0.0
 40
1.0
 40
1.0
 40
1.0
 40
1.0
 10
88.4859324522
 20
237.5736776886
 30
0.0
 10
88.1380567078
 20
237.6367765056
 30
0.0
 10
87.7999739972
 20
237.7627784567
 30
0.0
 10
87.4836520407
 20
237.9207006339
 30
0.0
  0
ENDSEC
  0
SECTION
  2
OBJECTS
  0
DICTIONARY
  5
C
100
AcDbDictionary
280
0
281
1
  3
ACAD_GROUP
350
D
  3
ACAD_MLINESTYLE
350
17
  3
ACAD_LAYOUT
350
1A
  3
ACAD_PLOTSETTINGS
350
19
  3
ACAD_PLOTSTYLENAME
350
E
  0
DICTIONARY
  5
D
102
{ACAD_REACTORS
330
C
102
}
100
AcDbDictionary
280
0
281
1
  0
ACDBDICTIONARYWDFLT
  5
E
102
{ACAD_REACTORS
330
C
102
}
100
AcDbDictionary
281
1
  3
Normal
350
F
100
AcDbDictionaryWithDefault
340
F
  0
DICTIONARY
  5
17
102
{ACAD_REACTORS
330
C
102
}
100
AcDbDictionary
280
0
281
1
  3
Standard
350
18
  0
DICTIONARY
  5
19
102
{ACAD_REACTORS
330
C
102
}
100
AcDbDictionary
281
1
  0
DICTIONARY
  5
1A
102
{ACAD_REACTORS
330
C
102
}
100
AcDbDictionary
281
1
  3
Model
350
2F0
  3
Layout1
350
2F1
  0
ACDBPLACEHOLDER
  5
F
102
{ACAD_REACTORS
330
E
102
}
  0
MLINESTYLE
  5
18
102
{ACAD_REACTORS
330
17
102
}
100
AcDbMlineStyle
  2
STANDARD
 70
0
  3

 62
256
 51
90.0
 52
90.0
 71
2
 49
0.5
 62
256
  6
BYLAYER
 49
-0.5
 62
256
  6
BYLAYER
  0
LAYOUT
  5
2F0
102
{ACAD_REACTORS
330
1A
102
}
100
AcDbPlotSettings
  1

  2
none_device
  4

  6

 40
0.0
 41
0.0
 42
0.0
 43
0.0
 44
210.0
 45
297.0
 46
0.0
 47
0.0
 48
0.0
 49
0.0
140
0.0
141
0.0
142
1.0
143
1.0
 70
1024
 72
1
 73
0
 74
0
  7

 75
0
147
1.0
148
0.0
149
0.0
100
AcDbLayout
  1
Model
 70
0
 71
0
 10
0.0
 20
0.0
 11
210.0
 21
297.0
 12
0.0
 22
0.0
 32
0.0
 14
0.0
 24
0.0
 34
0.0
 15
0.0
 25
0.0
 35
0.0
146
0.0
 13
0.0
 23
0.0
 33
0.0
 16
1.0
 26
0.0
 36
0.0
 17
0.0
 27
1.0
 37
0.0
 76
0
330
214
345
0
346
0
  0
LAYOUT
  5
2F1
102
{ACAD_REACTORS
330
1A
102
}
100
AcDbPlotSettings
  1

  2
none_device
  4

  6

 40
0.0
 41
0.0
 42
0.0
 43
0.0
 44
210.0
 45
297.0
 46
0.0
 47
0.0
 48
0.0
 49
0.0
140
0.0
141
0.0
142
1.0
143
1.0
 70
0
 72
1
 73
0
 74
0
  7

 75
0
147
1.0
148
0.0
149
0.0
100
AcDbLayout
  1
Layout1
 70
0
 71
1
 10
0.0
 20
0.0
 11
210.0
 21
297.0
 12
0.0
 22
0.0
 32
0.0
 14
0.0
 24
0.0
 34
0.0
 15
0.0
 25
0.0
 35
0.0
146
0.0
 13
0.0
 23
0.0
 33
0.0
 16
1.0
 26
0.0
 36
0.0
 17
0.0
 27
1.0
 37
0.0
 76
0
330
215
345
0
346
0
  0
ENDSEC
  0
EOF
