999
DXF file: 21680-inc1.dxf
999
Pro/ENGINEER 2019352 by Parametric Technology Corporation
  0
SECTION
  2
HEADER
  9
$ACADVER
  1
AC1027
  9
$DWGCODEPAGE
  3
ANSI_1252
  9
$EXTMAX
 10
210.0
 20
297.0
 30
0.0
  9
$EXTMIN
 10
0.0
 20
0.0
 30
0.0
  9
$LIMMIN
 10
0.0
 20
0.0
  9
$LIMMAX
 10
210.0
 20
297.0
  9
$VIEWCTR
 10
105.0
 20
148.5
  9
$VIEWSIZE
 40
297.0
  9
$CLAYER
  8
0
  9
$LTSCALE
 40
19.36
  9
$CELTYPE
  6
BYLAYER
  9
$DIMSCALE
 40
1.0
  9
$DIMASZ
 40
4.76
  9
$DIMEXO
 40
0.1
  9
$DIMDLI
 40
13.376
  9
$DIMEXE
 40
1.0
  9
$DIMCEN
 40
3.168
  9
$DIMLFAC
 40
1.0
  9
$DIMBLK
  1
_FILLED
  9
$DIMALT
 70
0
  9
$DIMALTF
 40
0.0393700787
  9
$DIMTXT
 40
3.0
  9
$DIMTOL
 70
1
  9
$DIMLIM
 70
0
  9
$DIMTFAC
 40
1.0
  9
$DIMTP
 40
0.01
  9
$DIMTM
 40
0.01
  9
$DIMGAP
 40
0.625
  9
$DIMDSEP
 70
46
  9
$AUNITS
 70
0
  9
$PDMODE
 70
3
  9
$PDSIZE
 40
0.3125
  9
$HANDSEED
  5
308
  9
$TILEMODE
 70
1
  9
$MEASUREMENT
 70
1
  9
$INSUNITS
 70
4
  0
ENDSEC
  0
SECTION
  2
CLASSES
  0
CLASS
  1
ACDBDICTIONARYWDFLT
  2
AcDbDictionaryWithDefault
  3
AutoCAD 2000
 90
0
 91
1
280
0
281
0
  0
CLASS
  1
ACDBPLACEHOLDER
  2
AcDbPlaceHolder
  3
AutoCAD 2000
 90
0
 91
1
280
0
281
0
  0
CLASS
  1
LAYOUT
  2
AcDbLayout
  3
AutoCAD 2000
 90
0
 91
0
280
0
281
0
  0
CLASS
  1
TABLESTYLE
  2
AcDbTableStyle
  3
ObjectDBX Classes
 90
2047
 91
1
280
0
281
0
  0
CLASS
  1
ACAD_TABLE
  2
AcDbTable
  3
ObjectDBX Classes
 90
1025
 91
1
280
0
281
1
  0
ENDSEC
  0
SECTION
  2
TABLES
  0
TABLE
  2
VPORT
  5
8
100
AcDbSymbolTable
 70
2
  0
VPORT
  5
1F4
100
AcDbSymbolTableRecord
100
AcDbViewportTableRecord
  2
*ACTIVE
 70
0
 10
0.0
 20
0.0
 11
1.0
 21
1.0
 12
105.0
 22
148.5
 13
0.0
 23
0.0
 14
1.0
 24
1.0
 15
0.0
 25
0.0
 16
0.0
 26
0.0
 36
1.0
 17
0.0
 27
0.0
 37
0.0
 40
297.0
 41
0.7070707071
 42
50.0
 43
0.0
 44
0.0
 50
0.0
 51
0.0
 71
0
 72
100
 73
1
 74
1
 75
0
 76
0
 77
0
 78
0
  0
ENDTAB
  0
TABLE
  2
LTYPE
  5
5
100
AcDbSymbolTable
 70
6
  0
LTYPE
  5
14
100
AcDbSymbolTableRecord
100
AcDbLinetypeTableRecord
  2
BYBLOCK
 70
0
  3

 72
65
 73
0
 40
0.0
  0
LTYPE
  5
15
100
AcDbSymbolTableRecord
100
AcDbLinetypeTableRecord
  2
BYLAYER
 70
0
  3

 72
65
 73
0
 40
0.0
  0
LTYPE
  5
16
100
AcDbSymbolTableRecord
100
AcDbLinetypeTableRecord
  2
CONTINUOUS
 70
64
  3
Solid line
 72
65
 73
0
 40
0.0
  0
LTYPE
  5
1F5
100
AcDbSymbolTableRecord
100
AcDbLinetypeTableRecord
  2
CENTER
 70
64
  3
____ _ ____ _ ____ _ ____ _ ____ _ ____ _ ____
 72
65
 73
4
 40
0.6
 49
0.375
 74
0
 49
-0.075
 74
0
 49
0.075
 74
0
 49
-0.075
 74
0
  0
LTYPE
  5
1F6
100
AcDbSymbolTableRecord
100
AcDbLinetypeTableRecord
  2
HIDDEN
 70
64
  3
- - - - - - - - - - - - - - - - - - - -
 72
65
 73
2
 40
0.2
 49
0.1
 74
0
 49
-0.1
 74
0
  0
LTYPE
  5
1F7
100
AcDbSymbolTableRecord
100
AcDbLinetypeTableRecord
  2
PHANTOM
 70
64
  3
_____ _ _ _____ _ _ _____ _ _ _____
 72
65
 73
6
 40
0.8
 49
0.45
 74
0
 49
-0.05
 74
0
 49
0.1
 74
0
 49
-0.05
 74
0
 49
0.1
 74
0
 49
-0.05
 74
0
  0
LTYPE
  5
1F8
100
AcDbSymbolTableRecord
100
AcDbLinetypeTableRecord
  2
DOT
 70
64
  3
. . . . . . . . . . . . . . . . . . . .
 72
65
 73
2
 40
0.2
 49
0.1
 74
0
 49
-0.1
 74
0
  0
LTYPE
  5
1F9
100
AcDbSymbolTableRecord
100
AcDbLinetypeTableRecord
  2
DASHED
 70
64
  3
- - - - - - - - - - - - - - - - - - - -
 72
65
 73
2
 40
0.2
 49
0.1
 74
0
 49
-0.1
 74
0
  0
ENDTAB
  0
TABLE
  2
LAYER
  5
2
100
AcDbSymbolTable
 70
36
  0
LAYER
  5
10
100
AcDbSymbolTableRecord
100
AcDbLayerTableRecord
  2
0
 70
0
 62
7
  6
CONTINUOUS
370
-3
390
F
  0
LAYER
  5
1FA
100
AcDbSymbolTableRecord
100
AcDbLayerTableRecord
  2
DEFAULT_1
 70
0
 62
7
  6
CENTER
370
-3
390
F
  0
LAYER
  5
1FB
100
AcDbSymbolTableRecord
100
AcDbLayerTableRecord
  2
DEFAULT_2
 70
0
 62
8
  6
HIDDEN
370
-3
390
F
  0
LAYER
  5
1FC
100
AcDbSymbolTableRecord
100
AcDbLayerTableRecord
  2
DEFAULT_3
 70
0
 62
7
  6
PHANTOM
370
-3
390
F
  0
LAYER
  5
1FD
100
AcDbSymbolTableRecord
100
AcDbLayerTableRecord
  2
0_COMPONENTS
 70
0
 62
7
  6
CONTINUOUS
370
-3
390
F
  0
LAYER
  5
1FE
100
AcDbSymbolTableRecord
100
AcDbLayerTableRecord
  2
1_ALL_PLANES
 70
0
 62
7
  6
CONTINUOUS
370
-3
390
F
  0
LAYER
  5
1FF
100
AcDbSymbolTableRecord
100
AcDbLayerTableRecord
  2
1__DEF_ASM_PLN
 70
0
 62
7
  6
CONTINUOUS
370
-3
390
F
  0
LAYER
  5
200
100
AcDbSymbolTableRecord
100
AcDbLayerTableRecord
  2
1__DEF_PLANES
 70
0
 62
7
  6
CONTINUOUS
370
-3
390
F
  0
LAYER
  5
201
100
AcDbSymbolTableRecord
100
AcDbLayerTableRecord
  2
1__DRAFT_DIMS
 70
0
 62
7
  6
CONTINUOUS
370
-3
390
F
  0
LAYER
  5
202
100
AcDbSymbolTableRecord
100
AcDbLayerTableRecord
  2
2_ALL_CSYS
 70
0
 62
7
  6
CONTINUOUS
370
-3
390
F
  0
LAYER
  5
203
100
AcDbSymbolTableRecord
100
AcDbLayerTableRecord
  2
2_ALL_NOTES
 70
0
 62
7
  6
CONTINUOUS
370
-3
390
F
  0
LAYER
  5
204
100
AcDbSymbolTableRecord
100
AcDbLayerTableRecord
  2
2__DEF_ASM_CSYS
 70
0
 62
7
  6
CONTINUOUS
370
-3
390
F
  0
LAYER
  5
205
100
AcDbSymbolTableRecord
100
AcDbLayerTableRecord
  2
2__DEF_CSYS
 70
0
 62
7
  6
CONTINUOUS
370
-3
390
F
  0
LAYER
  5
206
100
AcDbSymbolTableRecord
100
AcDbLayerTableRecord
  2
3_ALL_AXES
 70
0
 62
7
  6
CONTINUOUS
370
-3
390
F
  0
LAYER
  5
207
100
AcDbSymbolTableRecord
100
AcDbLayerTableRecord
  2
4_ALL_POINTS
 70
0
 62
7
  6
CONTINUOUS
370
-3
390
F
  0
LAYER
  5
208
100
AcDbSymbolTableRecord
100
AcDbLayerTableRecord
  2
5_ALL_CURVES
 70
0
 62
7
  6
CONTINUOUS
370
-3
390
F
  0
LAYER
  5
209
100
AcDbSymbolTableRecord
100
AcDbLayerTableRecord
  2
5_ALL_GTOLS(FREE)
 70
0
 62
7
  6
CONTINUOUS
370
-3
390
F
  0
LAYER
  5
20A
100
AcDbSymbolTableRecord
100
AcDbLayerTableRecord
  2
6_ALL_SURFS
 70
0
 62
7
  6
CONTINUOUS
370
-3
390
F
  0
LAYER
  5
20B
100
AcDbSymbolTableRecord
100
AcDbLayerTableRecord
  2
CURVE
 70
0
 62
7
  6
CONTINUOUS
370
-3
390
F
  0
LAYER
  5
20C
100
AcDbSymbolTableRecord
100
AcDbLayerTableRecord
  2
LAY0001
 70
0
 62
7
  6
CONTINUOUS
370
-3
390
F
  0
LAYER
  5
20D
100
AcDbSymbolTableRecord
100
AcDbLayerTableRecord
  2
PIANI_INUTILI
 70
0
 62
7
  6
CONTINUOUS
370
-3
390
F
  0
LAYER
  5
20E
100
AcDbSymbolTableRecord
100
AcDbLayerTableRecord
  2
PIANI_SCORD
 70
0
 62
7
  6
CONTINUOUS
370
-3
390
F
  0
LAYER
  5
20F
100
AcDbSymbolTableRecord
100
AcDbLayerTableRecord
  2
XSEC_DATUMS
 70
0
 62
7
  6
CONTINUOUS
370
-3
390
F
  0
ENDTAB
  0
TABLE
  2
STYLE
  5
3
100
AcDbSymbolTable
 70
1
  0
STYLE
  5
11
100
AcDbSymbolTableRecord
100
AcDbTextStyleTableRecord
  2
STANDARD
 70
0
 40
0.0
 41
1.2
 50
0.0
 71
0
 42
0.2
  3
txt
  4

  0
STYLE
  5
210
100
AcDbSymbolTableRecord
100
AcDbTextStyleTableRecord
  2
TEXTSTYLE_1
 70
0
 40
0.0
 41
0.8
 50
0.0
 71
0
 42
0.2
  3
gdt
  4

  0
STYLE
  5
211
100
AcDbSymbolTableRecord
100
AcDbTextStyleTableRecord
  2
TEXTSTYLE_2
 70
0
 40
0.0
 41
1.2
 50
0.0
 71
0
 42
0.2
  3
gdt
  4

  0
STYLE
  5
212
100
AcDbSymbolTableRecord
100
AcDbTextStyleTableRecord
  2
TEXTSTYLE_3
 70
0
 40
0.0
 41
1.0
 50
0.0
 71
0
 42
0.2
  3
txt
  4

  0
STYLE
  5
213
100
AcDbSymbolTableRecord
100
AcDbTextStyleTableRecord
  2
TEXTSTYLE_4
 70
0
 40
0.0
 41
1.2
 50
0.0
 71
0
 42
0.2
  3
txt
  4

  0
STYLE
  5
214
100
AcDbSymbolTableRecord
100
AcDbTextStyleTableRecord
  2
TEXTSTYLE_5
 70
0
 40
0.0
 41
1.0
 50
0.0
 71
0
 42
0.2
  3
bluprntb.ttf
  4

  0
STYLE
  5
215
100
AcDbSymbolTableRecord
100
AcDbTextStyleTableRecord
  2
TEXTSTYLE_6
 70
0
 40
0.0
 41
1.0
 50
0.0
 71
0
 42
0.2
  3
gdt
  4

  0
ENDTAB
  0
TABLE
  2
VIEW
  5
6
100
AcDbSymbolTable
 70
0
  0
ENDTAB
  0
TABLE
  2
UCS
  5
7
100
AcDbSymbolTable
 70
0
  0
ENDTAB
  0
TABLE
  2
APPID
  5
9
100
AcDbSymbolTable
 70
1
  0
APPID
  5
216
100
AcDbSymbolTableRecord
100
AcDbRegAppTableRecord
  2
ACAD
 70
0
  0
ENDTAB
  0
TABLE
  2
BLOCK_RECORD
  5
1
100
AcDbSymbolTable
 70
0
  0
BLOCK_RECORD
  5
217
100
AcDbSymbolTableRecord
100
AcDbBlockTableRecord
  2
*Model_Space
  0
BLOCK_RECORD
  5
218
100
AcDbSymbolTableRecord
100
AcDbBlockTableRecord
  2
*Paper_Space
  0
BLOCK_RECORD
  5
219
100
AcDbSymbolTableRecord
100
AcDbBlockTableRecord
  2
_FILLED
  0
BLOCK_RECORD
  5
21A
100
AcDbSymbolTableRecord
100
AcDbBlockTableRecord
  2
*D0
  0
BLOCK_RECORD
  5
21B
100
AcDbSymbolTableRecord
100
AcDbBlockTableRecord
  2
*D1
  0
BLOCK_RECORD
  5
21C
100
AcDbSymbolTableRecord
100
AcDbBlockTableRecord
  2
*D2
  0
BLOCK_RECORD
  5
21D
100
AcDbSymbolTableRecord
100
AcDbBlockTableRecord
  2
*D3
  0
BLOCK_RECORD
  5
21E
100
AcDbSymbolTableRecord
100
AcDbBlockTableRecord
  2
*T1
  0
ENDTAB
  0
TABLE
  2
DIMSTYLE
  5
A
100
AcDbSymbolTable
 70
1
100
AcDbDimStyleTable
 71
0
  0
DIMSTYLE
105
21F
100
AcDbSymbolTableRecord
100
AcDbDimStyleTableRecord
  2
STANDARD
 70
0
  3

  4

 40
1.0
 41
4.76
 42
0.1
 43
0.38
 44
1.0
 45
0.0
 46
0.0
 47
0.01
 48
0.01
140
3.0
141
0.09
142
0.0
143
25.4
144
1.0
145
0.0
146
1.0
147
0.625
 71
1.0
 72
0.0
 73
0
 74
0
 75
0
 76
0
 77
1
 78
8
 79
2
170
0
171
2
172
0
173
0
174
0
175
0
176
0
177
0
178
5
270
2
179
3
271
3
272
3
273
2
274
2
275
0
280
0
281
0
282
0
283
1
284
8
285
0
286
0
287
3
288
0
340
11
278
46
341
219
342
219
343
219
344
219
  0
DIMSTYLE
105
220
100
AcDbSymbolTableRecord
100
AcDbDimStyleTableRecord
  2
DIMSTYLE_1
 70
0
  3

  4

 40
1.0
 41
4.76
 42
0.1
 43
0.38
 44
1.0
 45
0.0
 46
0.0
 47
0.01
 48
0.01
140
3.0
141
0.09
142
0.0
143
25.4
144
1.0
145
0.0
146
1.0
147
0.75
 71
0.0
 72
0.0
 73
0
 74
0
 75
0
 76
0
 77
1
 78
8
 79
2
170
0
171
2
172
0
173
0
174
0
175
0
176
0
177
0
178
5
270
2
179
3
271
3
272
3
273
2
274
2
275
0
280
0
281
0
282
0
283
1
284
8
285
0
286
0
287
3
288
0
340
11
278
46
341
219
342
219
343
219
344
219
  0
ENDTAB
  0
ENDSEC
  0
SECTION
  2
BLOCKS
  0
BLOCK
  5
20
100
AcDbEntity
  8
0
100
AcDbBlockBegin
  2
*Model_Space
 70
0
 10
0.0
 20
0.0
 30
0.0
  3
*Model_Space
  1

  0
ENDBLK
  5
21
100
AcDbEntity
  8
0
100
AcDbBlockEnd
  0
BLOCK
  5
1C
100
AcDbEntity
  8
0
100
AcDbBlockBegin
  2
*Paper_Space
 70
0
 10
0.0
 20
0.0
 30
0.0
  3
*Paper_Space
  1

  0
ENDBLK
  5
1D
100
AcDbEntity
  8
0
100
AcDbBlockEnd
  0
BLOCK
  5
221
100
AcDbEntity
  8
0
100
AcDbBlockBegin
  2
_FILLED
 70
64
 10
0.0
 20
0.0
  3
_FILLED
  1

  0
SOLID
  5
222
100
AcDbEntity
  8
0
  6
BYBLOCK
 62
0
100
AcDbTrace
 10
0.0
 20
0.0
 11
-1.0
 21
0.1050420168
 12
-1.0
 22
-0.1050420168
 13
-1.0
 23
-0.1050420168
  0
ENDBLK
  5
223
100
AcDbEntity
  8
0
  6
BYBLOCK
 62
0
100
AcDbBlockEnd
  0
BLOCK
  5
224
100
AcDbEntity
  8
0
100
AcDbBlockBegin
 62
2
  6
CONTINUOUS
  2
*D0
 70
65
 10
0.0
 20
0.0
  3
*D0
  1

  0
MTEXT
  5
225
100
AcDbEntity
  8
0
100
AcDbMText
 62
5
  6
CONTINUOUS
  7
STANDARD
 71
2
 72
1
 10
72.6801785536
 20
253.1914862843
 30
0.0
 11
1.0
 21
0.0
 31
0.0
 73
2
 44
0.9
  1
Ø25.4
 40
3.0
 41
18.2571428571
  0
LINE
  5
226
100
AcDbEntity
  8
0
100
AcDbLine
 62
2
  6
CONTINUOUS
 10
59.8559604763
 20
232.7575655466
 11
59.8559604763
 21
250.4414862843
  0
LINE
  5
227
100
AcDbEntity
  8
0
100
AcDbLine
 62
2
  6
CONTINUOUS
 10
85.2559604763
 20
233.429306195
 11
85.2559604763
 21
250.4414862843
  0
LINE
  5
228
100
AcDbEntity
  8
0
100
AcDbLine
 62
2
  6
CONTINUOUS
 10
59.8559604763
 20
249.4414862843
 11
72.5559604763
 21
249.4414862843
  0
LINE
  5
229
100
AcDbEntity
  8
0
100
AcDbLine
 62
2
  6
CONTINUOUS
 10
85.2559604763
 20
249.4414862843
 11
72.5559604763
 21
249.4414862843
  0
INSERT
  5
22A
100
AcDbEntity
  8
0
100
AcDbBlockReference
 62
2
  6
CONTINUOUS
  2
_FILLED
 10
59.8559604763
 20
249.4414862843
 41
4.76
 42
4.76
 43
4.76
 50
180.0
  0
INSERT
  5
22B
100
AcDbEntity
  8
0
100
AcDbBlockReference
 62
2
  6
CONTINUOUS
  2
_FILLED
 10
85.2559604763
 20
249.4414862843
 41
4.76
 42
4.76
 43
4.76
  0
ENDBLK
  5
22C
100
AcDbEntity
  8
0
  6
BYBLOCK
 62
0
100
AcDbBlockEnd
  0
BLOCK
  5
22D
100
AcDbEntity
  8
0
100
AcDbBlockBegin
 62
2
  6
CONTINUOUS
  2
*D1
 70
65
 10
0.0
 20
0.0
  3
*D1
  1

  0
MTEXT
  5
22E
100
AcDbEntity
  8
0
100
AcDbMText
 62
5
  6
CONTINUOUS
  7
STANDARD
 71
2
 72
1
 10
107.8318310903
 20
156.3575655466
 30
0.0
 11
0.0
 21
1.0
 31
0.0
 73
2
 44
0.9
  1
63
 40
3.0
 41
6.75
  0
LINE
  5
22F
100
AcDbEntity
  8
0
100
AcDbLine
 62
2
  6
CONTINUOUS
 10
96.0239097047
 20
124.8575655466
 11
112.5818310903
 21
124.8575655466
  0
LINE
  5
230
100
AcDbEntity
  8
0
100
AcDbLine
 62
2
  6
CONTINUOUS
 10
94.7559604763
 20
187.8575655466
 11
112.5818310903
 21
187.8575655466
  0
LINE
  5
231
100
AcDbEntity
  8
0
100
AcDbLine
 62
2
  6
CONTINUOUS
 10
111.5818310903
 20
124.8575655466
 11
111.5818310903
 21
156.3575655466
  0
LINE
  5
232
100
AcDbEntity
  8
0
100
AcDbLine
 62
2
  6
CONTINUOUS
 10
111.5818310903
 20
187.8575655466
 11
111.5818310903
 21
156.3575655466
  0
INSERT
  5
233
100
AcDbEntity
  8
0
100
AcDbBlockReference
 62
2
  6
CONTINUOUS
  2
_FILLED
 10
111.5818310903
 20
124.8575655466
 41
4.76
 42
4.76
 43
4.76
 50
270.0
  0
INSERT
  5
234
100
AcDbEntity
  8
0
100
AcDbBlockReference
 62
2
  6
CONTINUOUS
  2
_FILLED
 10
111.5818310903
 20
187.8575655466
 41
4.76
 42
4.76
 43
4.76
 50
90.0
  0
ENDBLK
  5
235
100
AcDbEntity
  8
0
  6
BYBLOCK
 62
0
100
AcDbBlockEnd
  0
BLOCK
  5
236
100
AcDbEntity
  8
0
100
AcDbBlockBegin
 62
2
  6
CONTINUOUS
  2
*D2
 70
65
 10
0.0
 20
0.0
  3
*D2
  1

  0
MTEXT
  5
237
100
AcDbEntity
  8
0
100
AcDbMText
 62
5
  6
CONTINUOUS
  7
TEXTSTYLE_2
 71
2
 72
1
 10
72.5559604763
 20
113.7800291687
 30
0.0
 11
1.0
 21
0.0
 31
0.0
 73
2
 44
0.9
  1
{\fgdt;n}\ftxt;{\W1.2;31}
 40
3.0
 41
11.7857142857
  0
LINE
  5
238
100
AcDbEntity
  8
0
100
AcDbLine
 62
2
  6
CONTINUOUS
 10
88.0559604763
 20
125.5575655466
 11
88.0559604763
 21
109.0300291687
  0
LINE
  5
239
100
AcDbEntity
  8
0
100
AcDbLine
 62
2
  6
CONTINUOUS
 10
57.0559604763
 20
125.5575655466
 11
57.0559604763
 21
109.0300291687
  0
LINE
  5
23A
100
AcDbEntity
  8
0
100
AcDbLine
 62
2
  6
CONTINUOUS
 10
88.0559604763
 20
110.0300291687
 11
72.5559604763
 21
110.0300291687
  0
LINE
  5
23B
100
AcDbEntity
  8
0
100
AcDbLine
 62
2
  6
CONTINUOUS
 10
57.0559604763
 20
110.0300291687
 11
72.5559604763
 21
110.0300291687
  0
INSERT
  5
23C
100
AcDbEntity
  8
0
100
AcDbBlockReference
 62
2
  6
CONTINUOUS
  2
_FILLED
 10
88.0559604763
 20
110.0300291687
 41
4.76
 42
4.76
 43
4.76
  0
INSERT
  5
23D
100
AcDbEntity
  8
0
100
AcDbBlockReference
 62
2
  6
CONTINUOUS
  2
_FILLED
 10
57.0559604763
 20
110.0300291687
 41
4.76
 42
4.76
 43
4.76
 50
180.0
  0
ENDBLK
  5
23E
100
AcDbEntity
  8
0
  6
BYBLOCK
 62
0
100
AcDbBlockEnd
  0
BLOCK
  5
23F
100
AcDbEntity
  8
0
100
AcDbBlockBegin
 62
2
  6
CONTINUOUS
  2
*D3
 70
65
 10
0.0
 20
0.0
  3
*D3
  1

  0
MTEXT
  5
240
100
AcDbEntity
  8
0
100
AcDbMText
 62
5
  6
CONTINUOUS
  7
TEXTSTYLE_2
 71
2
 72
1
 10
72.5559604763
 20
103.5218252968
 30
0.0
 11
1.0
 21
0.0
 31
0.0
 73
2
 44
0.9
  1
{\fgdt;n}\ftxt;{\W1.2;50.2}
 40
3.0
 41
18.8571428571
  0
LINE
  5
241
100
AcDbEntity
  8
0
100
AcDbLine
 62
2
  6
CONTINUOUS
 10
97.6559604763
 20
127.2575655466
 11
97.6559604763
 21
98.7718252968
  0
LINE
  5
242
100
AcDbEntity
  8
0
100
AcDbLine
 62
2
  6
CONTINUOUS
 10
47.4559604763
 20
127.2575655466
 11
47.4559604763
 21
98.7718252968
  0
LINE
  5
243
100
AcDbEntity
  8
0
100
AcDbLine
 62
2
  6
CONTINUOUS
 10
97.6559604763
 20
99.7718252968
 11
72.5559604763
 21
99.7718252968
  0
LINE
  5
244
100
AcDbEntity
  8
0
100
AcDbLine
 62
2
  6
CONTINUOUS
 10
47.4559604763
 20
99.7718252968
 11
72.5559604763
 21
99.7718252968
  0
INSERT
  5
245
100
AcDbEntity
  8
0
100
AcDbBlockReference
 62
2
  6
CONTINUOUS
  2
_FILLED
 10
97.6559604763
 20
99.7718252968
 41
4.76
 42
4.76
 43
4.76
  0
INSERT
  5
246
100
AcDbEntity
  8
0
100
AcDbBlockReference
 62
2
  6
CONTINUOUS
  2
_FILLED
 10
47.4559604763
 20
99.7718252968
 41
4.76
 42
4.76
 43
4.76
 50
180.0
  0
ENDBLK
  5
247
100
AcDbEntity
  8
0
  6
BYBLOCK
 62
0
100
AcDbBlockEnd
  0
BLOCK
  5
248
100
AcDbEntity
  8
0
100
AcDbBlockBegin
  2
*T1
 70
1
 10
0.0
 20
0.0
  3
*T1
  1

  0
LINE
  5
249
100
AcDbEntity
  8
0
100
AcDbLine
 62
2
  6
CONTINUOUS
 10
199.5
 20
0.0
 11
0.0
 21
0.0
  0
LINE
  5
24A
100
AcDbEntity
  8
0
100
AcDbLine
 62
2
  6
CONTINUOUS
 10
199.5
 20
0.0
 11
199.5
 21
40.0
  0
LINE
  5
24B
100
AcDbEntity
  8
0
100
AcDbLine
 62
2
  6
CONTINUOUS
 10
110.0
 20
5.0
 11
0.0
 21
5.0
  0
LINE
  5
24C
100
AcDbEntity
  8
0
100
AcDbLine
 62
2
  6
CONTINUOUS
 10
199.5
 20
10.0
 11
0.0
 21
10.0
  0
LINE
  5
24D
100
AcDbEntity
  8
0
100
AcDbLine
 62
2
  6
CONTINUOUS
 10
28.0
 20
15.0
 11
0.0
 21
15.0
  0
LINE
  5
24E
100
AcDbEntity
  8
0
100
AcDbLine
 62
2
  6
CONTINUOUS
 10
162.0
 20
20.0
 11
0.0
 21
20.0
  0
LINE
  5
24F
100
AcDbEntity
  8
0
100
AcDbLine
 62
2
  6
CONTINUOUS
 10
28.0
 20
25.0
 11
0.0
 21
25.0
  0
LINE
  5
250
100
AcDbEntity
  8
0
100
AcDbLine
 62
2
  6
CONTINUOUS
 10
162.0
 20
30.0
 11
0.0
 21
30.0
  0
LINE
  5
251
100
AcDbEntity
  8
0
100
AcDbLine
 62
2
  6
CONTINUOUS
 10
199.5
 20
35.0
 11
162.0
 21
35.0
  0
LINE
  5
252
100
AcDbEntity
  8
0
100
AcDbLine
 62
2
  6
CONTINUOUS
 10
128.0
 20
35.0
 11
0.0
 21
35.0
  0
LINE
  5
253
100
AcDbEntity
  8
0
100
AcDbLine
 62
2
  6
CONTINUOUS
 10
199.5
 20
40.0
 11
0.0
 21
40.0
  0
LINE
  5
254
100
AcDbEntity
  8
0
100
AcDbLine
 62
2
  6
CONTINUOUS
 10
191.0
 20
0.0
 11
191.0
 21
10.0
  0
LINE
  5
255
100
AcDbEntity
  8
0
100
AcDbLine
 62
2
  6
CONTINUOUS
 10
180.0
 20
10.0
 11
180.0
 21
35.0
  0
LINE
  5
256
100
AcDbEntity
  8
0
100
AcDbLine
 62
2
  6
CONTINUOUS
 10
162.0
 20
10.0
 11
162.0
 21
40.0
  0
LINE
  5
257
100
AcDbEntity
  8
0
100
AcDbLine
 62
2
  6
CONTINUOUS
 10
145.0
 20
0.0
 11
145.0
 21
40.0
  0
LINE
  5
258
100
AcDbEntity
  8
0
100
AcDbLine
 62
2
  6
CONTINUOUS
 10
128.0
 20
0.0
 11
128.0
 21
10.0
  0
LINE
  5
259
100
AcDbEntity
  8
0
100
AcDbLine
 62
2
  6
CONTINUOUS
 10
128.0
 20
20.0
 11
128.0
 21
40.0
  0
LINE
  5
25A
100
AcDbEntity
  8
0
100
AcDbLine
 62
2
  6
CONTINUOUS
 10
110.0
 20
0.0
 11
110.0
 21
10.0
  0
LINE
  5
25B
100
AcDbEntity
  8
0
100
AcDbLine
 62
2
  6
CONTINUOUS
 10
108.0
 20
10.0
 11
108.0
 21
20.0
  0
LINE
  5
25C
100
AcDbEntity
  8
0
100
AcDbLine
 62
2
  6
CONTINUOUS
 10
100.0
 20
10.0
 11
100.0
 21
20.0
  0
LINE
  5
25D
100
AcDbEntity
  8
0
100
AcDbLine
 62
2
  6
CONTINUOUS
 10
56.0
 20
10.0
 11
56.0
 21
20.0
  0
LINE
  5
25E
100
AcDbEntity
  8
0
100
AcDbLine
 62
2
  6
CONTINUOUS
 10
28.0
 20
0.0
 11
28.0
 21
40.0
  0
LINE
  5
25F
100
AcDbEntity
  8
0
100
AcDbLine
 62
2
  6
CONTINUOUS
 10
23.0
 20
5.0
 11
23.0
 21
40.0
  0
LINE
  5
260
100
AcDbEntity
  8
0
100
AcDbLine
 62
2
  6
CONTINUOUS
 10
8.0
 20
5.0
 11
8.0
 21
40.0
  0
LINE
  5
261
100
AcDbEntity
  8
0
100
AcDbLine
 62
2
  6
CONTINUOUS
 10
0.0
 20
0.0
 11
0.0
 21
40.0
  0
MTEXT
  5
262
100
AcDbEntity
  8
0
100
AcDbMText
 62
5
  6
CONTINUOUS
  7
TEXTSTYLE_3
 71
3
 72
1
 10
189.5
 20
3.5
 30
0.0
 11
1.0
 21
0.0
 31
0.0
 73
2
 44
0.9
  1
21680/INC1
 40
2.0
 41
44.6153846154
  0
MTEXT
  5
263
100
AcDbEntity
  8
0
100
AcDbMText
 62
5
  6
CONTINUOUS
  7
TEXTSTYLE_3
 71
1
 72
1
 10
129.5
 20
6.8125
 30
0.0
 11
1.0
 21
0.0
 31
0.0
 73
2
 44
0.9
  1
Peso finito \P1.247
 40
1.3
 41
29.6
  0
MTEXT
  5
264
100
AcDbEntity
  8
0
100
AcDbMText
 62
5
  6
CONTINUOUS
  7
TEXTSTYLE_3
 71
1
 72
1
 10
29.5
 20
2.8076923077
 30
0.0
 11
1.0
 21
0.0
 31
0.0
 73
2
 44
0.9
  1
La ditta tutela i propri disegni a norma di legge
 40
1.2
 41
113.1692307692
  0
MTEXT
  5
265
100
AcDbEntity
  8
0
100
AcDbMText
 62
5
  6
CONTINUOUS
  7
TEXTSTYLE_3
 71
2
 72
1
 10
14.0
 20
2.9230769231
 30
0.0
 11
1.0
 21
0.0
 31
0.0
 73
2
 44
0.9
  1
Modifica
 40
2.0
 41
30.1538461538
  0
MTEXT
  5
266
100
AcDbEntity
  8
0
100
AcDbMText
 62
5
  6
CONTINUOUS
  7
TEXTSTYLE_3
 71
2
 72
1
 10
195.25
 20
7.75
 30
0.0
 11
1.0
 21
0.0
 31
0.0
 73
2
 44
0.9
  1
esp.
 40
1.3
 41
10.6
  0
MTEXT
  5
267
100
AcDbEntity
  8
0
100
AcDbMText
 62
5
  6
CONTINUOUS
  7
TEXTSTYLE_3
 71
2
 72
1
 10
168.0
 20
7.75
 30
0.0
 11
1.0
 21
0.0
 31
0.0
 73
2
 44
0.9
  1
cod.disegno
 40
1.3
 41
28.4
  0
MTEXT
  5
268
100
AcDbEntity
  8
0
100
AcDbMText
 62
5
  6
CONTINUOUS
  7
TEXTSTYLE_3
 71
1
 72
1
 10
29.5
 20
7.5769230769
 30
0.0
 11
1.0
 21
0.0
 31
0.0
 73
2
 44
0.9
  1
Cod.Cad 21680-INC1
 40
1.6
 41
63.2615384615
  0
MTEXT
  5
269
100
AcDbEntity
  8
0
100
AcDbMText
 62
5
  6
CONTINUOUS
  7
TEXTSTYLE_3
 71
2
 72
1
 10
25.5
 20
7.75
 30
0.0
 11
1.0
 21
0.0
 31
0.0
 73
2
 44
0.9
  1
Esp
 40
1.3
 41
8.6
  0
MTEXT
  5
26A
100
AcDbEntity
  8
0
100
AcDbMText
 62
5
  6
CONTINUOUS
  7
TEXTSTYLE_3
 71
2
 72
1
 10
15.5
 20
7.75
 30
0.0
 11
1.0
 21
0.0
 31
0.0
 73
2
 44
0.9
  1
DATA
 40
1.3
 41
14.0
  0
MTEXT
  5
26B
100
AcDbEntity
  8
0
100
AcDbMText
 62
5
  6
CONTINUOUS
  7
TEXTSTYLE_3
 71
2
 72
1
 10
4.0
 20
7.75
 30
0.0
 11
1.0
 21
0.0
 31
0.0
 73
2
 44
0.9
  1
N°
 40
1.3
 41
5.8
  0
MTEXT
  5
26C
100
AcDbEntity
  8
0
100
AcDbMText
 62
5
  6
CONTINUOUS
  7
TEXTSTYLE_4
 71
2
 72
1
 10
189.75
 20
23.5
 30
0.0
 11
1.0
 21
0.0
 31
0.0
 73
2
 44
1.2
  1
Murisengo \PAlessandria\PITALY
 40
2.3
 41
43.585
  0
MTEXT
  5
26D
100
AcDbEntity
  8
0
100
AcDbMText
 62
5
  6
CONTINUOUS
  7
TEXTSTYLE_3
 71
1
 72
1
 10
57.5
 20
12.8173076923
 30
0.0
 11
1.0
 21
0.0
 31
0.0
 73
2
 44
0.9
  1
---
 40
1.5
 41
9.6923076923
  0
MTEXT
  5
26E
100
AcDbEntity
  8
0
100
AcDbMText
 62
5
  6
CONTINUOUS
  7
TEXTSTYLE_3
 71
1
 72
1
 10
29.5
 20
12.8384615385
 30
0.0
 11
1.0
 21
0.0
 31
0.0
 73
2
 44
0.9
  1
--
 40
1.6
 41
6.8923076923
  0
MTEXT
  5
26F
100
AcDbEntity
  8
0
100
AcDbMText
 62
5
  6
CONTINUOUS
  7
TEXTSTYLE_3
 71
1
 72
1
 10
146.5
 20
17.7115384615
 30
0.0
 11
1.0
 21
0.0
 31
0.0
 73
2
 44
0.9
  1
Peso grezzo Kg. 
 40
1.0
 41
34.6153846154
  0
MTEXT
  5
270
100
AcDbEntity
  8
0
100
AcDbMText
 62
5
  6
CONTINUOUS
  7
TEXTSTYLE_3
 71
1
 72
1
 10
109.5
 20
17.775
 30
0.0
 11
1.0
 21
0.0
 31
0.0
 73
2
 44
0.9
  1
Dimens.grezze 
 40
1.3
 41
37.8
  0
MTEXT
  5
271
100
AcDbEntity
  8
0
100
AcDbMText
 62
5
  6
CONTINUOUS
  7
TEXTSTYLE_3
 71
1
 72
1
 10
57.5
 20
17.8173076923
 30
0.0
 11
1.0
 21
0.0
 31
0.0
 73
2
 44
0.9
  1
Tratt.termici
 40
1.5
 41
35.0769230769
  0
MTEXT
  5
272
100
AcDbEntity
  8
0
100
AcDbMText
 62
5
  6
CONTINUOUS
  7
TEXTSTYLE_3
 71
1
 72
1
 10
29.5
 20
17.775
 30
0.0
 11
1.0
 21
0.0
 31
0.0
 73
2
 44
0.9
  1
Materiale 
 40
1.3
 41
24.4
  0
MTEXT
  5
273
100
AcDbEntity
  8
0
100
AcDbMText
 62
5
  6
CONTINUOUS
  7
TEXTSTYLE_3
 71
1
 72
1
 10
146.5
 20
27.75
 30
0.0
 11
1.0
 21
0.0
 31
0.0
 73
2
 44
1.2
  1
Scala\P1:1
 40
1.3
 41
12.8
  0
MTEXT
  5
274
100
AcDbEntity
  8
0
100
AcDbMText
 62
5
  6
CONTINUOUS
  7
TEXTSTYLE_3
 71
1
 72
1
 10
129.5
 20
27.75
 30
0.0
 11
1.0
 21
0.0
 31
0.0
 73
2
 44
1.2
  1
Visto
 40
1.3
 41
12.0
  0
MTEXT
  5
275
100
AcDbEntity
  8
0
100
AcDbMText
 62
5
  6
CONTINUOUS
  7
TEXTSTYLE_3
 71
1
 72
1
 10
29.5
 20
22.8
 30
0.0
 11
1.0
 21
0.0
 31
0.0
 73
2
 44
0.9
  1
MANDRINO SENZA COMPENSAZIONE ASSIALE DA M6 A M20 PER 31/12
 40
1.3
 41
187.7
  0
MTEXT
  5
276
100
AcDbEntity
  8
0
100
AcDbMText
 62
5
  6
CONTINUOUS
  7
TEXTSTYLE_5
 71
2
 72
1
 10
189.75
 20
32.0
 30
0.0
 11
1.0
 21
0.0
 31
0.0
 73
2
 44
0.9
  1
S.C.M.
 40
4.0
 41
32.1544401544
  0
MTEXT
  5
277
100
AcDbEntity
  8
0
100
AcDbMText
 62
5
  6
CONTINUOUS
  7
TEXTSTYLE_3
 71
1
 72
1
 10
29.5
 20
27.8076923077
 30
0.0
 11
1.0
 21
0.0
 31
0.0
 73
2
 44
0.9
  1
Descrizione
 40
1.2
 41
24.5538461538
  0
MTEXT
  5
278
100
AcDbEntity
  8
0
100
AcDbMText
 62
5
  6
CONTINUOUS
  7
TEXTSTYLE_3
 71
1
 72
1
 10
146.5
 20
37.75
 30
0.0
 11
1.0
 21
0.0
 31
0.0
 73
2
 44
1.2
  1
Data\P26/09/18
 40
1.3
 41
24.7
  0
MTEXT
  5
279
100
AcDbEntity
  8
0
100
AcDbMText
 62
5
  6
CONTINUOUS
  7
TEXTSTYLE_3
 71
1
 72
1
 10
129.5
 20
37.75
 30
0.0
 11
1.0
 21
0.0
 31
0.0
 73
2
 44
1.2
  1
Firma\PZANZOTTO
 40
1.3
 41
27.8
  0
MTEXT
  5
27A
100
AcDbEntity
  8
0
100
AcDbMText
 62
5
  6
CONTINUOUS
  7
TEXTSTYLE_3
 71
1
 72
1
 10
29.5
 20
32.775
 30
0.0
 11
1.0
 21
0.0
 31
0.0
 73
2
 44
0.9
  1
Macchina o codice prenotante 21680
 40
1.3
 41
92.6
  0
MTEXT
  5
27B
100
AcDbEntity
  8
0
100
AcDbMText
 62
5
  6
CONTINUOUS
  7
TEXTSTYLE_3
 71
1
 72
1
 10
163.5
 20
37.75
 30
0.0
 11
1.0
 21
0.0
 31
0.0
 73
2
 44
0.9
  1
Rugosita' \fgdt;{\fgdt;a}\ftxt;0.8=rettifica
 40
1.3
 41
60.575
  0
MTEXT
  5
27C
100
AcDbEntity
  8
0
100
AcDbMText
 62
5
  6
CONTINUOUS
  7
TEXTSTYLE_3
 71
1
 72
1
 10
29.5
 20
37.75
 30
0.0
 11
1.0
 21
0.0
 31
0.0
 73
2
 44
0.9
  1
Toleranze generali per quote senza valori:\fgdt;{\fgdt;n}\ftxt;=H11-h11 - lineari\fgdt;{\fgdt;`}\ftxt;0.2
 40
1.3
 41
161.0
  0
ENDBLK
  5
27D
100
AcDbEntity
  8
0
  6
BYBLOCK
 62
0
100
AcDbBlockEnd
  0
ENDSEC
  0
SECTION
  2
ENTITIES
  0
DIMENSION
  5
27E
100
AcDbEntity
  8
0
100
AcDbDimension
 62
2
  6
CONTINUOUS
  2
*D0
 10
85.2559604763
 20
249.4414862843
 11
72.6801785536
 21
249.4414862843
 70
160
 71
2
 72
2
 41
0.9
 42
25.4
  1
Ø<>
  3
DIMSTYLE_1
100
AcDbAlignedDimension
 13
59.8559604763
 23
232.6575655466
 14
85.2559604763
 24
233.329306195
100
AcDbRotatedDimension
  0
DIMENSION
  5
27F
100
AcDbEntity
  8
0
100
AcDbDimension
 62
2
  6
CONTINUOUS
  2
*D1
 10
111.5818310903
 20
187.8575655466
 11
111.5818310903
 21
155.9289951985
 70
160
 71
2
 72
2
 41
0.9
 42
63.0
  3
DIMSTYLE_1
100
AcDbAlignedDimension
 13
95.9239097047
 23
124.8575655466
 14
94.6559604763
 24
187.8575655466
 50
90.0
100
AcDbRotatedDimension
  0
DIMENSION
  5
280
100
AcDbEntity
  8
0
100
AcDbDimension
 62
2
  6
CONTINUOUS
  2
*D2
 10
57.0559604763
 20
110.0300291687
 11
72.5559604763
 21
110.0300291687
 70
160
 71
2
 72
2
 41
0.9
 42
31.0
  1
%%c<>
  3
DIMSTYLE_1
100
AcDbAlignedDimension
 13
88.0559604763
 23
125.6575655466
 14
57.0559604763
 24
125.6575655466
 50
180.0
100
AcDbRotatedDimension
  0
DIMENSION
  5
281
100
AcDbEntity
  8
0
100
AcDbDimension
 62
2
  6
CONTINUOUS
  2
*D3
 10
47.4559604763
 20
99.7718252968
 11
72.5559604763
 21
99.7718252968
 70
160
 71
2
 72
2
 41
0.9
 42
50.2
  1
%%c<>
  3
DIMSTYLE_1
100
AcDbAlignedDimension
 13
97.6559604763
 23
127.3575655466
 14
47.4559604763
 24
127.3575655466
 50
180.0
100
AcDbRotatedDimension
  0
ACAD_TABLE
  5
282
100
AcDbEntity
  8
0
 62
2
  6
CONTINUOUS
100
AcDbBlockReference
  2
*T1
 10
6.5140409578
 20
7.9963478044
 30
0.0
100
AcDbTable
342
       307
343
21E
 11
1.0
 21
0.0
 31
0.0
 90
6
 91
8
 92
15
 93
4
 94
0
 95
0
 96
0
 70
1
141
5.0
141
5.0
141
5.0
141
5.0
141
5.0
141
5.0
141
5.0
141
5.0
142
8.0
142
15.0
142
5.0
142
28.0
142
44.0
142
8.0
142
2.0
142
18.0
142
8.5
142
8.5
142
17.0
142
9.0
142
9.0
142
11.0
142
8.5
171
1
172
0
173
0
174
0
175
3
176
1
 91
49
178
0
145
0.0
  7
TEXTSTYLE_3
301
CELL_VALUE
 90
4
  1
Modifica
304
ACVALUE_END
170
5
140
2.0
171
1
172
0
173
1
174
0
175
1
176
1
 91
1
178
0
145
0.0
170
1
171
1
172
0
173
1
174
0
175
1
176
1
 91
1
178
0
145
0.0
170
5
171
1
172
0
173
0
174
0
175
4
176
1
 91
49
178
0
145
0.0
  7
TEXTSTYLE_3
301
CELL_VALUE
 90
4
  1
La ditta tutela i propri disegni a norma di legge
304
ACVALUE_END
170
1
140
1.2
171
1
172
0
173
1
174
0
175
1
176
1
 91
1
178
0
145
0.0
170
1
171
1
172
0
173
1
174
0
175
1
176
1
 91
1
178
0
145
0.0
170
1
171
1
172
0
173
1
174
0
175
1
176
1
 91
1
178
0
145
0.0
170
1
171
1
172
0
173
0
174
0
175
1
176
2
 91
33
178
0
145
0.0
301
CELL_VALUE
 90
4
  1
 
304
ACVALUE_END
170
1
140
3.0
171
1
172
0
173
0
174
0
175
2
176
2
 91
49
178
0
145
0.0
  7
TEXTSTYLE_3
301
CELL_VALUE
 90
4
  1
Peso finito \P1.247
304
ACVALUE_END
170
4
140
1.3
171
1
172
0
173
1
174
0
175
1
176
1
 91
1
178
0
145
0.0
170
4
171
1
172
0
173
0
174
0
175
4
176
1
 91
49
178
0
145
0.0
  7
TEXTSTYLE_3
301
CELL_VALUE
 90
4
  1
21680/INC1
304
ACVALUE_END
170
9
140
2.0
171
1
172
0
173
1
174
0
175
1
176
1
 91
1
178
0
145
0.0
170
1
171
1
172
0
173
1
174
0
175
1
176
1
 91
1
178
0
145
0.0
170
1
171
1
172
0
173
1
174
0
175
1
176
1
 91
1
178
0
145
0.0
170
9
171
1
172
0
173
0
174
0
175
1
176
1
 91
33
178
0
145
0.0
301
CELL_VALUE
 90
4
  1
 
304
ACVALUE_END
170
1
140
3.0
171
1
172
0
173
0
174
0
175
1
176
1
 91
57
178
0
145
0.0
  7
TEXTSTYLE_3
301
CELL_VALUE
 90
4
  1
N°
304
ACVALUE_END
170
2
140
1.3
 64
5
171
1
172
0
173
0
174
0
175
1
176
1
 91
57
178
0
145
0.0
  7
TEXTSTYLE_3
301
CELL_VALUE
 90
4
  1
DATA
304
ACVALUE_END
170
2
140
1.3
 64
5
171
1
172
0
173
0
174
0
175
1
176
1
 91
57
178
0
145
0.0
  7
TEXTSTYLE_3
301
CELL_VALUE
 90
4
  1
Esp
304
ACVALUE_END
170
2
140
1.3
 64
5
171
1
172
0
173
0
174
0
175
4
176
1
 91
49
178
0
145
0.0
  7
TEXTSTYLE_3
301
CELL_VALUE
 90
4
  1
Cod.Cad 21680-INC1
304
ACVALUE_END
170
1
140
1.6
171
1
172
0
173
1
174
0
175
1
176
1
 91
1
178
0
145
0.0
170
1
171
1
172
0
173
1
174
0
175
1
176
1
 91
1
178
0
145
0.0
170
1
171
1
172
0
173
1
174
0
175
1
176
1
 91
1
178
0
145
0.0
170
1
171
1
172
0
173
1
174
0
175
1
176
1
 91
1
178
0
145
0.0
170
1
171
1
172
0
173
1
174
0
175
1
176
1
 91
1
178
0
145
0.0
170
1
171
1
172
0
173
1
174
0
175
1
176
1
 91
1
178
0
145
0.0
170
1
171
1
172
0
173
0
174
0
175
4
176
1
 91
49
178
0
145
0.0
  7
TEXTSTYLE_3
301
CELL_VALUE
 90
4
  1
cod.disegno
304
ACVALUE_END
170
2
140
1.3
171
1
172
0
173
1
174
0
175
1
176
1
 91
1
178
0
145
0.0
170
1
171
1
172
0
173
1
174
0
175
1
176
1
 91
1
178
0
145
0.0
170
1
171
1
172
0
173
1
174
0
175
1
176
1
 91
1
178
0
145
0.0
170
2
171
1
172
0
173
0
174
0
175
1
176
1
 91
57
178
0
145
0.0
  7
TEXTSTYLE_3
301
CELL_VALUE
 90
4
  1
esp.
304
ACVALUE_END
170
2
140
1.3
 64
5
171
1
172
0
173
0
174
0
175
1
176
1
 91
33
178
0
145
0.0
301
CELL_VALUE
 90
4
  1
 
304
ACVALUE_END
170
1
140
3.0
171
1
172
0
173
0
174
0
175
1
176
1
 91
33
178
0
145
0.0
301
CELL_VALUE
 90
4
  1
 
304
ACVALUE_END
170
1
140
3.0
171
1
172
0
173
0
174
0
175
1
176
1
 91
33
178
0
145
0.0
301
CELL_VALUE
 90
4
  1
 
304
ACVALUE_END
170
1
140
3.0
171
1
172
0
173
0
174
0
175
1
176
1
 91
57
178
0
145
0.0
  7
TEXTSTYLE_3
301
CELL_VALUE
 90
4
  1
--
304
ACVALUE_END
170
4
140
1.6
 64
5
171
1
172
0
173
0
174
0
175
1
176
1
 91
57
178
0
145
0.0
  7
TEXTSTYLE_3
301
CELL_VALUE
 90
4
  1
---
304
ACVALUE_END
170
4
140
1.5
 64
5
171
1
172
0
173
0
174
0
175
1
176
2
 91
41
178
0
145
0.0
301
CELL_VALUE
 90
4
  1
 
304
ACVALUE_END
170
5
140
3.0
 64
5
171
1
172
0
173
0
174
0
175
4
176
1
 91
33
178
0
145
0.0
301
CELL_VALUE
 90
4
  1
 
304
ACVALUE_END
170
4
140
3.0
171
1
172
0
173
1
174
0
175
1
176
1
 91
1
178
0
145
0.0
170
1
171
1
172
0
173
1
174
0
175
1
176
1
 91
1
178
0
145
0.0
170
1
171
1
172
0
173
1
174
0
175
1
176
1
 91
1
178
0
145
0.0
170
4
171
1
172
0
173
0
174
0
175
1
176
1
 91
41
178
0
145
0.0
301
CELL_VALUE
 90
4
  1
 
304
ACVALUE_END
170
4
140
3.0
 64
5
171
1
172
0
173
0
174
0
175
2
176
5
 91
33
178
0
145
0.0
301
CELL_VALUE
 90
4
  1
 
304
ACVALUE_END
170
1
140
3.0
171
1
172
0
173
1
174
0
175
1
176
1
 91
1
178
0
145
0.0
170
1
171
1
172
0
173
0
174
0
175
2
176
3
 91
49
178
0
145
0.0
  7
TEXTSTYLE_4
301
CELL_VALUE
 90
4
  1
Murisengo \PAlessandria\PITALY
304
ACVALUE_END
170
2
140
2.3
171
1
172
0
173
1
174
0
175
1
176
1
 91
1
178
0
145
0.0
170
2
171
1
172
0
173
0
174
0
175
1
176
1
 91
33
178
0
145
0.0
301
CELL_VALUE
 90
4
  1
 
304
ACVALUE_END
170
1
140
3.0
171
1
172
0
173
0
174
0
175
1
176
1
 91
33
178
0
145
0.0
301
CELL_VALUE
 90
4
  1
 
304
ACVALUE_END
170
1
140
3.0
171
1
172
0
173
0
174
0
175
1
176
1
 91
33
178
0
145
0.0
301
CELL_VALUE
 90
4
  1
 
304
ACVALUE_END
170
1
140
3.0
171
1
172
0
173
0
174
0
175
1
176
1
 91
57
178
0
145
0.0
  7
TEXTSTYLE_3
301
CELL_VALUE
 90
4
  1
Materiale 
304
ACVALUE_END
170
4
140
1.3
 64
5
171
1
172
0
173
0
174
0
175
1
176
1
 91
57
178
0
145
0.0
  7
TEXTSTYLE_3
301
CELL_VALUE
 90
4
  1
Tratt.termici
304
ACVALUE_END
170
4
140
1.5
 64
5
171
1
172
0
173
1
174
0
175
1
176
1
 91
1
178
0
145
0.0
170
1
171
1
172
0
173
0
174
0
175
4
176
1
 91
49
178
0
145
0.0
  7
TEXTSTYLE_3
301
CELL_VALUE
 90
4
  1
Dimens.grezze 
304
ACVALUE_END
170
4
140
1.3
171
1
172
0
173
1
174
0
175
1
176
1
 91
1
178
0
145
0.0
170
1
171
1
172
0
173
1
174
0
175
1
176
1
 91
1
178
0
145
0.0
170
1
171
1
172
0
173
1
174
0
175
1
176
1
 91
1
178
0
145
0.0
170
4
171
1
172
0
173
0
174
0
175
1
176
1
 91
57
178
0
145
0.0
  7
TEXTSTYLE_3
301
CELL_VALUE
 90
4
  1
Peso grezzo Kg. 
304
ACVALUE_END
170
4
140
1.0
 64
5
171
1
172
0
173
1
174
0
175
1
176
1
 91
1
178
0
145
0.0
170
1
171
1
172
0
173
1
174
0
175
1
176
1
 91
1
178
0
145
0.0
170
1
171
1
172
0
173
1
174
0
175
1
176
1
 91
1
178
0
145
0.0
170
1
171
1
172
0
173
1
174
0
175
1
176
1
 91
1
178
0
145
0.0
170
1
171
1
172
0
173
0
174
0
175
1
176
1
 91
33
178
0
145
0.0
301
CELL_VALUE
 90
4
  1
 
304
ACVALUE_END
170
1
140
3.0
171
1
172
0
173
0
174
0
175
1
176
1
 91
33
178
0
145
0.0
301
CELL_VALUE
 90
4
  1
 
304
ACVALUE_END
170
1
140
3.0
171
1
172
0
173
0
174
0
175
1
176
1
 91
33
178
0
145
0.0
301
CELL_VALUE
 90
4
  1
 
304
ACVALUE_END
170
1
140
3.0
171
1
172
0
173
0
174
0
175
1
176
1
 91
57
178
0
145
0.0
  7
TEXTSTYLE_3
301
CELL_VALUE
 90
4
  1
MANDRINO SENZA COMPENSAZIONE ASSIALE DA M6 A M20 PER 31/12
304
ACVALUE_END
170
7
140
1.3
 64
5
171
1
172
0
173
0
174
0
175
4
176
1
 91
33
178
0
145
0.0
301
CELL_VALUE
 90
4
  1
 
304
ACVALUE_END
170
1
140
3.0
171
1
172
0
173
1
174
0
175
1
176
1
 91
1
178
0
145
0.0
170
1
171
1
172
0
173
1
174
0
175
1
176
1
 91
1
178
0
145
0.0
170
1
171
1
172
0
173
1
174
0
175
1
176
1
 91
1
178
0
145
0.0
170
1
171
1
172
0
173
0
174
0
175
2
176
2
 91
49
178
0
145
0.0
  7
TEXTSTYLE_3
301
CELL_VALUE
 90
4
  1
Visto
304
ACVALUE_END
170
1
140
1.3
171
1
172
0
173
1
174
0
175
1
176
1
 91
1
178
0
145
0.0
170
1
171
1
172
0
173
0
174
0
175
1
176
2
 91
57
178
0
145
0.0
  7
TEXTSTYLE_3
301
CELL_VALUE
 90
4
  1
Scala\P1:1
304
ACVALUE_END
170
1
140
1.3
 64
5
171
1
172
0
173
1
174
0
175
1
176
1
 91
1
178
0
145
0.0
170
1
171
1
172
0
173
1
174
0
175
1
176
1
 91
1
178
0
145
0.0
170
1
171
1
172
0
173
1
174
0
175
1
176
1
 91
1
178
0
145
0.0
170
1
171
1
172
0
173
1
174
0
175
1
176
1
 91
1
178
0
145
0.0
170
1
171
1
172
0
173
0
174
0
175
1
176
1
 91
33
178
0
145
0.0
301
CELL_VALUE
 90
4
  1
 
304
ACVALUE_END
170
1
140
3.0
171
1
172
0
173
0
174
0
175
1
176
1
 91
33
178
0
145
0.0
301
CELL_VALUE
 90
4
  1
 
304
ACVALUE_END
170
1
140
3.0
171
1
172
0
173
0
174
0
175
1
176
1
 91
33
178
0
145
0.0
301
CELL_VALUE
 90
4
  1
 
304
ACVALUE_END
170
1
140
3.0
171
1
172
0
173
0
174
0
175
1
176
1
 91
57
178
0
145
0.0
  7
TEXTSTYLE_3
301
CELL_VALUE
 90
4
  1
Descrizione
304
ACVALUE_END
170
1
140
1.2
 64
5
171
1
172
0
173
0
174
0
175
1
176
1
 91
33
178
0
145
0.0
301
CELL_VALUE
 90
4
  1
 
304
ACVALUE_END
170
1
140
3.0
171
1
172
0
173
0
174
0
175
1
176
1
 91
33
178
0
145
0.0
301
CELL_VALUE
 90
4
  1
 
304
ACVALUE_END
170
1
140
3.0
171
1
172
0
173
0
174
0
175
1
176
1
 91
33
178
0
145
0.0
301
CELL_VALUE
 90
4
  1
 
304
ACVALUE_END
170
1
140
3.0
171
1
172
0
173
0
174
0
175
1
176
1
 91
33
178
0
145
0.0
301
CELL_VALUE
 90
4
  1
 
304
ACVALUE_END
170
1
140
3.0
171
1
172
0
173
1
174
0
175
1
176
1
 91
1
178
0
145
0.0
170
1
171
1
172
0
173
1
174
0
175
1
176
1
 91
1
178
0
145
0.0
170
1
171
1
172
0
173
1
174
0
175
1
176
1
 91
1
178
0
145
0.0
170
1
171
1
172
0
173
1
174
0
175
1
176
1
 91
1
178
0
145
0.0
170
1
171
1
172
0
173
1
174
0
175
1
176
1
 91
1
178
0
145
0.0
170
1
171
1
172
0
173
0
174
0
175
2
176
2
 91
49
178
0
145
0.0
  7
TEXTSTYLE_5
301
CELL_VALUE
 90
4
  1
S.C.M.
304
ACVALUE_END
170
5
140
4.0
171
1
172
0
173
1
174
0
175
1
176
1
 91
1
178
0
145
0.0
170
5
171
1
172
0
173
0
174
0
175
1
176
1
 91
33
178
0
145
0.0
301
CELL_VALUE
 90
4
  1
 
304
ACVALUE_END
170
1
140
3.0
171
1
172
0
173
0
174
0
175
1
176
1
 91
33
178
0
145
0.0
301
CELL_VALUE
 90
4
  1
 
304
ACVALUE_END
170
1
140
3.0
171
1
172
0
173
0
174
0
175
1
176
1
 91
33
178
0
145
0.0
301
CELL_VALUE
 90
4
  1
 
304
ACVALUE_END
170
1
140
3.0
171
1
172
0
173
0
174
0
175
5
176
1
 91
49
178
0
145
0.0
  7
TEXTSTYLE_3
301
CELL_VALUE
 90
4
  1
Macchina o codice prenotante 21680
304
ACVALUE_END
170
4
140
1.3
171
1
172
0
173
1
174
0
175
1
176
1
 91
1
178
0
145
0.0
170
1
171
1
172
0
173
1
174
0
175
1
176
1
 91
1
178
0
145
0.0
170
1
171
1
172
0
173
1
174
0
175
1
176
1
 91
1
178
0
145
0.0
170
1
171
1
172
0
173
1
174
0
175
1
176
1
 91
1
178
0
145
0.0
170
4
171
1
172
0
173
0
174
0
175
2
176
2
 91
49
178
0
145
0.0
  7
TEXTSTYLE_3
301
CELL_VALUE
 90
4
  1
Firma\PZANZOTTO
304
ACVALUE_END
170
1
140
1.3
171
1
172
0
173
1
174
0
175
1
176
1
 91
1
178
0
145
0.0
170
1
171
1
172
0
173
0
174
0
175
1
176
2
 91
57
178
0
145
0.0
  7
TEXTSTYLE_3
301
CELL_VALUE
 90
4
  1
Data\P26/09/18
304
ACVALUE_END
170
1
140
1.3
 64
5
171
1
172
0
173
1
174
0
175
1
176
1
 91
1
178
0
145
0.0
170
1
171
1
172
0
173
1
174
0
175
1
176
1
 91
1
178
0
145
0.0
170
1
171
1
172
0
173
1
174
0
175
1
176
1
 91
1
178
0
145
0.0
170
1
171
1
172
0
173
1
174
0
175
1
176
1
 91
1
178
0
145
0.0
170
1
171
1
172
0
173
0
174
0
175
1
176
1
 91
33
178
0
145
0.0
301
CELL_VALUE
 90
4
  1
 
304
ACVALUE_END
170
1
140
3.0
171
1
172
0
173
0
174
0
175
1
176
1
 91
33
178
0
145
0.0
301
CELL_VALUE
 90
4
  1
 
304
ACVALUE_END
170
1
140
3.0
171
1
172
0
173
0
174
0
175
1
176
1
 91
33
178
0
145
0.0
301
CELL_VALUE
 90
4
  1
 
304
ACVALUE_END
170
1
140
3.0
171
1
172
0
173
0
174
0
175
5
176
1
 91
49
178
0
145
0.0
  7
TEXTSTYLE_3
301
CELL_VALUE
 90
4
  1
Toleranze generali per quote senza valori:\fgdt;{\fgdt;n}\ftxt;=H11-h11 - lineari\fgdt;{\fgdt;`}\ftxt;0.2
304
ACVALUE_END
170
1
140
1.3
171
1
172
0
173
1
174
0
175
1
176
1
 91
1
178
0
145
0.0
170
1
171
1
172
0
173
1
174
0
175
1
176
1
 91
1
178
0
145
0.0
170
1
171
1
172
0
173
1
174
0
175
1
176
1
 91
1
178
0
145
0.0
170
1
171
1
172
0
173
1
174
0
175
1
176
1
 91
1
178
0
145
0.0
170
1
171
1
172
0
173
1
174
0
175
1
176
1
 91
1
178
0
145
0.0
170
1
171
1
172
0
173
1
174
0
175
1
176
1
 91
1
178
0
145
0.0
170
1
171
1
172
0
173
1
174
0
175
1
176
1
 91
1
178
0
145
0.0
170
1
171
1
172
0
173
0
174
0
175
4
176
1
 91
49
178
0
145
0.0
  7
TEXTSTYLE_3
301
CELL_VALUE
 90
4
  1
Rugosita' \fgdt;{\fgdt;a}\ftxt;0.8=rettifica
304
ACVALUE_END
170
1
140
1.3
171
1
172
0
173
1
174
0
175
1
176
1
 91
1
178
0
145
0.0
170
1
171
1
172
0
173
1
174
0
175
1
176
1
 91
1
178
0
145
0.0
170
1
171
1
172
0
173
1
174
0
175
1
176
1
 91
1
178
0
145
0.0
170
1
  0
LINE
  5
283
100
AcDbEntity
  8
0
100
AcDbLine
 62
7
  6
CONTINUOUS
 10
0.0
 20
0.0
 11
210.0
 21
0.0
  0
LINE
  5
284
100
AcDbEntity
  8
0
100
AcDbLine
 62
7
  6
CONTINUOUS
 10
0.0
 20
0.0
 11
0.0
 21
297.0
  0
LINE
  5
285
100
AcDbEntity
  8
0
100
AcDbLine
 62
7
  6
CONTINUOUS
 10
210.0
 20
0.0
 11
210.0
 21
297.0
  0
LINE
  5
286
100
AcDbEntity
  8
0
100
AcDbLine
 62
7
  6
CONTINUOUS
 10
0.0
 20
297.0
 11
210.0
 21
297.0
  0
LINE
  5
287
100
AcDbEntity
  8
0_COMPONENTS
100
AcDbLine
 62
7
  6
CONTINUOUS
 10
95.9239096676
 20
124.8575655466
 11
49.188011285
 21
124.8575655466
  0
LINE
  5
288
100
AcDbEntity
  8
0_COMPONENTS
100
AcDbLine
 62
7
  6
CONTINUOUS
 10
48.7549985823
 20
125.1075655461
 11
96.3569223703
 21
125.1075655461
  0
LINE
  5
289
100
AcDbEntity
  8
0_COMPONENTS
100
AcDbLine
 62
7
  6
CONTINUOUS
 10
47.4559604763
 20
127.3575655466
 11
97.6559604763
 21
127.3575655466
  0
LINE
  5
28A
100
AcDbEntity
  8
0_COMPONENTS
100
AcDbLine
 62
7
  6
CONTINUOUS
 10
60.3559604763
 20
238.6575655466
 11
59.9059604763
 21
238.2075655466
  0
LINE
  5
28B
100
AcDbEntity
  8
0_COMPONENTS
100
AcDbLine
 62
7
  6
CONTINUOUS
 10
47.1559604763
 20
141.1575655466
 11
47.4559604763
 21
140.8575655466
  0
LINE
  5
28C
100
AcDbEntity
  8
0_COMPONENTS
100
AcDbLine
 62
7
  6
CONTINUOUS
 10
47.4559604763
 20
127.3575655466
 11
48.7549985823
 21
125.1075655461
  0
LINE
  5
28D
100
AcDbEntity
  8
0_COMPONENTS
100
AcDbLine
 62
7
  6
CONTINUOUS
 10
47.4559604763
 20
140.8575655466
 11
97.6559604763
 21
140.8575655466
  0
LINE
  5
28E
100
AcDbEntity
  8
0_COMPONENTS
100
AcDbLine
 62
7
  6
CONTINUOUS
 10
47.1559604763
 20
141.1575655466
 11
97.9559604763
 21
141.1575655466
  0
LINE
  5
28F
100
AcDbEntity
  8
0_COMPONENTS
100
AcDbLine
 62
7
  6
CONTINUOUS
 10
47.1559604763
 20
159.5575655466
 11
47.1559604763
 21
141.1575655466
  0
LINE
  5
290
100
AcDbEntity
  8
0_COMPONENTS
100
AcDbLine
 62
7
  6
CONTINUOUS
 10
47.4559604763
 20
176.3575655466
 11
47.4559604763
 21
159.8575655466
  0
LINE
  5
291
100
AcDbEntity
  8
0_COMPONENTS
100
AcDbLine
 62
7
  6
CONTINUOUS
 10
47.4559604763
 20
140.8575655466
 11
47.4559604763
 21
127.3575655466
  0
LINE
  5
292
100
AcDbEntity
  8
3_ALL_AXES
100
AcDbLine
 62
7
  6
CONTINUOUS
 10
48.6059604763
 20
183.3575655466
 11
48.6059604763
 21
176.8575655466
  0
LINE
  5
293
100
AcDbEntity
  8
3_ALL_AXES
100
AcDbLine
 62
7
  6
CONTINUOUS
 10
49.9559604763
 20
187.3575655466
 11
49.9559604763
 21
183.3575655466
  0
LINE
  5
294
100
AcDbEntity
  8
0_COMPONENTS
100
AcDbLine
 62
7
  6
CONTINUOUS
 10
49.9559604763
 20
187.3575655466
 11
49.9559604763
 21
183.3575655466
  0
LINE
  5
295
100
AcDbEntity
  8
0_COMPONENTS
100
AcDbLine
 62
7
  6
CONTINUOUS
 10
47.1559604763
 20
159.5575655466
 11
97.9559604763
 21
159.5575655466
  0
LINE
  5
296
100
AcDbEntity
  8
0_COMPONENTS
100
AcDbLine
 62
7
  6
CONTINUOUS
 10
47.4559604763
 20
159.8575655466
 11
97.6559604763
 21
159.8575655466
  0
LINE
  5
297
100
AcDbEntity
  8
0_COMPONENTS
100
AcDbLine
 62
7
  6
CONTINUOUS
 10
50.4559604763
 20
187.8575655466
 11
49.9559604763
 21
187.3575655466
  0
LINE
  5
298
100
AcDbEntity
  8
0_COMPONENTS
100
AcDbLine
 62
7
  6
CONTINUOUS
 10
59.8559604763
 20
190.8575655466
 11
59.8559604763
 21
232.6575655466
  0
LINE
  5
299
100
AcDbEntity
  8
0_COMPONENTS
100
AcDbLine
 62
7
  6
CONTINUOUS
 10
59.9059604763
 20
232.6575655466
 11
59.9059604763
 21
238.2075655466
  0
LINE
  5
29A
100
AcDbEntity
  8
0_COMPONENTS
100
AcDbLine
 62
7
  6
CONTINUOUS
 10
60.0559604763
 20
190.6575655466
 11
60.0559604763
 21
188.6575655466
  0
LINE
  5
29B
100
AcDbEntity
  8
0_COMPONENTS
100
AcDbLine
 62
7
  6
CONTINUOUS
 10
47.9559604763
 20
176.8575655466
 11
47.4559604763
 21
176.3575655466
  0
LINE
  5
29C
100
AcDbEntity
  8
0_COMPONENTS
100
AcDbLine
 62
7
  6
CONTINUOUS
 10
64.7271674659
 20
195.8685534731
 11
64.7271674659
 21
232.6575655466
  0
LINE
  5
29D
100
AcDbEntity
  8
0_COMPONENTS
100
AcDbLine
 62
7
  6
CONTINUOUS
 10
64.8085415512
 20
238.2075655466
 11
64.8085415512
 21
232.6575655466
  0
LINE
  5
29E
100
AcDbEntity
  8
0_COMPONENTS
100
AcDbLine
 62
7
  6
CONTINUOUS
 10
47.4559604763
 20
176.3575655466
 11
97.6559604763
 21
176.3575655466
  0
LINE
  5
29F
100
AcDbEntity
  8
0_COMPONENTS
100
AcDbLine
 62
7
  6
CONTINUOUS
 10
47.9559604763
 20
176.8575655466
 11
97.1559604763
 21
176.8575655466
  0
LINE
  5
2A0
100
AcDbEntity
  8
0_COMPONENTS
100
AcDbLine
 62
7
  6
CONTINUOUS
 10
47.4559604763
 20
159.8575655466
 11
47.1559604763
 21
159.5575655466
  0
LINE
  5
2A1
100
AcDbEntity
  8
0_COMPONENTS
100
AcDbLine
 62
7
  6
CONTINUOUS
 10
59.8559604763
 20
190.8575655466
 11
60.0559604763
 21
190.6575655466
  0
LINE
  5
2A2
100
AcDbEntity
  8
0_COMPONENTS
100
AcDbLine
 62
7
  6
CONTINUOUS
 10
85.2559604763
 20
190.8575655466
 11
85.0559604763
 21
190.6575655466
  0
LINE
  5
2A3
100
AcDbEntity
  8
3_ALL_AXES
100
AcDbLine
 62
7
  6
CONTINUOUS
 10
48.6059604763
 20
183.3575655466
 11
96.5059604763
 21
183.3575655466
  0
LINE
  5
2A4
100
AcDbEntity
  8
0_COMPONENTS
100
AcDbLine
 62
7
  6
CONTINUOUS
 10
97.6559604763
 20
159.8575655466
 11
97.9559604763
 21
159.5575655466
  0
LINE
  5
2A5
100
AcDbEntity
  8
0_COMPONENTS
100
AcDbLine
 62
7
  6
CONTINUOUS
 10
80.3033794013
 20
238.2075655466
 11
80.3033794013
 21
232.6575655466
  0
LINE
  5
2A6
100
AcDbEntity
  8
0_COMPONENTS
100
AcDbLine
 62
7
  6
CONTINUOUS
 10
80.3847534867
 20
195.8685534731
 11
80.3847534867
 21
232.6575655466
  0
LINE
  5
2A7
100
AcDbEntity
  8
0_COMPONENTS
100
AcDbLine
 62
7
  6
CONTINUOUS
 10
82.5559604763
 20
196.4064495317
 11
85.2559618192
 21
227.2676060983
  0
LINE
  5
2A8
100
AcDbEntity
  8
3_ALL_AXES
100
AcDbLine
 62
7
  6
CONTINUOUS
 10
49.9559604763
 20
187.3575655466
 11
95.1559604763
 21
187.3575655466
  0
LINE
  5
2A9
100
AcDbEntity
  8
0_COMPONENTS
100
AcDbLine
 62
7
  6
CONTINUOUS
 10
49.9559604763
 20
187.3575655466
 11
95.1559604763
 21
187.3575655466
  0
LINE
  5
2AA
100
AcDbEntity
  8
0_COMPONENTS
100
AcDbLine
 62
7
  6
CONTINUOUS
 10
50.4565628574
 20
187.8575655466
 11
94.6553580951
 21
187.8575655466
  0
LINE
  5
2AB
100
AcDbEntity
  8
0_COMPONENTS
100
AcDbLine
 62
7
  6
CONTINUOUS
 10
85.0559604763
 20
188.6575655466
 11
60.0559604763
 21
188.6575655466
  0
LINE
  5
2AC
100
AcDbEntity
  8
0_COMPONENTS
100
AcDbLine
 62
7
  6
CONTINUOUS
 10
85.0559604763
 20
190.6575655466
 11
85.0559604763
 21
188.6575655466
  0
LINE
  5
2AD
100
AcDbEntity
  8
0_COMPONENTS
100
AcDbLine
 62
7
  6
CONTINUOUS
 10
85.2059604763
 20
232.6575655466
 11
85.2059604763
 21
238.2075655466
  0
LINE
  5
2AE
100
AcDbEntity
  8
0_COMPONENTS
100
AcDbLine
 62
7
  6
CONTINUOUS
 10
85.2559604763
 20
227.2643752484
 11
85.2559604763
 21
232.6575655466
  0
LINE
  5
2AF
100
AcDbEntity
  8
0_COMPONENTS
100
AcDbLine
 62
7
  6
CONTINUOUS
 10
60.0559604763
 20
190.6575655466
 11
85.0559604763
 21
190.6575655466
  0
LINE
  5
2B0
100
AcDbEntity
  8
0_COMPONENTS
100
AcDbLine
 62
7
  6
CONTINUOUS
 10
59.8559604763
 20
190.8575655466
 11
85.2559604763
 21
190.8575655466
  0
LINE
  5
2B1
100
AcDbEntity
  8
0_COMPONENTS
100
AcDbLine
 62
7
  6
CONTINUOUS
 10
80.3847534867
 20
195.8685534731
 11
64.7271674659
 21
195.8685534731
  0
LINE
  5
2B2
100
AcDbEntity
  8
0_COMPONENTS
100
AcDbLine
 62
7
  6
CONTINUOUS
 10
97.1559604763
 20
176.8575655466
 11
97.6559604763
 21
176.3575655466
  0
LINE
  5
2B3
100
AcDbEntity
  8
0_COMPONENTS
100
AcDbLine
 62
7
  6
CONTINUOUS
 10
94.6559604763
 20
187.8575655466
 11
95.1559604763
 21
187.3575655466
  0
LINE
  5
2B4
100
AcDbEntity
  8
3_ALL_AXES
100
AcDbLine
 62
7
  6
CONTINUOUS
 10
95.1559604763
 20
187.3575655466
 11
95.1559604763
 21
183.3575655466
  0
LINE
  5
2B5
100
AcDbEntity
  8
0_COMPONENTS
100
AcDbLine
 62
7
  6
CONTINUOUS
 10
95.1559604763
 20
187.3575655466
 11
95.1559604763
 21
183.3575655466
  0
LINE
  5
2B6
100
AcDbEntity
  8
3_ALL_AXES
100
AcDbLine
 62
7
  6
CONTINUOUS
 10
96.5059604763
 20
183.3575655466
 11
96.5059604763
 21
176.8575655466
  0
LINE
  5
2B7
100
AcDbEntity
  8
0_COMPONENTS
100
AcDbLine
 62
7
  6
CONTINUOUS
 10
97.6559604763
 20
176.3575655466
 11
97.6559604763
 21
159.8575655466
  0
LINE
  5
2B8
100
AcDbEntity
  8
0_COMPONENTS
100
AcDbLine
 62
7
  6
CONTINUOUS
 10
97.6559604763
 20
140.8575655466
 11
97.6559604763
 21
127.3575655466
  0
LINE
  5
2B9
100
AcDbEntity
  8
0_COMPONENTS
100
AcDbLine
 62
7
  6
CONTINUOUS
 10
97.9559604763
 20
159.5575655466
 11
97.9559604763
 21
141.1575655466
  0
LINE
  5
2BA
100
AcDbEntity
  8
0_COMPONENTS
100
AcDbLine
 62
7
  6
CONTINUOUS
 10
97.6559604763
 20
127.3575655466
 11
96.3569223703
 21
125.1075655461
  0
LINE
  5
2BB
100
AcDbEntity
  8
0_COMPONENTS
100
AcDbLine
 62
7
  6
CONTINUOUS
 10
97.9559604763
 20
141.1575655466
 11
97.6559604763
 21
140.8575655466
  0
LINE
  5
2BC
100
AcDbEntity
  8
0_COMPONENTS
100
AcDbLine
 62
7
  6
CONTINUOUS
 10
84.7559604763
 20
238.6575655466
 11
85.2059604763
 21
238.2075655466
  0
LINE
  5
2BD
100
AcDbEntity
  8
0_COMPONENTS
100
AcDbLine
 62
7
  6
CONTINUOUS
 10
59.8560022831
 20
232.6575655466
 11
64.8085415512
 21
232.6575655466
  0
LINE
  5
2BE
100
AcDbEntity
  8
0_COMPONENTS
100
AcDbLine
 62
7
  6
CONTINUOUS
 10
80.3033794013
 20
232.6575655466
 11
85.2559186694
 21
232.6575655466
  0
LINE
  5
2BF
100
AcDbEntity
  8
0_COMPONENTS
100
AcDbLine
 62
7
  6
CONTINUOUS
 10
59.9059604763
 20
238.2075655466
 11
64.8085415512
 21
238.2075655466
  0
LINE
  5
2C0
100
AcDbEntity
  8
0_COMPONENTS
100
AcDbLine
 62
7
  6
CONTINUOUS
 10
80.3033794013
 20
238.2075655466
 11
85.2059604763
 21
238.2075655466
  0
LINE
  5
2C1
100
AcDbEntity
  8
0_COMPONENTS
100
AcDbLine
 62
7
  6
CONTINUOUS
 10
60.3559734788
 20
238.6575655466
 11
84.7559474738
 21
238.6575655466
  0
LINE
  5
2C2
100
AcDbEntity
  8
0_COMPONENTS
100
AcDbLine
 62
7
  6
CONTINUOUS
 10
140.4420924087
 20
124.8575655466
 11
187.1779907936
 21
124.8575655466
  0
LINE
  5
2C3
100
AcDbEntity
  8
0_COMPONENTS
100
AcDbLine
 62
7
  6
CONTINUOUS
 10
140.0090797069
 20
125.1075655466
 11
187.6110034955
 21
125.1075655466
  0
LINE
  5
2C4
100
AcDbEntity
  8
0_COMPONENTS
100
AcDbLine
 62
7
  6
CONTINUOUS
 10
138.7100416012
 20
127.3575655466
 11
188.9100416012
 21
127.3575655466
  0
LINE
  5
2C5
100
AcDbEntity
  8
0_COMPONENTS
100
AcDbLine
 62
7
  6
CONTINUOUS
 10
151.6100416012
 20
238.6575655466
 11
151.1600416012
 21
238.2075655466
  0
LINE
  5
2C6
100
AcDbEntity
  8
0_COMPONENTS
100
AcDbLine
 62
7
  6
CONTINUOUS
 10
138.4100416012
 20
141.1575655466
 11
138.7100416012
 21
140.8575655466
  0
LINE
  5
2C7
100
AcDbEntity
  8
0_COMPONENTS
100
AcDbLine
 62
7
  6
CONTINUOUS
 10
138.7100416012
 20
127.3575655466
 11
140.0090797069
 21
125.1075655466
  0
LINE
  5
2C8
100
AcDbEntity
  8
0_COMPONENTS
100
AcDbLine
 62
7
  6
CONTINUOUS
 10
138.7100416012
 20
140.8575655466
 11
188.9100416012
 21
140.8575655466
  0
LINE
  5
2C9
100
AcDbEntity
  8
0_COMPONENTS
100
AcDbLine
 62
7
  6
CONTINUOUS
 10
138.4100416012
 20
141.1575655466
 11
189.2100416012
 21
141.1575655466
  0
LINE
  5
2CA
100
AcDbEntity
  8
0_COMPONENTS
100
AcDbLine
 62
7
  6
CONTINUOUS
 10
138.4100416012
 20
159.5575655466
 11
138.4100416012
 21
141.1575655466
  0
LINE
  5
2CB
100
AcDbEntity
  8
0_COMPONENTS
100
AcDbLine
 62
7
  6
CONTINUOUS
 10
138.7100416012
 20
176.3575655466
 11
138.7100416012
 21
159.8575655466
  0
LINE
  5
2CC
100
AcDbEntity
  8
0_COMPONENTS
100
AcDbLine
 62
7
  6
CONTINUOUS
 10
138.7100416012
 20
140.8575655466
 11
138.7100416012
 21
127.3575655466
  0
LINE
  5
2CD
100
AcDbEntity
  8
3_ALL_AXES
100
AcDbLine
 62
7
  6
CONTINUOUS
 10
139.8600416012
 20
183.3575655466
 11
139.8600416012
 21
176.8575655466
  0
LINE
  5
2CE
100
AcDbEntity
  8
3_ALL_AXES
100
AcDbLine
 62
7
  6
CONTINUOUS
 10
141.2100416012
 20
187.3575655466
 11
141.2100416012
 21
183.3575655466
  0
LINE
  5
2CF
100
AcDbEntity
  8
0_COMPONENTS
100
AcDbLine
 62
7
  6
CONTINUOUS
 10
141.2100416012
 20
187.3575655466
 11
141.2100416012
 21
183.3575655466
  0
LINE
  5
2D0
100
AcDbEntity
  8
0_COMPONENTS
100
AcDbLine
 62
7
  6
CONTINUOUS
 10
138.4100416012
 20
159.5575655466
 11
189.2100416012
 21
159.5575655466
  0
LINE
  5
2D1
100
AcDbEntity
  8
0_COMPONENTS
100
AcDbLine
 62
7
  6
CONTINUOUS
 10
138.7100416012
 20
159.8575655466
 11
188.9100416012
 21
159.8575655466
  0
LINE
  5
2D2
100
AcDbEntity
  8
0_COMPONENTS
100
AcDbLine
 62
7
  6
CONTINUOUS
 10
141.7100416012
 20
187.8575655466
 11
141.2100416012
 21
187.3575655466
  0
LINE
  5
2D3
100
AcDbEntity
  8
0_COMPONENTS
100
AcDbLine
 62
7
  6
CONTINUOUS
 10
151.1100416012
 20
190.8575655466
 11
151.1100416012
 21
191.4075655466
  0
LINE
  5
2D4
100
AcDbEntity
  8
0_COMPONENTS
100
AcDbLine
 62
7
  6
CONTINUOUS
 10
151.1100416012
 20
204.3075655466
 11
151.1100416012
 21
232.6575655466
  0
LINE
  5
2D5
100
AcDbEntity
  8
0_COMPONENTS
100
AcDbLine
 62
7
  6
CONTINUOUS
 10
151.1600416012
 20
232.6575655466
 11
151.1600416012
 21
238.2075655466
  0
LINE
  5
2D6
100
AcDbEntity
  8
0_COMPONENTS
100
AcDbLine
 62
7
  6
CONTINUOUS
 10
151.3100416012
 20
190.6575655466
 11
151.3100416012
 21
188.6575655466
  0
LINE
  5
2D7
100
AcDbEntity
  8
0_COMPONENTS
100
AcDbLine
 62
7
  6
CONTINUOUS
 10
139.2100416012
 20
176.8575655466
 11
138.7100416012
 21
176.3575655466
  0
LINE
  5
2D8
100
AcDbEntity
  8
0_COMPONENTS
100
AcDbLine
 62
7
  6
CONTINUOUS
 10
138.7100416012
 20
176.3575655466
 11
188.9100416012
 21
176.3575655466
  0
LINE
  5
2D9
100
AcDbEntity
  8
0_COMPONENTS
100
AcDbLine
 62
7
  6
CONTINUOUS
 10
139.2100416012
 20
176.8575655466
 11
188.4100416012
 21
176.8575655466
  0
LINE
  5
2DA
100
AcDbEntity
  8
0_COMPONENTS
100
AcDbLine
 62
7
  6
CONTINUOUS
 10
138.7100416012
 20
159.8575655466
 11
138.4100416012
 21
159.5575655466
  0
LINE
  5
2DB
100
AcDbEntity
  8
0_COMPONENTS
100
AcDbLine
 62
7
  6
CONTINUOUS
 10
151.1100416012
 20
190.8575655466
 11
151.3100416012
 21
190.6575655466
  0
LINE
  5
2DC
100
AcDbEntity
  8
0_COMPONENTS
100
AcDbLine
 62
7
  6
CONTINUOUS
 10
176.5100416012
 20
190.8575655466
 11
176.3100416012
 21
190.6575655466
  0
LINE
  5
2DD
100
AcDbEntity
  8
3_ALL_AXES
100
AcDbLine
 62
7
  6
CONTINUOUS
 10
139.8600416012
 20
183.3575655466
 11
187.7600416012
 21
183.3575655466
  0
LINE
  5
2DE
100
AcDbEntity
  8
0_COMPONENTS
100
AcDbLine
 62
7
  6
CONTINUOUS
 10
188.9100416012
 20
159.8575655466
 11
189.2100416012
 21
159.5575655466
  0
LINE
  5
2DF
100
AcDbEntity
  8
3_ALL_AXES
100
AcDbLine
 62
7
  6
CONTINUOUS
 10
141.2100416012
 20
187.3575655466
 11
186.4100416012
 21
187.3575655466
  0
LINE
  5
2E0
100
AcDbEntity
  8
0_COMPONENTS
100
AcDbLine
 62
7
  6
CONTINUOUS
 10
141.2100416012
 20
187.3575655466
 11
186.4100416012
 21
187.3575655466
  0
LINE
  5
2E1
100
AcDbEntity
  8
0_COMPONENTS
100
AcDbLine
 62
7
  6
CONTINUOUS
 10
141.7100416012
 20
187.8575655466
 11
185.9100416012
 21
187.8575655466
  0
LINE
  5
2E2
100
AcDbEntity
  8
0_COMPONENTS
100
AcDbLine
 62
7
  6
CONTINUOUS
 10
176.3100416012
 20
188.6575655466
 11
151.3100416012
 21
188.6575655466
  0
LINE
  5
2E3
100
AcDbEntity
  8
0_COMPONENTS
100
AcDbLine
 62
7
  6
CONTINUOUS
 10
173.8100416012
 20
195.8685534731
 11
173.8100416012
 21
238.6575655466
  0
LINE
  5
2E4
100
AcDbEntity
  8
0_COMPONENTS
100
AcDbLine
 62
7
  6
CONTINUOUS
 10
176.3100416012
 20
190.6575655466
 11
176.3100416012
 21
188.6575655466
  0
LINE
  5
2E5
100
AcDbEntity
  8
0_COMPONENTS
100
AcDbLine
 62
7
  6
CONTINUOUS
 10
176.3100416012
 20
190.6575655466
 11
151.3100416012
 21
190.6575655466
  0
LINE
  5
2E6
100
AcDbEntity
  8
0_COMPONENTS
100
AcDbLine
 62
7
  6
CONTINUOUS
 10
151.1100416012
 20
190.8575655466
 11
176.5100416012
 21
190.8575655466
  0
LINE
  5
2E7
100
AcDbEntity
  8
0_COMPONENTS
100
AcDbLine
 62
7
  6
CONTINUOUS
 10
188.4100416012
 20
176.8575655466
 11
188.9100416012
 21
176.3575655466
  0
LINE
  5
2E8
100
AcDbEntity
  8
0_COMPONENTS
100
AcDbLine
 62
7
  6
CONTINUOUS
 10
185.9100416012
 20
187.8575655466
 11
186.4100416012
 21
187.3575655466
  0
LINE
  5
2E9
100
AcDbEntity
  8
3_ALL_AXES
100
AcDbLine
 62
7
  6
CONTINUOUS
 10
186.4100416012
 20
187.3575655466
 11
186.4100416012
 21
183.3575655466
  0
LINE
  5
2EA
100
AcDbEntity
  8
0_COMPONENTS
100
AcDbLine
 62
7
  6
CONTINUOUS
 10
186.4100416012
 20
187.3575655466
 11
186.4100416012
 21
183.3575655466
  0
LINE
  5
2EB
100
AcDbEntity
  8
3_ALL_AXES
100
AcDbLine
 62
7
  6
CONTINUOUS
 10
187.7600416012
 20
183.3575655466
 11
187.7600416012
 21
176.8575655466
  0
LINE
  5
2EC
100
AcDbEntity
  8
0_COMPONENTS
100
AcDbLine
 62
7
  6
CONTINUOUS
 10
188.9100416012
 20
176.3575655466
 11
188.9100416012
 21
159.8575655466
  0
LINE
  5
2ED
100
AcDbEntity
  8
0_COMPONENTS
100
AcDbLine
 62
7
  6
CONTINUOUS
 10
188.9100416012
 20
140.8575655466
 11
188.9100416012
 21
127.3575655466
  0
LINE
  5
2EE
100
AcDbEntity
  8
0_COMPONENTS
100
AcDbLine
 62
7
  6
CONTINUOUS
 10
189.2100416012
 20
159.5575655466
 11
189.2100416012
 21
141.1575655466
  0
LINE
  5
2EF
100
AcDbEntity
  8
0_COMPONENTS
100
AcDbLine
 62
7
  6
CONTINUOUS
 10
188.9100416012
 20
127.3575655466
 11
187.6110034955
 21
125.1075655466
  0
LINE
  5
2F0
100
AcDbEntity
  8
0_COMPONENTS
100
AcDbLine
 62
7
  6
CONTINUOUS
 10
189.2100416012
 20
141.1575655466
 11
188.9100416012
 21
140.8575655466
  0
LINE
  5
2F1
100
AcDbEntity
  8
0_COMPONENTS
100
AcDbLine
 62
7
  6
CONTINUOUS
 10
151.1100416012
 20
232.6575655466
 11
173.8100416012
 21
232.6575655466
  0
LINE
  5
2F2
100
AcDbEntity
  8
0_COMPONENTS
100
AcDbLine
 62
7
  6
CONTINUOUS
 10
151.1600416012
 20
238.2075655466
 11
173.8100416012
 21
238.2075655466
  0
LINE
  5
2F3
100
AcDbEntity
  8
0_COMPONENTS
100
AcDbLine
 62
7
  6
CONTINUOUS
 10
151.6100416012
 20
238.6575655466
 11
173.8100416012
 21
238.6575655466
  0
ARC
  5
2F4
100
AcDbEntity
  8
0_COMPONENTS
100
AcDbCircle
 62
7
  6
CONTINUOUS
 10
80.5380641235
 20
212.5469567474
 40
30.0979189363
100
AcDbArc
 50
119.8280480447
 51
121.5075982958
  0
ARC
  5
2F5
100
AcDbEntity
  8
0_COMPONENTS
100
AcDbCircle
 62
7
  6
CONTINUOUS
 10
64.573856829
 20
212.5469567474
 40
30.0979189363
100
AcDbArc
 50
58.4924017042
 51
60.1719519553
  0
ARC
  5
2F6
100
AcDbEntity
  8
0_COMPONENTS
100
AcDbCircle
 62
7
  6
CONTINUOUS
 10
88.5331286648
 20
195.8835150752
 40
6.0
100
AcDbArc
 50
175.0
 51
236.8936570643
  0
ARC
  5
2F7
100
AcDbEntity
  8
0_COMPONENTS
100
AcDbCircle
 62
7
  6
CONTINUOUS
 10
59.2559604763
 20
188.6575655466
 40
0.8
100
AcDbArc
 50
270.0
 51
360.0
  0
ARC
  5
2F8
100
AcDbEntity
  8
0_COMPONENTS
100
AcDbCircle
 62
7
  6
CONTINUOUS
 10
85.8559604763
 20
188.6575655466
 40
0.8
100
AcDbArc
 50
180.0
 51
270.0
  0
ARC
  5
2F9
100
AcDbEntity
  8
0_COMPONENTS
100
AcDbCircle
 62
7
  6
CONTINUOUS
 10
49.1880112838
 20
125.3575655466
 40
0.5
100
AcDbArc
 50
210.0000000698
 51
270.0000001322
  0
ARC
  5
2FA
100
AcDbEntity
  8
0_COMPONENTS
100
AcDbCircle
 62
7
  6
CONTINUOUS
 10
95.9239096687
 20
125.3575655466
 40
0.5
100
AcDbArc
 50
269.9999998678
 51
329.9999999302
  0
ARC
  5
2FB
100
AcDbEntity
  8
0_COMPONENTS
100
AcDbCircle
 62
7
  6
CONTINUOUS
 10
179.8100416012
 20
195.8685534731
 40
6.0
100
AcDbArc
 50
180.0
 51
236.6329870302
  0
ARC
  5
2FC
100
AcDbEntity
  8
0_COMPONENTS
100
AcDbCircle
 62
7
  6
CONTINUOUS
 10
150.5100416012
 20
188.6575655466
 40
0.8
100
AcDbArc
 50
270.0
 51
360.0
  0
ARC
  5
2FD
100
AcDbEntity
  8
0_COMPONENTS
100
AcDbCircle
 62
7
  6
CONTINUOUS
 10
177.1100416012
 20
188.6575655466
 40
0.8
100
AcDbArc
 50
180.0
 51
270.0
  0
ARC
  5
2FE
100
AcDbEntity
  8
0_COMPONENTS
100
AcDbCircle
 62
7
  6
CONTINUOUS
 10
187.1779907936
 20
125.3575655466
 40
0.5
100
AcDbArc
 50
270.0
 51
329.999999999
  0
ARC
  5
2FF
100
AcDbEntity
  8
0_COMPONENTS
100
AcDbCircle
 62
7
  6
CONTINUOUS
 10
140.4420924087
 20
125.3575655466
 40
0.5
100
AcDbArc
 50
210.0000000012
 51
270.0
  0
SPLINE
  5
300
100
AcDbEntity
  8
0_COMPONENTS
100
AcDbSpline
 62
7
  6
CONTINUOUS
 70
0
 71
3
 72
15
 73
11
 74
0
 42
0.0000001
 43
0.0000001
 44
0.0000000001
 40
0.0
 40
0.0
 40
0.0
 40
0.0
 40
0.1300742454
 40
0.2586785687
 40
0.3845481483
 40
0.5070003358
 40
0.6267547663
 40
0.7467602646
 40
0.8709782501
 40
1.0
 40
1.0
 40
1.0
 40
1.0
 10
72.5559604763
 20
190.8575655466
 30
0.0
 10
72.1037719351
 20
190.8575655466
 30
0.0
 10
71.2041513856
 20
190.8886560625
 30
0.0
 10
69.8739845094
 20
191.0364200782
 30
0.0
 10
68.5892667641
 20
191.3083535857
 30
0.0
 10
67.380489675
 20
191.7451226531
 30
0.0
 10
66.2944998698
 20
192.4050867299
 30
0.0
 10
65.4162947085
 20
193.3423093744
 30
0.0
 10
64.8532768868
 20
194.533746152
 30
0.0
 10
64.7271674659
 20
195.4200238145
 30
0.0
 10
64.7271674659
 20
195.8685534731
 30
0.0
  0
SPLINE
  5
301
100
AcDbEntity
  8
0_COMPONENTS
100
AcDbSpline
 62
7
  6
CONTINUOUS
 70
0
 71
3
 72
15
 73
11
 74
0
 42
0.0000001
 43
0.0000001
 44
0.0000000001
 40
0.0
 40
0.0
 40
0.0
 40
0.0
 40
0.1290142905
 40
0.2532479646
 40
0.3732516634
 40
0.4930050989
 40
0.6154544001
 40
0.7413220828
 40
0.8699284541
 40
1.0
 40
1.0
 40
1.0
 40
1.0
 10
80.3847534867
 20
195.8685534731
 30
0.0
 10
80.3847534867
 20
195.4200498064
 30
0.0
 10
80.2586459293
 20
194.5337469368
 30
0.0
 10
79.6956321616
 20
193.3422744394
 30
0.0
 10
78.8173616117
 20
192.405049818
 30
0.0
 10
77.7313815138
 20
191.7451145816
 30
0.0
 10
76.5226265498
 20
191.308344759
 30
0.0
 10
75.2379157206
 20
191.0364211
 30
0.0
 10
73.9077570981
 20
190.8886717182
 30
0.0
 10
73.0081395695
 20
190.8575655465
 30
0.0
 10
72.5559604732
 20
190.8575655466
 30
0.0
  0
SPLINE
  5
302
100
AcDbEntity
  8
0_COMPONENTS
100
AcDbSpline
 62
7
  6
CONTINUOUS
 70
0
 71
3
 72
15
 73
11
 74
0
 42
0.0000001
 43
0.0000001
 44
0.0000000001
 40
0.0
 40
0.0
 40
0.0
 40
0.0
 40
0.0479626364
 40
0.167882836
 40
0.3256767475
 40
0.4999930771
 40
0.6743088124
 40
0.8321063655
 40
0.9520339466
 40
1.0
 40
1.0
 40
1.0
 40
1.0
 10
151.1100416012
 20
204.3075655466
 30
0.0
 10
151.1771829914
 20
204.1082072584
 30
0.0
 10
151.4046981764
 20
203.4077554551
 30
0.0
 10
151.7898529883
 20
202.0311655009
 30
0.0
 10
152.1650555675
 20
200.0805601618
 30
0.0
 10
152.3189931902
 20
197.8576597452
 30
0.0
 10
152.1650731792
 20
195.634742501
 30
0.0
 10
151.7898836633
 20
193.6840877876
 30
0.0
 10
151.4047172818
 20
192.3074350097
 30
0.0
 10
151.1771878321
 20
191.6069380064
 30
0.0
 10
151.1100416012
 20
191.4075655466
 30
0.0
  0
ENDSEC
  0
SECTION
  2
OBJECTS
  0
DICTIONARY
  5
C
100
AcDbDictionary
280
0
281
1
  3
ACAD_GROUP
350
D
  3
ACAD_MLINESTYLE
350
17
  3
ACAD_LAYOUT
350
1A
  3
ACAD_PLOTSETTINGS
350
19
  3
ACAD_PLOTSTYLENAME
350
E
  3
ACAD_TABLESTYLE
350
       303
  0
DICTIONARY
  5
D
102
{ACAD_REACTORS
330
C
102
}
100
AcDbDictionary
280
0
281
1
  0
ACDBDICTIONARYWDFLT
  5
E
102
{ACAD_REACTORS
330
C
102
}
100
AcDbDictionary
281
1
  3
Normal
350
F
100
AcDbDictionaryWithDefault
340
F
  0
DICTIONARY
  5
17
102
{ACAD_REACTORS
330
C
102
}
100
AcDbDictionary
280
0
281
1
  3
Standard
350
18
  0
DICTIONARY
  5
303
330
C
100
AcDbDictionary
281
1
  3
Standard
350
       306
  3
Standard1
350
       307
  0
DICTIONARY
  5
19
102
{ACAD_REACTORS
330
C
102
}
100
AcDbDictionary
281
1
  0
DICTIONARY
  5
1A
102
{ACAD_REACTORS
330
C
102
}
100
AcDbDictionary
281
1
  3
Model
350
304
  3
Layout1
350
305
  0
ACDBPLACEHOLDER
  5
F
102
{ACAD_REACTORS
330
E
102
}
  0
MLINESTYLE
  5
18
102
{ACAD_REACTORS
330
17
102
}
100
AcDbMlineStyle
  2
STANDARD
 70
0
  3

 62
256
 51
90.0
 52
90.0
 71
2
 49
0.5
 62
256
  6
BYLAYER
 49
-0.5
 62
256
  6
BYLAYER
  0
LAYOUT
  5
304
102
{ACAD_REACTORS
330
1A
102
}
100
AcDbPlotSettings
  1

  2
none_device
  4

  6

 40
0.0
 41
0.0
 42
0.0
 43
0.0
 44
210.0
 45
297.0
 46
0.0
 47
0.0
 48
0.0
 49
0.0
140
0.0
141
0.0
142
1.0
143
1.0
 70
1024
 72
1
 73
0
 74
0
  7

 75
0
147
1.0
148
0.0
149
0.0
100
AcDbLayout
  1
Model
 70
0
 71
0
 10
0.0
 20
0.0
 11
210.0
 21
297.0
 12
0.0
 22
0.0
 32
0.0
 14
0.0
 24
0.0
 34
0.0
 15
0.0
 25
0.0
 35
0.0
146
0.0
 13
0.0
 23
0.0
 33
0.0
 16
1.0
 26
0.0
 36
0.0
 17
0.0
 27
1.0
 37
0.0
 76
0
330
217
345
0
346
0
  0
LAYOUT
  5
305
102
{ACAD_REACTORS
330
1A
102
}
100
AcDbPlotSettings
  1

  2
none_device
  4

  6

 40
0.0
 41
0.0
 42
0.0
 43
0.0
 44
210.0
 45
297.0
 46
0.0
 47
0.0
 48
0.0
 49
0.0
140
0.0
141
0.0
142
1.0
143
1.0
 70
0
 72
1
 73
0
 74
0
  7

 75
0
147
1.0
148
0.0
149
0.0
100
AcDbLayout
  1
Layout1
 70
0
 71
1
 10
0.0
 20
0.0
 11
210.0
 21
297.0
 12
0.0
 22
0.0
 32
0.0
 14
0.0
 24
0.0
 34
0.0
 15
0.0
 25
0.0
 35
0.0
146
0.0
 13
0.0
 23
0.0
 33
0.0
 16
1.0
 26
0.0
 36
0.0
 17
0.0
 27
1.0
 37
0.0
 76
0
330
218
345
0
346
0
  0
TABLESTYLE
  5
306
102
{ACAD_REACTORS
330
303
102
}
330
303
100
AcDbTableStyle
  3
Standard
 70
0
 71
0
 40
0.06
 41
0.06
280
1
281
1
  7
Standard
140
0.18
170
1
 62
0
 63
7
283
0
  7
Standard
140
0.18
170
1
 62
0
 63
7
283
0
  7
Standard
140
0.18
170
1
 62
0
 63
7
283
0
  0
TABLESTYLE
  5
307
102
{ACAD_REACTORS
330
303
330
282
102
}
330
303
100
AcDbTableStyle
  3
Standard1
 70
1
 71
0
 40
0.06
 41
0.06
280
1
281
1
  7
Standard
140
0.18
170
1
 62
0
 63
7
283
0
  7
Standard
140
0.18
170
1
 62
0
 63
7
283
0
  7
Standard
140
0.18
170
1
 62
0
 63
7
283
0
  0
ENDSEC
  0
EOF
