999
DXF file: 21680-h63a.dxf
999
Pro/ENGINEER 2019352 by Parametric Technology Corporation
  0
SECTION
  2
HEADER
  9
$ACADVER
  1
AC1027
  9
$DWGCODEPAGE
  3
ANSI_1252
  9
$EXTMAX
 10
210.0
 20
297.0
 30
0.0
  9
$EXTMIN
 10
0.0
 20
0.0
 30
0.0
  9
$LIMMIN
 10
0.0
 20
0.0
  9
$LIMMAX
 10
210.0
 20
297.0
  9
$VIEWCTR
 10
105.0
 20
148.5
  9
$VIEWSIZE
 40
297.0
  9
$CLAYER
  8
0
  9
$LTSCALE
 40
19.36
  9
$CELTYPE
  6
BYLAYER
  9
$DIMSCALE
 40
1.0
  9
$DIMASZ
 40
4.76
  9
$DIMEXO
 40
0.1
  9
$DIMDLI
 40
13.376
  9
$DIMEXE
 40
1.0
  9
$DIMCEN
 40
3.168
  9
$DIMLFAC
 40
1.0
  9
$DIMBLK
  1
_FILLED
  9
$DIMALT
 70
0
  9
$DIMALTF
 40
0.0393700787
  9
$DIMTXT
 40
1.5
  9
$DIMTOL
 70
1
  9
$DIMLIM
 70
0
  9
$DIMTFAC
 40
1.0
  9
$DIMTP
 40
0.01
  9
$DIMTM
 40
0.01
  9
$DIMGAP
 40
0.625
  9
$DIMDSEP
 70
46
  9
$AUNITS
 70
0
  9
$PDMODE
 70
3
  9
$PDSIZE
 40
0.3125
  9
$HANDSEED
  5
34B
  9
$TILEMODE
 70
1
  9
$MEASUREMENT
 70
1
  9
$INSUNITS
 70
4
  0
ENDSEC
  0
SECTION
  2
CLASSES
  0
CLASS
  1
ACDBDICTIONARYWDFLT
  2
AcDbDictionaryWithDefault
  3
AutoCAD 2000
 90
0
 91
1
280
0
281
0
  0
CLASS
  1
ACDBPLACEHOLDER
  2
AcDbPlaceHolder
  3
AutoCAD 2000
 90
0
 91
1
280
0
281
0
  0
CLASS
  1
LAYOUT
  2
AcDbLayout
  3
AutoCAD 2000
 90
0
 91
0
280
0
281
0
  0
CLASS
  1
TABLESTYLE
  2
AcDbTableStyle
  3
ObjectDBX Classes
 90
2047
 91
1
280
0
281
0
  0
CLASS
  1
ACAD_TABLE
  2
AcDbTable
  3
ObjectDBX Classes
 90
1025
 91
1
280
0
281
1
  0
ENDSEC
  0
SECTION
  2
TABLES
  0
TABLE
  2
VPORT
  5
8
100
AcDbSymbolTable
 70
2
  0
VPORT
  5
1F4
100
AcDbSymbolTableRecord
100
AcDbViewportTableRecord
  2
*ACTIVE
 70
0
 10
0.0
 20
0.0
 11
1.0
 21
1.0
 12
105.0
 22
148.5
 13
0.0
 23
0.0
 14
1.0
 24
1.0
 15
0.0
 25
0.0
 16
0.0
 26
0.0
 36
1.0
 17
0.0
 27
0.0
 37
0.0
 40
297.0
 41
0.7070707071
 42
50.0
 43
0.0
 44
0.0
 50
0.0
 51
0.0
 71
0
 72
100
 73
1
 74
1
 75
0
 76
0
 77
0
 78
0
  0
ENDTAB
  0
TABLE
  2
LTYPE
  5
5
100
AcDbSymbolTable
 70
6
  0
LTYPE
  5
14
100
AcDbSymbolTableRecord
100
AcDbLinetypeTableRecord
  2
BYBLOCK
 70
0
  3

 72
65
 73
0
 40
0.0
  0
LTYPE
  5
15
100
AcDbSymbolTableRecord
100
AcDbLinetypeTableRecord
  2
BYLAYER
 70
0
  3

 72
65
 73
0
 40
0.0
  0
LTYPE
  5
16
100
AcDbSymbolTableRecord
100
AcDbLinetypeTableRecord
  2
CONTINUOUS
 70
64
  3
Solid line
 72
65
 73
0
 40
0.0
  0
LTYPE
  5
1F5
100
AcDbSymbolTableRecord
100
AcDbLinetypeTableRecord
  2
CENTER
 70
64
  3
____ _ ____ _ ____ _ ____ _ ____ _ ____ _ ____
 72
65
 73
4
 40
0.6
 49
0.375
 74
0
 49
-0.075
 74
0
 49
0.075
 74
0
 49
-0.075
 74
0
  0
LTYPE
  5
1F6
100
AcDbSymbolTableRecord
100
AcDbLinetypeTableRecord
  2
HIDDEN
 70
64
  3
- - - - - - - - - - - - - - - - - - - -
 72
65
 73
2
 40
0.2
 49
0.1
 74
0
 49
-0.1
 74
0
  0
LTYPE
  5
1F7
100
AcDbSymbolTableRecord
100
AcDbLinetypeTableRecord
  2
PHANTOM
 70
64
  3
_____ _ _ _____ _ _ _____ _ _ _____
 72
65
 73
6
 40
0.8
 49
0.45
 74
0
 49
-0.05
 74
0
 49
0.1
 74
0
 49
-0.05
 74
0
 49
0.1
 74
0
 49
-0.05
 74
0
  0
LTYPE
  5
1F8
100
AcDbSymbolTableRecord
100
AcDbLinetypeTableRecord
  2
DOT
 70
64
  3
. . . . . . . . . . . . . . . . . . . .
 72
65
 73
2
 40
0.2
 49
0.1
 74
0
 49
-0.1
 74
0
  0
LTYPE
  5
1F9
100
AcDbSymbolTableRecord
100
AcDbLinetypeTableRecord
  2
DASHED
 70
64
  3
- - - - - - - - - - - - - - - - - - - -
 72
65
 73
2
 40
0.2
 49
0.1
 74
0
 49
-0.1
 74
0
  0
ENDTAB
  0
TABLE
  2
LAYER
  5
2
100
AcDbSymbolTable
 70
36
  0
LAYER
  5
10
100
AcDbSymbolTableRecord
100
AcDbLayerTableRecord
  2
0
 70
0
 62
7
  6
CONTINUOUS
370
-3
390
F
  0
LAYER
  5
1FA
100
AcDbSymbolTableRecord
100
AcDbLayerTableRecord
  2
DEFAULT_1
 70
0
 62
7
  6
CENTER
370
-3
390
F
  0
LAYER
  5
1FB
100
AcDbSymbolTableRecord
100
AcDbLayerTableRecord
  2
DEFAULT_2
 70
0
 62
8
  6
HIDDEN
370
-3
390
F
  0
LAYER
  5
1FC
100
AcDbSymbolTableRecord
100
AcDbLayerTableRecord
  2
DEFAULT_3
 70
0
 62
7
  6
PHANTOM
370
-3
390
F
  0
LAYER
  5
1FD
100
AcDbSymbolTableRecord
100
AcDbLayerTableRecord
  2
0_COMPONENTS
 70
0
 62
7
  6
CONTINUOUS
370
-3
390
F
  0
LAYER
  5
1FE
100
AcDbSymbolTableRecord
100
AcDbLayerTableRecord
  2
1_ALL_PLANES
 70
0
 62
7
  6
CONTINUOUS
370
-3
390
F
  0
LAYER
  5
1FF
100
AcDbSymbolTableRecord
100
AcDbLayerTableRecord
  2
1__DEF_ASM_PLN
 70
0
 62
7
  6
CONTINUOUS
370
-3
390
F
  0
LAYER
  5
200
100
AcDbSymbolTableRecord
100
AcDbLayerTableRecord
  2
1__DEF_PLANES
 70
0
 62
7
  6
CONTINUOUS
370
-3
390
F
  0
LAYER
  5
201
100
AcDbSymbolTableRecord
100
AcDbLayerTableRecord
  2
1__DRAFT_DIMS
 70
0
 62
7
  6
CONTINUOUS
370
-3
390
F
  0
LAYER
  5
202
100
AcDbSymbolTableRecord
100
AcDbLayerTableRecord
  2
2_ALL_CSYS
 70
0
 62
7
  6
CONTINUOUS
370
-3
390
F
  0
LAYER
  5
203
100
AcDbSymbolTableRecord
100
AcDbLayerTableRecord
  2
2_ALL_NOTES
 70
0
 62
7
  6
CONTINUOUS
370
-3
390
F
  0
LAYER
  5
204
100
AcDbSymbolTableRecord
100
AcDbLayerTableRecord
  2
2__DEF_ASM_CSYS
 70
0
 62
7
  6
CONTINUOUS
370
-3
390
F
  0
LAYER
  5
205
100
AcDbSymbolTableRecord
100
AcDbLayerTableRecord
  2
2__DEF_CSYS
 70
0
 62
7
  6
CONTINUOUS
370
-3
390
F
  0
LAYER
  5
206
100
AcDbSymbolTableRecord
100
AcDbLayerTableRecord
  2
3_ALL_AXES
 70
0
 62
7
  6
CONTINUOUS
370
-3
390
F
  0
LAYER
  5
207
100
AcDbSymbolTableRecord
100
AcDbLayerTableRecord
  2
4_ALL_POINTS
 70
0
 62
7
  6
CONTINUOUS
370
-3
390
F
  0
LAYER
  5
208
100
AcDbSymbolTableRecord
100
AcDbLayerTableRecord
  2
5_ALL_CURVES
 70
0
 62
7
  6
CONTINUOUS
370
-3
390
F
  0
LAYER
  5
209
100
AcDbSymbolTableRecord
100
AcDbLayerTableRecord
  2
5_ALL_GTOLS(FREE)
 70
0
 62
7
  6
CONTINUOUS
370
-3
390
F
  0
LAYER
  5
20A
100
AcDbSymbolTableRecord
100
AcDbLayerTableRecord
  2
6_ALL_SURFS
 70
0
 62
7
  6
CONTINUOUS
370
-3
390
F
  0
LAYER
  5
20B
100
AcDbSymbolTableRecord
100
AcDbLayerTableRecord
  2
CURVE
 70
0
 62
7
  6
CONTINUOUS
370
-3
390
F
  0
LAYER
  5
20C
100
AcDbSymbolTableRecord
100
AcDbLayerTableRecord
  2
GIANNI_ASSI
 70
0
 62
7
  6
CONTINUOUS
370
-3
390
F
  0
LAYER
  5
20D
100
AcDbSymbolTableRecord
100
AcDbLayerTableRecord
  2
GIANNI_CURVE
 70
0
 62
7
  6
CONTINUOUS
370
-3
390
F
  0
LAYER
  5
20E
100
AcDbSymbolTableRecord
100
AcDbLayerTableRecord
  2
LAY0001
 70
0
 62
7
  6
CONTINUOUS
370
-3
390
F
  0
LAYER
  5
20F
100
AcDbSymbolTableRecord
100
AcDbLayerTableRecord
  2
PIANI_INUTILI
 70
0
 62
7
  6
CONTINUOUS
370
-3
390
F
  0
LAYER
  5
210
100
AcDbSymbolTableRecord
100
AcDbLayerTableRecord
  2
PIANI_SCORD
 70
0
 62
7
  6
CONTINUOUS
370
-3
390
F
  0
LAYER
  5
211
100
AcDbSymbolTableRecord
100
AcDbLayerTableRecord
  2
XSEC_DATUMS
 70
0
 62
7
  6
CONTINUOUS
370
-3
390
F
  0
ENDTAB
  0
TABLE
  2
STYLE
  5
3
100
AcDbSymbolTable
 70
1
  0
STYLE
  5
11
100
AcDbSymbolTableRecord
100
AcDbTextStyleTableRecord
  2
STANDARD
 70
0
 40
0.0
 41
1.2
 50
0.0
 71
0
 42
0.2
  3
txt
  4

  0
STYLE
  5
212
100
AcDbSymbolTableRecord
100
AcDbTextStyleTableRecord
  2
TEXTSTYLE_1
 70
0
 40
0.0
 41
0.8
 50
0.0
 71
0
 42
0.2
  3
gdt
  4

  0
STYLE
  5
213
100
AcDbSymbolTableRecord
100
AcDbTextStyleTableRecord
  2
TEXTSTYLE_2
 70
0
 40
0.0
 41
1.0
 50
0.0
 71
0
 42
0.2
  3
txt
  4

  0
STYLE
  5
214
100
AcDbSymbolTableRecord
100
AcDbTextStyleTableRecord
  2
TEXTSTYLE_3
 70
0
 40
0.0
 41
1.0
 50
0.0
 71
0
 42
0.2
  3
txt
  4

  0
STYLE
  5
215
100
AcDbSymbolTableRecord
100
AcDbTextStyleTableRecord
  2
TEXTSTYLE_4
 70
0
 40
0.0
 41
1.0
 50
0.0
 71
0
 42
0.2
  3
txt
  4

  0
STYLE
  5
216
100
AcDbSymbolTableRecord
100
AcDbTextStyleTableRecord
  2
TEXTSTYLE_5
 70
0
 40
0.0
 41
1.0
 50
0.0
 71
0
 42
0.2
  3
bluprnt.ttf
  4

  0
STYLE
  5
217
100
AcDbSymbolTableRecord
100
AcDbTextStyleTableRecord
  2
TEXTSTYLE_6
 70
0
 40
0.0
 41
1.0
 50
0.0
 71
0
 42
0.2
  3
bluprntb.ttf
  4

  0
STYLE
  5
218
100
AcDbSymbolTableRecord
100
AcDbTextStyleTableRecord
  2
TEXTSTYLE_7
 70
0
 40
0.0
 41
1.0
 50
0.0
 71
0
 42
0.2
  3
gdt
  4

  0
ENDTAB
  0
TABLE
  2
VIEW
  5
6
100
AcDbSymbolTable
 70
0
  0
ENDTAB
  0
TABLE
  2
UCS
  5
7
100
AcDbSymbolTable
 70
0
  0
ENDTAB
  0
TABLE
  2
APPID
  5
9
100
AcDbSymbolTable
 70
1
  0
APPID
  5
219
100
AcDbSymbolTableRecord
100
AcDbRegAppTableRecord
  2
ACAD
 70
0
  0
ENDTAB
  0
TABLE
  2
BLOCK_RECORD
  5
1
100
AcDbSymbolTable
 70
0
  0
BLOCK_RECORD
  5
21A
100
AcDbSymbolTableRecord
100
AcDbBlockTableRecord
  2
*Model_Space
  0
BLOCK_RECORD
  5
21B
100
AcDbSymbolTableRecord
100
AcDbBlockTableRecord
  2
*Paper_Space
  0
BLOCK_RECORD
  5
21C
100
AcDbSymbolTableRecord
100
AcDbBlockTableRecord
  2
_FILLED
  0
BLOCK_RECORD
  5
21D
100
AcDbSymbolTableRecord
100
AcDbBlockTableRecord
  2
*D0
  0
BLOCK_RECORD
  5
21E
100
AcDbSymbolTableRecord
100
AcDbBlockTableRecord
  2
*D1
  0
BLOCK_RECORD
  5
21F
100
AcDbSymbolTableRecord
100
AcDbBlockTableRecord
  2
*D2
  0
BLOCK_RECORD
  5
220
100
AcDbSymbolTableRecord
100
AcDbBlockTableRecord
  2
*D3
  0
BLOCK_RECORD
  5
221
100
AcDbSymbolTableRecord
100
AcDbBlockTableRecord
  2
*D4
  0
BLOCK_RECORD
  5
222
100
AcDbSymbolTableRecord
100
AcDbBlockTableRecord
  2
*T1
  0
ENDTAB
  0
TABLE
  2
DIMSTYLE
  5
A
100
AcDbSymbolTable
 70
1
100
AcDbDimStyleTable
 71
0
  0
DIMSTYLE
105
223
100
AcDbSymbolTableRecord
100
AcDbDimStyleTableRecord
  2
STANDARD
 70
0
  3

  4

 40
1.0
 41
4.76
 42
0.1
 43
0.38
 44
1.0
 45
0.0
 46
0.0
 47
0.01
 48
0.01
140
1.5
141
0.09
142
0.0
143
25.4
144
1.0
145
0.0
146
1.0
147
0.625
 71
1.0
 72
0.0
 73
0
 74
0
 75
0
 76
0
 77
1
 78
8
 79
2
170
0
171
2
172
0
173
0
174
0
175
0
176
0
177
0
178
5
270
2
179
3
271
3
272
3
273
2
274
2
275
0
280
0
281
0
282
0
283
1
284
8
285
0
286
0
287
3
288
0
340
11
278
46
341
21C
342
21C
343
21C
344
21C
  0
DIMSTYLE
105
224
100
AcDbSymbolTableRecord
100
AcDbDimStyleTableRecord
  2
DIMSTYLE_1
 70
0
  3

  4

 40
1.0
 41
4.76
 42
0.1
 43
0.38
 44
1.0
 45
0.0
 46
0.0
 47
0.01
 48
0.01
140
1.5
141
0.09
142
0.0
143
25.4
144
1.0
145
0.0
146
1.0
147
0.375
 71
0.0
 72
0.0
 73
0
 74
0
 75
0
 76
0
 77
1
 78
8
 79
2
170
0
171
2
172
0
173
0
174
0
175
0
176
0
177
0
178
5
270
2
179
3
271
0
272
0
273
2
274
2
275
0
280
0
281
0
282
0
283
1
284
8
285
0
286
0
287
3
288
0
340
11
278
46
341
21C
342
21C
343
21C
344
21C
  0
DIMSTYLE
105
225
100
AcDbSymbolTableRecord
100
AcDbDimStyleTableRecord
  2
DIMSTYLE_2
 70
0
  3

  4

 40
1.0
 41
4.76
 42
0.1
 43
0.38
 44
1.0
 45
0.0
 46
0.0
 47
0.01
 48
0.01
140
1.5
141
0.09
142
0.0
143
25.4
144
1.0
145
0.0
146
1.0
147
0.375
 71
0.0
 72
0.0
 73
0
 74
0
 75
0
 76
0
 77
1
 78
8
 79
2
170
0
171
2
172
0
173
0
174
0
175
0
176
0
177
0
178
5
270
2
179
3
271
3
272
3
273
2
274
2
275
0
280
0
281
0
282
0
283
1
284
8
285
0
286
0
287
3
288
0
340
11
278
46
341
21C
342
21C
343
21C
344
21C
  0
ENDTAB
  0
ENDSEC
  0
SECTION
  2
BLOCKS
  0
BLOCK
  5
20
100
AcDbEntity
  8
0
100
AcDbBlockBegin
  2
*Model_Space
 70
0
 10
0.0
 20
0.0
 30
0.0
  3
*Model_Space
  1

  0
ENDBLK
  5
21
100
AcDbEntity
  8
0
100
AcDbBlockEnd
  0
BLOCK
  5
1C
100
AcDbEntity
  8
0
100
AcDbBlockBegin
  2
*Paper_Space
 70
0
 10
0.0
 20
0.0
 30
0.0
  3
*Paper_Space
  1

  0
ENDBLK
  5
1D
100
AcDbEntity
  8
0
100
AcDbBlockEnd
  0
BLOCK
  5
226
100
AcDbEntity
  8
0
100
AcDbBlockBegin
  2
_FILLED
 70
64
 10
0.0
 20
0.0
  3
_FILLED
  1

  0
SOLID
  5
227
100
AcDbEntity
  8
0
  6
BYBLOCK
 62
0
100
AcDbTrace
 10
0.0
 20
0.0
 11
-1.0
 21
0.1050420168
 12
-1.0
 22
-0.1050420168
 13
-1.0
 23
-0.1050420168
  0
ENDBLK
  5
228
100
AcDbEntity
  8
0
  6
BYBLOCK
 62
0
100
AcDbBlockEnd
  0
BLOCK
  5
229
100
AcDbEntity
  8
0
100
AcDbBlockBegin
 62
2
  6
CONTINUOUS
  2
*D0
 70
65
 10
0.0
 20
0.0
  3
*D0
  1

  0
MTEXT
  5
22A
100
AcDbEntity
  8
0
100
AcDbMText
 62
5
  6
CONTINUOUS
  7
STANDARD
 71
2
 72
1
 10
57.0109420597
 20
158.5869705509
 30
0.0
 11
0.0
 21
1.0
 31
0.0
 73
2
 44
0.9
  1
90
 40
1.5
 41
6.9428571429
  0
LINE
  5
22B
100
AcDbEntity
  8
0
100
AcDbLine
 62
2
  6
CONTINUOUS
 10
82.0283459216
 20
203.4869705509
 11
58.1537992025
 21
203.4869705509
  0
LINE
  5
22C
100
AcDbEntity
  8
0
100
AcDbLine
 62
2
  6
CONTINUOUS
 10
90.6867455027
 20
113.6869705509
 11
58.1537992025
 21
113.6869705509
  0
LINE
  5
22D
100
AcDbEntity
  8
0
100
AcDbLine
 62
2
  6
CONTINUOUS
 10
59.1537992025
 20
203.4869705509
 11
59.1537992025
 21
158.5869705509
  0
LINE
  5
22E
100
AcDbEntity
  8
0
100
AcDbLine
 62
2
  6
CONTINUOUS
 10
59.1537992025
 20
113.6869705509
 11
59.1537992025
 21
158.5869705509
  0
INSERT
  5
22F
100
AcDbEntity
  8
0
100
AcDbBlockReference
 62
2
  6
CONTINUOUS
  2
_FILLED
 10
59.1537992025
 20
203.4869705509
 41
4.76
 42
4.76
 43
4.76
 50
90.0
  0
INSERT
  5
230
100
AcDbEntity
  8
0
100
AcDbBlockReference
 62
2
  6
CONTINUOUS
  2
_FILLED
 10
59.1537992025
 20
113.6869705509
 41
4.76
 42
4.76
 43
4.76
 50
270.0
  0
ENDBLK
  5
231
100
AcDbEntity
  8
0
  6
BYBLOCK
 62
0
100
AcDbBlockEnd
  0
BLOCK
  5
232
100
AcDbEntity
  8
0
100
AcDbBlockBegin
 62
2
  6
CONTINUOUS
  2
*D1
 70
65
 10
0.0
 20
0.0
  3
*D1
  1

  0
MTEXT
  5
233
100
AcDbEntity
  8
0
100
AcDbMText
 62
5
  6
CONTINUOUS
  7
STANDARD
 71
2
 72
1
 10
113.3443969553
 20
85.5330963245
 30
0.0
 11
1.0
 21
0.0
 31
0.0
 73
2
 44
0.9
  1
Ø50
 40
1.5
 41
9.6428571429
  0
LINE
  5
234
100
AcDbEntity
  8
0
100
AcDbLine
 62
2
  6
CONTINUOUS
 10
88.0283459216
 20
116.0869705509
 11
88.0283459216
 21
82.3902391817
  0
LINE
  5
235
100
AcDbEntity
  8
0
100
AcDbLine
 62
2
  6
CONTINUOUS
 10
138.2283459216
 20
116.0869705509
 11
138.2283459216
 21
82.3902391817
  0
LINE
  5
236
100
AcDbEntity
  8
0
100
AcDbLine
 62
2
  6
CONTINUOUS
 10
88.0283459216
 20
83.3902391817
 11
113.1283459216
 21
83.3902391817
  0
LINE
  5
237
100
AcDbEntity
  8
0
100
AcDbLine
 62
2
  6
CONTINUOUS
 10
138.2283459216
 20
83.3902391817
 11
113.1283459216
 21
83.3902391817
  0
INSERT
  5
238
100
AcDbEntity
  8
0
100
AcDbBlockReference
 62
2
  6
CONTINUOUS
  2
_FILLED
 10
88.0283459216
 20
83.3902391817
 41
4.76
 42
4.76
 43
4.76
 50
180.0
  0
INSERT
  5
239
100
AcDbEntity
  8
0
100
AcDbBlockReference
 62
2
  6
CONTINUOUS
  2
_FILLED
 10
138.2283459216
 20
83.3902391817
 41
4.76
 42
4.76
 43
4.76
  0
ENDBLK
  5
23A
100
AcDbEntity
  8
0
  6
BYBLOCK
 62
0
100
AcDbBlockEnd
  0
BLOCK
  5
23B
100
AcDbEntity
  8
0
100
AcDbBlockBegin
 62
2
  6
CONTINUOUS
  2
*D2
 70
65
 10
0.0
 20
0.0
  3
*D2
  1

  0
MTEXT
  5
23C
100
AcDbEntity
  8
0
100
AcDbMText
 62
5
  6
CONTINUOUS
  7
STANDARD
 71
2
 72
1
 10
159.5720465603
 20
139.6869705509
 30
0.0
 11
0.0
 21
1.0
 31
0.0
 73
2
 44
0.9
  1
52
 40
1.5
 41
6.9428571429
  0
LINE
  5
23D
100
AcDbEntity
  8
0
100
AcDbLine
 62
2
  6
CONTINUOUS
 10
137.8283459216
 20
165.6869705509
 11
162.7149037031
 21
165.6869705509
  0
LINE
  5
23E
100
AcDbEntity
  8
0
100
AcDbLine
 62
2
  6
CONTINUOUS
 10
136.59629515
 20
113.6869705509
 11
162.7149037031
 21
113.6869705509
  0
LINE
  5
23F
100
AcDbEntity
  8
0
100
AcDbLine
 62
2
  6
CONTINUOUS
 10
161.7149037031
 20
165.6869705509
 11
161.7149037031
 21
139.6869705509
  0
LINE
  5
240
100
AcDbEntity
  8
0
100
AcDbLine
 62
2
  6
CONTINUOUS
 10
161.7149037031
 20
113.6869705509
 11
161.7149037031
 21
139.6869705509
  0
INSERT
  5
241
100
AcDbEntity
  8
0
100
AcDbBlockReference
 62
2
  6
CONTINUOUS
  2
_FILLED
 10
161.7149037031
 20
165.6869705509
 41
4.76
 42
4.76
 43
4.76
 50
90.0
  0
INSERT
  5
242
100
AcDbEntity
  8
0
100
AcDbBlockReference
 62
2
  6
CONTINUOUS
  2
_FILLED
 10
161.7149037031
 20
113.6869705509
 41
4.76
 42
4.76
 43
4.76
 50
270.0
  0
ENDBLK
  5
243
100
AcDbEntity
  8
0
  6
BYBLOCK
 62
0
100
AcDbBlockEnd
  0
BLOCK
  5
244
100
AcDbEntity
  8
0
100
AcDbBlockBegin
 62
2
  6
CONTINUOUS
  2
*D3
 70
65
 10
0.0
 20
0.0
  3
*D3
  1

  0
MTEXT
  5
245
100
AcDbEntity
  8
0
100
AcDbMText
 62
5
  6
CONTINUOUS
  7
STANDARD
 71
2
 72
1
 10
111.8035389031
 20
170.6293067328
 30
0.0
 11
1.0
 21
0.0
 31
0.0
 73
2
 44
0.9
  1
Ø45.2
 40
1.5
 41
16.5857142857
  0
LINE
  5
246
100
AcDbEntity
  8
0
100
AcDbLine
 62
2
  6
CONTINUOUS
 10
90.5283459216
 20
167.48644959
 11
90.5283459216
 21
170.3869705509
  0
LINE
  5
247
100
AcDbEntity
  8
0
100
AcDbLine
 62
2
  6
CONTINUOUS
 10
135.7283459216
 20
168.48644959
 11
113.1283459216
 21
168.48644959
  0
LINE
  5
248
100
AcDbEntity
  8
0
100
AcDbLine
 62
2
  6
CONTINUOUS
 10
90.5283459216
 20
168.48644959
 11
113.1283459216
 21
168.48644959
  0
INSERT
  5
249
100
AcDbEntity
  8
0
100
AcDbBlockReference
 62
2
  6
CONTINUOUS
  2
_FILLED
 10
135.7283459216
 20
168.48644959
 41
4.76
 42
4.76
 43
4.76
  0
INSERT
  5
24A
100
AcDbEntity
  8
0
100
AcDbBlockReference
 62
2
  6
CONTINUOUS
  2
_FILLED
 10
90.5283459216
 20
168.48644959
 41
4.76
 42
4.76
 43
4.76
 50
180.0
  0
ENDBLK
  5
24B
100
AcDbEntity
  8
0
  6
BYBLOCK
 62
0
100
AcDbBlockEnd
  0
BLOCK
  5
24C
100
AcDbEntity
  8
0
100
AcDbBlockBegin
 62
2
  6
CONTINUOUS
  2
*D4
 70
65
 10
0.0
 20
0.0
  3
*D4
  1

  0
MTEXT
  5
24D
100
AcDbEntity
  8
0
100
AcDbMText
 62
5
  6
CONTINUOUS
  7
STANDARD
 71
2
 72
1
 10
114.0302950108
 20
96.480688629
 30
0.0
 11
1.0
 21
0.0
 31
0.0
 73
2
 44
0.9
  1
Ø31
 40
1.5
 41
9.6428571429
  0
LINE
  5
24E
100
AcDbEntity
  8
0
100
AcDbLine
 62
2
  6
CONTINUOUS
 10
97.6283459216
 20
115.1869705509
 11
97.6283459216
 21
93.3378314862
  0
LINE
  5
24F
100
AcDbEntity
  8
0
100
AcDbLine
 62
2
  6
CONTINUOUS
 10
128.6283459216
 20
115.1869705509
 11
128.6283459216
 21
93.3378314862
  0
LINE
  5
250
100
AcDbEntity
  8
0
100
AcDbLine
 62
2
  6
CONTINUOUS
 10
97.6283459216
 20
94.3378314862
 11
113.1283459216
 21
94.3378314862
  0
LINE
  5
251
100
AcDbEntity
  8
0
100
AcDbLine
 62
2
  6
CONTINUOUS
 10
128.6283459216
 20
94.3378314862
 11
113.1283459216
 21
94.3378314862
  0
INSERT
  5
252
100
AcDbEntity
  8
0
100
AcDbBlockReference
 62
2
  6
CONTINUOUS
  2
_FILLED
 10
97.6283459216
 20
94.3378314862
 41
4.76
 42
4.76
 43
4.76
 50
180.0
  0
INSERT
  5
253
100
AcDbEntity
  8
0
100
AcDbBlockReference
 62
2
  6
CONTINUOUS
  2
_FILLED
 10
128.6283459216
 20
94.3378314862
 41
4.76
 42
4.76
 43
4.76
  0
ENDBLK
  5
254
100
AcDbEntity
  8
0
  6
BYBLOCK
 62
0
100
AcDbBlockEnd
  0
BLOCK
  5
255
100
AcDbEntity
  8
0
100
AcDbBlockBegin
  2
*T1
 70
1
 10
0.0
 20
0.0
  3
*T1
  1

  0
LINE
  5
256
100
AcDbEntity
  8
0
100
AcDbLine
 62
2
  6
CONTINUOUS
 10
200.0
 20
0.0
 11
0.0
 21
0.0
  0
LINE
  5
257
100
AcDbEntity
  8
0
100
AcDbLine
 62
2
  6
CONTINUOUS
 10
200.0
 20
0.0
 11
200.0
 21
40.0
  0
LINE
  5
258
100
AcDbEntity
  8
0
100
AcDbLine
 62
2
  6
CONTINUOUS
 10
110.5
 20
5.0
 11
0.0
 21
5.0
  0
LINE
  5
259
100
AcDbEntity
  8
0
100
AcDbLine
 62
2
  6
CONTINUOUS
 10
200.0
 20
10.0
 11
0.0
 21
10.0
  0
LINE
  5
25A
100
AcDbEntity
  8
0
100
AcDbLine
 62
2
  6
CONTINUOUS
 10
28.5
 20
15.0
 11
0.0
 21
15.0
  0
LINE
  5
25B
100
AcDbEntity
  8
0
100
AcDbLine
 62
2
  6
CONTINUOUS
 10
162.5
 20
20.0
 11
0.0
 21
20.0
  0
LINE
  5
25C
100
AcDbEntity
  8
0
100
AcDbLine
 62
2
  6
CONTINUOUS
 10
28.5
 20
25.0
 11
0.0
 21
25.0
  0
LINE
  5
25D
100
AcDbEntity
  8
0
100
AcDbLine
 62
2
  6
CONTINUOUS
 10
162.5
 20
30.0
 11
0.0
 21
30.0
  0
LINE
  5
25E
100
AcDbEntity
  8
0
100
AcDbLine
 62
2
  6
CONTINUOUS
 10
200.0
 20
35.0
 11
162.5
 21
35.0
  0
LINE
  5
25F
100
AcDbEntity
  8
0
100
AcDbLine
 62
2
  6
CONTINUOUS
 10
128.5
 20
35.0
 11
0.0
 21
35.0
  0
LINE
  5
260
100
AcDbEntity
  8
0
100
AcDbLine
 62
2
  6
CONTINUOUS
 10
200.0
 20
40.0
 11
0.0
 21
40.0
  0
LINE
  5
261
100
AcDbEntity
  8
0
100
AcDbLine
 62
2
  6
CONTINUOUS
 10
191.5
 20
0.0
 11
191.5
 21
10.0
  0
LINE
  5
262
100
AcDbEntity
  8
0
100
AcDbLine
 62
2
  6
CONTINUOUS
 10
180.5
 20
10.0
 11
180.5
 21
35.0
  0
LINE
  5
263
100
AcDbEntity
  8
0
100
AcDbLine
 62
2
  6
CONTINUOUS
 10
162.5
 20
10.0
 11
162.5
 21
40.0
  0
LINE
  5
264
100
AcDbEntity
  8
0
100
AcDbLine
 62
2
  6
CONTINUOUS
 10
145.5
 20
0.0
 11
145.5
 21
40.0
  0
LINE
  5
265
100
AcDbEntity
  8
0
100
AcDbLine
 62
2
  6
CONTINUOUS
 10
128.5
 20
0.0
 11
128.5
 21
10.0
  0
LINE
  5
266
100
AcDbEntity
  8
0
100
AcDbLine
 62
2
  6
CONTINUOUS
 10
128.5
 20
20.0
 11
128.5
 21
40.0
  0
LINE
  5
267
100
AcDbEntity
  8
0
100
AcDbLine
 62
2
  6
CONTINUOUS
 10
110.5
 20
0.0
 11
110.5
 21
10.0
  0
LINE
  5
268
100
AcDbEntity
  8
0
100
AcDbLine
 62
2
  6
CONTINUOUS
 10
108.5
 20
10.0
 11
108.5
 21
20.0
  0
LINE
  5
269
100
AcDbEntity
  8
0
100
AcDbLine
 62
2
  6
CONTINUOUS
 10
100.5
 20
10.0
 11
100.5
 21
20.0
  0
LINE
  5
26A
100
AcDbEntity
  8
0
100
AcDbLine
 62
2
  6
CONTINUOUS
 10
56.5
 20
10.0
 11
56.5
 21
20.0
  0
LINE
  5
26B
100
AcDbEntity
  8
0
100
AcDbLine
 62
2
  6
CONTINUOUS
 10
28.5
 20
0.0
 11
28.5
 21
40.0
  0
LINE
  5
26C
100
AcDbEntity
  8
0
100
AcDbLine
 62
2
  6
CONTINUOUS
 10
23.5
 20
5.0
 11
23.5
 21
40.0
  0
LINE
  5
26D
100
AcDbEntity
  8
0
100
AcDbLine
 62
2
  6
CONTINUOUS
 10
8.5
 20
5.0
 11
8.5
 21
40.0
  0
LINE
  5
26E
100
AcDbEntity
  8
0
100
AcDbLine
 62
2
  6
CONTINUOUS
 10
0.0
 20
0.0
 11
0.0
 21
40.0
  0
MTEXT
  5
26F
100
AcDbEntity
  8
0
100
AcDbMText
 62
5
  6
CONTINUOUS
  7
TEXTSTYLE_2
 71
3
 72
1
 10
190.0
 20
4.5
 30
0.0
 11
1.0
 21
0.0
 31
0.0
 73
2
 44
0.9
  1
21680/H63A
 40
3.0
 41
46.8571428571
  0
MTEXT
  5
270
100
AcDbEntity
  8
0
100
AcDbMText
 62
5
  6
CONTINUOUS
  7
TEXTSTYLE_3
 71
1
 72
1
 10
130.0
 20
6.8125
 30
0.0
 11
1.0
 21
0.0
 31
0.0
 73
2
 44
0.9
  1
Peso finito \P 
 40
1.3
 41
29.6
  0
MTEXT
  5
271
100
AcDbEntity
  8
0
100
AcDbMText
 62
5
  6
CONTINUOUS
  7
TEXTSTYLE_4
 71
2
 72
1
 10
119.5
 20
6.5
 30
0.0
 11
1.0
 21
0.0
 31
0.0
 73
2
 44
0.9
  1
A4 V
 40
3.0
 41
24.0
  0
MTEXT
  5
272
100
AcDbEntity
  8
0
100
AcDbMText
 62
5
  6
CONTINUOUS
  7
TEXTSTYLE_3
 71
1
 72
1
 10
30.0
 20
2.8076923077
 30
0.0
 11
1.0
 21
0.0
 31
0.0
 73
2
 44
0.9
  1
La ditta tutela i propri disegni a norma di legge
 40
1.2
 41
113.1692307692
  0
MTEXT
  5
273
100
AcDbEntity
  8
0
100
AcDbMText
 62
5
  6
CONTINUOUS
  7
TEXTSTYLE_3
 71
2
 72
1
 10
14.25
 20
2.9230769231
 30
0.0
 11
1.0
 21
0.0
 31
0.0
 73
2
 44
0.9
  1
Modifica
 40
2.0
 41
30.1538461538
  0
MTEXT
  5
274
100
AcDbEntity
  8
0
100
AcDbMText
 62
5
  6
CONTINUOUS
  7
TEXTSTYLE_3
 71
2
 72
1
 10
195.75
 20
7.75
 30
0.0
 11
1.0
 21
0.0
 31
0.0
 73
2
 44
0.9
  1
esp.
 40
1.3
 41
10.6
  0
MTEXT
  5
275
100
AcDbEntity
  8
0
100
AcDbMText
 62
5
  6
CONTINUOUS
  7
TEXTSTYLE_3
 71
2
 72
1
 10
168.5
 20
7.75
 30
0.0
 11
1.0
 21
0.0
 31
0.0
 73
2
 44
0.9
  1
cod.disegno
 40
1.3
 41
28.4
  0
MTEXT
  5
276
100
AcDbEntity
  8
0
100
AcDbMText
 62
5
  6
CONTINUOUS
  7
TEXTSTYLE_3
 71
1
 72
1
 10
30.0
 20
7.5769230769
 30
0.0
 11
1.0
 21
0.0
 31
0.0
 73
2
 44
0.9
  1
Cod.Cad 21680-H63A
 40
1.6
 41
67.3230769231
  0
MTEXT
  5
277
100
AcDbEntity
  8
0
100
AcDbMText
 62
5
  6
CONTINUOUS
  7
TEXTSTYLE_3
 71
2
 72
1
 10
26.0
 20
7.75
 30
0.0
 11
1.0
 21
0.0
 31
0.0
 73
2
 44
0.9
  1
Esp
 40
1.3
 41
8.6
  0
MTEXT
  5
278
100
AcDbEntity
  8
0
100
AcDbMText
 62
5
  6
CONTINUOUS
  7
TEXTSTYLE_3
 71
2
 72
1
 10
16.0
 20
7.75
 30
0.0
 11
1.0
 21
0.0
 31
0.0
 73
2
 44
0.9
  1
DATA
 40
1.3
 41
14.0
  0
MTEXT
  5
279
100
AcDbEntity
  8
0
100
AcDbMText
 62
5
  6
CONTINUOUS
  7
TEXTSTYLE_3
 71
2
 72
1
 10
4.25
 20
7.75
 30
0.0
 11
1.0
 21
0.0
 31
0.0
 73
2
 44
0.9
  1
N°
 40
1.3
 41
5.8
  0
MTEXT
  5
27A
100
AcDbEntity
  8
0
100
AcDbMText
 62
5
  6
CONTINUOUS
  7
TEXTSTYLE_3
 71
1
 72
1
 10
147.0
 20
17.7115384615
 30
0.0
 11
1.0
 21
0.0
 31
0.0
 73
2
 44
0.9
  1
Peso grezzo Kg. 
 40
1.0
 41
34.6153846154
  0
MTEXT
  5
27B
100
AcDbEntity
  8
0
100
AcDbMText
 62
5
  6
CONTINUOUS
  7
TEXTSTYLE_3
 71
1
 72
1
 10
110.0
 20
17.775
 30
0.0
 11
1.0
 21
0.0
 31
0.0
 73
2
 44
0.9
  1
Dimens.grezze 
 40
1.3
 41
37.8
  0
MTEXT
  5
27C
100
AcDbEntity
  8
0
100
AcDbMText
 62
5
  6
CONTINUOUS
  7
TEXTSTYLE_3
 71
1
 72
1
 10
58.0
 20
17.8173076923
 30
0.0
 11
1.0
 21
0.0
 31
0.0
 73
2
 44
0.9
  1
Tratt.termici
 40
1.5
 41
35.0769230769
  0
MTEXT
  5
27D
100
AcDbEntity
  8
0
100
AcDbMText
 62
5
  6
CONTINUOUS
  7
TEXTSTYLE_3
 71
1
 72
1
 10
30.0
 20
17.775
 30
0.0
 11
1.0
 21
0.0
 31
0.0
 73
2
 44
0.9
  1
Materiale 
 40
1.3
 41
24.4
  0
MTEXT
  5
27E
100
AcDbEntity
  8
0
100
AcDbMText
 62
5
  6
CONTINUOUS
  7
TEXTSTYLE_3
 71
1
 72
1
 10
147.0
 20
27.75
 30
0.0
 11
1.0
 21
0.0
 31
0.0
 73
2
 44
1.2
  1
Scala\P1:1
 40
1.3
 41
12.8
  0
MTEXT
  5
27F
100
AcDbEntity
  8
0
100
AcDbMText
 62
5
  6
CONTINUOUS
  7
TEXTSTYLE_3
 71
1
 72
1
 10
130.0
 20
27.75
 30
0.0
 11
1.0
 21
0.0
 31
0.0
 73
2
 44
1.2
  1
Visto
 40
1.3
 41
12.0
  0
MTEXT
  5
280
100
AcDbEntity
  8
0
100
AcDbMText
 62
5
  6
CONTINUOUS
  7
TEXTSTYLE_3
 71
1
 72
1
 10
30.0
 20
23.0
 30
0.0
 11
1.0
 21
0.0
 31
0.0
 73
2
 44
0.9
  1
Mandrino senza compensazione gr2 attacco HSK63A DIN 69893-A
 40
1.5
 41
195.4615384615
  0
MTEXT
  5
281
100
AcDbEntity
  8
0
100
AcDbMText
 62
5
  6
CONTINUOUS
  7
TEXTSTYLE_3
 71
1
 72
1
 10
30.0
 20
27.8076923077
 30
0.0
 11
1.0
 21
0.0
 31
0.0
 73
2
 44
0.9
  1
Descrizione
 40
1.2
 41
24.5538461538
  0
MTEXT
  5
282
100
AcDbEntity
  8
0
100
AcDbMText
 62
5
  6
CONTINUOUS
  7
TEXTSTYLE_3
 71
1
 72
1
 10
147.0
 20
37.75
 30
0.0
 11
1.0
 21
0.0
 31
0.0
 73
2
 44
1.2
  1
Data\P10-Mar-05
 40
1.3
 41
26.0
  0
MTEXT
  5
283
100
AcDbEntity
  8
0
100
AcDbMText
 62
5
  6
CONTINUOUS
  7
TEXTSTYLE_3
 71
1
 72
1
 10
130.0
 20
37.75
 30
0.0
 11
1.0
 21
0.0
 31
0.0
 73
2
 44
1.2
  1
Firma\Pcalvo
 40
1.3
 41
13.4
  0
MTEXT
  5
284
100
AcDbEntity
  8
0
100
AcDbMText
 62
5
  6
CONTINUOUS
  7
TEXTSTYLE_3
 71
1
 72
1
 10
30.0
 20
32.775
 30
0.0
 11
1.0
 21
0.0
 31
0.0
 73
2
 44
0.9
  1
Macchina o codice prenotante:   21680
 40
1.3
 41
100.6
  0
MTEXT
  5
285
100
AcDbEntity
  8
0
100
AcDbMText
 62
5
  6
CONTINUOUS
  7
TEXTSTYLE_3
 71
1
 72
1
 10
164.0
 20
37.75
 30
0.0
 11
1.0
 21
0.0
 31
0.0
 73
2
 44
0.9
  1
Rugosita' \fgdt;{\fgdt;a}\ftxt;0.8=rettifica
 40
1.3
 41
60.575
  0
MTEXT
  5
286
100
AcDbEntity
  8
0
100
AcDbMText
 62
5
  6
CONTINUOUS
  7
TEXTSTYLE_3
 71
1
 72
1
 10
30.0
 20
37.75
 30
0.0
 11
1.0
 21
0.0
 31
0.0
 73
2
 44
0.9
  1
Tolleranze generali per quote senza valori:\fgdt;{\fgdt;n}\ftxt;=H11-h11 - lineari\fgdt;{\fgdt;`}\ftxt;0.2
 40
1.3
 41
162.2
  0
ENDBLK
  5
287
100
AcDbEntity
  8
0
  6
BYBLOCK
 62
0
100
AcDbBlockEnd
  0
ENDSEC
  0
SECTION
  2
ENTITIES
  0
DIMENSION
  5
288
100
AcDbEntity
  8
0
100
AcDbDimension
 62
2
  6
CONTINUOUS
  2
*D0
 10
59.1537992025
 20
113.6869705509
 11
59.1537992025
 21
158.2012530309
 70
160
 71
2
 72
2
 41
0.9
 42
89.8
  3
DIMSTYLE_1
100
AcDbAlignedDimension
 13
82.1283459216
 23
203.4869705509
 14
90.7867455027
 24
113.6869705509
 50
270.0
100
AcDbRotatedDimension
  0
DIMENSION
  5
289
100
AcDbEntity
  8
0
100
AcDbDimension
 62
2
  6
CONTINUOUS
  2
*D1
 10
138.2283459216
 20
83.3902391817
 11
113.3443969553
 21
83.3902391817
 70
160
 71
2
 72
2
 41
0.9
 42
50.2
  1
Ø<>
  3
DIMSTYLE_1
100
AcDbAlignedDimension
 13
88.0283459216
 23
116.1869705509
 14
138.2283459216
 24
116.1869705509
100
AcDbRotatedDimension
  0
DIMENSION
  5
28A
100
AcDbEntity
  8
0
100
AcDbDimension
 62
2
  6
CONTINUOUS
  2
*D2
 10
161.7149037031
 20
113.6869705509
 11
161.7149037031
 21
139.3012535107
 70
160
 71
2
 72
2
 41
0.9
 42
52.0
  3
DIMSTYLE_2
100
AcDbAlignedDimension
 13
137.7283459216
 23
165.6869705509
 14
136.49629515
 24
113.6869705509
 50
270.0
100
AcDbRotatedDimension
  0
DIMENSION
  5
28B
100
AcDbEntity
  8
0
100
AcDbDimension
 62
2
  6
CONTINUOUS
  2
*D3
 10
90.5283459216
 20
168.48644959
 11
111.8035389031
 21
168.48644959
 70
160
 71
2
 72
2
 41
0.9
 42
45.2
  1
Ø<>
  3
DIMSTYLE_2
100
AcDbAlignedDimension
 13
135.7283459216
 23
163.9869705509
 14
90.5283459216
 24
170.4869705509
 50
180.0
100
AcDbRotatedDimension
  0
DIMENSION
  5
28C
100
AcDbEntity
  8
0
100
AcDbDimension
 62
2
  6
CONTINUOUS
  2
*D4
 10
128.6283459216
 20
94.3378314862
 11
114.0302950108
 21
94.3378314862
 70
160
 71
2
 72
2
 41
0.9
 42
31.0
  1
Ø<>
  3
DIMSTYLE_2
100
AcDbAlignedDimension
 13
97.6283459216
 23
115.2869705509
 14
128.6283459216
 24
115.2869705509
100
AcDbRotatedDimension
  0
ACAD_TABLE
  5
28D
100
AcDbEntity
  8
0
 62
2
  6
CONTINUOUS
100
AcDbBlockReference
  2
*T1
 10
5.9999931256
 20
8.0000304222
 30
0.0
100
AcDbTable
342
       34A
343
222
 11
1.0
 21
0.0
 31
0.0
 90
6
 91
8
 92
15
 93
4
 94
0
 95
0
 96
0
 70
1
141
5.0
141
5.0
141
5.0
141
5.0
141
5.0
141
5.0
141
5.0
141
5.0
142
8.5
142
15.0
142
5.0
142
28.0
142
44.0
142
8.0
142
2.0
142
18.0
142
8.5
142
8.5
142
17.0
142
9.0
142
9.0
142
11.0
142
8.5
171
1
172
0
173
0
174
0
175
3
176
1
 91
49
178
0
145
0.0
  7
TEXTSTYLE_3
301
CELL_VALUE
 90
4
  1
Modifica
304
ACVALUE_END
170
5
140
2.0
171
1
172
0
173
1
174
0
175
1
176
1
 91
1
178
0
145
0.0
170
1
171
1
172
0
173
1
174
0
175
1
176
1
 91
1
178
0
145
0.0
170
5
171
1
172
0
173
0
174
0
175
4
176
1
 91
49
178
0
145
0.0
  7
TEXTSTYLE_3
301
CELL_VALUE
 90
4
  1
La ditta tutela i propri disegni a norma di legge
304
ACVALUE_END
170
1
140
1.2
171
1
172
0
173
1
174
0
175
1
176
1
 91
1
178
0
145
0.0
170
1
171
1
172
0
173
1
174
0
175
1
176
1
 91
1
178
0
145
0.0
170
1
171
1
172
0
173
1
174
0
175
1
176
1
 91
1
178
0
145
0.0
170
1
171
1
172
0
173
0
174
0
175
1
176
2
 91
57
178
0
145
0.0
  7
TEXTSTYLE_4
301
CELL_VALUE
 90
4
  1
A4 V
304
ACVALUE_END
170
5
140
3.0
 64
5
171
1
172
0
173
0
174
0
175
2
176
2
 91
49
178
0
145
0.0
  7
TEXTSTYLE_3
301
CELL_VALUE
 90
4
  1
Peso finito \P 
304
ACVALUE_END
170
4
140
1.3
171
1
172
0
173
1
174
0
175
1
176
1
 91
1
178
0
145
0.0
170
4
171
1
172
0
173
0
174
0
175
4
176
1
 91
49
178
0
145
0.0
  7
TEXTSTYLE_2
301
CELL_VALUE
 90
4
  1
21680/H63A
304
ACVALUE_END
170
9
140
3.0
171
1
172
0
173
1
174
0
175
1
176
1
 91
1
178
0
145
0.0
170
1
171
1
172
0
173
1
174
0
175
1
176
1
 91
1
178
0
145
0.0
170
1
171
1
172
0
173
1
174
0
175
1
176
1
 91
1
178
0
145
0.0
170
9
171
1
172
0
173
0
174
0
175
1
176
1
 91
33
178
0
145
0.0
301
CELL_VALUE
 90
4
  1
 
304
ACVALUE_END
170
1
140
3.0
171
1
172
0
173
0
174
0
175
1
176
1
 91
57
178
0
145
0.0
  7
TEXTSTYLE_3
301
CELL_VALUE
 90
4
  1
N°
304
ACVALUE_END
170
2
140
1.3
 64
5
171
1
172
0
173
0
174
0
175
1
176
1
 91
57
178
0
145
0.0
  7
TEXTSTYLE_3
301
CELL_VALUE
 90
4
  1
DATA
304
ACVALUE_END
170
2
140
1.3
 64
5
171
1
172
0
173
0
174
0
175
1
176
1
 91
57
178
0
145
0.0
  7
TEXTSTYLE_3
301
CELL_VALUE
 90
4
  1
Esp
304
ACVALUE_END
170
2
140
1.3
 64
5
171
1
172
0
173
0
174
0
175
4
176
1
 91
49
178
0
145
0.0
  7
TEXTSTYLE_3
301
CELL_VALUE
 90
4
  1
Cod.Cad 21680-H63A
304
ACVALUE_END
170
1
140
1.6
171
1
172
0
173
1
174
0
175
1
176
1
 91
1
178
0
145
0.0
170
1
171
1
172
0
173
1
174
0
175
1
176
1
 91
1
178
0
145
0.0
170
1
171
1
172
0
173
1
174
0
175
1
176
1
 91
1
178
0
145
0.0
170
1
171
1
172
0
173
1
174
0
175
1
176
1
 91
1
178
0
145
0.0
170
1
171
1
172
0
173
1
174
0
175
1
176
1
 91
1
178
0
145
0.0
170
1
171
1
172
0
173
1
174
0
175
1
176
1
 91
1
178
0
145
0.0
170
1
171
1
172
0
173
0
174
0
175
4
176
1
 91
49
178
0
145
0.0
  7
TEXTSTYLE_3
301
CELL_VALUE
 90
4
  1
cod.disegno
304
ACVALUE_END
170
2
140
1.3
171
1
172
0
173
1
174
0
175
1
176
1
 91
1
178
0
145
0.0
170
1
171
1
172
0
173
1
174
0
175
1
176
1
 91
1
178
0
145
0.0
170
1
171
1
172
0
173
1
174
0
175
1
176
1
 91
1
178
0
145
0.0
170
2
171
1
172
0
173
0
174
0
175
1
176
1
 91
57
178
0
145
0.0
  7
TEXTSTYLE_3
301
CELL_VALUE
 90
4
  1
esp.
304
ACVALUE_END
170
2
140
1.3
 64
5
171
1
172
0
173
0
174
0
175
1
176
1
 91
33
178
0
145
0.0
301
CELL_VALUE
 90
4
  1
 
304
ACVALUE_END
170
1
140
3.0
171
1
172
0
173
0
174
0
175
1
176
1
 91
33
178
0
145
0.0
301
CELL_VALUE
 90
4
  1
 
304
ACVALUE_END
170
1
140
3.0
171
1
172
0
173
0
174
0
175
1
176
1
 91
33
178
0
145
0.0
301
CELL_VALUE
 90
4
  1
 
304
ACVALUE_END
170
1
140
3.0
171
1
172
0
173
0
174
0
175
1
176
1
 91
41
178
0
145
0.0
301
CELL_VALUE
 90
4
  1
 
304
ACVALUE_END
170
4
140
3.0
 64
5
171
1
172
0
173
0
174
0
175
1
176
1
 91
41
178
0
145
0.0
301
CELL_VALUE
 90
4
  1
 
304
ACVALUE_END
170
4
140
3.0
 64
5
171
1
172
0
173
0
174
0
175
1
176
2
 91
41
178
0
145
0.0
301
CELL_VALUE
 90
4
  1
 
304
ACVALUE_END
170
5
140
3.0
 64
5
171
1
172
0
173
0
174
0
175
4
176
1
 91
33
178
0
145
0.0
301
CELL_VALUE
 90
4
  1
 
304
ACVALUE_END
170
4
140
3.0
171
1
172
0
173
1
174
0
175
1
176
1
 91
1
178
0
145
0.0
170
1
171
1
172
0
173
1
174
0
175
1
176
1
 91
1
178
0
145
0.0
170
1
171
1
172
0
173
1
174
0
175
1
176
1
 91
1
178
0
145
0.0
170
4
171
1
172
0
173
0
174
0
175
1
176
1
 91
41
178
0
145
0.0
301
CELL_VALUE
 90
4
  1
 
304
ACVALUE_END
170
4
140
3.0
 64
5
171
1
172
0
173
0
174
0
175
2
176
5
 91
33
178
0
145
0.0
301
CELL_VALUE
 90
4
  1
 
304
ACVALUE_END
170
1
140
3.0
171
1
172
0
173
1
174
0
175
1
176
1
 91
1
178
0
145
0.0
170
1
171
1
172
0
173
0
174
0
175
2
176
3
 91
33
178
0
145
0.0
301
CELL_VALUE
 90
4
  1
 
304
ACVALUE_END
170
2
140
3.0
171
1
172
0
173
1
174
0
175
1
176
1
 91
1
178
0
145
0.0
170
2
171
1
172
0
173
0
174
0
175
1
176
1
 91
33
178
0
145
0.0
301
CELL_VALUE
 90
4
  1
 
304
ACVALUE_END
170
1
140
3.0
171
1
172
0
173
0
174
0
175
1
176
1
 91
33
178
0
145
0.0
301
CELL_VALUE
 90
4
  1
 
304
ACVALUE_END
170
1
140
3.0
171
1
172
0
173
0
174
0
175
1
176
1
 91
33
178
0
145
0.0
301
CELL_VALUE
 90
4
  1
 
304
ACVALUE_END
170
1
140
3.0
171
1
172
0
173
0
174
0
175
1
176
1
 91
57
178
0
145
0.0
  7
TEXTSTYLE_3
301
CELL_VALUE
 90
4
  1
Materiale 
304
ACVALUE_END
170
4
140
1.3
 64
5
171
1
172
0
173
0
174
0
175
1
176
1
 91
57
178
0
145
0.0
  7
TEXTSTYLE_3
301
CELL_VALUE
 90
4
  1
Tratt.termici
304
ACVALUE_END
170
4
140
1.5
 64
5
171
1
172
0
173
1
174
0
175
1
176
1
 91
1
178
0
145
0.0
170
1
171
1
172
0
173
0
174
0
175
4
176
1
 91
49
178
0
145
0.0
  7
TEXTSTYLE_3
301
CELL_VALUE
 90
4
  1
Dimens.grezze 
304
ACVALUE_END
170
4
140
1.3
171
1
172
0
173
1
174
0
175
1
176
1
 91
1
178
0
145
0.0
170
1
171
1
172
0
173
1
174
0
175
1
176
1
 91
1
178
0
145
0.0
170
1
171
1
172
0
173
1
174
0
175
1
176
1
 91
1
178
0
145
0.0
170
4
171
1
172
0
173
0
174
0
175
1
176
1
 91
57
178
0
145
0.0
  7
TEXTSTYLE_3
301
CELL_VALUE
 90
4
  1
Peso grezzo Kg. 
304
ACVALUE_END
170
4
140
1.0
 64
5
171
1
172
0
173
1
174
0
175
1
176
1
 91
1
178
0
145
0.0
170
1
171
1
172
0
173
1
174
0
175
1
176
1
 91
1
178
0
145
0.0
170
1
171
1
172
0
173
1
174
0
175
1
176
1
 91
1
178
0
145
0.0
170
1
171
1
172
0
173
1
174
0
175
1
176
1
 91
1
178
0
145
0.0
170
1
171
1
172
0
173
0
174
0
175
1
176
1
 91
33
178
0
145
0.0
301
CELL_VALUE
 90
4
  1
 
304
ACVALUE_END
170
1
140
3.0
171
1
172
0
173
0
174
0
175
1
176
1
 91
33
178
0
145
0.0
301
CELL_VALUE
 90
4
  1
 
304
ACVALUE_END
170
1
140
3.0
171
1
172
0
173
0
174
0
175
1
176
1
 91
33
178
0
145
0.0
301
CELL_VALUE
 90
4
  1
 
304
ACVALUE_END
170
1
140
3.0
171
1
172
0
173
0
174
0
175
1
176
1
 91
57
178
0
145
0.0
  7
TEXTSTYLE_3
301
CELL_VALUE
 90
4
  1
Mandrino senza compensazione gr2 attacco HSK63A DIN 69893-A
304
ACVALUE_END
170
7
140
1.5
 64
5
171
1
172
0
173
0
174
0
175
4
176
1
 91
33
178
0
145
0.0
301
CELL_VALUE
 90
4
  1
 
304
ACVALUE_END
170
1
140
3.0
171
1
172
0
173
1
174
0
175
1
176
1
 91
1
178
0
145
0.0
170
1
171
1
172
0
173
1
174
0
175
1
176
1
 91
1
178
0
145
0.0
170
1
171
1
172
0
173
1
174
0
175
1
176
1
 91
1
178
0
145
0.0
170
1
171
1
172
0
173
0
174
0
175
2
176
2
 91
49
178
0
145
0.0
  7
TEXTSTYLE_3
301
CELL_VALUE
 90
4
  1
Visto
304
ACVALUE_END
170
1
140
1.3
171
1
172
0
173
1
174
0
175
1
176
1
 91
1
178
0
145
0.0
170
1
171
1
172
0
173
0
174
0
175
1
176
2
 91
57
178
0
145
0.0
  7
TEXTSTYLE_3
301
CELL_VALUE
 90
4
  1
Scala\P1:1
304
ACVALUE_END
170
1
140
1.3
 64
5
171
1
172
0
173
1
174
0
175
1
176
1
 91
1
178
0
145
0.0
170
1
171
1
172
0
173
1
174
0
175
1
176
1
 91
1
178
0
145
0.0
170
1
171
1
172
0
173
1
174
0
175
1
176
1
 91
1
178
0
145
0.0
170
1
171
1
172
0
173
1
174
0
175
1
176
1
 91
1
178
0
145
0.0
170
1
171
1
172
0
173
0
174
0
175
1
176
1
 91
33
178
0
145
0.0
301
CELL_VALUE
 90
4
  1
 
304
ACVALUE_END
170
1
140
3.0
171
1
172
0
173
0
174
0
175
1
176
1
 91
33
178
0
145
0.0
301
CELL_VALUE
 90
4
  1
 
304
ACVALUE_END
170
1
140
3.0
171
1
172
0
173
0
174
0
175
1
176
1
 91
33
178
0
145
0.0
301
CELL_VALUE
 90
4
  1
 
304
ACVALUE_END
170
1
140
3.0
171
1
172
0
173
0
174
0
175
1
176
1
 91
57
178
0
145
0.0
  7
TEXTSTYLE_3
301
CELL_VALUE
 90
4
  1
Descrizione
304
ACVALUE_END
170
1
140
1.2
 64
5
171
1
172
0
173
0
174
0
175
1
176
1
 91
33
178
0
145
0.0
301
CELL_VALUE
 90
4
  1
 
304
ACVALUE_END
170
1
140
3.0
171
1
172
0
173
0
174
0
175
1
176
1
 91
33
178
0
145
0.0
301
CELL_VALUE
 90
4
  1
 
304
ACVALUE_END
170
1
140
3.0
171
1
172
0
173
0
174
0
175
1
176
1
 91
33
178
0
145
0.0
301
CELL_VALUE
 90
4
  1
 
304
ACVALUE_END
170
1
140
3.0
171
1
172
0
173
0
174
0
175
1
176
1
 91
33
178
0
145
0.0
301
CELL_VALUE
 90
4
  1
 
304
ACVALUE_END
170
1
140
3.0
171
1
172
0
173
1
174
0
175
1
176
1
 91
1
178
0
145
0.0
170
1
171
1
172
0
173
1
174
0
175
1
176
1
 91
1
178
0
145
0.0
170
1
171
1
172
0
173
1
174
0
175
1
176
1
 91
1
178
0
145
0.0
170
1
171
1
172
0
173
1
174
0
175
1
176
1
 91
1
178
0
145
0.0
170
1
171
1
172
0
173
1
174
0
175
1
176
1
 91
1
178
0
145
0.0
170
1
171
1
172
0
173
0
174
0
175
2
176
2
 91
33
178
0
145
0.0
301
CELL_VALUE
 90
4
  1
 
304
ACVALUE_END
170
5
140
3.0
171
1
172
0
173
1
174
0
175
1
176
1
 91
1
178
0
145
0.0
170
5
171
1
172
0
173
0
174
0
175
1
176
1
 91
33
178
0
145
0.0
301
CELL_VALUE
 90
4
  1
 
304
ACVALUE_END
170
1
140
3.0
171
1
172
0
173
0
174
0
175
1
176
1
 91
33
178
0
145
0.0
301
CELL_VALUE
 90
4
  1
 
304
ACVALUE_END
170
1
140
3.0
171
1
172
0
173
0
174
0
175
1
176
1
 91
33
178
0
145
0.0
301
CELL_VALUE
 90
4
  1
 
304
ACVALUE_END
170
1
140
3.0
171
1
172
0
173
0
174
0
175
5
176
1
 91
49
178
0
145
0.0
  7
TEXTSTYLE_3
301
CELL_VALUE
 90
4
  1
Macchina o codice prenotante:   21680
304
ACVALUE_END
170
4
140
1.3
171
1
172
0
173
1
174
0
175
1
176
1
 91
1
178
0
145
0.0
170
1
171
1
172
0
173
1
174
0
175
1
176
1
 91
1
178
0
145
0.0
170
1
171
1
172
0
173
1
174
0
175
1
176
1
 91
1
178
0
145
0.0
170
1
171
1
172
0
173
1
174
0
175
1
176
1
 91
1
178
0
145
0.0
170
4
171
1
172
0
173
0
174
0
175
2
176
2
 91
49
178
0
145
0.0
  7
TEXTSTYLE_3
301
CELL_VALUE
 90
4
  1
Firma\Pcalvo
304
ACVALUE_END
170
1
140
1.3
171
1
172
0
173
1
174
0
175
1
176
1
 91
1
178
0
145
0.0
170
1
171
1
172
0
173
0
174
0
175
1
176
2
 91
57
178
0
145
0.0
  7
TEXTSTYLE_3
301
CELL_VALUE
 90
4
  1
Data\P10-Mar-05
304
ACVALUE_END
170
1
140
1.3
 64
5
171
1
172
0
173
1
174
0
175
1
176
1
 91
1
178
0
145
0.0
170
1
171
1
172
0
173
1
174
0
175
1
176
1
 91
1
178
0
145
0.0
170
1
171
1
172
0
173
1
174
0
175
1
176
1
 91
1
178
0
145
0.0
170
1
171
1
172
0
173
1
174
0
175
1
176
1
 91
1
178
0
145
0.0
170
1
171
1
172
0
173
0
174
0
175
1
176
1
 91
33
178
0
145
0.0
301
CELL_VALUE
 90
4
  1
 
304
ACVALUE_END
170
1
140
3.0
171
1
172
0
173
0
174
0
175
1
176
1
 91
33
178
0
145
0.0
301
CELL_VALUE
 90
4
  1
 
304
ACVALUE_END
170
1
140
3.0
171
1
172
0
173
0
174
0
175
1
176
1
 91
33
178
0
145
0.0
301
CELL_VALUE
 90
4
  1
 
304
ACVALUE_END
170
1
140
3.0
171
1
172
0
173
0
174
0
175
5
176
1
 91
49
178
0
145
0.0
  7
TEXTSTYLE_3
301
CELL_VALUE
 90
4
  1
Tolleranze generali per quote senza valori:\fgdt;{\fgdt;n}\ftxt;=H11-h11 - lineari\fgdt;{\fgdt;`}\ftxt;0.2
304
ACVALUE_END
170
1
140
1.3
171
1
172
0
173
1
174
0
175
1
176
1
 91
1
178
0
145
0.0
170
1
171
1
172
0
173
1
174
0
175
1
176
1
 91
1
178
0
145
0.0
170
1
171
1
172
0
173
1
174
0
175
1
176
1
 91
1
178
0
145
0.0
170
1
171
1
172
0
173
1
174
0
175
1
176
1
 91
1
178
0
145
0.0
170
1
171
1
172
0
173
1
174
0
175
1
176
1
 91
1
178
0
145
0.0
170
1
171
1
172
0
173
1
174
0
175
1
176
1
 91
1
178
0
145
0.0
170
1
171
1
172
0
173
1
174
0
175
1
176
1
 91
1
178
0
145
0.0
170
1
171
1
172
0
173
0
174
0
175
4
176
1
 91
49
178
0
145
0.0
  7
TEXTSTYLE_3
301
CELL_VALUE
 90
4
  1
Rugosita' \fgdt;{\fgdt;a}\ftxt;0.8=rettifica
304
ACVALUE_END
170
1
140
1.3
171
1
172
0
173
1
174
0
175
1
176
1
 91
1
178
0
145
0.0
170
1
171
1
172
0
173
1
174
0
175
1
176
1
 91
1
178
0
145
0.0
170
1
171
1
172
0
173
1
174
0
175
1
176
1
 91
1
178
0
145
0.0
170
1
  0
LEADER
  5
28E
100
AcDbEntity
  8
0
100
AcDbLeader
 62
2
  6
CONTINUOUS
  3
STANDARD
 71
1
 72
0
 73
0
 75
0
 40
1.5
 41
13.8857142857
 76
3
 10
136.2660253255
 20
227.0980537316
 30
0.0
 10
150.7194606742
 20
239.4391011236
 30
0.0
 10
157.7194606742
 20
239.4391011236
 30
0.0
340
28F
1001
ACAD
1000
DSTYLE
1002
{
1070
77
1070
0
1002
}
  0
MTEXT
  5
28F
102
{ACAD_REACTORS
330
28E
102
}
100
AcDbEntity
  8
0
100
AcDbMText
 62
5
  6
CONTINUOUS
  7
STANDARD
 71
1
 72
1
 10
157.7194606742
 20
239.6533868379
 30
0.0
 11
1.0
 21
0.0
 31
0.0
 73
2
 44
0.9
  1
HSK63A
 40
1.5
 41
20.8285714286
  0
LINE
  5
290
100
AcDbEntity
  8
0
100
AcDbLine
 62
7
  6
CONTINUOUS
 10
0.0
 20
0.0
 11
210.0
 21
0.0
  0
LINE
  5
291
100
AcDbEntity
  8
0
100
AcDbLine
 62
7
  6
CONTINUOUS
 10
0.0
 20
0.0
 11
0.0
 21
297.0
  0
LINE
  5
292
100
AcDbEntity
  8
0
100
AcDbLine
 62
7
  6
CONTINUOUS
 10
210.0
 20
0.0
 11
210.0
 21
297.0
  0
LINE
  5
293
100
AcDbEntity
  8
0
100
AcDbLine
 62
7
  6
CONTINUOUS
 10
0.0
 20
297.0
 11
210.0
 21
297.0
  0
LINE
  5
294
100
AcDbEntity
  8
0_COMPONENTS
100
AcDbLine
 62
7
  6
CONTINUOUS
 10
136.4962951129
 20
113.6869705509
 11
89.7603967303
 21
113.6869705509
  0
LINE
  5
295
100
AcDbEntity
  8
DEFAULT_2
100
AcDbLine
 62
8
  6
HIDDEN
 10
129.4283459216
 20
114.4869705509
 11
122.4283459216
 21
114.4869705509
  0
LINE
  5
296
100
AcDbEntity
  8
DEFAULT_2
100
AcDbLine
 62
8
  6
HIDDEN
 10
103.8283459216
 20
114.4869705509
 11
96.8283459216
 21
114.4869705509
  0
LINE
  5
297
100
AcDbEntity
  8
0_COMPONENTS
100
AcDbLine
 62
7
  6
CONTINUOUS
 10
88.0283459216
 20
116.1869705509
 11
138.2283459216
 21
116.1869705509
  0
LINE
  5
298
100
AcDbEntity
  8
0_COMPONENTS
100
AcDbLine
 62
7
  6
CONTINUOUS
 10
88.0283459216
 20
116.1869705509
 11
89.3273840276
 21
113.9369705504
  0
LINE
  5
299
100
AcDbEntity
  8
0_COMPONENTS
100
AcDbLine
 62
7
  6
CONTINUOUS
 10
87.7283459216
 20
129.9869705509
 11
88.0283459216
 21
129.6869705509
  0
LINE
  5
29A
100
AcDbEntity
  8
0
100
AcDbLine
 62
7
  6
CONTINUOUS
 10
82.1283459216
 20
203.4869705509
 11
81.6283459216
 21
202.9869705509
  0
LINE
  5
29B
100
AcDbEntity
  8
0_COMPONENTS
100
AcDbLine
 62
7
  6
CONTINUOUS
 10
88.0283459216
 20
129.6869705509
 11
138.2283459216
 21
129.6869705509
  0
LINE
  5
29C
100
AcDbEntity
  8
0_COMPONENTS
100
AcDbLine
 62
7
  6
CONTINUOUS
 10
87.7283459216
 20
129.9869705509
 11
138.5283459216
 21
129.9869705509
  0
LINE
  5
29D
100
AcDbEntity
  8
0
100
AcDbLine
 62
7
  6
CONTINUOUS
 10
120.3983459216
 20
235.3869705509
 11
119.3983459216
 21
234.3869705509
  0
LINE
  5
29E
100
AcDbEntity
  8
0
100
AcDbLine
 62
7
  6
CONTINUOUS
 10
81.6283459216
 20
202.9869705509
 11
81.6283459216
 21
201.9869922615
  0
LINE
  5
29F
100
AcDbEntity
  8
0
100
AcDbLine
 62
7
  6
CONTINUOUS
 10
81.6283459216
 20
190.9869488396
 11
81.6283459216
 21
188.8644696257
  0
LINE
  5
2A0
100
AcDbEntity
  8
0
100
AcDbLine
 62
7
  6
CONTINUOUS
 10
81.6283459216
 20
182.1094714761
 11
81.6283459216
 21
178.0369705509
  0
LINE
  5
2A1
100
AcDbEntity
  8
0
100
AcDbLine
 62
7
  6
CONTINUOUS
 10
103.0141059041
 20
235.1400335117
 11
102.9125991923
 21
234.9161282792
  0
LINE
  5
2A2
100
AcDbEntity
  8
0
100
AcDbLine
 62
7
  6
CONTINUOUS
 10
85.6283459216
 20
183.6119705509
 11
85.6283459216
 21
187.3619705509
  0
LINE
  5
2A3
100
AcDbEntity
  8
0_COMPONENTS
100
AcDbLine
 62
7
  6
CONTINUOUS
 10
87.7283459216
 20
148.3869705509
 11
87.7283459216
 21
129.9869705509
  0
LINE
  5
2A4
100
AcDbEntity
  8
0_COMPONENTS
100
AcDbLine
 62
7
  6
CONTINUOUS
 10
88.0283459216
 20
165.1869705509
 11
88.0283459216
 21
148.6869705509
  0
LINE
  5
2A5
100
AcDbEntity
  8
0_COMPONENTS
100
AcDbLine
 62
7
  6
CONTINUOUS
 10
88.0283459216
 20
129.6869705509
 11
88.0283459216
 21
116.1869705509
  0
LINE
  5
2A6
100
AcDbEntity
  8
0
100
AcDbLine
 62
7
  6
CONTINUOUS
 10
89.2283459216
 20
204.29107676
 11
89.2283459216
 21
203.8869705509
  0
LINE
  5
2A7
100
AcDbEntity
  8
0
100
AcDbLine
 62
7
  6
CONTINUOUS
 10
90.5283459216
 20
175.5369705509
 11
90.5283459216
 21
165.6869705509
  0
LINE
  5
2A8
100
AcDbEntity
  8
0
100
AcDbLine
 62
7
  6
CONTINUOUS
 10
90.3488442013
 20
234.2470176815
 11
88.9079071461
 21
205.4869705509
  0
LINE
  5
2A9
100
AcDbEntity
  8
0
100
AcDbLine
 62
7
  6
CONTINUOUS
 10
81.6283459216
 20
182.1094714761
 11
84.2307506574
 21
183.6119705509
  0
LINE
  5
2AA
100
AcDbEntity
  8
0_COMPONENTS
100
AcDbLine
 62
7
  6
CONTINUOUS
 10
87.7283459216
 20
148.3869705509
 11
138.5283459216
 21
148.3869705509
  0
LINE
  5
2AB
100
AcDbEntity
  8
0_COMPONENTS
100
AcDbLine
 62
7
  6
CONTINUOUS
 10
88.0283459216
 20
148.6869705509
 11
138.2283459216
 21
148.6869705509
  0
LINE
  5
2AC
100
AcDbEntity
  8
0
100
AcDbLine
 62
7
  6
CONTINUOUS
 10
106.0446232301
 20
225.3869705509
 11
105.9470284333
 21
225.0711471542
  0
LINE
  5
2AD
100
AcDbEntity
  8
0
100
AcDbLine
 62
7
  6
CONTINUOUS
 10
81.6283459216
 20
178.0369705509
 11
82.1283459216
 21
177.5369705509
  0
LINE
  5
2AE
100
AcDbEntity
  8
DEFAULT_2
100
AcDbLine
 62
8
  6
HIDDEN
 10
97.6283459216
 20
115.2869705509
 11
97.6283459216
 21
148.4869705509
  0
LINE
  5
2AF
100
AcDbEntity
  8
0
100
AcDbLine
 62
7
  6
CONTINUOUS
 10
88.9079071461
 20
205.4869705509
 11
89.2283459216
 21
204.29107676
  0
LINE
  5
2B0
100
AcDbEntity
  8
0
100
AcDbLine
 62
7
  6
CONTINUOUS
 10
102.6727072501
 20
228.5840949028
 11
102.6727072501
 21
226.5869705509
  0
LINE
  5
2B1
100
AcDbEntity
  8
0
100
AcDbLine
 62
7
  6
CONTINUOUS
 10
103.6515104879
 20
190.5369705509
 11
103.6515104879
 21
188.8644696257
  0
LINE
  5
2B2
100
AcDbEntity
  8
0
100
AcDbLine
 62
7
  6
CONTINUOUS
 10
103.6515104879
 20
182.1094714761
 11
103.6515104879
 21
178.3247046759
  0
LINE
  5
2B3
100
AcDbEntity
  8
0
100
AcDbLine
 62
7
  6
CONTINUOUS
 10
104.1283459216
 20
178.0369705509
 11
104.1283459216
 21
183.6119705509
  0
LINE
  5
2B4
100
AcDbEntity
  8
0
100
AcDbLine
 62
7
  6
CONTINUOUS
 10
104.1283459216
 20
187.3619705509
 11
104.1283459216
 21
190.5369705509
  0
LINE
  5
2B5
100
AcDbEntity
  8
0
100
AcDbLine
 62
7
  6
CONTINUOUS
 10
118.1983456364
 20
229.3869705393
 11
118.1104265662
 21
229.0869705395
  0
LINE
  5
2B6
100
AcDbEntity
  8
0_COMPONENTS
100
AcDbLine
 62
7
  6
CONTINUOUS
 10
88.5283459216
 20
165.6869705509
 11
88.0283459216
 21
165.1869705509
  0
LINE
  5
2B7
100
AcDbEntity
  8
0
100
AcDbLine
 62
7
  6
CONTINUOUS
 10
104.6283459216
 20
178.5369705509
 11
104.1503275989
 21
178.0589522282
  0
LINE
  5
2B8
100
AcDbEntity
  8
0
100
AcDbLine
 62
7
  6
CONTINUOUS
 10
103.6283459216
 20
177.5369705509
 11
104.1283459216
 21
178.0369705509
  0
LINE
  5
2B9
100
AcDbEntity
  8
0_COMPONENTS
100
AcDbLine
 62
7
  6
CONTINUOUS
 10
88.0283459216
 20
165.1869705509
 11
138.2283459216
 21
165.1869705509
  0
LINE
  5
2BA
100
AcDbEntity
  8
0_COMPONENTS
100
AcDbLine
 62
7
  6
CONTINUOUS
 10
88.5283459216
 20
165.6869705509
 11
137.7283459216
 21
165.6869705509
  0
LINE
  5
2BB
100
AcDbEntity
  8
0
100
AcDbLine
 62
7
  6
CONTINUOUS
 10
104.6283459216
 20
178.5369705509
 11
104.6283459216
 21
183.6119705509
  0
LINE
  5
2BC
100
AcDbEntity
  8
0
100
AcDbLine
 62
7
  6
CONTINUOUS
 10
104.6283459216
 20
187.3619705509
 11
104.6283459216
 21
190.5369705509
  0
LINE
  5
2BD
100
AcDbEntity
  8
0
100
AcDbLine
 62
7
  6
CONTINUOUS
 10
105.7798766932
 20
183.6119705509
 11
105.7798766932
 21
187.3619705509
  0
LINE
  5
2BE
100
AcDbEntity
  8
0
100
AcDbLine
 62
7
  6
CONTINUOUS
 10
106.8583459216
 20
234.3869705509
 11
106.8583459216
 21
226.5869705509
  0
LINE
  5
2BF
100
AcDbEntity
  8
0
100
AcDbLine
 62
7
  6
CONTINUOUS
 10
112.1122168893
 20
199.0369705509
 11
112.1283459216
 21
198.5369705509
  0
LINE
  5
2C0
100
AcDbEntity
  8
0
100
AcDbLine
 62
7
  6
CONTINUOUS
 10
112.1283459216
 20
198.0369705509
 11
112.1283459216
 21
198.5369705509
  0
LINE
  5
2C1
100
AcDbEntity
  8
DEFAULT_1
100
AcDbLine
 62
7
  6
CENTER
 10
113.1283459216
 20
241.3869705509
 11
113.1283459216
 21
107.6869705509
  0
LINE
  5
2C2
100
AcDbEntity
  8
0
100
AcDbLine
 62
7
  6
CONTINUOUS
 10
114.1283459216
 20
198.5369705509
 11
114.1444749538
 21
199.0369705509
  0
LINE
  5
2C3
100
AcDbEntity
  8
0_COMPONENTS
100
AcDbLine
 62
7
  6
CONTINUOUS
 10
88.0283459216
 20
148.6869705509
 11
87.7283459216
 21
148.3869705509
  0
LINE
  5
2C4
100
AcDbEntity
  8
0
100
AcDbLine
 62
7
  6
CONTINUOUS
 10
84.2307506574
 20
187.3619705509
 11
81.6283459216
 21
188.8644696257
  0
LINE
  5
2C5
100
AcDbEntity
  8
0_COMPONENTS
100
AcDbLine
 62
7
  6
CONTINUOUS
 10
138.2283459216
 20
148.6869705509
 11
138.5283459216
 21
148.3869705509
  0
LINE
  5
2C6
100
AcDbEntity
  8
0
100
AcDbLine
 62
7
  6
CONTINUOUS
 10
114.1283459216
 20
198.0369705509
 11
114.1283459216
 21
198.5369705509
  0
LINE
  5
2C7
100
AcDbEntity
  8
0
100
AcDbLine
 62
7
  6
CONTINUOUS
 10
142.0259411858
 20
187.3619705509
 11
144.6283459216
 21
188.8644696257
  0
LINE
  5
2C8
100
AcDbEntity
  8
0
100
AcDbLine
 62
7
  6
CONTINUOUS
 10
122.1283459216
 20
178.3071677601
 11
122.6051813552
 21
178.3247046759
  0
LINE
  5
2C9
100
AcDbEntity
  8
0
100
AcDbLine
 62
7
  6
CONTINUOUS
 10
135.7283459208
 20
175.5369705509
 11
90.5283459223
 21
175.5369705509
  0
LINE
  5
2CA
100
AcDbEntity
  8
0
100
AcDbLine
 62
7
  6
CONTINUOUS
 10
144.1283179233
 20
177.5369705509
 11
82.1286774558
 21
177.5369705509
  0
LINE
  5
2CB
100
AcDbEntity
  8
0
100
AcDbLine
 62
7
  6
CONTINUOUS
 10
122.4283459216
 20
177.7369705509
 11
103.8283459216
 21
177.7369705509
  0
LINE
  5
2CC
100
AcDbEntity
  8
0
100
AcDbLine
 62
7
  6
CONTINUOUS
 10
144.6283459216
 20
178.0369705509
 11
122.8034436622
 21
178.0369705509
  0
LINE
  5
2CD
100
AcDbEntity
  8
0
100
AcDbLine
 62
7
  6
CONTINUOUS
 10
103.453248181
 20
178.0369705509
 11
81.6283459216
 21
178.0369705509
  0
LINE
  5
2CE
100
AcDbEntity
  8
0
100
AcDbLine
 62
7
  6
CONTINUOUS
 10
104.1283459216
 20
178.3071677601
 11
103.6515104879
 21
178.3247046759
  0
LINE
  5
2CF
100
AcDbEntity
  8
0
100
AcDbLine
 62
7
  6
CONTINUOUS
 10
119.3983459216
 20
234.3869705509
 11
119.3983459216
 21
226.5869705509
  0
LINE
  5
2D0
100
AcDbEntity
  8
0
100
AcDbLine
 62
7
  6
CONTINUOUS
 10
120.4768151499
 20
183.6119705509
 11
120.4768151499
 21
187.3619705509
  0
LINE
  5
2D1
100
AcDbEntity
  8
0
100
AcDbLine
 62
7
  6
CONTINUOUS
 10
121.6283459216
 20
190.5369705509
 11
121.6283459216
 21
187.3619705509
  0
LINE
  5
2D2
100
AcDbEntity
  8
0
100
AcDbLine
 62
7
  6
CONTINUOUS
 10
121.6283459216
 20
183.6119705509
 11
121.6283459216
 21
178.5369705509
  0
LINE
  5
2D3
100
AcDbEntity
  8
0
100
AcDbLine
 62
7
  6
CONTINUOUS
 10
122.1283459216
 20
190.5369705509
 11
122.1283459216
 21
187.3619705509
  0
LINE
  5
2D4
100
AcDbEntity
  8
0
100
AcDbLine
 62
7
  6
CONTINUOUS
 10
122.1283459216
 20
178.0369705509
 11
122.1283459216
 21
183.6119705509
  0
LINE
  5
2D5
100
AcDbEntity
  8
0
100
AcDbLine
 62
7
  6
CONTINUOUS
 10
122.6051813552
 20
190.5369705509
 11
122.6051813552
 21
188.8644696257
  0
LINE
  5
2D6
100
AcDbEntity
  8
0
100
AcDbLine
 62
7
  6
CONTINUOUS
 10
122.6051813552
 20
182.1094714761
 11
122.6051813552
 21
178.3247046759
  0
LINE
  5
2D7
100
AcDbEntity
  8
0
100
AcDbLine
 62
7
  6
CONTINUOUS
 10
144.6283459216
 20
182.1094714761
 11
122.6051813552
 21
182.1094714761
  0
LINE
  5
2D8
100
AcDbEntity
  8
0
100
AcDbLine
 62
7
  6
CONTINUOUS
 10
103.6515104879
 20
182.1094714761
 11
81.6283459216
 21
182.1094714761
  0
LINE
  5
2D9
100
AcDbEntity
  8
0
100
AcDbLine
 62
7
  6
CONTINUOUS
 10
84.2308039075
 20
183.6119705509
 11
105.7798766932
 21
183.6119705509
  0
LINE
  5
2DA
100
AcDbEntity
  8
0
100
AcDbLine
 62
7
  6
CONTINUOUS
 10
120.4768151499
 20
183.6119705509
 11
142.0257737833
 21
183.6119705509
  0
LINE
  5
2DB
100
AcDbEntity
  8
0
100
AcDbLine
 62
7
  6
CONTINUOUS
 10
122.6283459216
 20
177.5369705509
 11
121.6283459216
 21
178.5369705509
  0
LINE
  5
2DC
100
AcDbEntity
  8
0
100
AcDbLine
 62
7
  6
CONTINUOUS
 10
123.583984593
 20
228.5840949028
 11
123.583984593
 21
226.5869705509
  0
LINE
  5
2DD
100
AcDbEntity
  8
0
100
AcDbLine
 62
7
  6
CONTINUOUS
 10
142.0257737833
 20
187.3619705509
 11
120.4768151499
 21
187.3619705509
  0
LINE
  5
2DE
100
AcDbEntity
  8
0
100
AcDbLine
 62
7
  6
CONTINUOUS
 10
105.7798766932
 20
187.3619705509
 11
84.2308039075
 21
187.3619705509
  0
LINE
  5
2DF
100
AcDbEntity
  8
0_COMPONENTS
100
AcDbLine
 62
7
  6
CONTINUOUS
 10
137.7283459216
 20
165.6869705509
 11
138.2283459216
 21
165.1869705509
  0
LINE
  5
2E0
100
AcDbEntity
  8
0
100
AcDbLine
 62
7
  6
CONTINUOUS
 10
108.0583462078
 20
229.3869705392
 11
108.146265278
 21
229.0869705394
  0
LINE
  5
2E1
100
AcDbEntity
  8
DEFAULT_2
100
AcDbLine
 62
8
  6
HIDDEN
 10
128.6283459216
 20
115.2869705509
 11
128.6283459216
 21
148.4869705509
  0
LINE
  5
2E2
100
AcDbEntity
  8
0
100
AcDbLine
 62
7
  6
CONTINUOUS
 10
137.3487846971
 20
205.4869705509
 11
137.0283459216
 21
204.29107676
  0
LINE
  5
2E3
100
AcDbEntity
  8
0
100
AcDbLine
 62
7
  6
CONTINUOUS
 10
81.6283459216
 20
188.8644696257
 11
103.6515104879
 21
188.8644696257
  0
LINE
  5
2E4
100
AcDbEntity
  8
0
100
AcDbLine
 62
7
  6
CONTINUOUS
 10
122.6051813552
 20
188.8644696257
 11
144.6283459216
 21
188.8644696257
  0
LINE
  5
2E5
100
AcDbEntity
  8
0
100
AcDbLine
 62
7
  6
CONTINUOUS
 10
104.6283459216
 20
190.5369705509
 11
103.6515104879
 21
190.5369705509
  0
LINE
  5
2E6
100
AcDbEntity
  8
0
100
AcDbLine
 62
7
  6
CONTINUOUS
 10
121.6283459216
 20
190.5369705509
 11
122.6051813552
 21
190.5369705509
  0
LINE
  5
2E7
100
AcDbEntity
  8
0
100
AcDbLine
 62
7
  6
CONTINUOUS
 10
135.7283459216
 20
175.5369705509
 11
135.7283459216
 21
165.6869705509
  0
LINE
  5
2E8
100
AcDbEntity
  8
0
100
AcDbLine
 62
7
  6
CONTINUOUS
 10
144.6283459216
 20
178.0369705509
 11
144.1283459216
 21
177.5369705509
  0
LINE
  5
2E9
100
AcDbEntity
  8
0
100
AcDbLine
 62
7
  6
CONTINUOUS
 10
144.6283459216
 20
182.1094714761
 11
142.0259411858
 21
183.6119705509
  0
LINE
  5
2EA
100
AcDbEntity
  8
0
100
AcDbLine
 62
7
  6
CONTINUOUS
 10
120.212068613
 20
225.3869705509
 11
120.3096634098
 21
225.0711471542
  0
LINE
  5
2EB
100
AcDbEntity
  8
0
100
AcDbLine
 62
7
  6
CONTINUOUS
 10
135.9078476419
 20
234.2470176815
 11
137.3487846971
 21
205.4869705509
  0
LINE
  5
2EC
100
AcDbEntity
  8
0
100
AcDbLine
 62
7
  6
CONTINUOUS
 10
137.0283459216
 20
204.29107676
 11
137.0283459216
 21
203.8869705509
  0
LINE
  5
2ED
100
AcDbEntity
  8
0_COMPONENTS
100
AcDbLine
 62
7
  6
CONTINUOUS
 10
138.2283459216
 20
165.1869705509
 11
138.2283459216
 21
148.6869705509
  0
LINE
  5
2EE
100
AcDbEntity
  8
0_COMPONENTS
100
AcDbLine
 62
7
  6
CONTINUOUS
 10
138.2283459216
 20
129.6869705509
 11
138.2283459216
 21
116.1869705509
  0
LINE
  5
2EF
100
AcDbEntity
  8
0_COMPONENTS
100
AcDbLine
 62
7
  6
CONTINUOUS
 10
138.5283459216
 20
148.3869705509
 11
138.5283459216
 21
129.9869705509
  0
LINE
  5
2F0
100
AcDbEntity
  8
0
100
AcDbLine
 62
7
  6
CONTINUOUS
 10
140.6283459216
 20
183.6119705509
 11
140.6283459216
 21
187.3619705509
  0
LINE
  5
2F1
100
AcDbEntity
  8
0
100
AcDbLine
 62
7
  6
CONTINUOUS
 10
112.1283459216
 20
198.0369705509
 11
114.1283459216
 21
198.0369705509
  0
LINE
  5
2F2
100
AcDbEntity
  8
0
100
AcDbLine
 62
7
  6
CONTINUOUS
 10
114.1283459216
 20
198.5369705509
 11
112.1283459216
 21
198.5369705509
  0
LINE
  5
2F3
100
AcDbEntity
  8
0
100
AcDbLine
 62
7
  6
CONTINUOUS
 10
114.1444749538
 20
199.0369705509
 11
112.1122168893
 21
199.0369705509
  0
LINE
  5
2F4
100
AcDbEntity
  8
0
100
AcDbLine
 62
7
  6
CONTINUOUS
 10
144.6283459216
 20
202.9869705509
 11
144.6283459216
 21
188.8644696257
  0
LINE
  5
2F5
100
AcDbEntity
  8
0
100
AcDbLine
 62
7
  6
CONTINUOUS
 10
144.6283459216
 20
182.1094714761
 11
144.6283459216
 21
178.0369705509
  0
LINE
  5
2F6
100
AcDbEntity
  8
0
100
AcDbLine
 62
7
  6
CONTINUOUS
 10
144.6283459216
 20
202.9869705509
 11
81.6283459216
 21
202.9869705509
  0
LINE
  5
2F7
100
AcDbEntity
  8
0
100
AcDbLine
 62
7
  6
CONTINUOUS
 10
144.1279826886
 20
203.4869705509
 11
82.1287091546
 21
203.4869705509
  0
LINE
  5
2F8
100
AcDbEntity
  8
0
100
AcDbLine
 62
7
  6
CONTINUOUS
 10
89.2283459216
 20
203.8869705509
 11
137.0283459216
 21
203.8869705509
  0
LINE
  5
2F9
100
AcDbEntity
  8
0
100
AcDbLine
 62
7
  6
CONTINUOUS
 10
89.2283459216
 20
204.29107676
 11
137.0283459216
 21
204.29107676
  0
LINE
  5
2FA
100
AcDbEntity
  8
0
100
AcDbLine
 62
7
  6
CONTINUOUS
 10
137.3487846971
 20
205.4869705509
 11
88.9079071461
 21
205.4869705509
  0
LINE
  5
2FB
100
AcDbEntity
  8
0
100
AcDbLine
 62
7
  6
CONTINUOUS
 10
123.242585939
 20
235.1400335117
 11
123.3440926509
 21
234.9161282792
  0
LINE
  5
2FC
100
AcDbEntity
  8
0
100
AcDbLine
 62
7
  6
CONTINUOUS
 10
105.8583459216
 20
235.3869705509
 11
106.8583459216
 21
234.3869705509
  0
LINE
  5
2FD
100
AcDbEntity
  8
0
100
AcDbLine
 62
7
  6
CONTINUOUS
 10
144.1283459216
 20
203.4869705509
 11
144.6283459216
 21
202.9869705509
  0
LINE
  5
2FE
100
AcDbEntity
  8
0_COMPONENTS
100
AcDbLine
 62
7
  6
CONTINUOUS
 10
138.5283459216
 20
129.9869705509
 11
138.2283459216
 21
129.6869705509
  0
LINE
  5
2FF
100
AcDbEntity
  8
0
100
AcDbLine
 62
7
  6
CONTINUOUS
 10
120.3096634098
 20
225.0711471542
 11
105.9470284333
 21
225.0711471542
  0
LINE
  5
300
100
AcDbEntity
  8
0
100
AcDbLine
 62
4
  6
CONTINUOUS
 10
102.6246054593
 20
225.3869705509
 11
123.6320863338
 21
225.3869705509
  0
LINE
  5
301
100
AcDbEntity
  8
0_COMPONENTS
100
AcDbLine
 62
7
  6
CONTINUOUS
 10
138.2283459216
 20
116.1869705509
 11
136.9293078156
 21
113.9369705504
  0
LINE
  5
302
100
AcDbEntity
  8
0
100
AcDbLine
 62
7
  6
CONTINUOUS
 10
100.755732431
 20
226.5869705509
 11
106.8583459216
 21
226.5869705509
  0
LINE
  5
303
100
AcDbEntity
  8
0
100
AcDbLine
 62
7
  6
CONTINUOUS
 10
119.3983459216
 20
226.5869705509
 11
125.5009594121
 21
226.5869705509
  0
LINE
  5
304
100
AcDbEntity
  8
0
100
AcDbLine
 62
7
  6
CONTINUOUS
 10
108.1462649967
 20
229.0869705509
 11
118.1104268464
 21
229.0869705509
  0
LINE
  5
305
100
AcDbEntity
  8
0
100
AcDbLine
 62
7
  6
CONTINUOUS
 10
108.0583459216
 20
229.3869705509
 11
118.1983459216
 21
229.3869705509
  0
LINE
  5
306
100
AcDbEntity
  8
0
100
AcDbLine
 62
7
  6
CONTINUOUS
 10
90.3488442013
 20
234.2470176815
 11
103.9986263679
 21
234.2470176815
  0
LINE
  5
307
100
AcDbEntity
  8
0
100
AcDbLine
 62
7
  6
CONTINUOUS
 10
122.2580654752
 20
234.2470176815
 11
135.9078476419
 21
234.2470176815
  0
LINE
  5
308
100
AcDbEntity
  8
0
100
AcDbLine
 62
7
  6
CONTINUOUS
 10
122.2210174109
 20
234.3869705509
 11
119.3983459216
 21
234.3869705509
  0
LINE
  5
309
100
AcDbEntity
  8
0
100
AcDbLine
 62
7
  6
CONTINUOUS
 10
106.8583459216
 20
234.3869705509
 11
104.0356744322
 21
234.3869705509
  0
LINE
  5
30A
100
AcDbEntity
  8
0
100
AcDbLine
 62
7
  6
CONTINUOUS
 10
91.5473409054
 20
235.3869705509
 11
105.8583459216
 21
235.3869705509
  0
LINE
  5
30B
100
AcDbEntity
  8
0
100
AcDbLine
 62
7
  6
CONTINUOUS
 10
120.3983459216
 20
235.3869705509
 11
134.7093165756
 21
235.3869705509
  0
ARC
  5
30C
100
AcDbEntity
  8
0
100
AcDbCircle
 62
7
  6
CONTINUOUS
 10
179.793304943
 20
50.233856067
 40
152.2785303396
100
AcDbArc
 50
119.7941443417
 51
120.0010988883
  0
ARC
  5
30D
100
AcDbEntity
  8
0
100
AcDbCircle
 62
7
  6
CONTINUOUS
 10
179.793304943
 20
320.7400850348
 40
152.2785303396
100
AcDbArc
 50
239.9989011117
 51
240.2058556583
  0
ARC
  5
30E
100
AcDbEntity
  8
0
100
AcDbCircle
 62
7
  6
CONTINUOUS
 10
46.4635299419
 20
320.7398053632
 40
152.2782166163
100
AcDbArc
 50
299.7941499099
 51
300.0011048949
  0
ARC
  5
30F
100
AcDbEntity
  8
0
100
AcDbCircle
 62
7
  6
CONTINUOUS
 10
46.4635299419
 20
50.2341357386
 40
152.2782166163
100
AcDbArc
 50
59.9988951051
 51
60.2058500901
  0
ARC
  5
310
100
AcDbEntity
  8
0
100
AcDbCircle
 62
7
  6
CONTINUOUS
 10
114.1283459216
 20
190.5369705509
 40
8.0
100
AcDbArc
 50
0.0
 51
90.0
  0
ARC
  5
311
100
AcDbEntity
  8
0
100
AcDbCircle
 62
7
  6
CONTINUOUS
 10
112.1283459216
 20
190.5369705509
 40
8.0
100
AcDbArc
 50
90.0
 51
180.0
  0
ARC
  5
312
100
AcDbEntity
  8
0
100
AcDbCircle
 62
7
  6
CONTINUOUS
 10
112.1283459216
 20
190.5369705509
 40
7.5
100
AcDbArc
 50
90.0
 51
180.0
  0
ARC
  5
313
100
AcDbEntity
  8
0
100
AcDbCircle
 62
7
  6
CONTINUOUS
 10
114.1283459216
 20
190.5369705509
 40
7.5
100
AcDbArc
 50
0.0
 51
90.0
  0
CIRCLE
  5
314
100
AcDbEntity
  8
0
100
AcDbCircle
 62
7
  6
CONTINUOUS
 10
113.1283459216
 20
212.4869705509
 40
3.75
  0
ARC
  5
315
100
AcDbEntity
  8
0
100
AcDbCircle
 62
7
  6
CONTINUOUS
 10
88.5283459216
 20
175.5369705509
 40
2.0
100
AcDbArc
 50
0.0
 51
89.9992414418
  0
ARC
  5
316
100
AcDbEntity
  8
0
100
AcDbCircle
 62
7
  6
CONTINUOUS
 10
137.7283459216
 20
175.5369705509
 40
2.0
100
AcDbArc
 50
90.0007585582
 51
180.0
  0
ARC
  5
317
100
AcDbEntity
  8
0
100
AcDbCircle
 62
7
  6
CONTINUOUS
 10
108.1472989855
 20
230.5447520642
 40
1.45778188
100
AcDbArc
 50
254.5926133613
 51
269.9593607245
  0
ARC
  5
318
100
AcDbEntity
  8
0
100
AcDbCircle
 62
7
  6
CONTINUOUS
 10
118.1093928576
 20
230.5447520642
 40
1.45778188
100
AcDbArc
 50
270.0406392755
 51
285.4073866387
  0
ARC
  5
319
100
AcDbEntity
  8
0
100
AcDbCircle
 62
7
  6
CONTINUOUS
 10
118.1983459216
 20
226.5869705509
 40
1.2
100
AcDbArc
 50
270.0
 51
360.0
  0
ARC
  5
31A
100
AcDbEntity
  8
0
100
AcDbCircle
 62
7
  6
CONTINUOUS
 10
108.0583459216
 20
226.5869705509
 40
1.2
100
AcDbArc
 50
180.0
 51
270.0
  0
ARC
  5
31B
100
AcDbEntity
  8
0
100
AcDbCircle
 62
7
  6
CONTINUOUS
 10
118.1983459216
 20
230.5869705509
 40
1.2
100
AcDbArc
 50
270.0
 51
360.0
  0
ARC
  5
31C
100
AcDbEntity
  8
0
100
AcDbCircle
 62
7
  6
CONTINUOUS
 10
134.709350941
 20
234.1869705509
 40
1.2
100
AcDbArc
 50
2.8682371247
 51
90.0
  0
ARC
  5
31D
100
AcDbEntity
  8
0
100
AcDbCircle
 62
7
  6
CONTINUOUS
 10
91.5473409022
 20
234.1869705509
 40
1.2
100
AcDbArc
 50
90.0
 51
177.1317628753
  0
ARC
  5
31E
100
AcDbEntity
  8
0
100
AcDbCircle
 62
7
  6
CONTINUOUS
 10
108.0583459216
 20
230.5869705509
 40
1.2
100
AcDbArc
 50
180.0
 51
270.0
  0
ARC
  5
31F
100
AcDbEntity
  8
DEFAULT_2
100
AcDbCircle
 62
8
  6
HIDDEN
 10
96.8283459216
 20
115.2869705509
 40
0.8
100
AcDbArc
 50
270.0
 51
360.0
  0
ARC
  5
320
100
AcDbEntity
  8
DEFAULT_2
100
AcDbCircle
 62
8
  6
HIDDEN
 10
129.4283459216
 20
115.2869705509
 40
0.8
100
AcDbArc
 50
180.0
 51
270.0
  0
ARC
  5
321
100
AcDbEntity
  8
0
100
AcDbCircle
 62
7
  6
CONTINUOUS
 10
88.6283459216
 20
203.8869705509
 40
0.6
100
AcDbArc
 50
317.8046766054
 51
360.0
  0
ARC
  5
322
100
AcDbEntity
  8
0
100
AcDbCircle
 62
7
  6
CONTINUOUS
 10
137.6283459216
 20
203.8869705509
 40
0.6
100
AcDbArc
 50
180.0
 51
222.1953233946
  0
ARC
  5
323
100
AcDbEntity
  8
0_COMPONENTS
100
AcDbCircle
 62
7
  6
CONTINUOUS
 10
136.496295114
 20
114.1869705509
 40
0.5
100
AcDbArc
 50
269.9999998678
 51
329.9999999302
  0
ARC
  5
324
100
AcDbEntity
  8
0_COMPONENTS
100
AcDbCircle
 62
7
  6
CONTINUOUS
 10
89.7603967291
 20
114.1869705509
 40
0.5
100
AcDbArc
 50
210.0000000698
 51
270.0000001322
  0
SPLINE
  5
325
100
AcDbEntity
  8
0
100
AcDbSpline
 62
7
  6
CONTINUOUS
 70
0
 71
3
 72
11
 73
7
 74
0
 42
0.0000001
 43
0.0000001
 44
0.0000000001
 40
0.0
 40
0.0
 40
0.0
 40
0.0
 40
0.1551326263
 40
0.4999939465
 40
0.8448588611
 40
1.0
 40
1.0
 40
1.0
 40
1.0
 10
81.6283552988
 20
201.9869327316
 30
0.0
 10
81.712976669
 20
201.4224902531
 30
0.0
 10
81.9430734126
 20
199.5968808873
 30
0.0
 10
82.1098502227
 20
196.4870171528
 30
0.0
 10
81.9429497826
 20
193.3771579038
 30
0.0
 10
81.7131109873
 20
191.5514629542
 30
0.0
 10
81.6283554168
 20
190.9870089415
 30
0.0
  0
SPLINE
  5
326
100
AcDbEntity
  8
0
100
AcDbSpline
 62
7
  6
CONTINUOUS
 70
0
 71
3
 72
13
 73
9
 74
0
 42
0.0000001
 43
0.0000001
 44
0.0000000001
 40
0.0
 40
0.0
 40
0.0
 40
0.0
 40
0.2575545346
 40
0.512075503
 40
0.6375330607
 40
0.760989444
 40
0.8817348364
 40
1.0
 40
1.0
 40
1.0
 40
1.0
 10
125.5009594121
 20
226.5869705509
 30
0.0
 10
125.3933543301
 20
226.8106944798
 30
0.0
 10
125.1651610775
 20
227.248761605
 30
0.0
 10
124.8274312309
 20
227.7648945892
 30
0.0
 10
124.5077395135
 20
228.1312424584
 30
0.0
 10
124.2378068912
 20
228.3662752901
 30
0.0
 10
123.9298257906
 20
228.5387780292
 30
0.0
 10
123.6979802024
 20
228.5840949028
 30
0.0
 10
123.583984593
 20
228.5840949028
 30
0.0
  0
SPLINE
  5
327
100
AcDbEntity
  8
0
100
AcDbSpline
 62
7
  6
CONTINUOUS
 70
0
 71
3
 72
13
 73
9
 74
0
 42
0.0000001
 43
0.0000001
 44
0.0000000001
 40
0.0
 40
0.0
 40
0.0
 40
0.0
 40
0.1182615379
 40
0.2390062896
 40
0.3624637207
 40
0.4879220625
 40
0.7424442511
 40
1.0
 40
1.0
 40
1.0
 40
1.0
 10
102.6727072501
 20
228.5840949028
 30
0.0
 10
102.5587151269
 20
228.5840949028
 30
0.0
 10
102.3268741413
 20
228.5387788853
 30
0.0
 10
102.0188928198
 20
228.3662830384
 30
0.0
 10
101.7489584281
 20
228.1312499366
 30
0.0
 10
101.4292647234
 20
227.764899959
 30
0.0
 10
101.0915322074
 20
227.2487649068
 30
0.0
 10
100.8633380284
 20
226.8106955514
 30
0.0
 10
100.755732431
 20
226.5869705509
 30
0.0
  0
SPLINE
  5
328
100
AcDbEntity
  8
0
100
AcDbSpline
 62
7
  6
CONTINUOUS
 70
0
 71
3
 72
9
 73
5
 74
0
 42
0.0000001
 43
0.0000001
 44
0.0000000001
 40
0.0
 40
0.0
 40
0.0
 40
0.0
 40
0.4957654623
 40
1.0
 40
1.0
 40
1.0
 40
1.0
 10
120.5819231341
 20
225.3869705509
 30
0.0
 10
120.8014488153
 20
225.3869705509
 30
0.0
 10
121.2426899294
 20
225.4350910472
 30
0.0
 10
121.679893131
 20
225.5241730807
 30
0.0
 10
121.9031671987
 20
225.523293475
 30
0.0
  0
SPLINE
  5
329
100
AcDbEntity
  8
0
100
AcDbSpline
 62
7
  6
CONTINUOUS
 70
0
 71
3
 72
9
 73
5
 74
0
 42
0.0000001
 43
0.0000001
 44
0.0000000001
 40
0.0
 40
0.0
 40
0.0
 40
0.0
 40
0.2406123493
 40
1.0
 40
1.0
 40
1.0
 40
1.0
 10
123.6415489956
 20
226.0497362897
 30
0.0
 10
123.6319456675
 20
226.0920456798
 30
0.0
 10
123.5976722272
 20
226.269139389
 30
0.0
 10
123.5839845931
 20
226.4500429472
 30
0.0
 10
123.5839845931
 20
226.5869705509
 30
0.0
  0
SPLINE
  5
32A
100
AcDbEntity
  8
0
100
AcDbSpline
 62
7
  6
CONTINUOUS
 70
0
 71
3
 72
12
 73
8
 74
0
 42
0.0000001
 43
0.0000001
 44
0.0000000001
 40
0.0
 40
0.0
 40
0.0
 40
0.0
 40
0.2454060125
 40
0.369743891
 40
0.4948019329
 40
0.7465645451
 40
1.0
 40
1.0
 40
1.0
 40
1.0
 10
123.6415489956
 20
226.0497362897
 30
0.0
 10
123.4924979756
 20
226.0497362897
 30
0.0
 10
123.2681802124
 20
226.0056916582
 30
0.0
 10
122.9842358741
 20
225.9085109207
 30
0.0
 10
122.6996934155
 20
225.7999986293
 30
0.0
 10
122.3435045697
 20
225.6599757985
 30
0.0
 10
122.0515730017
 20
225.5641528934
 30
0.0
 10
121.9031671987
 20
225.523293475
 30
0.0
  0
SPLINE
  5
32B
100
AcDbEntity
  8
0
100
AcDbSpline
 62
7
  6
CONTINUOUS
 70
0
 71
3
 72
9
 73
5
 74
0
 42
0.0000001
 43
0.0000001
 44
0.0000000001
 40
0.0
 40
0.0
 40
0.0
 40
0.0
 40
0.5041817508
 40
1.0
 40
1.0
 40
1.0
 40
1.0
 10
104.3535246445
 20
225.523293475
 30
0.0
 10
104.5767753095
 20
225.5241729885
 30
0.0
 10
105.0139796922
 20
225.4351025021
 30
0.0
 10
105.455219682
 20
225.3869705509
 30
0.0
 10
105.674768709
 20
225.3869705509
 30
0.0
  0
SPLINE
  5
32C
100
AcDbEntity
  8
0
100
AcDbSpline
 62
7
  6
CONTINUOUS
 70
0
 71
3
 72
10
 73
6
 74
0
 42
0.0000001
 43
0.0000001
 44
0.0000000001
 40
0.0
 40
0.0
 40
0.0
 40
0.0
 40
0.505042619
 40
0.7543863962
 40
1.0
 40
1.0
 40
1.0
 40
1.0
 10
104.3535246445
 20
225.523293475
 30
0.0
 10
104.0578459654
 20
225.6047003918
 30
0.0
 10
103.6294296071
 20
225.7711368076
 30
0.0
 10
103.0640844246
 20
225.9903608008
 30
0.0
 10
102.7642885144
 20
226.0497362896
 30
0.0
 10
102.6151428476
 20
226.0497362897
 30
0.0
  0
SPLINE
  5
32D
100
AcDbEntity
  8
0
100
AcDbSpline
 62
7
  6
CONTINUOUS
 70
0
 71
3
 72
9
 73
5
 74
0
 42
0.0000001
 43
0.0000001
 44
0.0000000001
 40
0.0
 40
0.0
 40
0.0
 40
0.0
 40
0.2406123493
 40
1.0
 40
1.0
 40
1.0
 40
1.0
 10
102.6151428476
 20
226.0497362897
 30
0.0
 10
102.6247461757
 20
226.0920456798
 30
0.0
 10
102.659019616
 20
226.269139389
 30
0.0
 10
102.6727072501
 20
226.4500429472
 30
0.0
 10
102.6727072501
 20
226.5869705509
 30
0.0
  0
SPLINE
  5
32E
100
AcDbEntity
  8
0
100
AcDbSpline
 62
7
  6
CONTINUOUS
 70
0
 71
3
 72
8
 73
4
 74
0
 42
0.0000001
 43
0.0000001
 44
0.0000000001
 40
0.0
 40
0.0
 40
0.0
 40
0.0
 40
1.0
 40
1.0
 40
1.0
 40
1.0
 10
122.2210174109
 20
234.3869705509
 30
0.0
 10
122.2391206047
 20
234.3422369765
 30
0.0
 10
122.2521728004
 20
234.29491439
 30
0.0
 10
122.2580654752
 20
234.2470176815
 30
0.0
  0
SPLINE
  5
32F
100
AcDbEntity
  8
0
100
AcDbSpline
 62
7
  6
CONTINUOUS
 70
0
 71
3
 72
12
 73
8
 74
0
 42
0.0000001
 43
0.0000001
 44
0.0000000001
 40
0.0
 40
0.0
 40
0.0
 40
0.0
 40
0.2436928983
 40
0.3629614002
 40
0.4848692593
 40
0.7371203409
 40
1.0
 40
1.0
 40
1.0
 40
1.0
 10
123.3440926509
 20
234.9161282792
 30
0.0
 10
123.2427143339
 20
234.9161282792
 30
0.0
 10
123.0947380997
 20
234.8620911905
 30
0.0
 10
122.9157799855
 20
234.7715872258
 30
0.0
 10
122.7344930473
 20
234.6746389174
 30
0.0
 10
122.5033912101
 20
234.5452313827
 30
0.0
 10
122.3164974443
 20
234.4402923154
 30
0.0
 10
122.2210174109
 20
234.3869705509
 30
0.0
  0
SPLINE
  5
330
100
AcDbEntity
  8
0
100
AcDbSpline
 62
7
  6
CONTINUOUS
 70
0
 71
3
 72
26
 73
22
 74
0
 42
0.0000001
 43
0.0000001
 44
0.0000000001
 40
0.0
 40
0.0
 40
0.0
 40
0.0
 40
0.1280652529
 40
0.2583360483
 40
0.3917273795
 40
0.4605271756
 40
0.4958244503
 40
0.513816631
 40
0.5292811137
 40
0.5410440199
 40
0.5527301958
 40
0.5652216449
 40
0.5782631103
 40
0.6055076801
 40
0.6337154307
 40
0.6625735921
 40
0.6919144661
 40
0.7516751224
 40
0.8125452212
 40
0.8742981124
 40
1.0
 40
1.0
 40
1.0
 40
1.0
 10
123.242585939
 20
235.1400335117
 30
0.0
 10
123.3065398871
 20
235.1400335117
 30
0.0
 10
123.4355776434
 20
235.137812781
 30
0.0
 10
123.6308844258
 20
235.1270820091
 30
0.0
 10
123.7963270677
 20
235.1095196785
 30
0.0
 10
123.9126089502
 20
235.0869788061
 30
0.0
 10
123.9713764998
 20
235.0684377667
 30
0.0
 10
124.001473823
 20
235.05309158
 30
0.0
 10
124.0201326133
 20
235.0368386573
 30
0.0
 10
124.0176974625
 20
235.0147525908
 30
0.0
 10
124.0030238619
 20
235.0031485041
 30
0.0
 10
123.9872745849
 20
234.9935628659
 30
0.0
 10
123.9631043848
 20
234.9827650384
 30
0.0
 10
123.9305684996
 20
234.9721321361
 30
0.0
 10
123.889727343
 20
234.9617940345
 30
0.0
 10
123.8474344872
 20
234.9531851706
 30
0.0
 10
123.7893383434
 20
234.9433920367
 30
0.0
 10
123.7150228285
 20
234.9338827195
 30
0.0
 10
123.6242992963
 20
234.9256683051
 30
0.0
 10
123.5005029929
 20
234.9181810177
 30
0.0
 10
123.4068663683
 20
234.9161282792
 30
0.0
 10
123.3440926509
 20
234.9161282792
 30
0.0
  0
SPLINE
  5
331
100
AcDbEntity
  8
0
100
AcDbSpline
 62
7
  6
CONTINUOUS
 70
0
 71
3
 72
13
 73
9
 74
0
 42
0.0000001
 43
0.0000001
 44
0.0000000001
 40
0.0
 40
0.0
 40
0.0
 40
0.0
 40
0.12072384
 40
0.2492740864
 40
0.3763853644
 40
0.5026501516
 40
0.7538760488
 40
1.0
 40
1.0
 40
1.0
 40
1.0
 10
103.0141059041
 20
235.1400335117
 30
0.0
 10
103.0756799607
 20
235.1400335117
 30
0.0
 10
103.2023273801
 20
235.1600677859
 30
0.0
 10
103.3881392881
 20
235.2072158037
 30
0.0
 10
103.57715864
 20
235.2546227208
 30
0.0
 10
103.8278007045
 20
235.3130497217
 30
0.0
 10
104.1413303524
 20
235.3687169473
 30
0.0
 10
104.3951208761
 20
235.3869705509
 30
0.0
 10
104.5206540773
 20
235.3869705509
 30
0.0
  0
SPLINE
  5
332
100
AcDbEntity
  8
0
100
AcDbSpline
 62
7
  6
CONTINUOUS
 70
0
 71
3
 72
27
 73
23
 74
0
 42
0.0000001
 43
0.0000001
 44
0.0000000001
 40
0.0
 40
0.0
 40
0.0
 40
0.0
 40
0.1256772387
 40
0.1874178288
 40
0.2482754336
 40
0.3080233887
 40
0.3373576078
 40
0.3662093557
 40
0.3944098688
 40
0.4216322209
 40
0.4347017694
 40
0.4471412051
 40
0.4588872673
 40
0.464529249
 40
0.4707320241
 40
0.4863310387
 40
0.5042591161
 40
0.5395542111
 40
0.608346464
 40
0.7417130529
 40
0.8719592273
 40
1.0
 40
1.0
 40
1.0
 40
1.0
 10
102.9125991923
 20
234.9161282792
 30
0.0
 10
102.8498150429
 20
234.9161282792
 30
0.0
 10
102.7561629586
 20
234.9181817889
 30
0.0
 10
102.6323464972
 20
234.925671526
 30
0.0
 10
102.5416089778
 20
234.9338889422
 30
0.0
 10
102.4672824301
 20
234.9434028558
 30
0.0
 10
102.4091787627
 20
234.9531986946
 30
0.0
 10
102.3668802105
 20
234.9618171535
 30
0.0
 10
102.3260454675
 20
234.9721364663
 30
0.0
 10
102.2934921012
 20
234.9828462724
 30
0.0
 10
102.2693727545
 20
234.9935727394
 30
0.0
 10
102.2533824382
 20
235.0031104244
 30
0.0
 10
102.2420018993
 20
235.0131990897
 30
0.0
 10
102.2369743792
 20
235.0243448979
 30
0.0
 10
102.239528677
 20
235.0385223559
 30
0.0
 10
102.254631927
 20
235.0532561185
 30
0.0
 10
102.2855071302
 20
235.0681647339
 30
0.0
 10
102.3437595592
 20
235.0871053009
 30
0.0
 10
102.460405729
 20
235.1094011415
 30
0.0
 10
102.6256944217
 20
235.1271125016
 30
0.0
 10
102.8210937969
 20
235.1378022245
 30
0.0
 10
102.9501410121
 20
235.1400335117
 30
0.0
 10
103.0141059041
 20
235.1400335117
 30
0.0
  0
SPLINE
  5
333
100
AcDbEntity
  8
0
100
AcDbSpline
 62
7
  6
CONTINUOUS
 70
0
 71
3
 72
12
 73
8
 74
0
 42
0.0000001
 43
0.0000001
 44
0.0000000001
 40
0.0
 40
0.0
 40
0.0
 40
0.0
 40
0.262884729
 40
0.5151465494
 40
0.6370597337
 40
0.7563259598
 40
1.0
 40
1.0
 40
1.0
 40
1.0
 10
104.0356744322
 20
234.3869705509
 30
0.0
 10
103.9401918808
 20
234.4402937216
 30
0.0
 10
103.753292786
 20
234.5452392293
 30
0.0
 10
103.5221803267
 20
234.6746518338
 30
0.0
 10
103.3408748644
 20
234.7715773144
 30
0.0
 10
103.1619724874
 20
234.8621881982
 30
0.0
 10
103.0139703825
 20
234.9161282792
 30
0.0
 10
102.9125991923
 20
234.9161282792
 30
0.0
  0
SPLINE
  5
334
100
AcDbEntity
  8
0
100
AcDbSpline
 62
7
  6
CONTINUOUS
 70
0
 71
3
 72
8
 73
4
 74
0
 42
0.0000001
 43
0.0000001
 44
0.0000000001
 40
0.0
 40
0.0
 40
0.0
 40
0.0
 40
1.0
 40
1.0
 40
1.0
 40
1.0
 10
103.9986263679
 20
234.2470176815
 30
0.0
 10
104.0045190427
 20
234.29491439
 30
0.0
 10
104.0175712384
 20
234.3422369765
 30
0.0
 10
104.0356744322
 20
234.3869705509
 30
0.0
  0
SPLINE
  5
335
100
AcDbEntity
  8
0
100
AcDbSpline
 62
7
  6
CONTINUOUS
 70
0
 71
3
 72
20
 73
16
 74
0
 42
0.0000001
 43
0.0000001
 44
0.0000000001
 40
0.0
 40
0.0
 40
0.0
 40
0.0
 40
0.0356721987
 40
0.0698355336
 40
0.1029942728
 40
0.1343762423
 40
0.1959515408
 40
0.2570393397
 40
0.3180303028
 40
0.3790710467
 40
0.5015721136
 40
0.6248523953
 40
0.7489999365
 40
0.8740457771
 40
1.0
 40
1.0
 40
1.0
 40
1.0
 10
125.5009594121
 20
226.5869705509
 30
0.0
 10
125.5116867568
 20
226.564667109
 30
0.0
 10
125.5222150577
 20
226.5145770764
 30
0.0
 10
125.4980375703
 20
226.4443763063
 30
0.0
 10
125.4519707099
 20
226.3925762251
 30
0.0
 10
125.3835340154
 20
226.3377815281
 30
0.0
 10
125.2888778521
 20
226.286690039
 30
0.0
 10
125.1705117788
 20
226.2393418032
 30
0.0
 10
125.0491513219
 20
226.2013698337
 30
0.0
 10
124.8846565258
 20
226.1596422866
 30
0.0
 10
124.6752520357
 20
226.1202905408
 30
0.0
 10
124.420655099
 20
226.0871906885
 30
0.0
 10
124.1631053702
 20
226.065141668
 30
0.0
 10
123.9030911818
 20
226.0524717911
 30
0.0
 10
123.7289351832
 20
226.0497362897
 30
0.0
 10
123.6415489956
 20
226.0497362897
 30
0.0
  0
SPLINE
  5
336
100
AcDbEntity
  8
0
100
AcDbSpline
 62
7
  6
CONTINUOUS
 70
0
 71
3
 72
20
 73
16
 74
0
 42
0.0000001
 43
0.0000001
 44
0.0000000001
 40
0.0
 40
0.0
 40
0.0
 40
0.0
 40
0.1259542229
 40
0.2510000635
 40
0.3751476047
 40
0.4984278864
 40
0.6209289533
 40
0.6819696972
 40
0.7429606603
 40
0.8040484592
 40
0.8656237577
 40
0.8970057272
 40
0.9301644664
 40
0.9643278013
 40
1.0
 40
1.0
 40
1.0
 40
1.0
 10
102.6151428476
 20
226.0497362897
 30
0.0
 10
102.52775666
 20
226.0497362897
 30
0.0
 10
102.3536006614
 20
226.0524717911
 30
0.0
 10
102.093586473
 20
226.065141668
 30
0.0
 10
101.8360367442
 20
226.0871906885
 30
0.0
 10
101.5814398075
 20
226.1202905408
 30
0.0
 10
101.3720353174
 20
226.1596422866
 30
0.0
 10
101.2075405213
 20
226.2013698337
 30
0.0
 10
101.0861800644
 20
226.2393418032
 30
0.0
 10
100.9678139911
 20
226.286690039
 30
0.0
 10
100.8731578278
 20
226.3377815281
 30
0.0
 10
100.8047211332
 20
226.3925762251
 30
0.0
 10
100.7586542728
 20
226.4443763063
 30
0.0
 10
100.7344767854
 20
226.5145770764
 30
0.0
 10
100.7450050864
 20
226.564667109
 30
0.0
 10
100.755732431
 20
226.5869705509
 30
0.0
  0
SPLINE
  5
337
100
AcDbEntity
  8
0
100
AcDbSpline
 62
7
  6
CONTINUOUS
 70
0
 71
3
 72
9
 73
5
 74
0
 42
0.0000001
 43
0.0000001
 44
0.0000000001
 40
0.0
 40
0.0
 40
0.0
 40
0.0
 40
0.498110765
 40
1.0
 40
1.0
 40
1.0
 40
1.0
 10
121.9031671987
 20
225.523293475
 30
0.0
 10
121.6597417083
 20
225.3906056462
 30
0.0
 10
121.1480287323
 20
225.1614471033
 30
0.0
 10
120.5890064634
 20
225.0711471542
 30
0.0
 10
120.3096634098
 20
225.0711471542
 30
0.0
  0
SPLINE
  5
338
100
AcDbEntity
  8
0
100
AcDbSpline
 62
7
  6
CONTINUOUS
 70
0
 71
3
 72
19
 73
15
 74
0
 42
0.0000001
 43
0.0000001
 44
0.0000000001
 40
0.0
 40
0.0
 40
0.0
 40
0.0
 40
0.0616868051
 40
0.1233106414
 40
0.1856806735
 40
0.2483008199
 40
0.3728418724
 40
0.4989637546
 40
0.6250316986
 40
0.7500344735
 40
0.813240701
 40
0.8761856062
 40
0.9381341017
 40
1.0
 40
1.0
 40
1.0
 40
1.0
 10
114.1444749538
 20
199.0369705509
 30
0.0
 10
114.4181248348
 20
199.0361332628
 30
0.0
 10
114.9654713612
 20
199.0093778071
 30
0.0
 10
115.7815601716
 20
198.888515333
 30
0.0
 10
116.5858711934
 20
198.6869036704
 30
0.0
 10
117.6306410619
 20
198.3167586878
 30
0.0
 10
118.8655951214
 20
197.6581225719
 30
0.0
 10
120.1659677547
 20
196.5911191437
 30
0.0
 10
121.2306368057
 20
195.2862886901
 30
0.0
 10
121.8885858286
 20
194.0459167481
 30
0.0
 10
122.2582261735
 20
192.9933243123
 30
0.0
 10
122.4596984596
 20
192.1821826727
 30
0.0
 10
122.5792400347
 20
191.3610428277
 30
0.0
 10
122.6047827503
 20
190.8114159057
 30
0.0
 10
122.6051813552
 20
190.5369705509
 30
0.0
  0
SPLINE
  5
339
100
AcDbEntity
  8
0
100
AcDbSpline
 62
7
  6
CONTINUOUS
 70
0
 71
3
 72
19
 73
15
 74
0
 42
0.0000001
 43
0.0000001
 44
0.0000000001
 40
0.0
 40
0.0
 40
0.0
 40
0.0
 40
0.0616477754
 40
0.1234126309
 40
0.186206627
 40
0.2492805004
 40
0.3740227635
 40
0.4997858227
 40
0.6255894875
 40
0.7502852722
 40
0.8133303109
 40
0.8761664064
 40
0.9380991406
 40
1.0
 40
1.0
 40
1.0
 40
1.0
 10
103.6515104879
 20
190.5369705509
 30
0.0
 10
103.6519098999
 20
190.8104487418
 30
0.0
 10
103.6772717954
 20
191.3582903474
 30
0.0
 10
103.7960643147
 20
192.1770524648
 30
0.0
 10
103.9964491794
 20
192.9863203529
 30
0.0
 10
104.3642531445
 20
194.0369926189
 30
0.0
 10
105.0191526621
 20
195.2754066482
 30
0.0
 10
106.0790335387
 20
196.5789960244
 30
0.0
 10
107.3753867061
 20
197.6474647625
 30
0.0
 10
108.609777308
 20
198.3097644198
 30
0.0
 10
109.6583780371
 20
198.6830568907
 30
0.0
 10
110.4675532536
 20
198.8872330299
 30
0.0
 10
111.2879471179
 20
199.0092333882
 30
0.0
 10
111.8376171438
 20
199.0360768051
 30
0.0
 10
112.1122168893
 20
199.0369705509
 30
0.0
  0
SPLINE
  5
33A
100
AcDbEntity
  8
0
100
AcDbSpline
 62
7
  6
CONTINUOUS
 70
0
 71
3
 72
21
 73
17
 74
0
 42
0.0000001
 43
0.0000001
 44
0.0000000001
 40
0.0
 40
0.0
 40
0.0
 40
0.0
 40
0.028463234
 40
0.043656556
 40
0.0590321192
 40
0.0900145841
 40
0.1211737039
 40
0.1837057123
 40
0.2463744759
 40
0.3091068013
 40
0.3718733903
 40
0.4974568363
 40
0.6230767671
 40
0.7487125481
 40
0.8743551382
 40
1.0
 40
1.0
 40
1.0
 40
1.0
 10
123.583984593
 20
228.5840949028
 30
0.0
 10
123.5279574407
 20
228.5840949028
 30
0.0
 10
123.4484607894
 20
228.6432766592
 30
0.0
 10
123.3799348846
 20
228.7345505852
 30
0.0
 10
123.3165647458
 20
228.8386701075
 30
0.0
 10
123.2514737262
 20
228.9767075613
 30
0.0
 10
123.1622902919
 20
229.2055288992
 30
0.0
 10
123.0700873564
 20
229.4994202354
 30
0.0
 10
122.9755924235
 20
229.8571336568
 30
0.0
 10
122.8919281051
 20
230.2179971873
 30
0.0
 10
122.7906369131
 20
230.7017623564
 30
0.0
 10
122.6785700414
 20
231.3096193617
 30
0.0
 10
122.5591250993
 20
232.0417410814
 30
0.0
 10
122.4506278003
 20
232.7756754354
 30
0.0
 10
122.3505176137
 20
233.5108395945
 30
0.0
 10
122.2882652503
 20
234.0015485387
 30
0.0
 10
122.2580654752
 20
234.2470176815
 30
0.0
  0
SPLINE
  5
33B
100
AcDbEntity
  8
0
100
AcDbSpline
 62
7
  6
CONTINUOUS
 70
0
 71
3
 72
13
 73
9
 74
0
 42
0.0000001
 43
0.0000001
 44
0.0000000001
 40
0.0
 40
0.0
 40
0.0
 40
0.0
 40
0.2461265988
 40
0.4973573157
 40
0.6236287574
 40
0.7507314274
 40
0.8792683257
 40
1.0
 40
1.0
 40
1.0
 40
1.0
 10
121.7360377659
 20
235.3869705509
 30
0.0
 10
121.8615722503
 20
235.3869705509
 30
0.0
 10
122.1153661361
 20
235.3687145811
 30
0.0
 10
122.4289037004
 20
235.313051093
 30
0.0
 10
122.679545712
 20
235.2546179171
 30
0.0
 10
122.8685554607
 20
235.2072043574
 30
0.0
 10
123.0543657943
 20
235.160083784
 30
0.0
 10
123.1810079195
 20
235.1400335117
 30
0.0
 10
123.242585939
 20
235.1400335117
 30
0.0
  0
SPLINE
  5
33C
100
AcDbEntity
  8
0
100
AcDbSpline
 62
7
  6
CONTINUOUS
 70
0
 71
3
 72
21
 73
17
 74
0
 42
0.0000001
 43
0.0000001
 44
0.0000000001
 40
0.0
 40
0.0
 40
0.0
 40
0.0
 40
0.1255772089
 40
0.2511521407
 40
0.376720265
 40
0.5022725188
 40
0.627788322
 40
0.6905210619
 40
0.7532195221
 40
0.8158545296
 40
0.8783523129
 40
0.9404138922
 40
0.9557781086
 40
0.9709631472
 40
0.9857833368
 40
1.0
 40
1.0
 40
1.0
 40
1.0
 10
103.9986263679
 20
234.2470176815
 30
0.0
 10
103.9684262531
 20
234.0015457774
 30
0.0
 10
103.906173216
 20
233.5108313585
 30
0.0
 10
103.8060617185
 20
232.7756588236
 30
0.0
 10
103.6975620943
 20
232.0417170621
 30
0.0
 10
103.5781179062
 20
231.3095847795
 30
0.0
 10
103.4660425019
 20
230.7017289557
 30
0.0
 10
103.3647645368
 20
230.2179428758
 30
0.0
 10
103.2810500992
 20
229.8571249115
 30
0.0
 10
103.1867296797
 20
229.499226036
 30
0.0
 10
103.0756315009
 20
229.1478643701
 30
0.0
 10
102.9714653033
 20
228.8910768499
 30
0.0
 10
102.8771330846
 20
228.7347014094
 30
0.0
 10
102.8225668118
 20
228.6636019402
 30
0.0
 10
102.7577866848
 20
228.6043434613
 30
0.0
 10
102.7007067822
 20
228.5840949028
 30
0.0
 10
102.6727072501
 20
228.5840949028
 30
0.0
  0
SPLINE
  5
33D
100
AcDbEntity
  8
0
100
AcDbSpline
 62
7
  6
CONTINUOUS
 70
0
 71
3
 72
9
 73
5
 74
0
 42
0.0000001
 43
0.0000001
 44
0.0000000001
 40
0.0
 40
0.0
 40
0.0
 40
0.0
 40
0.5018869946
 40
1.0
 40
1.0
 40
1.0
 40
1.0
 10
105.9470284333
 20
225.0711471542
 30
0.0
 10
105.6676866157
 20
225.0711471542
 30
0.0
 10
105.1086642553
 20
225.1614462742
 30
0.0
 10
104.5969512394
 20
225.3906050441
 30
0.0
 10
104.3535246445
 20
225.523293475
 30
0.0
  0
SPLINE
  5
33E
100
AcDbEntity
  8
0
100
AcDbSpline
 62
7
  6
CONTINUOUS
 70
0
 71
3
 72
23
 73
19
 74
0
 42
0.0000001
 43
0.0000001
 44
0.0000000001
 40
0.0
 40
0.0
 40
0.0
 40
0.0
 40
0.0625106444
 40
0.1250608706
 40
0.1875759721
 40
0.2500452215
 40
0.3124892816
 40
0.3749543018
 40
0.4374627965
 40
0.4999999432
 40
0.5625368968
 40
0.6250450862
 40
0.6875102262
 40
0.7499547712
 40
0.812423854
 40
0.8749389656
 40
0.9374886084
 40
1.0
 40
1.0
 40
1.0
 40
1.0
 10
108.8862857322
 20
212.5078811976
 30
0.0
 10
108.8877724706
 20
212.7844925948
 30
0.0
 10
108.9450014249
 20
213.3393175476
 30
0.0
 10
109.1935388451
 20
214.1362956873
 30
0.0
 10
109.5843453648
 20
214.8741444099
 30
0.0
 10
110.1139292904
 20
215.519767182
 30
0.0
 10
110.7605622608
 20
216.0474572449
 30
0.0
 10
111.498133443
 20
216.4380618365
 30
0.0
 10
112.2970421892
 20
216.6803353195
 30
0.0
 10
113.1283517974
 20
216.7642682894
 30
0.0
 10
113.9597115287
 20
216.6806824044
 30
0.0
 10
114.7586301839
 20
216.4383409023
 30
0.0
 10
115.4960129172
 20
216.047359125
 30
0.0
 10
116.1424496324
 20
215.5194629004
 30
0.0
 10
116.6721899287
 20
214.8740246816
 30
0.0
 10
117.0635367794
 20
214.1364334342
 30
0.0
 10
117.311703475
 20
213.3392912153
 30
0.0
 10
117.3687957981
 20
212.7844952092
 30
0.0
 10
117.3704061109
 20
212.5078811976
 30
0.0
  0
SPLINE
  5
33F
100
AcDbEntity
  8
0
100
AcDbSpline
 62
7
  6
CONTINUOUS
 70
0
 71
3
 72
21
 73
17
 74
0
 42
0.0000001
 43
0.0000001
 44
0.0000000001
 40
0.0
 40
0.0
 40
0.0
 40
0.0
 40
0.0627142075
 40
0.1252769714
 40
0.1876992328
 40
0.2500607801
 40
0.3124732999
 40
0.3750340214
 40
0.5000011585
 40
0.6249655379
 40
0.6875262941
 40
0.7499393395
 40
0.8123007457
 40
0.8747227181
 40
0.9372851349
 40
1.0
 40
1.0
 40
1.0
 40
1.0
 10
117.3704061109
 20
212.5078811976
 30
0.0
 10
117.3720306379
 20
212.2288255337
 30
0.0
 10
117.3210995982
 20
211.669286875
 30
0.0
 10
117.0789808684
 20
210.8647092026
 30
0.0
 10
116.691161145
 20
210.1208709089
 30
0.0
 10
116.1633264259
 20
209.469206719
 30
0.0
 10
115.5152016882
 20
208.9357147785
 30
0.0
 10
114.5288206193
 20
208.4096114791
 30
0.0
 10
113.1283926916
 20
208.1231097766
 30
0.0
 10
111.7277234206
 20
208.4091862898
 30
0.0
 10
110.7416067347
 20
208.9358157171
 30
0.0
 10
110.0936871046
 20
209.469515411
 30
0.0
 10
109.5656831753
 20
210.1209863186
 30
0.0
 10
109.177331727
 20
210.8645770729
 30
0.0
 10
108.9355833589
 20
211.6693134784
 30
0.0
 10
108.8847858368
 20
212.22882191
 30
0.0
 10
108.8862857322
 20
212.5078811976
 30
0.0
  0
LINE
  5
340
100
AcDbEntity
  8
0
100
AcDbLine
 62
7
  6
CONTINUOUS
 10
122.8034436622
 20
178.0369705509
 11
122.6345187611
 21
177.5307977114
  0
LINE
  5
341
100
AcDbEntity
  8
0
100
AcDbLine
 62
7
  6
CONTINUOUS
 10
103.6221730821
 20
177.5307977114
 11
103.453248181
 21
178.0369705509
  0
SPLINE
  5
342
100
AcDbEntity
  8
0
100
AcDbSpline
 62
7
  6
CONTINUOUS
 70
0
 71
3
 72
9
 73
5
 74
0
 42
0.0000001
 43
0.0000001
 44
0.0000000001
 40
0.0
 40
0.0
 40
0.0
 40
0.0
 40
0.5041633722
 40
1.0
 40
1.0
 40
1.0
 40
1.0
 10
106.8580067383
 20
229.8584948384
 30
0.0
 10
106.9528494082
 20
229.6848853142
 30
0.0
 10
107.2118542021
 20
229.374381938
 30
0.0
 10
107.572464824
 20
229.1911861336
 30
0.0
 10
107.7599949015
 20
229.1393611733
 30
0.0
  0
SPLINE
  5
343
100
AcDbEntity
  8
0
100
AcDbSpline
 62
7
  6
CONTINUOUS
 70
0
 71
3
 72
9
 73
5
 74
0
 42
0.0000001
 43
0.0000001
 44
0.0000000001
 40
0.0
 40
0.0
 40
0.0
 40
0.0
 40
0.4958366278
 40
1.0
 40
1.0
 40
1.0
 40
1.0
 10
118.4966969417
 20
229.1393611733
 30
0.0
 10
118.6842270191
 20
229.1911861336
 30
0.0
 10
119.0448376411
 20
229.374381938
 30
0.0
 10
119.3038424349
 20
229.6848853142
 30
0.0
 10
119.3986851048
 20
229.8584948384
 30
0.0
  0
ELLIPSE
  5
344
100
AcDbEntity
  8
0
100
AcDbEllipse
 62
7
  6
CONTINUOUS
 10
113.1283459216
 20
145.3176704609
 30
0.0
 11
-22.2738636074
 21
53.7738636074
 31
0.0
 40
0.4142135624
 41
-1.0975907339
 42
-1.0909839963
  0
ELLIPSE
  5
345
100
AcDbEntity
  8
0
100
AcDbEllipse
 62
7
  6
CONTINUOUS
 10
113.1283459216
 20
145.3176704609
 30
0.0
 11
22.2738636074
 21
53.7738636074
 31
0.0
 40
0.4142135624
 41
1.0909839963
 42
1.0975907339
  0
ENDSEC
  0
SECTION
  2
OBJECTS
  0
DICTIONARY
  5
C
100
AcDbDictionary
280
0
281
1
  3
ACAD_GROUP
350
D
  3
ACAD_MLINESTYLE
350
17
  3
ACAD_LAYOUT
350
1A
  3
ACAD_PLOTSETTINGS
350
19
  3
ACAD_PLOTSTYLENAME
350
E
  3
ACAD_TABLESTYLE
350
       346
  0
DICTIONARY
  5
D
102
{ACAD_REACTORS
330
C
102
}
100
AcDbDictionary
280
0
281
1
  0
ACDBDICTIONARYWDFLT
  5
E
102
{ACAD_REACTORS
330
C
102
}
100
AcDbDictionary
281
1
  3
Normal
350
F
100
AcDbDictionaryWithDefault
340
F
  0
DICTIONARY
  5
17
102
{ACAD_REACTORS
330
C
102
}
100
AcDbDictionary
280
0
281
1
  3
Standard
350
18
  0
DICTIONARY
  5
346
330
C
100
AcDbDictionary
281
1
  3
Standard
350
       349
  3
Standard1
350
       34A
  0
DICTIONARY
  5
19
102
{ACAD_REACTORS
330
C
102
}
100
AcDbDictionary
281
1
  0
DICTIONARY
  5
1A
102
{ACAD_REACTORS
330
C
102
}
100
AcDbDictionary
281
1
  3
Model
350
347
  3
Layout1
350
348
  0
ACDBPLACEHOLDER
  5
F
102
{ACAD_REACTORS
330
E
102
}
  0
MLINESTYLE
  5
18
102
{ACAD_REACTORS
330
17
102
}
100
AcDbMlineStyle
  2
STANDARD
 70
0
  3

 62
256
 51
90.0
 52
90.0
 71
2
 49
0.5
 62
256
  6
BYLAYER
 49
-0.5
 62
256
  6
BYLAYER
  0
LAYOUT
  5
347
102
{ACAD_REACTORS
330
1A
102
}
100
AcDbPlotSettings
  1

  2
none_device
  4

  6

 40
0.0
 41
0.0
 42
0.0
 43
0.0
 44
210.0
 45
297.0
 46
0.0
 47
0.0
 48
0.0
 49
0.0
140
0.0
141
0.0
142
1.0
143
1.0
 70
1024
 72
1
 73
0
 74
0
  7

 75
0
147
1.0
148
0.0
149
0.0
100
AcDbLayout
  1
Model
 70
0
 71
0
 10
0.0
 20
0.0
 11
210.0
 21
297.0
 12
0.0
 22
0.0
 32
0.0
 14
0.0
 24
0.0
 34
0.0
 15
0.0
 25
0.0
 35
0.0
146
0.0
 13
0.0
 23
0.0
 33
0.0
 16
1.0
 26
0.0
 36
0.0
 17
0.0
 27
1.0
 37
0.0
 76
0
330
21A
345
0
346
0
  0
LAYOUT
  5
348
102
{ACAD_REACTORS
330
1A
102
}
100
AcDbPlotSettings
  1

  2
none_device
  4

  6

 40
0.0
 41
0.0
 42
0.0
 43
0.0
 44
210.0
 45
297.0
 46
0.0
 47
0.0
 48
0.0
 49
0.0
140
0.0
141
0.0
142
1.0
143
1.0
 70
0
 72
1
 73
0
 74
0
  7

 75
0
147
1.0
148
0.0
149
0.0
100
AcDbLayout
  1
Layout1
 70
0
 71
1
 10
0.0
 20
0.0
 11
210.0
 21
297.0
 12
0.0
 22
0.0
 32
0.0
 14
0.0
 24
0.0
 34
0.0
 15
0.0
 25
0.0
 35
0.0
146
0.0
 13
0.0
 23
0.0
 33
0.0
 16
1.0
 26
0.0
 36
0.0
 17
0.0
 27
1.0
 37
0.0
 76
0
330
21B
345
0
346
0
  0
TABLESTYLE
  5
349
102
{ACAD_REACTORS
330
346
102
}
330
346
100
AcDbTableStyle
  3
Standard
 70
0
 71
0
 40
0.06
 41
0.06
280
1
281
1
  7
Standard
140
0.18
170
1
 62
0
 63
7
283
0
  7
Standard
140
0.18
170
1
 62
0
 63
7
283
0
  7
Standard
140
0.18
170
1
 62
0
 63
7
283
0
  0
TABLESTYLE
  5
34A
102
{ACAD_REACTORS
330
346
330
28D
102
}
330
346
100
AcDbTableStyle
  3
Standard1
 70
1
 71
0
 40
0.06
 41
0.06
280
1
281
1
  7
Standard
140
0.18
170
1
 62
0
 63
7
283
0
  7
Standard
140
0.18
170
1
 62
0
 63
7
283
0
  7
Standard
140
0.18
170
1
 62
0
 63
7
283
0
  0
ENDSEC
  0
EOF
