  0
SECTION
  2
HEADER
  9
$ACADVER
  1
AC1027
  9
$ACADMAINTVER
 70
   125
  9
$DWGCODEPAGE
  3
ANSI_1252
  9
$LASTSAVEDBY
  1
046
  9
$REQUIREDVERSIONS
160
                 0
  9
$INSBASE
 10
0.0
 20
0.0
 30
0.0
  9
$EXTMIN
 10
-0.0064082024693448
 20
-0.0090630292066862
 30
-0.0015258207003583
  9
$EXTMAX
 10
210.0064091803581
 20
297.0090644122207
 30
0.0000000349246037
  9
$LIMMIN
 10
0.0
 20
0.0
  9
$LIMMAX
 10
210.0
 20
297.0
  9
$ORTHOMODE
 70
     0
  9
$REGENMODE
 70
     1
  9
$FILLMODE
 70
     1
  9
$QTEXTMODE
 70
     0
  9
$MIRRTEXT
 70
     0
  9
$LTSCALE
 40
19.36
  9
$ATTMODE
 70
     1
  9
$TEXTSIZE
 40
0.2
  9
$TRACEWID
 40
0.05
  9
$TEXTSTYLE
  7
STANDARD
  9
$CLAYER
  8
0
  9
$CELTYPE
  6
BYLAYER
  9
$CECOLOR
 62
   256
  9
$CELTSCALE
 40
1.0
  9
$DISPSILH
 70
     0
  9
$DIMSCALE
 40
1.0
  9
$DIMASZ
 40
4.759999999999999
  9
$DIMEXO
 40
0.1
  9
$DIMDLI
 40
13.376
  9
$DIMRND
 40
0.0
  9
$DIMDLE
 40
0.0
  9
$DIMEXE
 40
1.0
  9
$DIMTP
 40
0.01
  9
$DIMTM
 40
0.01
  9
$DIMTXT
 40
1.5
  9
$DIMCEN
 40
3.168
  9
$DIMTSZ
 40
0.0
  9
$DIMTOL
 70
     1
  9
$DIMLIM
 70
     0
  9
$DIMTIH
 70
     1
  9
$DIMTOH
 70
     1
  9
$DIMSE1
 70
     0
  9
$DIMSE2
 70
     0
  9
$DIMTAD
 70
     0
  9
$DIMZIN
 70
     0
  9
$DIMBLK
  1
_FILLED
  9
$DIMASO
 70
     1
  9
$DIMSHO
 70
     1
  9
$DIMPOST
  1

  9
$DIMAPOST
  1

  9
$DIMALT
 70
     0
  9
$DIMALTD
 70
     2
  9
$DIMALTF
 40
0.0393700787
  9
$DIMLFAC
 40
1.0
  9
$DIMTOFL
 70
     0
  9
$DIMTVP
 40
0.0
  9
$DIMTIX
 70
     0
  9
$DIMSOXD
 70
     0
  9
$DIMSAH
 70
     0
  9
$DIMBLK1
  1

  9
$DIMBLK2
  1

  9
$DIMSTYLE
  2
STANDARD
  9
$DIMCLRD
 70
     0
  9
$DIMCLRE
 70
     0
  9
$DIMCLRT
 70
     0
  9
$DIMTFAC
 40
1.0
  9
$DIMGAP
 40
0.625
  9
$DIMJUST
 70
     0
  9
$DIMSD1
 70
     0
  9
$DIMSD2
 70
     0
  9
$DIMTOLJ
 70
     1
  9
$DIMTZIN
 70
     0
  9
$DIMALTZ
 70
     0
  9
$DIMALTTZ
 70
     0
  9
$DIMUPT
 70
     0
  9
$DIMDEC
 70
     4
  9
$DIMTDEC
 70
     4
  9
$DIMALTU
 70
     2
  9
$DIMALTTD
 70
     2
  9
$DIMTXSTY
  7
STANDARD
  9
$DIMAUNIT
 70
     0
  9
$DIMADEC
 70
     0
  9
$DIMALTRND
 40
0.0
  9
$DIMAZIN
 70
     0
  9
$DIMDSEP
 70
    46
  9
$DIMATFIT
 70
     3
  9
$DIMFRAC
 70
     0
  9
$DIMLDRBLK
  1

  9
$DIMLUNIT
 70
     2
  9
$DIMLWD
 70
    -2
  9
$DIMLWE
 70
    -2
  9
$DIMTMOVE
 70
     0
  9
$DIMFXL
 40
1.0
  9
$DIMFXLON
 70
     0
  9
$DIMJOGANG
 40
0.7853981633974483
  9
$DIMTFILL
 70
     0
  9
$DIMTFILLCLR
 70
     0
  9
$DIMARCSYM
 70
     0
  9
$DIMLTYPE
  6

  9
$DIMLTEX1
  6

  9
$DIMLTEX2
  6

  9
$DIMTXTDIRECTION
 70
     0
  9
$LUNITS
 70
     2
  9
$LUPREC
 70
     4
  9
$SKETCHINC
 40
0.1
  9
$FILLETRAD
 40
0.0
  9
$AUNITS
 70
     0
  9
$AUPREC
 70
     0
  9
$MENU
  1
.
  9
$ELEVATION
 40
0.0
  9
$PELEVATION
 40
0.0
  9
$THICKNESS
 40
0.0
  9
$LIMCHECK
 70
     0
  9
$CHAMFERA
 40
0.0
  9
$CHAMFERB
 40
0.0
  9
$CHAMFERC
 40
0.0
  9
$CHAMFERD
 40
0.0
  9
$SKPOLY
 70
     0
  9
$TDCREATE
 40
2459376.711759260
  9
$TDUCREATE
 40
2459376.628425926
  9
$TDUPDATE
 40
2459376.712465278
  9
$TDUUPDATE
 40
2459376.629131944
  9
$TDINDWG
 40
0.0007060185
  9
$TDUSRTIMER
 40
0.0007060185
  9
$USRTIMER
 70
     1
  9
$ANGBASE
 50
0.0
  9
$ANGDIR
 70
     0
  9
$PDMODE
 70
     3
  9
$PDSIZE
 40
0.3125
  9
$PLINEWID
 40
0.0
  9
$SPLFRAME
 70
     0
  9
$SPLINETYPE
 70
     6
  9
$SPLINESEGS
 70
     8
  9
$HANDSEED
  5
3AD
  9
$SURFTAB1
 70
     6
  9
$SURFTAB2
 70
     6
  9
$SURFTYPE
 70
     6
  9
$SURFU
 70
     6
  9
$SURFV
 70
     6
  9
$UCSBASE
  2

  9
$UCSNAME
  2

  9
$UCSORG
 10
0.0
 20
0.0
 30
0.0
  9
$UCSXDIR
 10
1.0
 20
0.0
 30
0.0
  9
$UCSYDIR
 10
0.0
 20
1.0
 30
0.0
  9
$UCSORTHOREF
  2

  9
$UCSORTHOVIEW
 70
     0
  9
$UCSORGTOP
 10
0.0
 20
0.0
 30
0.0
  9
$UCSORGBOTTOM
 10
0.0
 20
0.0
 30
0.0
  9
$UCSORGLEFT
 10
0.0
 20
0.0
 30
0.0
  9
$UCSORGRIGHT
 10
0.0
 20
0.0
 30
0.0
  9
$UCSORGFRONT
 10
0.0
 20
0.0
 30
0.0
  9
$UCSORGBACK
 10
0.0
 20
0.0
 30
0.0
  9
$PUCSBASE
  2

  9
$PUCSNAME
  2

  9
$PUCSORG
 10
0.0
 20
0.0
 30
0.0
  9
$PUCSXDIR
 10
1.0
 20
0.0
 30
0.0
  9
$PUCSYDIR
 10
0.0
 20
1.0
 30
0.0
  9
$PUCSORTHOREF
  2

  9
$PUCSORTHOVIEW
 70
     0
  9
$PUCSORGTOP
 10
0.0
 20
0.0
 30
0.0
  9
$PUCSORGBOTTOM
 10
0.0
 20
0.0
 30
0.0
  9
$PUCSORGLEFT
 10
0.0
 20
0.0
 30
0.0
  9
$PUCSORGRIGHT
 10
0.0
 20
0.0
 30
0.0
  9
$PUCSORGFRONT
 10
0.0
 20
0.0
 30
0.0
  9
$PUCSORGBACK
 10
0.0
 20
0.0
 30
0.0
  9
$USERI1
 70
     0
  9
$USERI2
 70
     0
  9
$USERI3
 70
     0
  9
$USERI4
 70
     0
  9
$USERI5
 70
     0
  9
$USERR1
 40
0.0
  9
$USERR2
 40
0.0
  9
$USERR3
 40
0.0
  9
$USERR4
 40
0.0
  9
$USERR5
 40
0.0
  9
$WORLDVIEW
 70
     1
  9
$SHADEDGE
 70
     3
  9
$SHADEDIF
 70
    70
  9
$TILEMODE
 70
     1
  9
$MAXACTVP
 70
    64
  9
$PINSBASE
 10
0.0
 20
0.0
 30
0.0
  9
$PLIMCHECK
 70
     0
  9
$PEXTMIN
 10
1.000000000000000E+20
 20
1.000000000000000E+20
 30
1.000000000000000E+20
  9
$PEXTMAX
 10
-1.000000000000000E+20
 20
-1.000000000000000E+20
 30
-1.000000000000000E+20
  9
$PLIMMIN
 10
0.0
 20
0.0
  9
$PLIMMAX
 10
12.0
 20
9.0
  9
$UNITMODE
 70
     0
  9
$VISRETAIN
 70
     1
  9
$PLINEGEN
 70
     0
  9
$PSLTSCALE
 70
     1
  9
$TREEDEPTH
 70
  3020
  9
$CMLSTYLE
  2
Standard
  9
$CMLJUST
 70
     0
  9
$CMLSCALE
 40
1.0
  9
$PROXYGRAPHICS
 70
     1
  9
$MEASUREMENT
 70
     1
  9
$CELWEIGHT
370
    -1
  9
$ENDCAPS
280
     0
  9
$JOINSTYLE
280
     0
  9
$LWDISPLAY
290
     0
  9
$INSUNITS
 70
     4
  9
$HYPERLINKBASE
  1

  9
$STYLESHEET
  1

  9
$XEDIT
290
     1
  9
$CEPSNTYPE
380
     0
  9
$PSTYLEMODE
290
     1
  9
$FINGERPRINTGUID
  2
{2E812F12-5631-6147-BB5B-349832221093}
  9
$VERSIONGUID
  2
{FC82D5F1-F6F4-C440-A376-1407DB9D10A7}
  9
$EXTNAMES
290
     1
  9
$PSVPSCALE
 40
0.0
  9
$OLESTARTUP
290
     0
  9
$SORTENTS
280
   127
  9
$INDEXCTL
280
     0
  9
$HIDETEXT
280
     1
  9
$XCLIPFRAME
280
     2
  9
$HALOGAP
280
     0
  9
$OBSCOLOR
 70
   257
  9
$OBSLTYPE
280
     0
  9
$INTERSECTIONDISPLAY
280
     0
  9
$INTERSECTIONCOLOR
 70
   257
  9
$DIMASSOC
280
     2
  9
$PROJECTNAME
  1

  9
$CAMERADISPLAY
290
     0
  9
$LENSLENGTH
 40
50.0
  9
$CAMERAHEIGHT
 40
0.0
  9
$STEPSPERSEC
 40
2.0
  9
$STEPSIZE
 40
6.0
  9
$3DDWFPREC
 40
2.0
  9
$PSOLWIDTH
 40
0.25
  9
$PSOLHEIGHT
 40
4.0
  9
$LOFTANG1
 40
1.570796326794896
  9
$LOFTANG2
 40
1.570796326794896
  9
$LOFTMAG1
 40
0.0
  9
$LOFTMAG2
 40
0.0
  9
$LOFTPARAM
 70
     7
  9
$LOFTNORMALS
280
     1
  9
$LATITUDE
 40
37.795
  9
$LONGITUDE
 40
-122.394
  9
$NORTHDIRECTION
 40
0.0
  9
$TIMEZONE
 70
 -8000
  9
$LIGHTGLYPHDISPLAY
280
     1
  9
$TILEMODELIGHTSYNCH
280
     1
  9
$CMATERIAL
347
34D
  9
$SOLIDHIST
280
     0
  9
$SHOWHIST
280
     1
  9
$DWFFRAME
280
     2
  9
$DGNFRAME
280
     0
  9
$REALWORLDSCALE
290
     1
  9
$INTERFERECOLOR
 62
     1
  9
$INTERFEREOBJVS
345
36F
  9
$INTERFEREVPVS
346
36C
  9
$CSHADOW
280
     0
  9
$SHADOWPLANELOCATION
 40
0.0
  0
ENDSEC
  0
SECTION
  2
CLASSES
  0
CLASS
  1
ACDBDICTIONARYWDFLT
  2
AcDbDictionaryWithDefault
  3
ObjectDBX Classes
 90
        0
 91
        1
280
     0
281
     0
  0
CLASS
  1
TABLESTYLE
  2
AcDbTableStyle
  3
ObjectDBX Classes
 90
     4095
 91
        2
280
     0
281
     0
  0
CLASS
  1
ACAD_TABLE
  2
AcDbTable
  3
ObjectDBX Classes
 90
     1025
 91
        1
280
     0
281
     1
  0
CLASS
  1
MATERIAL
  2
AcDbMaterial
  3
ObjectDBX Classes
 90
     1153
 91
        3
280
     0
281
     0
  0
CLASS
  1
VISUALSTYLE
  2
AcDbVisualStyle
  3
ObjectDBX Classes
 90
     4095
 91
       24
280
     0
281
     0
  0
CLASS
  1
SCALE
  2
AcDbScale
  3
ObjectDBX Classes
 90
     1153
 91
       17
280
     0
281
     0
  0
CLASS
  1
MLEADERSTYLE
  2
AcDbMLeaderStyle
  3
ACDB_MLEADERSTYLE_CLASS
 90
     4095
 91
        1
280
     0
281
     0
  0
CLASS
  1
ACDBSECTIONVIEWSTYLE
  2
AcDbSectionViewStyle
  3
ObjectDBX Classes
 90
     1025
 91
        1
280
     0
281
     0
  0
CLASS
  1
ACDBDETAILVIEWSTYLE
  2
AcDbDetailViewStyle
  3
ObjectDBX Classes
 90
     1025
 91
        1
280
     0
281
     0
  0
CLASS
  1
DICTIONARYVAR
  2
AcDbDictionaryVar
  3
ObjectDBX Classes
 90
        0
 91
        5
280
     0
281
     0
  0
CLASS
  1
CELLSTYLEMAP
  2
AcDbCellStyleMap
  3
ObjectDBX Classes
 90
     1152
 91
        2
280
     0
281
     0
  0
ENDSEC
  0
SECTION
  2
TABLES
  0
TABLE
  2
VPORT
  5
8
330
0
100
AcDbSymbolTable
 70
     1
1001
ACAD
1000
DbSaveVer
1071
      224
  0
VPORT
  5
1F4
330
8
100
AcDbSymbolTableRecord
100
AcDbViewportTableRecord
  2
*ACTIVE
 70
     0
 10
0.0
 20
0.0
 11
1.0
 21
1.0
 12
105.0000004889444
 22
148.500000691507
 13
0.0
 23
0.0
 14
1.0
 24
1.0
 15
0.0
 25
0.0
 16
0.0
 26
0.0
 36
1.0
 17
0.0
 27
0.0
 37
0.0
 40
299.2182617187713
 41
2.362175525339925
 42
50.0
 43
0.0
 44
0.0
 50
0.0
 51
0.0
 71
     0
 72
   100
 73
     1
 74
     1
 75
     0
 76
     0
 77
     0
 78
     0
281
     0
 65
     1
110
0.0
120
0.0
130
0.0
111
1.0
121
0.0
131
0.0
112
0.0
122
1.0
132
0.0
 79
     0
146
0.0
348
36B
 60
     3
 61
     5
292
     1
282
     1
141
0.0
142
0.0
 63
   250
421
  3355443
1001
ACAD_NAV_VCDISPLAY
1070
     3
  0
ENDTAB
  0
TABLE
  2
LTYPE
  5
5
330
0
100
AcDbSymbolTable
 70
     6
  0
LTYPE
  5
14
330
5
100
AcDbSymbolTableRecord
100
AcDbLinetypeTableRecord
  2
BYBLOCK
 70
     0
  3

 72
    65
 73
     0
 40
0.0
  0
LTYPE
  5
15
330
5
100
AcDbSymbolTableRecord
100
AcDbLinetypeTableRecord
  2
BYLAYER
 70
     0
  3

 72
    65
 73
     0
 40
0.0
  0
LTYPE
  5
16
330
5
100
AcDbSymbolTableRecord
100
AcDbLinetypeTableRecord
  2
CONTINUOUS
 70
     0
  3
Solid line
 72
    65
 73
     0
 40
0.0
  0
LTYPE
  5
1F5
330
5
100
AcDbSymbolTableRecord
100
AcDbLinetypeTableRecord
  2
CENTER
 70
     0
  3
____ _ ____ _ ____ _ ____ _ ____ _ ____ _ ____
 72
    65
 73
     4
 40
0.6
 49
0.375
 74
     0
 49
-0.075
 74
     0
 49
0.075
 74
     0
 49
-0.075
 74
     0
  0
LTYPE
  5
1F6
330
5
100
AcDbSymbolTableRecord
100
AcDbLinetypeTableRecord
  2
HIDDEN
 70
     0
  3
- - - - - - - - - - - - - - - - - - - -
 72
    65
 73
     2
 40
0.2
 49
0.1
 74
     0
 49
-0.1
 74
     0
  0
LTYPE
  5
1F7
330
5
100
AcDbSymbolTableRecord
100
AcDbLinetypeTableRecord
  2
PHANTOM
 70
     0
  3
_____ _ _ _____ _ _ _____ _ _ _____
 72
    65
 73
     6
 40
0.8
 49
0.45
 74
     0
 49
-0.05
 74
     0
 49
0.1
 74
     0
 49
-0.05
 74
     0
 49
0.1
 74
     0
 49
-0.05
 74
     0
  0
LTYPE
  5
1F8
330
5
100
AcDbSymbolTableRecord
100
AcDbLinetypeTableRecord
  2
DOT
 70
     0
  3
. . . . . . . . . . . . . . . . . . . .
 72
    65
 73
     2
 40
0.2
 49
0.1
 74
     0
 49
-0.1
 74
     0
  0
LTYPE
  5
1F9
330
5
100
AcDbSymbolTableRecord
100
AcDbLinetypeTableRecord
  2
DASHED
 70
     0
  3
- - - - - - - - - - - - - - - - - - - -
 72
    65
 73
     2
 40
0.2
 49
0.1
 74
     0
 49
-0.1
 74
     0
  0
ENDTAB
  0
TABLE
  2
LAYER
  5
2
330
0
100
AcDbSymbolTable
 70
    24
  0
LAYER
  5
10
330
2
100
AcDbSymbolTableRecord
100
AcDbLayerTableRecord
  2
0
 70
     0
 62
     7
  6
CONTINUOUS
370
    -3
390
F
347
35D
348
0
  0
LAYER
  5
1FA
330
2
100
AcDbSymbolTableRecord
100
AcDbLayerTableRecord
  2
DEFAULT_1
 70
     0
 62
     7
  6
CENTER
370
    -3
390
F
347
35D
348
0
  0
LAYER
  5
1FB
330
2
100
AcDbSymbolTableRecord
100
AcDbLayerTableRecord
  2
DEFAULT_2
 70
     0
 62
     8
  6
HIDDEN
370
    -3
390
F
347
35D
348
0
  0
LAYER
  5
1FC
330
2
100
AcDbSymbolTableRecord
100
AcDbLayerTableRecord
  2
DEFAULT_3
 70
     0
 62
     7
  6
PHANTOM
370
    -3
390
F
347
35D
348
0
  0
LAYER
  5
1FD
330
2
100
AcDbSymbolTableRecord
100
AcDbLayerTableRecord
  2
0_COMPONENTS
 70
     0
 62
     7
  6
CONTINUOUS
370
    -3
390
F
347
35D
348
0
  0
LAYER
  5
1FE
330
2
100
AcDbSymbolTableRecord
100
AcDbLayerTableRecord
  2
1_ALL_PLANES
 70
     0
 62
     7
  6
CONTINUOUS
370
    -3
390
F
347
35D
348
0
  0
LAYER
  5
1FF
330
2
100
AcDbSymbolTableRecord
100
AcDbLayerTableRecord
  2
1__DEF_ASM_PLN
 70
     0
 62
     7
  6
CONTINUOUS
370
    -3
390
F
347
35D
348
0
  0
LAYER
  5
200
330
2
100
AcDbSymbolTableRecord
100
AcDbLayerTableRecord
  2
1__DEF_PLANES
 70
     0
 62
     7
  6
CONTINUOUS
370
    -3
390
F
347
35D
348
0
  0
LAYER
  5
201
330
2
100
AcDbSymbolTableRecord
100
AcDbLayerTableRecord
  2
1__DRAFT_DIMS
 70
     0
 62
     7
  6
CONTINUOUS
370
    -3
390
F
347
35D
348
0
  0
LAYER
  5
202
330
2
100
AcDbSymbolTableRecord
100
AcDbLayerTableRecord
  2
2_ALL_CSYS
 70
     0
 62
     7
  6
CONTINUOUS
370
    -3
390
F
347
35D
348
0
  0
LAYER
  5
203
330
2
100
AcDbSymbolTableRecord
100
AcDbLayerTableRecord
  2
2_ALL_NOTES
 70
     0
 62
     7
  6
CONTINUOUS
370
    -3
390
F
347
35D
348
0
  0
LAYER
  5
204
330
2
100
AcDbSymbolTableRecord
100
AcDbLayerTableRecord
  2
2__DEF_ASM_CSYS
 70
     0
 62
     7
  6
CONTINUOUS
370
    -3
390
F
347
35D
348
0
  0
LAYER
  5
205
330
2
100
AcDbSymbolTableRecord
100
AcDbLayerTableRecord
  2
2__DEF_CSYS
 70
     0
 62
     7
  6
CONTINUOUS
370
    -3
390
F
347
35D
348
0
  0
LAYER
  5
206
330
2
100
AcDbSymbolTableRecord
100
AcDbLayerTableRecord
  2
3_ALL_AXES
 70
     0
 62
     7
  6
CONTINUOUS
370
    -3
390
F
347
35D
348
0
  0
LAYER
  5
207
330
2
100
AcDbSymbolTableRecord
100
AcDbLayerTableRecord
  2
4_ALL_POINTS
 70
     0
 62
     7
  6
CONTINUOUS
370
    -3
390
F
347
35D
348
0
  0
LAYER
  5
208
330
2
100
AcDbSymbolTableRecord
100
AcDbLayerTableRecord
  2
5_ALL_CURVES
 70
     0
 62
     7
  6
CONTINUOUS
370
    -3
390
F
347
35D
348
0
  0
LAYER
  5
209
330
2
100
AcDbSymbolTableRecord
100
AcDbLayerTableRecord
  2
5_ALL_GTOLS(FREE)
 70
     0
 62
     7
  6
CONTINUOUS
370
    -3
390
F
347
35D
348
0
  0
LAYER
  5
20A
330
2
100
AcDbSymbolTableRecord
100
AcDbLayerTableRecord
  2
6_ALL_SURFS
 70
     0
 62
     7
  6
CONTINUOUS
370
    -3
390
F
347
35D
348
0
  0
LAYER
  5
20B
330
2
100
AcDbSymbolTableRecord
100
AcDbLayerTableRecord
  2
CURVE
 70
     0
 62
     7
  6
CONTINUOUS
370
    -3
390
F
347
35D
348
0
  0
LAYER
  5
20C
330
2
100
AcDbSymbolTableRecord
100
AcDbLayerTableRecord
  2
GIANNI_ASSI
 70
     0
 62
     7
  6
CONTINUOUS
370
    -3
390
F
347
35D
348
0
  0
LAYER
  5
20D
330
2
100
AcDbSymbolTableRecord
100
AcDbLayerTableRecord
  2
LAY0001
 70
     0
 62
     7
  6
CONTINUOUS
370
    -3
390
F
347
35D
348
0
  0
LAYER
  5
20E
330
2
100
AcDbSymbolTableRecord
100
AcDbLayerTableRecord
  2
PIANI_INUTILI
 70
     0
 62
     7
  6
CONTINUOUS
370
    -3
390
F
347
35D
348
0
  0
LAYER
  5
20F
330
2
100
AcDbSymbolTableRecord
100
AcDbLayerTableRecord
  2
PIANI_SCORD
 70
     0
 62
     7
  6
CONTINUOUS
370
    -3
390
F
347
35D
348
0
  0
LAYER
  5
210
330
2
100
AcDbSymbolTableRecord
100
AcDbLayerTableRecord
  2
XSEC_DATUMS
 70
     0
 62
     7
  6
CONTINUOUS
370
    -3
390
F
347
35D
348
0
  0
ENDTAB
  0
TABLE
  2
STYLE
  5
3
330
0
100
AcDbSymbolTable
 70
     8
  0
STYLE
  5
11
330
3
100
AcDbSymbolTableRecord
100
AcDbTextStyleTableRecord
  2
STANDARD
 70
     0
 40
0.0
 41
1.199999999999999
 50
0.0
 71
     0
 42
0.2
  3
txt
  4

  0
STYLE
  5
211
330
3
100
AcDbSymbolTableRecord
100
AcDbTextStyleTableRecord
  2
TEXTSTYLE_1
 70
     0
 40
0.0
 41
0.8
 50
0.0
 71
     0
 42
0.2
  3
gdt
  4

  0
STYLE
  5
212
330
3
100
AcDbSymbolTableRecord
100
AcDbTextStyleTableRecord
  2
TEXTSTYLE_2
 70
     0
 40
0.0
 41
1.0
 50
0.0
 71
     0
 42
0.2
  3
txt
  4

  0
STYLE
  5
213
330
3
100
AcDbSymbolTableRecord
100
AcDbTextStyleTableRecord
  2
TEXTSTYLE_3
 70
     0
 40
0.0
 41
1.0
 50
0.0
 71
     0
 42
0.2
  3
txt
  4

  0
STYLE
  5
214
330
3
100
AcDbSymbolTableRecord
100
AcDbTextStyleTableRecord
  2
TEXTSTYLE_4
 70
     0
 40
0.0
 41
1.0
 50
0.0
 71
     0
 42
0.2
  3
txt
  4

  0
STYLE
  5
215
330
3
100
AcDbSymbolTableRecord
100
AcDbTextStyleTableRecord
  2
TEXTSTYLE_5
 70
     0
 40
0.0
 41
1.0
 50
0.0
 71
     0
 42
0.2
  3
bluprnt.ttf
  4

  0
STYLE
  5
216
330
3
100
AcDbSymbolTableRecord
100
AcDbTextStyleTableRecord
  2
TEXTSTYLE_6
 70
     0
 40
0.0
 41
1.0
 50
0.0
 71
     0
 42
0.2
  3
bluprntb.ttf
  4

  0
STYLE
  5
217
330
3
100
AcDbSymbolTableRecord
100
AcDbTextStyleTableRecord
  2
TEXTSTYLE_7
 70
     0
 40
0.0
 41
1.0
 50
0.0
 71
     0
 42
0.2
  3
gdt
  4

  0
ENDTAB
  0
TABLE
  2
VIEW
  5
6
330
0
100
AcDbSymbolTable
 70
     0
  0
ENDTAB
  0
TABLE
  2
UCS
  5
7
330
0
100
AcDbSymbolTable
 70
     0
  0
ENDTAB
  0
TABLE
  2
APPID
  5
9
330
0
100
AcDbSymbolTable
 70
     2
  0
APPID
  5
218
330
9
100
AcDbSymbolTableRecord
100
AcDbRegAppTableRecord
  2
ACAD
 70
     0
  0
APPID
  5
3A3
330
9
100
AcDbSymbolTableRecord
100
AcDbRegAppTableRecord
  2
ACAD_NAV_VCDISPLAY
 70
     0
  0
ENDTAB
  0
TABLE
  2
DIMSTYLE
  5
A
330
0
100
AcDbSymbolTable
 70
     3
100
AcDbDimStyleTable
 71
     0
  0
DIMSTYLE
105
221
330
A
100
AcDbSymbolTableRecord
100
AcDbDimStyleTableRecord
  2
STANDARD
 70
     0
 41
4.759999999999999
 42
0.1
 44
1.0
 47
0.01
 48
0.01
 71
     1
 73
     0
 74
     0
 77
     1
 78
     8
 79
     2
140
1.5
147
0.625
178
     5
179
     3
271
     3
272
     3
284
     8
340
11
341
21B
342
21B
343
21B
344
21B
  0
DIMSTYLE
105
222
102
{ACAD_REACTORS
330
27C
330
27E
102
}
330
A
100
AcDbSymbolTableRecord
100
AcDbDimStyleTableRecord
  2
DIMSTYLE_1
 70
     0
 41
4.759999999999999
 42
0.1
 44
1.0
 47
0.01
 48
0.01
 73
     0
 74
     0
 77
     1
 78
     8
 79
     2
140
1.5
147
0.375
178
     5
179
     3
271
     0
272
     0
284
     8
340
11
341
21B
342
21B
343
21B
344
21B
  0
DIMSTYLE
105
223
102
{ACAD_REACTORS
330
27D
330
27F
102
}
330
A
100
AcDbSymbolTableRecord
100
AcDbDimStyleTableRecord
  2
DIMSTYLE_2
 70
     0
 41
4.759999999999999
 42
0.1
 44
1.0
 47
0.01
 48
0.01
 73
     0
 74
     0
 77
     1
 78
     8
 79
     2
140
1.5
147
0.375
178
     5
179
     3
271
     3
272
     3
284
     8
340
11
341
21B
342
21B
343
21B
344
21B
  0
ENDTAB
  0
TABLE
  2
BLOCK_RECORD
  5
1
330
0
100
AcDbSymbolTable
 70
     6
  0
BLOCK_RECORD
  5
219
330
1
100
AcDbSymbolTableRecord
100
AcDbBlockTableRecord
  2
*Model_Space
340
346
 70
     0
280
     1
281
     0
  0
BLOCK_RECORD
  5
21A
330
1
100
AcDbSymbolTableRecord
100
AcDbBlockTableRecord
  2
*Paper_Space
340
347
 70
     0
280
     1
281
     0
  0
BLOCK_RECORD
  5
21B
330
1
100
AcDbSymbolTableRecord
100
AcDbBlockTableRecord
  2
_FILLED
340
0
102
{BLKREFS
331
23F
331
240
331
246
331
247
331
22D
331
22E
331
236
331
237
102
}
 70
     0
280
     1
281
     0
  0
BLOCK_RECORD
  5
21C
330
1
100
AcDbSymbolTableRecord
100
AcDbBlockTableRecord
  2
*D1
340
0
 70
     0
280
     1
281
     0
  0
BLOCK_RECORD
  5
21D
330
1
100
AcDbSymbolTableRecord
100
AcDbBlockTableRecord
  2
*D2
340
0
 70
     0
280
     1
281
     0
  0
BLOCK_RECORD
  5
21E
330
1
100
AcDbSymbolTableRecord
100
AcDbBlockTableRecord
  2
*D3
340
0
 70
     0
280
     1
281
     0
  0
BLOCK_RECORD
  5
21F
330
1
100
AcDbSymbolTableRecord
100
AcDbBlockTableRecord
  2
*D4
340
0
 70
     0
280
     1
281
     0
  0
BLOCK_RECORD
  5
220
330
1
100
AcDbSymbolTableRecord
100
AcDbBlockTableRecord
  2
*T5
340
0
102
{BLKREFS
331
280
102
}
 70
     0
280
     1
281
     0
  0
ENDTAB
  0
ENDSEC
  0
SECTION
  2
BLOCKS
  0
BLOCK
  5
20
330
219
100
AcDbEntity
  8
0
100
AcDbBlockBegin
  2
*Model_Space
 70
     0
 10
0.0
 20
0.0
 30
0.0
  3
*Model_Space
  1

  0
ENDBLK
  5
21
330
219
100
AcDbEntity
  8
0
100
AcDbBlockEnd
  0
BLOCK
  5
1C
330
21A
100
AcDbEntity
 67
     1
  8
0
100
AcDbBlockBegin
  2
*Paper_Space
 70
     0
 10
0.0
 20
0.0
 30
0.0
  3
*Paper_Space
  1

  0
ENDBLK
  5
1D
330
21A
100
AcDbEntity
 67
     1
  8
0
100
AcDbBlockEnd
  0
BLOCK
  5
224
330
21B
100
AcDbEntity
  8
0
100
AcDbBlockBegin
  2
_FILLED
 70
     0
 10
0.0
 20
0.0
 30
0.0
  3
_FILLED
  1

  0
SOLID
  5
225
330
21B
100
AcDbEntity
  8
0
  6
ByBlock
 62
     0
100
AcDbTrace
 10
0.0
 20
0.0
 30
0.0
 11
-1.0
 21
0.1050420168
 31
0.0
 12
-1.0
 22
-0.1050420168
 32
0.0
 13
-1.0
 23
-0.1050420168
 33
0.0
  0
ENDBLK
  5
226
330
21B
100
AcDbEntity
  8
0
  6
ByBlock
 62
     0
100
AcDbBlockEnd
  0
BLOCK
  5
227
330
21C
100
AcDbEntity
  8
0
  6
Continuous
 62
     2
100
AcDbBlockBegin
  2
*D1
 70
     1
 10
0.0
 20
0.0
 30
0.0
  3
*D1
  1

  0
MTEXT
  5
228
330
21C
100
AcDbEntity
  8
0
  6
Continuous
 62
     5
440
 16777216
100
AcDbMText
 10
113.3436709845
 20
84.53309632449999
 30
0.0
 40
1.5
 41
9.642857142899998
 46
0.0
 71
     2
 72
     1
  1
Ø50
 73
     2
 44
0.9
  0
LINE
  5
229
330
21C
100
AcDbEntity
  8
0
  6
Continuous
 62
     2
440
 16777216
100
AcDbLine
 10
88.0276199507
 20
115.0869705509
 30
0.0
 11
88.0276199507
 21
81.3902391817
 31
0.0
  0
LINE
  5
22A
330
21C
100
AcDbEntity
  8
0
  6
Continuous
 62
     2
440
 16777216
100
AcDbLine
 10
138.2276199507
 20
115.0869705509
 30
0.0
 11
138.2276199507
 21
81.3902391817
 31
0.0
  0
LINE
  5
22B
330
21C
100
AcDbEntity
  8
0
  6
Continuous
 62
     2
440
 16777216
100
AcDbLine
 10
88.0276199507
 20
82.3902391817
 30
0.0
 11
113.1276199507
 21
82.3902391817
 31
0.0
  0
LINE
  5
22C
330
21C
100
AcDbEntity
  8
0
  6
Continuous
 62
     2
440
 16777216
100
AcDbLine
 10
138.2276199507
 20
82.3902391817
 30
0.0
 11
113.1276199507
 21
82.3902391817
 31
0.0
  0
INSERT
  5
22D
330
21C
100
AcDbEntity
  8
0
  6
Continuous
 62
     2
440
 16777216
100
AcDbBlockReference
  2
_FILLED
 10
88.0276199507
 20
82.3902391817
 30
0.0
 41
4.759999999999999
 42
4.759999999999999
 43
4.759999999999999
 50
180.0
  0
INSERT
  5
22E
330
21C
100
AcDbEntity
  8
0
  6
Continuous
 62
     2
440
 16777216
100
AcDbBlockReference
  2
_FILLED
 10
138.2276199507
 20
82.3902391817
 30
0.0
 41
4.759999999999999
 42
4.759999999999999
 43
4.759999999999999
  0
ENDBLK
  5
22F
330
21C
100
AcDbEntity
  8
0
  6
ByBlock
 62
     0
100
AcDbBlockEnd
  0
BLOCK
  5
230
330
21D
100
AcDbEntity
  8
0
  6
Continuous
 62
     2
100
AcDbBlockBegin
  2
*D2
 70
     1
 10
0.0
 20
0.0
 30
0.0
  3
*D2
  1

  0
MTEXT
  5
231
330
21D
100
AcDbEntity
  8
0
  6
Continuous
 62
     5
440
 16777216
100
AcDbMText
 10
153.4135552156
 20
138.6869705509
 30
0.0
 40
1.5
 41
6.942857142899999
 46
0.0
 71
     2
 72
     1
  1
52
 11
0.0
 21
1.0
 31
0.0
 73
     2
 44
0.9
  0
LINE
  5
232
330
21D
100
AcDbEntity
  8
0
  6
Continuous
 62
     2
440
 16777216
100
AcDbLine
 10
137.8276199507
 20
164.6869705509
 30
0.0
 11
156.5564123584
 21
164.6869705509
 31
0.0
  0
LINE
  5
233
330
21D
100
AcDbEntity
  8
0
  6
Continuous
 62
     2
440
 16777216
100
AcDbLine
 10
136.5955691791
 20
112.6869705509
 30
0.0
 11
156.5564123584
 21
112.6869705509
 31
0.0
  0
LINE
  5
234
330
21D
100
AcDbEntity
  8
0
  6
Continuous
 62
     2
440
 16777216
100
AcDbLine
 10
155.5564123584
 20
164.6869705509
 30
0.0
 11
155.5564123584
 21
138.6869705509
 31
0.0
  0
LINE
  5
235
330
21D
100
AcDbEntity
  8
0
  6
Continuous
 62
     2
440
 16777216
100
AcDbLine
 10
155.5564123584
 20
112.6869705509
 30
0.0
 11
155.5564123584
 21
138.6869705509
 31
0.0
  0
INSERT
  5
236
330
21D
100
AcDbEntity
  8
0
  6
Continuous
 62
     2
440
 16777216
100
AcDbBlockReference
  2
_FILLED
 10
155.5564123584
 20
164.6869705509
 30
0.0
 41
4.759999999999999
 42
4.759999999999999
 43
4.759999999999999
 50
90.0
  0
INSERT
  5
237
330
21D
100
AcDbEntity
  8
0
  6
Continuous
 62
     2
440
 16777216
100
AcDbBlockReference
  2
_FILLED
 10
155.5564123584
 20
112.6869705509
 30
0.0
 41
4.759999999999999
 42
4.759999999999999
 43
4.759999999999999
 50
270.0
  0
ENDBLK
  5
238
330
21D
100
AcDbEntity
  8
0
  6
ByBlock
 62
     0
100
AcDbBlockEnd
  0
BLOCK
  5
239
330
21E
100
AcDbEntity
  8
4_ALL_POINTS
  6
Continuous
 62
     2
100
AcDbBlockBegin
  2
*D3
 70
     1
 10
0.0
 20
0.0
 30
0.0
  3
*D3
  1

  0
MTEXT
  5
23A
330
21E
100
AcDbEntity
  8
4_ALL_POINTS
  6
Continuous
 62
     5
440
 16777216
100
AcDbMText
 10
167.2640401886
 20
158.8837869774
 30
0.0
 40
1.5
 41
6.942857142899999
 46
0.0
 71
     2
 72
     1
  1
99
 11
0.0
 21
1.0
 31
0.0
 73
     2
 44
0.9
  0
LINE
  5
23B
330
21E
100
AcDbEntity
  8
4_ALL_POINTS
  6
Continuous
 62
     2
440
 16777216
100
AcDbLine
 10
139.383295341
 20
211.4869705509
 30
0.0
 11
170.4068973315
 21
211.4869705509
 31
0.0
  0
LINE
  5
23C
330
21E
100
AcDbEntity
  8
4_ALL_POINTS
  6
Continuous
 62
     2
440
 16777216
100
AcDbLine
 10
136.5955691791
 20
112.6869705509
 30
0.0
 11
170.4068973315
 21
112.6869705509
 31
0.0
  0
LINE
  5
23D
330
21E
100
AcDbEntity
  8
4_ALL_POINTS
  6
Continuous
 62
     2
440
 16777216
100
AcDbLine
 10
169.4068973315
 20
211.4869705509
 30
0.0
 11
169.4068973315
 21
162.0869705509
 31
0.0
  0
LINE
  5
23E
330
21E
100
AcDbEntity
  8
4_ALL_POINTS
  6
Continuous
 62
     2
440
 16777216
100
AcDbLine
 10
169.4068973315
 20
112.6869705509
 30
0.0
 11
169.4068973315
 21
162.0869705509
 31
0.0
  0
INSERT
  5
23F
330
21E
100
AcDbEntity
  8
4_ALL_POINTS
  6
Continuous
 62
     2
440
 16777216
100
AcDbBlockReference
  2
_FILLED
 10
169.4068973315
 20
211.4869705509
 30
0.0
 41
4.759999999999999
 42
4.759999999999999
 43
4.759999999999999
 50
90.0
  0
INSERT
  5
240
330
21E
100
AcDbEntity
  8
4_ALL_POINTS
  6
Continuous
 62
     2
440
 16777216
100
AcDbBlockReference
  2
_FILLED
 10
169.4068973315
 20
112.6869705509
 30
0.0
 41
4.759999999999999
 42
4.759999999999999
 43
4.759999999999999
 50
270.0
  0
ENDBLK
  5
241
330
21E
100
AcDbEntity
  8
0
  6
ByBlock
 62
     0
100
AcDbBlockEnd
  0
BLOCK
  5
242
330
21F
100
AcDbEntity
  8
4_ALL_POINTS
  6
Continuous
 62
     2
100
AcDbBlockBegin
  2
*D4
 70
     1
 10
0.0
 20
0.0
 30
0.0
  3
*D4
  1

  0
MTEXT
  5
243
330
21F
100
AcDbEntity
  8
4_ALL_POINTS
  6
Continuous
 62
     5
440
 16777216
100
AcDbMText
 10
113.1276199507
 20
177.1435587208
 30
0.0
 40
1.5
 41
9.642857142899998
 46
0.0
 71
     2
 72
     1
  1
Ø42
 73
     2
 44
0.9
  0
LINE
  5
244
330
21F
100
AcDbEntity
  8
4_ALL_POINTS
  6
Continuous
 62
     2
440
 16777216
100
AcDbLine
 10
92.1276199507
 20
175.000701578
 30
0.0
 11
113.1276199507
 21
175.000701578
 31
0.0
  0
LINE
  5
245
330
21F
100
AcDbEntity
  8
4_ALL_POINTS
  6
Continuous
 62
     2
440
 16777216
100
AcDbLine
 10
134.1276199507
 20
175.000701578
 30
0.0
 11
113.1276199507
 21
175.000701578
 31
0.0
  0
INSERT
  5
246
330
21F
100
AcDbEntity
  8
4_ALL_POINTS
  6
Continuous
 62
     2
440
 16777216
100
AcDbBlockReference
  2
_FILLED
 10
92.1276199507
 20
175.000701578
 30
0.0
 41
4.759999999999999
 42
4.759999999999999
 43
4.759999999999999
 50
180.0
  0
INSERT
  5
247
330
21F
100
AcDbEntity
  8
4_ALL_POINTS
  6
Continuous
 62
     2
440
 16777216
100
AcDbBlockReference
  2
_FILLED
 10
134.1276199507
 20
175.000701578
 30
0.0
 41
4.759999999999999
 42
4.759999999999999
 43
4.759999999999999
  0
ENDBLK
  5
248
330
21F
100
AcDbEntity
  8
0
  6
ByBlock
 62
     0
100
AcDbBlockEnd
  0
BLOCK
  5
249
330
220
100
AcDbEntity
  8
0
100
AcDbBlockBegin
  2
*T5
 70
     1
 10
0.0
 20
0.0
 30
0.0
  3
*T5
  1

  0
LINE
  5
24A
330
220
100
AcDbEntity
  8
0
  6
Continuous
 62
     2
100
AcDbLine
 10
200.0
 20
0.0
 30
0.0
 11
0.0
 21
0.0
 31
0.0
  0
LINE
  5
24B
330
220
100
AcDbEntity
  8
0
  6
Continuous
 62
     2
100
AcDbLine
 10
200.0
 20
0.0
 30
0.0
 11
200.0
 21
40.0
 31
0.0
  0
LINE
  5
24C
330
220
100
AcDbEntity
  8
0
  6
Continuous
 62
     2
100
AcDbLine
 10
110.5
 20
5.0
 30
0.0
 11
0.0
 21
5.0
 31
0.0
  0
LINE
  5
24D
330
220
100
AcDbEntity
  8
0
  6
Continuous
 62
     2
100
AcDbLine
 10
200.0
 20
10.0
 30
0.0
 11
0.0
 21
10.0
 31
0.0
  0
LINE
  5
24E
330
220
100
AcDbEntity
  8
0
  6
Continuous
 62
     2
100
AcDbLine
 10
28.5
 20
15.0
 30
0.0
 11
0.0
 21
15.0
 31
0.0
  0
LINE
  5
24F
330
220
100
AcDbEntity
  8
0
  6
Continuous
 62
     2
100
AcDbLine
 10
162.5
 20
20.0
 30
0.0
 11
0.0
 21
20.0
 31
0.0
  0
LINE
  5
250
330
220
100
AcDbEntity
  8
0
  6
Continuous
 62
     2
100
AcDbLine
 10
28.5
 20
25.0
 30
0.0
 11
0.0
 21
25.0
 31
0.0
  0
LINE
  5
251
330
220
100
AcDbEntity
  8
0
  6
Continuous
 62
     2
100
AcDbLine
 10
162.5
 20
30.0
 30
0.0
 11
0.0
 21
30.0
 31
0.0
  0
LINE
  5
252
330
220
100
AcDbEntity
  8
0
  6
Continuous
 62
     2
100
AcDbLine
 10
200.0
 20
35.0
 30
0.0
 11
162.5
 21
35.0
 31
0.0
  0
LINE
  5
253
330
220
100
AcDbEntity
  8
0
  6
Continuous
 62
     2
100
AcDbLine
 10
128.5
 20
35.0
 30
0.0
 11
0.0
 21
35.0
 31
0.0
  0
LINE
  5
254
330
220
100
AcDbEntity
  8
0
  6
Continuous
 62
     2
100
AcDbLine
 10
200.0
 20
40.0
 30
0.0
 11
0.0
 21
40.0
 31
0.0
  0
LINE
  5
255
330
220
100
AcDbEntity
  8
0
  6
Continuous
 62
     2
100
AcDbLine
 10
191.5
 20
0.0
 30
0.0
 11
191.5
 21
10.0
 31
0.0
  0
LINE
  5
256
330
220
100
AcDbEntity
  8
0
  6
Continuous
 62
     2
100
AcDbLine
 10
180.5
 20
10.0
 30
0.0
 11
180.5
 21
35.0
 31
0.0
  0
LINE
  5
257
330
220
100
AcDbEntity
  8
0
  6
Continuous
 62
     2
100
AcDbLine
 10
162.5
 20
10.0
 30
0.0
 11
162.5
 21
40.0
 31
0.0
  0
LINE
  5
258
330
220
100
AcDbEntity
  8
0
  6
Continuous
 62
     2
100
AcDbLine
 10
145.5
 20
0.0
 30
0.0
 11
145.5
 21
40.0
 31
0.0
  0
LINE
  5
259
330
220
100
AcDbEntity
  8
0
  6
Continuous
 62
     2
100
AcDbLine
 10
128.5
 20
0.0
 30
0.0
 11
128.5
 21
10.0
 31
0.0
  0
LINE
  5
25A
330
220
100
AcDbEntity
  8
0
  6
Continuous
 62
     2
100
AcDbLine
 10
128.5
 20
20.0
 30
0.0
 11
128.5
 21
40.0
 31
0.0
  0
LINE
  5
25B
330
220
100
AcDbEntity
  8
0
  6
Continuous
 62
     2
100
AcDbLine
 10
110.5
 20
0.0
 30
0.0
 11
110.5
 21
10.0
 31
0.0
  0
LINE
  5
25C
330
220
100
AcDbEntity
  8
0
  6
Continuous
 62
     2
100
AcDbLine
 10
108.5
 20
10.0
 30
0.0
 11
108.5
 21
20.0
 31
0.0
  0
LINE
  5
25D
330
220
100
AcDbEntity
  8
0
  6
Continuous
 62
     2
100
AcDbLine
 10
100.5
 20
10.0
 30
0.0
 11
100.5
 21
20.0
 31
0.0
  0
LINE
  5
25E
330
220
100
AcDbEntity
  8
0
  6
Continuous
 62
     2
100
AcDbLine
 10
56.5
 20
10.0
 30
0.0
 11
56.5
 21
20.0
 31
0.0
  0
LINE
  5
25F
330
220
100
AcDbEntity
  8
0
  6
Continuous
 62
     2
100
AcDbLine
 10
28.5
 20
0.0
 30
0.0
 11
28.5
 21
40.0
 31
0.0
  0
LINE
  5
260
330
220
100
AcDbEntity
  8
0
  6
Continuous
 62
     2
100
AcDbLine
 10
23.5
 20
5.0
 30
0.0
 11
23.5
 21
40.0
 31
0.0
  0
LINE
  5
261
330
220
100
AcDbEntity
  8
0
  6
Continuous
 62
     2
100
AcDbLine
 10
8.5
 20
5.0
 30
0.0
 11
8.5
 21
40.0
 31
0.0
  0
LINE
  5
262
330
220
100
AcDbEntity
  8
0
  6
Continuous
 62
     2
100
AcDbLine
 10
0.0
 20
0.0
 30
0.0
 11
0.0
 21
40.0
 31
0.0
  0
MTEXT
  5
263
330
220
100
AcDbEntity
  8
0
  6
Continuous
 62
     5
100
AcDbMText
 10
190.0
 20
4.5
 30
0.0
 40
3.0
 41
46.8571428571
 46
0.0
 71
     3
 72
     1
  1
21680/H63A
  7
TEXTSTYLE_2
 73
     2
 44
0.9
  0
MTEXT
  5
264
330
220
100
AcDbEntity
  8
0
  6
Continuous
 62
     5
100
AcDbMText
 10
130.0
 20
6.8125
 30
0.0
 40
1.3
 41
29.6
 46
0.0
 71
     1
 72
     1
  1
Peso finito \P 
  7
TEXTSTYLE_3
 73
     2
 44
0.9
  0
MTEXT
  5
265
330
220
100
AcDbEntity
  8
0
  6
Continuous
 62
     5
100
AcDbMText
 10
119.5
 20
6.5
 30
0.0
 40
3.0
 41
24.0
 46
0.0
 71
     2
 72
     1
  1
A4 V
  7
TEXTSTYLE_4
 73
     2
 44
0.9
  0
MTEXT
  5
266
330
220
100
AcDbEntity
  8
0
  6
Continuous
 62
     5
100
AcDbMText
 10
30.0
 20
2.8076923077
 30
0.0
 40
1.199999999999999
 41
113.1692307692
 46
0.0
 71
     1
 72
     1
  1
La ditta tutela i propri disegni a norma di legge
  7
TEXTSTYLE_3
 73
     2
 44
0.9
  0
MTEXT
  5
267
330
220
100
AcDbEntity
  8
0
  6
Continuous
 62
     5
100
AcDbMText
 10
14.25
 20
2.9230769231
 30
0.0
 40
2.0
 41
30.1538461538
 46
0.0
 71
     2
 72
     1
  1
Modifica
  7
TEXTSTYLE_3
 73
     2
 44
0.9
  0
MTEXT
  5
268
330
220
100
AcDbEntity
  8
0
  6
Continuous
 62
     5
100
AcDbMText
 10
195.75
 20
7.75
 30
0.0
 40
1.3
 41
10.6
 46
0.0
 71
     2
 72
     1
  1
esp.
  7
TEXTSTYLE_3
 73
     2
 44
0.9
  0
MTEXT
  5
269
330
220
100
AcDbEntity
  8
0
  6
Continuous
 62
     5
100
AcDbMText
 10
168.5
 20
7.75
 30
0.0
 40
1.3
 41
28.4
 46
0.0
 71
     2
 72
     1
  1
cod.disegno
  7
TEXTSTYLE_3
 73
     2
 44
0.9
  0
MTEXT
  5
26A
330
220
100
AcDbEntity
  8
0
  6
Continuous
 62
     5
100
AcDbMText
 10
30.0
 20
7.5769230769
 30
0.0
 40
1.6
 41
67.5692307692
 46
0.0
 71
     1
 72
     1
  1
Cod.Cad 21680-H50A
  7
TEXTSTYLE_3
 73
     2
 44
0.9
  0
MTEXT
  5
26B
330
220
100
AcDbEntity
  8
0
  6
Continuous
 62
     5
100
AcDbMText
 10
26.0
 20
7.75
 30
0.0
 40
1.3
 41
8.599999999999999
 46
0.0
 71
     2
 72
     1
  1
Esp
  7
TEXTSTYLE_3
 73
     2
 44
0.9
  0
MTEXT
  5
26C
330
220
100
AcDbEntity
  8
0
  6
Continuous
 62
     5
100
AcDbMText
 10
16.0
 20
7.75
 30
0.0
 40
1.3
 41
14.0
 46
0.0
 71
     2
 72
     1
  1
DATA
  7
TEXTSTYLE_3
 73
     2
 44
0.9
  0
MTEXT
  5
26D
330
220
100
AcDbEntity
  8
0
  6
Continuous
 62
     5
100
AcDbMText
 10
4.25
 20
7.75
 30
0.0
 40
1.3
 41
5.799999999999999
 46
0.0
 71
     2
 72
     1
  1
N°
  7
TEXTSTYLE_3
 73
     2
 44
0.9
  0
MTEXT
  5
26E
330
220
100
AcDbEntity
  8
0
  6
Continuous
 62
     5
100
AcDbMText
 10
147.0
 20
17.7115384615
 30
0.0
 40
1.0
 41
34.6153846154
 46
0.0
 71
     1
 72
     1
  1
Peso grezzo Kg. 
  7
TEXTSTYLE_3
 73
     2
 44
0.9
  0
MTEXT
  5
26F
330
220
100
AcDbEntity
  8
0
  6
Continuous
 62
     5
100
AcDbMText
 10
110.0
 20
17.775
 30
0.0
 40
1.3
 41
37.8
 46
0.0
 71
     1
 72
     1
  1
Dimens.grezze 
  7
TEXTSTYLE_3
 73
     2
 44
0.9
  0
MTEXT
  5
270
330
220
100
AcDbEntity
  8
0
  6
Continuous
 62
     5
100
AcDbMText
 10
58.0
 20
17.8173076923
 30
0.0
 40
1.5
 41
35.0769230769
 46
0.0
 71
     1
 72
     1
  1
Tratt.termici
  7
TEXTSTYLE_3
 73
     2
 44
0.9
  0
MTEXT
  5
271
330
220
100
AcDbEntity
  8
0
  6
Continuous
 62
     5
100
AcDbMText
 10
30.0
 20
17.775
 30
0.0
 40
1.3
 41
24.4
 46
0.0
 71
     1
 72
     1
  1
Materiale 
  7
TEXTSTYLE_3
 73
     2
 44
0.9
  0
MTEXT
  5
272
330
220
100
AcDbEntity
  8
0
  6
Continuous
 62
     5
100
AcDbMText
 10
147.0
 20
27.75
 30
0.0
 40
1.3
 41
12.8
 46
0.0
 71
     1
 72
     1
  1
Scala\P1:1
  7
TEXTSTYLE_3
 73
     2
 44
1.199999999999999
  0
MTEXT
  5
273
330
220
100
AcDbEntity
  8
0
  6
Continuous
 62
     5
100
AcDbMText
 10
130.0
 20
27.75
 30
0.0
 40
1.3
 41
12.0
 46
0.0
 71
     1
 72
     1
  1
Visto
  7
TEXTSTYLE_3
 73
     2
 44
1.199999999999999
  0
MTEXT
  5
274
330
220
100
AcDbEntity
  8
0
  6
Continuous
 62
     5
100
AcDbMText
 10
30.0
 20
23.0
 30
0.0
 40
1.5
 41
195.4615384615
 46
0.0
 71
     1
 72
     1
  1
Mandrino senza compensazione gr2 attacco HSK63A DIN 69893-A
  7
TEXTSTYLE_3
 73
     2
 44
0.9
  0
MTEXT
  5
275
330
220
100
AcDbEntity
  8
0
  6
Continuous
 62
     5
100
AcDbMText
 10
30.0
 20
27.8076923077
 30
0.0
 40
1.199999999999999
 41
24.5538461538
 46
0.0
 71
     1
 72
     1
  1
Descrizione
  7
TEXTSTYLE_3
 73
     2
 44
0.9
  0
MTEXT
  5
276
330
220
100
AcDbEntity
  8
0
  6
Continuous
 62
     5
100
AcDbMText
 10
147.0
 20
37.75
 30
0.0
 40
1.3
 41
26.0
 46
0.0
 71
     1
 72
     1
  1
Data\P10-Mar-05
  7
TEXTSTYLE_3
 73
     2
 44
1.199999999999999
  0
MTEXT
  5
277
330
220
100
AcDbEntity
  8
0
  6
Continuous
 62
     5
100
AcDbMText
 10
130.0
 20
37.75
 30
0.0
 40
1.3
 41
13.4
 46
0.0
 71
     1
 72
     1
  1
Firma\Pcalvo
  7
TEXTSTYLE_3
 73
     2
 44
1.199999999999999
  0
MTEXT
  5
278
330
220
100
AcDbEntity
  8
0
  6
Continuous
 62
     5
100
AcDbMText
 10
30.0
 20
32.775
 30
0.0
 40
1.3
 41
100.6
 46
0.0
 71
     1
 72
     1
  1
Macchina o codice prenotante:   21680
  7
TEXTSTYLE_3
 73
     2
 44
0.9
  0
MTEXT
  5
279
330
220
100
AcDbEntity
  8
0
  6
Continuous
 62
     5
100
AcDbMText
 10
164.0
 20
37.75
 30
0.0
 40
1.3
 41
60.575
 46
0.0
 71
     1
 72
     1
  1
Rugosita' \fgdt;{\fgdt;a}\ftxt;0.8=rettifica
  7
TEXTSTYLE_3
 73
     2
 44
0.9
  0
MTEXT
  5
27A
330
220
100
AcDbEntity
  8
0
  6
Continuous
 62
     5
100
AcDbMText
 10
30.0
 20
37.75
 30
0.0
 40
1.3
 41
162.2
 46
0.0
 71
     1
 72
     1
  1
Tolleranze generali per quote senza valori:\fgdt;{\fgdt;n}\ftxt;=H11-h11 - lineari\fgdt;{\fgdt;`}\ftxt;0.2
  7
TEXTSTYLE_3
 73
     2
 44
0.9
  0
ENDBLK
  5
27B
330
220
100
AcDbEntity
  8
0
  6
ByBlock
 62
     0
100
AcDbBlockEnd
  0
ENDSEC
  0
SECTION
  2
ENTITIES
  0
DIMENSION
  5
27C
330
219
100
AcDbEntity
  8
0
  6
Continuous
 62
     2
100
AcDbDimension
280
     0
  2
*D1
 10
138.2276199507
 20
82.3902391817
 30
0.0
 11
113.3436709845
 21
82.3902391817
 31
0.0
 70
   160
  1
Ø<>
 71
     2
 72
     2
 41
0.9
 42
50.2
 73
     0
 74
     0
 75
     0
  3
DIMSTYLE_1
100
AcDbAlignedDimension
 13
88.0276199507
 23
115.1869705509
 33
0.0
 14
138.2276199507
 24
115.1869705509
 34
0.0
100
AcDbRotatedDimension
  0
DIMENSION
  5
27D
330
219
100
AcDbEntity
  8
0
  6
Continuous
 62
     2
100
AcDbDimension
280
     0
  2
*D2
 10
155.5564123584
 20
112.6869705509
 30
0.0
 11
155.5564123584
 21
138.3012595038
 31
0.0
 70
   160
 71
     2
 72
     2
 41
0.9
 42
52.0
 73
     0
 74
     0
 75
     0
  3
DIMSTYLE_2
100
AcDbAlignedDimension
 13
137.7276199507
 23
164.6869705509
 33
0.0
 14
136.4955691791
 24
112.6869705509
 34
0.0
 50
270.0
100
AcDbRotatedDimension
  0
DIMENSION
  5
27E
330
219
100
AcDbEntity
  8
4_ALL_POINTS
  6
Continuous
 62
     2
100
AcDbDimension
280
     0
  2
*D3
 10
169.4068973315
 20
112.6869705509
 30
0.0
 11
169.4068973315
 21
158.4980733792
 31
0.0
 70
   160
 71
     2
 72
     2
 41
0.9
 42
98.8
 73
     0
 74
     0
 75
     0
  3
DIMSTYLE_1
100
AcDbAlignedDimension
 13
139.283295341
 23
211.4869705509
 33
0.0
 14
136.4955691791
 24
112.6869705509
 34
0.0
 50
270.0
100
AcDbRotatedDimension
  0
DIMENSION
  5
27F
330
219
100
AcDbEntity
  8
4_ALL_POINTS
  6
Continuous
 62
     2
100
AcDbDimension
280
     0
  2
*D4
 10
134.1276199507
 20
175.000701578
 30
0.0
 11
113.1276199507
 21
175.000701578
 31
0.0
 70
   160
  1
Ø<>
 71
     2
 72
     2
 41
0.9
 42
42.0
 73
     0
 74
     0
 75
     0
  3
DIMSTYLE_2
100
AcDbAlignedDimension
 13
92.1276199507
 23
169.4869705509
 33
0.0
 14
134.1276199507
 24
169.4869705509
 34
0.0
100
AcDbRotatedDimension
  0
ACAD_TABLE
  5
280
330
219
100
AcDbEntity
  8
0
  6
Continuous
 62
     2
160
             11204
310
C42B0000F0000000880000001D000000000000000000F03F0000000000000000000000000000000010B5AA32FEFF17400000000000000000000000000000F03F000000000000000049B5CCFC0300204000000000000000000000000000000000000000000000F03F0000000000000000000000000000000000000000000000
310
000000000000000000000000000000F03F0C00000016000000020000C30C00000017000000FDFFFFFF0C00000012000000000000005400000020000000020000000000000000006940000000000000000000000000000000000000000000000000000000000000000000000000000000000000000000000000000000000000
310
0000000000000000F03F0C00000016000000020000C30C00000017000000FDFFFFFF0C0000001200000000000000540000002000000002000000000000000000694000000000000000000000000000000000000000000000694000000000000044400000000000000000000000000000000000000000000000000000000000
310
00F03F0C00000016000000020000C30C00000017000000FDFFFFFF0C00000012000000000000005400000020000000020000000000000000A05B400000000000001440000000000000000000000000000000000000000000001440000000000000000000000000000000000000000000000000000000000000F03F0C000000
310
16000000020000C30C00000017000000FDFFFFFF0C000000120000000000000054000000200000000200000000000000000069400000000000002440000000000000000000000000000000000000000000002440000000000000000000000000000000000000000000000000000000000000F03F0C00000016000000020000
310
C30C00000017000000FDFFFFFF0C00000012000000000000005400000020000000020000000000000000803C400000000000002E40000000000000000000000000000000000000000000002E40000000000000000000000000000000000000000000000000000000000000F03F0C00000016000000020000C30C0000001700
310
0000FDFFFFFF0C000000120000000000000054000000200000000200000000000000005064400000000000003440000000000000000000000000000000000000000000003440000000000000000000000000000000000000000000000000000000000000F03F0C00000016000000020000C30C00000017000000FDFFFFFF0C
310
00000012000000000000005400000020000000020000000000000000803C400000000000003940000000000000000000000000000000000000000000003940000000000000000000000000000000000000000000000000000000000000F03F0C00000016000000020000C30C00000017000000FDFFFFFF0C00000012000000
310
0000000054000000200000000200000000000000005064400000000000003E40000000000000000000000000000000000000000000003E40000000000000000000000000000000000000000000000000000000000000F03F0C00000016000000020000C30C00000017000000FDFFFFFF0C0000001200000000000000540000
310
00200000000200000000000000000069400000000000804140000000000000000000000000005064400000000000804140000000000000000000000000000000000000000000000000000000000000F03F0C00000016000000020000C30C00000017000000FDFFFFFF0C000000120000000000000054000000200000000200
310
000000000000001060400000000000804140000000000000000000000000000000000000000000804140000000000000000000000000000000000000000000000000000000000000F03F0C00000016000000020000C30C00000017000000FDFFFFFF0C00000012000000000000005400000020000000020000000000000000
310
0069400000000000004440000000000000000000000000000000000000000000004440000000000000000000000000000000000000000000000000000000000000F03F0C00000016000000020000C30C00000017000000FDFFFFFF0C00000012000000000000005400000020000000020000000000000000F0674000000000
310
0000000000000000000000000000000000F067400000000000002440000000000000000000000000000000000000000000000000000000000000F03F0C00000016000000020000C30C00000017000000FDFFFFFF0C000000120000000000000054000000200000000200000000000000009066400000000000002440000000
310
000000000000000000009066400000000000804140000000000000000000000000000000000000000000000000000000000000F03F0C00000016000000020000C30C00000017000000FDFFFFFF0C00000012000000000000005400000020000000020000000000000000506440000000000000244000000000000000000000
310
0000005064400000000000004440000000000000000000000000000000000000000000000000000000000000F03F0C00000016000000020000C30C00000017000000FDFFFFFF0C0000001200000000000000540000002000000002000000000000000030624000000000000000000000000000000000000000000030624000
310
00000000004440000000000000000000000000000000000000000000000000000000000000F03F0C00000016000000020000C30C00000017000000FDFFFFFF0C000000120000000000000054000000200000000200000000000000001060400000000000000000000000000000000000000000001060400000000000002440
310
000000000000000000000000000000000000000000000000000000000000F03F0C00000016000000020000C30C00000017000000FDFFFFFF0C00000012000000000000005400000020000000020000000000000000106040000000000000344000000000000000000000000000106040000000000000444000000000000000
310
0000000000000000000000000000000000000000000000F03F0C00000016000000020000C30C00000017000000FDFFFFFF0C00000012000000000000005400000020000000020000000000000000A05B40000000000000000000000000000000000000000000A05B4000000000000024400000000000000000000000000000
310
00000000000000000000000000000000F03F0C00000016000000020000C30C00000017000000FDFFFFFF0C00000012000000000000005400000020000000020000000000000000205B40000000000000244000000000000000000000000000205B400000000000003440000000000000000000000000000000000000000000
310
000000000000000000F03F0C00000016000000020000C30C00000017000000FDFFFFFF0C00000012000000000000005400000020000000020000000000000000205940000000000000244000000000000000000000000000205940000000000000344000000000000000000000000000000000000000000000000000000000
310
0000F03F0C00000016000000020000C30C00000017000000FDFFFFFF0C00000012000000000000005400000020000000020000000000000000404C40000000000000244000000000000000000000000000404C400000000000003440000000000000000000000000000000000000000000000000000000000000F03F0C0000
310
0016000000020000C30C00000017000000FDFFFFFF0C00000012000000000000005400000020000000020000000000000000803C40000000000000000000000000000000000000000000803C400000000000004440000000000000000000000000000000000000000000000000000000000000F03F0C000000160000000200
310
00C30C00000017000000FDFFFFFF0C000000120000000000000054000000200000000200000000000000008037400000000000001440000000000000000000000000008037400000000000004440000000000000000000000000000000000000000000000000000000000000F03F0C00000016000000020000C30C00000017
310
000000FDFFFFFF0C000000120000000000000054000000200000000200000000000000000021400000000000001440000000000000000000000000000021400000000000004440000000000000000000000000000000000000000000000000000000000000F03F0C00000016000000020000C30C00000017000000FDFFFFFF
310
0C000000120000000000000054000000200000000200000000000000000000000000000000000000000000000000000000000000000000000000000000004440000000000000000000000000000000000000000000000000000000000000F03F0C00000016000000050000C30C00000017000000FDFFFFFF0C000000120000
310
00000000000C00000016000000050000C3CC000000260000000000000000506440000000000000F83F000000000000000000000000000000000000000000000000000000000000F03F000000000000F03F00000000000000000000000000000000320031003600380030002F004800360033004100000066000A0000000100
310
00000000000000000840000000000000F03F0000000000000000000000000000F03F000000000000000000000000000000000000000000000000000000000100000000000000000067007400780074002E007300680078000000000074000C00000016000000050000C30C00000017000000FDFFFFFF0C0000001200000000
310
0000000C00000016000000050000C3CC000000260000000000000000406040CDCCCCCCCC0C1640000000000000000000000000000000000000000000000000000000000000F03F000000000000F03F000000000000000000000000000000005000650073006F002000660069006E00690074006F0000000B00000001000000
310
CDCCCCCCCCCCF43F000000000000F03F0000000000000000000000000000F03F000000000000000000000000000000000000000000000000000000000100000000000000000000007400780074002E007300680078000000000000000C00000016000000050000C30C00000017000000FDFFFFFF0C00000012000000000000
310
000C00000016000000050000C3C0000000260000000000000000605C400000000000000C40000000000000000000000000000000000000000000000000000000000000F03F000000000000F03F0000000000000000000000000000000041003400200056000000000004000000010000000000000000000840000000000000
310
F03F0000000000000000000000000000F03F000000000000000000000000000000000000000000000000000000000100000000000000000000007400780074002E007300680078000000000000000C00000016000000050000C30C00000017000000FDFFFFFF0C00000012000000000000000C00000016000000050000C318
310
010000260000000000000000003E40E5A2B9911BB9F93F000000000000000000000000000000000000000000000000000000000000F03F000000000000F03F000000000000000000000000000000004C006100200064006900740074006100200074007500740065006C006100200069002000700072006F00700072006900
310
2000640069007300650067006E0069002000610020006E006F0072006D00610020006400690020006C00650067006700650000003100000001000000333333333333F33F000000000000F03F0000000000000000000000000000F03F0000000000000000000000000000000000000000000000000000000001000000000000
310
00000000007400780074002E007300680078000000000065000C00000016000000050000C30C00000017000000FDFFFFFF0C00000012000000000000000C00000016000000050000C3C800000026000000AAAAAAAAAAAA1F4090048D9DD889ED3F000000000000000000000000000000000000000000000000000000000000
310
F03F000000000000F03F000000000000000000000000000000004D006F006400690066006900630061000000000008000000010000000000000000000040000000000000F03F0000000000000000000000000000F03F0000000000000000000000000000000000000000000000000000000001000000000000000000000074
310
00780074002E007300680078000000000000000C00000016000000050000C30C00000017000000FDFFFFFF0C00000012000000000000000C00000016000000050000C3C0000000260000009999999999396840CDCCCCCCCCCC1940000000000000000000000000000000000000000000000000000000000000F03F00000000
310
0000F03F000000000000000000000000000000006500730070002E00000000000400000001000000CDCCCCCCCCCCF43F000000000000F03F0000000000000000000000000000F03F000000000000000000000000000000000000000000000000000000000100000000000000000000007400780074002E0073006800780000
310
00000000000C00000016000000050000C30C00000017000000FDFFFFFF0C00000012000000000000000C00000016000000050000C3CC00000026000000DEDDDDDDDD4D6440CDCCCCCCCCCC1940000000000000000000000000000000000000000000000000000000000000F03F000000000000F03F00000000000000000000
310
00000000000063006F0064002E00640069007300650067006E006F0000000B00000001000000CDCCCCCCCCCCF43F000000000000F03F0000000000000000000000000000F03F000000000000000000000000000000000000000000000000000000000100000000000000000000007400780074002E00730068007800000000
310
0000000C00000016000000050000C30C00000017000000FDFFFFFF0C00000012000000000000000C00000016000000050000C3DC000000260000000000000000003E4008F9E7855EE81740000000000000000000000000000000000000000000000000000000000000F03F000000000000F03F000000000000000000000000
310
0000000043006F0064002E004300610064002000320031003600380030002D00480035003000410000003B0012000000010000009A9999999999F93F000000000000F03F0000000000000000000000000000F03F00000000000000000000000000000000000000000000000000000000010000000000000000006000740078
310
0074002E007300680078000000000032000C00000016000000050000C30C00000017000000FDFFFFFF0C00000012000000000000000C00000016000000050000C3BC000000260000004444444444443840CDCCCCCCCCCC1940000000000000000000000000000000000000000000000000000000000000F03F000000000000
310
F03F0000000000000000000000000000000045007300700000000300000001000000CDCCCCCCCCCCF43F000000000000F03F0000000000000000000000000000F03F000000000000000000000000000000000000000000000000000000000100000000000000000000007400780074002E007300680078000000000000000C
310
00000016000000050000C30C00000017000000FDFFFFFF0C00000012000000000000000C00000016000000050000C3C000000026000000BCBBBBBBBB3B2B40CDCCCCCCCCCC1940000000000000000000000000000000000000000000000000000000000000F03F000000000000F03F00000000000000000000000000000000
310
4400410054004100000000000400000001000000CDCCCCCCCCCCF43F000000000000F03F0000000000000000000000000000F03F000000000000000000000000000000000000000000000000000000000100000000000000000000007400780074002E007300680078000000000000000C00000016000000050000C30C0000
310
0017000000FDFFFFFF0C00000012000000000000000C00000016000000050000C3BC000000260000001111111111110B40CDCCCCCCCCCC1940000000000000000000000000000000000000000000000000000000000000F03F000000000000F03F000000000000000000000000000000004E00B00000001940020000000100
310
0000CDCCCCCCCCCCF43F000000000000F03F0000000000000000000000000000F03F000000000000000000000000000000000000000000000000000000000100000000000000000000007400780074002E007300680078000000000000000C00000016000000050000C30C00000017000000FDFFFFFF0C0000001200000000
310
0000000C00000016000000050000C3D400000026000000000000000060624019FD756227B63040000000000000000000000000000000000000000000000000000000000000F03F000000000000F03F000000000000000000000000000000005000650073006F0020006700720065007A007A006F0020004B0067002E000000
310
0F00000001000000000000000000F03F000000000000F03F0000000000000000000000000000F03F000000000000000000000000000000000000000000000000000000000100000000000000000000007400780074002E007300680078000000000000000C00000016000000050000C30C00000017000000FDFFFFFF0C0000
310
0012000000000000000C00000016000000050000C3D0000000260000000000000000805B409999999999793040000000000000000000000000000000000000000000000000000000000000F03F000000000000F03F00000000000000000000000000000000440069006D0065006E0073002E006700720065007A007A006500
310
00000D00000001000000CDCCCCCCCCCCF43F000000000000F03F0000000000000000000000000000F03F000000000000000000000000000000000000000000000000000000000100000000000000000000007400780074002E007300680078000000000000000C00000016000000050000C30C00000017000000FDFFFFFF0C
310
00000012000000000000000C00000016000000050000C3D0000000260000000000000000004D409F32B1133B513040000000000000000000000000000000000000000000000000000000000000F03F000000000000F03F00000000000000000000000000000000540072006100740074002E007400650072006D0069006300
310
690000000D00000001000000000000000000F83F000000000000F03F0000000000000000000000000000F03F000000000000000000000000000000000000000000000000000000000100000000000000000000007400780074002E007300680078000000000000000C00000016000000050000C30C00000017000000FDFFFF
310
FF0C00000012000000000000000C00000016000000050000C3C8000000260000000000000000003E409999999999793040000000000000000000000000000000000000000000000000000000000000F03F000000000000F03F000000000000000000000000000000004D006100740065007200690061006C00650000000900
310
000001000000CDCCCCCCCCCCF43F000000000000F03F0000000000000000000000000000F03F000000000000000000000000000000000000000000000000000000000100000000000000000000007400780074002E007300680078000000000000000C00000016000000050000C30C00000017000000FDFFFFFF0C00000012
310
000000000000000C00000016000000050000C3C00000002600000000000000006062403333333333733A40000000000000000000000000000000000000000000000000000000000000F03F000000000000F03F000000000000000000000000000000005300630061006C00610000000500000001000000CDCCCCCCCCCCF43F
310
000000000000F03F0000000000000000000000000000F03F000000000000000000000000000000000000000000000000000000000100000000000000000000007400780074002E007300680078000000000000000C00000016000000050000C3BC0000002600000000000000006062409999999999D9374000000000000000
310
0000000000000000000000000000000000000000000000F03F000000000000F03F0000000000000000000000000000000031003A00310000000300000001000000CDCCCCCCCCCCF43F000000000000F03F0000000000000000000000000000F03F000000000000000000000000000000000000000000000000000000000100
310
000000000000000000007400780074002E007300680078000000000000000C00000016000000050000C30C00000017000000FDFFFFFF0C00000012000000000000000C00000016000000050000C3C00000002600000000000000004060403333333333733A4000000000000000000000000000000000000000000000000000
310
0000000000F03F000000000000F03F0000000000000000000000000000000056006900730074006F0000000500000001000000CDCCCCCCCCCCF43F000000000000F03F0000000000000000000000000000F03F0000000000000000000000000000000000000000000000000000000001000000000000000000000074007800
310
74002E007300680078000000000000000C00000016000000050000C30C00000017000000FDFFFFFF0C00000012000000000000000C00000016000000050000C32C010000260000000000000000003E400000000000803540000000000000000000000000000000000000000000000000000000000000F03F000000000000F0
310
3F000000000000000000000000000000004D0061006E006400720069006E006F002000730065006E007A006100200063006F006D00700065006E00730061007A0069006F006E006500200067007200320020006100740074006100630063006F002000480053004B003600330041002000440049004E002000360039003800
310
390033002D00410000003B00000001000000000000000000F83F000000000000F03F0000000000000000000000000000F03F000000000000000000000000000000000000000000000000000000000100000000000000000000007400780074002E007300680078000000000000000C00000016000000050000C30C00000017
310
000000FDFFFFFF0C00000012000000000000000C00000016000000050000C3CC000000260000000000000000003E402E9A1BB9919B3A40000000000000000000000000000000000000000000000000000000000000F03F000000000000F03F000000000000000000000000000000004400650073006300720069007A006900
310
6F006E00650000000B00000001000000333333333333F33F000000000000F03F0000000000000000000000000000F03F000000000000000000000000000000000000000000000000000000000100000000000000000000007400780074002E007300680078000000000000000C00000016000000050000C30C000000170000
310
00FDFFFFFF0C00000012000000000000000C00000016000000050000C3C00000002600000000000000006062409A99999999394240000000000000000000000000000000000000000000000000000000000000F03F000000000000F03F00000000000000000000000000000000440061007400610000000000040000000100
310
0000CDCCCCCCCCCCF43F000000000000F03F0000000000000000000000000000F03F000000000000000000000000000000000000000000000000000000000100000000000000000000007400780074002E007300680078000000000000000C00000016000000050000C3C8000000260000000000000000606240CDCCCCCCCC
310
EC4040000000000000000000000000000000000000000000000000000000000000F03F000000000000F03F00000000000000000000000000000000310030002D004D00610072002D003000350000000900000001000000CDCCCCCCCCCCF43F000000000000F03F0000000000000000000000000000F03F0000000000000000
310
00000000000000000000000000000000000000000100000000000000000000007400780074002E007300680078000000000000000C00000016000000050000C30C00000017000000FDFFFFFF0C00000012000000000000000C00000016000000050000C3C00000002600000000000000004060409A99999999394240000000
310
000000000000000000000000000000000000000000000000000000F03F000000000000F03F000000000000000000000000000000004600690072006D00610000000500000001000000CDCCCCCCCCCCF43F000000000000F03F0000000000000000000000000000F03F00000000000000000000000000000000000000000000
310
0000000000000100000000000000000000007400780074002E007300680078000000000000000C00000016000000050000C3C0000000260000000000000000406040CDCCCCCCCCEC4040000000000000000000000000000000000000000000000000000000000000F03F000000000000F03F00000000000000000000000000
310
000000630061006C0076006F0000000500000001000000CDCCCCCCCCCCF43F000000000000F03F0000000000000000000000000000F03F000000000000000000000000000000000000000000000000000000000100000000000000000000007400780074002E007300680078000000000000000C00000016000000050000C3
310
0C00000017000000FDFFFFFF0C00000012000000000000000C00000016000000050000C300010000260000000000000000003E409999999999793F40000000000000000000000000000000000000000000000000000000000000F03F000000000000F03F000000000000000000000000000000004D00610063006300680069
310
006E00610020006F00200063006F00640069006300650020007000720065006E006F00740061006E00740065003A002000200020003200310036003800300000002500000001000000CDCCCCCCCCCCF43F000000000000F03F0000000000000000000000000000F03F00000000000000000000000000000000000000000000
310
0000000000000100000000000000000000017400780074002E007300680078000000000000000C00000016000000050000C30C00000017000000FDFFFFFF0C00000012000000000000000C00000016000000050000C3CC0000002600000000000000008064409A999999993942400000000000000000000000000000000000
310
00000000000000000000000000F03F000000000000F03F000000000000000000000000000000005200750067006F00730069007400610027002000000000000A00000001000000CDCCCCCCCCCCF43F000000000000F03F0000000000000000000000000000F03F000000000000000000000000000000000000000000000000
310
000000000100000000000000000000007400780074002E007300680078000000000000000C00000016000000050000C3B0000000260000007877777777EF65409A99999999394240000000000000000000000000000000000000000000000000000000000000F03F000000000000F03F000000000000000000000000000000
310
00610000000100000001000000CDCCCCCCCCCCF43F000000000000F03F0000000000000000000000000000F03F000000000000000000000000000000000000000000000000000000000100000002000000470044005400000000006D00000000000C00000016000000050000C3C8000000260000008701A4E9E23666409A99
310
999999394240000000000000000000000000000000000000000000000000000000000000F03F000000000000F03F0000000000000000000000000000000030002E0038003D0072006500740074006900660069006300610000000D00000001000000CDCCCCCCCCCCF43F000000000000F03F00000000000000000000000000
310
00F03F000000000000000000000000000000000000000000000000000000000100000002000000540078007400000000000000000000000C00000016000000050000C30C00000017000000FDFFFFFF0C00000012000000000000000C00000016000000050000C30C010000260000000000000000003E409A99999999394240
310
000000000000000000000000000000000000000000000000000000000000F03F000000000000F03F0000000000000000000000000000000054006F006C006C006500720061006E007A0065002000670065006E006500720061006C00690020007000650072002000710075006F00740065002000730065006E007A00610020
310
00760061006C006F00720069003A0000002B00000001000000CDCCCCCCCCCCF43F000000000000F03F0000000000000000000000000000F03F000000000000000000000000000000000000000000000000000000000100000000000000000000007400780074002E007300680078000000000000000C000000160000000500
310
00C3B000000026000000C8CCCCCCCC2C54409A99999999394240000000000000000000000000000000000000000000000000000000000000F03F000000000000F03F000000000000000000000000000000006E0000000100000001000000CDCCCCCCCCCCF43F000000000000F03F0000000000000000000000000000F03F00
310
0000000000000000000000000000000000000000000000000000000100000002000000470044005400000000006900000065000C00000016000000050000C3D4000000260000001A6515AAA08C54409A99999999394240000000000000000000000000000000000000000000000000000000000000F03F000000000000F03F
310
000000000000000000000000000000003D004800310031002D0068003100310020002D0020006C0069006E006500610072006900000000001200000001000000CDCCCCCCCCCCF43F000000000000F03F0000000000000000000000000000F03F00000000000000000000000000000000000000000000000000000000010000
310
0002000000540078007400000000000000000000000C00000016000000050000C3B00000002600000040A5CD26FA5E59409A99999999394240000000000000000000000000000000000000000000000000000000000000F03F000000000000F03F00000000000000000000000000000000600000000100000001000000CDCC
310
CCCCCCCCF43F000000000000F03F0000000000000000000000000000F03F000000000000000000000000000000000000000000000000000000000100000002000000470044005400000000000000000000000C00000016000000050000C3B400000026000000BEA06C309FC659409A99999999394240000000000000000000
310
000000000000000000000000000000000000000000F03F000000000000F03F0000000000000000000000000000000030002E00320000000300000001000000CDCCCCCCCCCCF43F000000000000F03F0000000000000000000000000000F03F0000000000000000000000000000000000000000000000000000000001000000
310
0200000054007800740000000000000000000000080000001F000000
100
AcDbBlockReference
  2
*T5
 10
5.999993125599999
 20
8.0000304222
 30
0.0
100
AcDbTable
280
     0
342
349
343
220
 11
1.0
 21
0.0
 31
0.0
 90
        6
 91
        8
 92
       15
 93
        4
 94
        0
 95
        0
 96
        0
 70
     1
141
5.0
141
5.0
141
5.0
141
5.0
141
5.0
141
5.0
141
5.0
141
5.0
142
8.5
142
15.0
142
5.0
142
28.0
142
44.0
142
8.0
142
2.0
142
18.0
142
8.5
142
8.5
142
17.0
142
9.0
142
9.0
142
11.0
142
8.5
171
     1
172
     0
173
     0
174
     0
175
     3
176
     1
 91
   262193
178
     0
145
0.0
170
     5
  7
TEXTSTYLE_3
140
2.0
 92
        0
301
CELL_VALUE
 93
        0
 90
        4
  1
Modifica
 94
        0
300

302

304
ACVALUE_END
171
     1
172
     0
173
     1
174
     0
175
     1
176
     1
 91
        1
178
     0
145
0.0
170
     1
 92
        0
301
CELL_VALUE
 93
        3
 90
        0
 94
        0
300

302

304
ACVALUE_END
171
     1
172
     0
173
     1
174
     0
175
     1
176
     1
 91
        1
178
     0
145
0.0
170
     5
 92
        0
301
CELL_VALUE
 93
        3
 90
        0
 94
        0
300

302

304
ACVALUE_END
171
     1
172
     0
173
     0
174
     0
175
     4
176
     1
 91
   262193
178
     0
145
0.0
170
     1
  7
TEXTSTYLE_3
140
1.199999999999999
 92
        0
301
CELL_VALUE
 93
        0
 90
        4
  1
La ditta tutela i propri disegni a norma di legge
 94
        0
300

302

304
ACVALUE_END
171
     1
172
     0
173
     1
174
     0
175
     1
176
     1
 91
        1
178
     0
145
0.0
170
     1
 92
        0
301
CELL_VALUE
 93
        3
 90
        0
 94
        0
300

302

304
ACVALUE_END
171
     1
172
     0
173
     1
174
     0
175
     1
176
     1
 91
        1
178
     0
145
0.0
170
     1
 92
        0
301
CELL_VALUE
 93
        3
 90
        0
 94
        0
300

302

304
ACVALUE_END
171
     1
172
     0
173
     1
174
     0
175
     1
176
     1
 91
        1
178
     0
145
0.0
170
     1
 92
        0
301
CELL_VALUE
 93
        3
 90
        0
 94
        0
300

302

304
ACVALUE_END
171
     1
172
     0
173
     0
174
     0
175
     1
176
     2
 91
   262201
178
     0
145
0.0
170
     5
  7
TEXTSTYLE_4
 64
     5
140
3.0
 92
        0
301
CELL_VALUE
 93
        0
 90
        4
  1
A4 V
 94
        0
300

302

304
ACVALUE_END
171
     1
172
     0
173
     0
174
     0
175
     2
176
     2
 91
   262193
178
     0
145
0.0
170
     4
  7
TEXTSTYLE_3
140
1.3
 92
        0
301
CELL_VALUE
 93
        0
 90
        4
  1
Peso finito \P 
 94
        0
300

302

304
ACVALUE_END
171
     1
172
     0
173
     1
174
     0
175
     1
176
     1
 91
        1
178
     0
145
0.0
170
     4
 92
        0
301
CELL_VALUE
 93
        3
 90
        0
 94
        0
300

302

304
ACVALUE_END
171
     1
172
     0
173
     0
174
     0
175
     4
176
     1
 91
   262193
178
     0
145
0.0
170
     9
  7
TEXTSTYLE_2
140
3.0
 92
        0
301
CELL_VALUE
 93
        0
 90
        4
  1
21680/H63A
 94
        0
300

302

304
ACVALUE_END
171
     1
172
     0
173
     1
174
     0
175
     1
176
     1
 91
        1
178
     0
145
0.0
170
     1
 92
        0
301
CELL_VALUE
 93
        3
 90
        0
 94
        0
300

302

304
ACVALUE_END
171
     1
172
     0
173
     1
174
     0
175
     1
176
     1
 91
        1
178
     0
145
0.0
170
     1
 92
        0
301
CELL_VALUE
 93
        3
 90
        0
 94
        0
300

302

304
ACVALUE_END
171
     1
172
     0
173
     1
174
     0
175
     1
176
     1
 91
        1
178
     0
145
0.0
170
     9
 92
        0
301
CELL_VALUE
 93
        3
 90
        0
 94
        0
300

302

304
ACVALUE_END
171
     1
172
     0
173
     0
174
     0
175
     1
176
     1
 91
   262177
178
     0
145
0.0
170
     1
140
3.0
 92
        0
301
CELL_VALUE
 93
        0
 90
        4
  1
 
 94
        0
300

302

304
ACVALUE_END
171
     1
172
     0
173
     0
174
     0
175
     1
176
     1
 91
   262201
178
     0
145
0.0
170
     2
  7
TEXTSTYLE_3
 64
     5
140
1.3
 92
        0
301
CELL_VALUE
 93
        0
 90
        4
  1
N°
 94
        0
300

302

304
ACVALUE_END
171
     1
172
     0
173
     0
174
     0
175
     1
176
     1
 91
   262201
178
     0
145
0.0
170
     2
  7
TEXTSTYLE_3
 64
     5
140
1.3
 92
        0
301
CELL_VALUE
 93
        0
 90
        4
  1
DATA
 94
        0
300

302

304
ACVALUE_END
171
     1
172
     0
173
     0
174
     0
175
     1
176
     1
 91
   262201
178
     0
145
0.0
170
     2
  7
TEXTSTYLE_3
 64
     5
140
1.3
 92
        0
301
CELL_VALUE
 93
        0
 90
        4
  1
Esp
 94
        0
300

302

304
ACVALUE_END
171
     1
172
     0
173
     0
174
     0
175
     4
176
     1
 91
   262193
178
     0
145
0.0
170
     1
  7
TEXTSTYLE_3
140
1.6
 92
        0
301
CELL_VALUE
 93
        0
 90
        4
  1
Cod.Cad 21680-H50A
 94
        0
300

302

304
ACVALUE_END
171
     1
172
     0
173
     1
174
     0
175
     1
176
     1
 91
        1
178
     0
145
0.0
170
     1
 92
        0
301
CELL_VALUE
 93
        3
 90
        0
 94
        0
300

302

304
ACVALUE_END
171
     1
172
     0
173
     1
174
     0
175
     1
176
     1
 91
        1
178
     0
145
0.0
170
     1
 92
        0
301
CELL_VALUE
 93
        3
 90
        0
 94
        0
300

302

304
ACVALUE_END
171
     1
172
     0
173
     1
174
     0
175
     1
176
     1
 91
        1
178
     0
145
0.0
170
     1
 92
        0
301
CELL_VALUE
 93
        3
 90
        0
 94
        0
300

302

304
ACVALUE_END
171
     1
172
     0
173
     1
174
     0
175
     1
176
     1
 91
        1
178
     0
145
0.0
170
     1
 92
        0
301
CELL_VALUE
 93
        3
 90
        0
 94
        0
300

302

304
ACVALUE_END
171
     1
172
     0
173
     1
174
     0
175
     1
176
     1
 91
        1
178
     0
145
0.0
170
     1
 92
        0
301
CELL_VALUE
 93
        3
 90
        0
 94
        0
300

302

304
ACVALUE_END
171
     1
172
     0
173
     1
174
     0
175
     1
176
     1
 91
        1
178
     0
145
0.0
170
     1
 92
        0
301
CELL_VALUE
 93
        3
 90
        0
 94
        0
300

302

304
ACVALUE_END
171
     1
172
     0
173
     0
174
     0
175
     4
176
     1
 91
   262193
178
     0
145
0.0
170
     2
  7
TEXTSTYLE_3
140
1.3
 92
        0
301
CELL_VALUE
 93
        0
 90
        4
  1
cod.disegno
 94
        0
300

302

304
ACVALUE_END
171
     1
172
     0
173
     1
174
     0
175
     1
176
     1
 91
        1
178
     0
145
0.0
170
     1
 92
        0
301
CELL_VALUE
 93
        3
 90
        0
 94
        0
300

302

304
ACVALUE_END
171
     1
172
     0
173
     1
174
     0
175
     1
176
     1
 91
        1
178
     0
145
0.0
170
     1
 92
        0
301
CELL_VALUE
 93
        3
 90
        0
 94
        0
300

302

304
ACVALUE_END
171
     1
172
     0
173
     1
174
     0
175
     1
176
     1
 91
        1
178
     0
145
0.0
170
     2
 92
        0
301
CELL_VALUE
 93
        3
 90
        0
 94
        0
300

302

304
ACVALUE_END
171
     1
172
     0
173
     0
174
     0
175
     1
176
     1
 91
   262201
178
     0
145
0.0
170
     2
  7
TEXTSTYLE_3
 64
     5
140
1.3
 92
        0
301
CELL_VALUE
 93
        0
 90
        4
  1
esp.
 94
        0
300

302

304
ACVALUE_END
171
     1
172
     0
173
     0
174
     0
175
     1
176
     1
 91
   262177
178
     0
145
0.0
170
     1
140
3.0
 92
        0
301
CELL_VALUE
 93
        0
 90
        4
  1
 
 94
        0
300

302

304
ACVALUE_END
171
     1
172
     0
173
     0
174
     0
175
     1
176
     1
 91
   262177
178
     0
145
0.0
170
     1
140
3.0
 92
        0
301
CELL_VALUE
 93
        0
 90
        4
  1
 
 94
        0
300

302

304
ACVALUE_END
171
     1
172
     0
173
     0
174
     0
175
     1
176
     1
 91
   262177
178
     0
145
0.0
170
     1
140
3.0
 92
        0
301
CELL_VALUE
 93
        0
 90
        4
  1
 
 94
        0
300

302

304
ACVALUE_END
171
     1
172
     0
173
     0
174
     0
175
     1
176
     1
 91
   262185
178
     0
145
0.0
170
     4
 64
     5
140
3.0
 92
        0
301
CELL_VALUE
 93
        0
 90
        4
  1
 
 94
        0
300

302

304
ACVALUE_END
171
     1
172
     0
173
     0
174
     0
175
     1
176
     1
 91
   262185
178
     0
145
0.0
170
     4
 64
     5
140
3.0
 92
        0
301
CELL_VALUE
 93
        0
 90
        4
  1
 
 94
        0
300

302

304
ACVALUE_END
171
     1
172
     0
173
     0
174
     0
175
     1
176
     2
 91
   262185
178
     0
145
0.0
170
     5
 64
     5
140
3.0
 92
        0
301
CELL_VALUE
 93
        0
 90
        4
  1
 
 94
        0
300

302

304
ACVALUE_END
171
     1
172
     0
173
     0
174
     0
175
     4
176
     1
 91
   262177
178
     0
145
0.0
170
     4
140
3.0
 92
        0
301
CELL_VALUE
 93
        0
 90
        4
  1
 
 94
        0
300

302

304
ACVALUE_END
171
     1
172
     0
173
     1
174
     0
175
     1
176
     1
 91
        1
178
     0
145
0.0
170
     1
 92
        0
301
CELL_VALUE
 93
        3
 90
        0
 94
        0
300

302

304
ACVALUE_END
171
     1
172
     0
173
     1
174
     0
175
     1
176
     1
 91
        1
178
     0
145
0.0
170
     1
 92
        0
301
CELL_VALUE
 93
        3
 90
        0
 94
        0
300

302

304
ACVALUE_END
171
     1
172
     0
173
     1
174
     0
175
     1
176
     1
 91
        1
178
     0
145
0.0
170
     4
 92
        0
301
CELL_VALUE
 93
        3
 90
        0
 94
        0
300

302

304
ACVALUE_END
171
     1
172
     0
173
     0
174
     0
175
     1
176
     1
 91
   262185
178
     0
145
0.0
170
     4
 64
     5
140
3.0
 92
        0
301
CELL_VALUE
 93
        0
 90
        4
  1
 
 94
        0
300

302

304
ACVALUE_END
171
     1
172
     0
173
     0
174
     0
175
     2
176
     5
 91
   262177
178
     0
145
0.0
170
     1
140
3.0
 92
        0
301
CELL_VALUE
 93
        0
 90
        4
  1
 
 94
        0
300

302

304
ACVALUE_END
171
     1
172
     0
173
     1
174
     0
175
     1
176
     1
 91
        1
178
     0
145
0.0
170
     1
 92
        0
301
CELL_VALUE
 93
        3
 90
        0
 94
        0
300

302

304
ACVALUE_END
171
     1
172
     0
173
     0
174
     0
175
     2
176
     3
 91
   262177
178
     0
145
0.0
170
     2
140
3.0
 92
        0
301
CELL_VALUE
 93
        0
 90
        4
  1
 
 94
        0
300

302

304
ACVALUE_END
171
     1
172
     0
173
     1
174
     0
175
     1
176
     1
 91
        1
178
     0
145
0.0
170
     2
 92
        0
301
CELL_VALUE
 93
        3
 90
        0
 94
        0
300

302

304
ACVALUE_END
171
     1
172
     0
173
     0
174
     0
175
     1
176
     1
 91
   262177
178
     0
145
0.0
170
     1
140
3.0
 92
        0
301
CELL_VALUE
 93
        0
 90
        4
  1
 
 94
        0
300

302

304
ACVALUE_END
171
     1
172
     0
173
     0
174
     0
175
     1
176
     1
 91
   262177
178
     0
145
0.0
170
     1
140
3.0
 92
        0
301
CELL_VALUE
 93
        0
 90
        4
  1
 
 94
        0
300

302

304
ACVALUE_END
171
     1
172
     0
173
     0
174
     0
175
     1
176
     1
 91
   262177
178
     0
145
0.0
170
     1
140
3.0
 92
        0
301
CELL_VALUE
 93
        0
 90
        4
  1
 
 94
        0
300

302

304
ACVALUE_END
171
     1
172
     0
173
     0
174
     0
175
     1
176
     1
 91
   262201
178
     0
145
0.0
170
     4
  7
TEXTSTYLE_3
 64
     5
140
1.3
 92
        0
301
CELL_VALUE
 93
        0
 90
        4
  1
Materiale 
 94
        0
300

302

304
ACVALUE_END
171
     1
172
     0
173
     0
174
     0
175
     1
176
     1
 91
   262201
178
     0
145
0.0
170
     4
  7
TEXTSTYLE_3
 64
     5
140
1.5
 92
        0
301
CELL_VALUE
 93
        0
 90
        4
  1
Tratt.termici
 94
        0
300

302

304
ACVALUE_END
171
     1
172
     0
173
     1
174
     0
175
     1
176
     1
 91
        1
178
     0
145
0.0
170
     1
 92
        0
301
CELL_VALUE
 93
        3
 90
        0
 94
        0
300

302

304
ACVALUE_END
171
     1
172
     0
173
     0
174
     0
175
     4
176
     1
 91
   262193
178
     0
145
0.0
170
     4
  7
TEXTSTYLE_3
140
1.3
 92
        0
301
CELL_VALUE
 93
        0
 90
        4
  1
Dimens.grezze 
 94
        0
300

302

304
ACVALUE_END
171
     1
172
     0
173
     1
174
     0
175
     1
176
     1
 91
        1
178
     0
145
0.0
170
     1
 92
        0
301
CELL_VALUE
 93
        3
 90
        0
 94
        0
300

302

304
ACVALUE_END
171
     1
172
     0
173
     1
174
     0
175
     1
176
     1
 91
        1
178
     0
145
0.0
170
     1
 92
        0
301
CELL_VALUE
 93
        3
 90
        0
 94
        0
300

302

304
ACVALUE_END
171
     1
172
     0
173
     1
174
     0
175
     1
176
     1
 91
        1
178
     0
145
0.0
170
     4
 92
        0
301
CELL_VALUE
 93
        3
 90
        0
 94
        0
300

302

304
ACVALUE_END
171
     1
172
     0
173
     0
174
     0
175
     1
176
     1
 91
   262201
178
     0
145
0.0
170
     4
  7
TEXTSTYLE_3
 64
     5
140
1.0
 92
        0
301
CELL_VALUE
 93
        0
 90
        4
  1
Peso grezzo Kg. 
 94
        0
300

302

304
ACVALUE_END
171
     1
172
     0
173
     1
174
     0
175
     1
176
     1
 91
        1
178
     0
145
0.0
170
     1
 92
        0
301
CELL_VALUE
 93
        3
 90
        0
 94
        0
300

302

304
ACVALUE_END
171
     1
172
     0
173
     1
174
     0
175
     1
176
     1
 91
        1
178
     0
145
0.0
170
     1
 92
        0
301
CELL_VALUE
 93
        3
 90
        0
 94
        0
300

302

304
ACVALUE_END
171
     1
172
     0
173
     1
174
     0
175
     1
176
     1
 91
        1
178
     0
145
0.0
170
     1
 92
        0
301
CELL_VALUE
 93
        3
 90
        0
 94
        0
300

302

304
ACVALUE_END
171
     1
172
     0
173
     1
174
     0
175
     1
176
     1
 91
        1
178
     0
145
0.0
170
     1
 92
        0
301
CELL_VALUE
 93
        3
 90
        0
 94
        0
300

302

304
ACVALUE_END
171
     1
172
     0
173
     0
174
     0
175
     1
176
     1
 91
   262177
178
     0
145
0.0
170
     1
140
3.0
 92
        0
301
CELL_VALUE
 93
        0
 90
        4
  1
 
 94
        0
300

302

304
ACVALUE_END
171
     1
172
     0
173
     0
174
     0
175
     1
176
     1
 91
   262177
178
     0
145
0.0
170
     1
140
3.0
 92
        0
301
CELL_VALUE
 93
        0
 90
        4
  1
 
 94
        0
300

302

304
ACVALUE_END
171
     1
172
     0
173
     0
174
     0
175
     1
176
     1
 91
   262177
178
     0
145
0.0
170
     1
140
3.0
 92
        0
301
CELL_VALUE
 93
        0
 90
        4
  1
 
 94
        0
300

302

304
ACVALUE_END
171
     1
172
     0
173
     0
174
     0
175
     1
176
     1
 91
   262201
178
     0
145
0.0
170
     7
  7
TEXTSTYLE_3
 64
     5
140
1.5
 92
        0
301
CELL_VALUE
 93
        0
 90
        4
  1
Mandrino senza compensazione gr2 attacco HSK63A DIN 69893-A
 94
        0
300

302

304
ACVALUE_END
171
     1
172
     0
173
     0
174
     0
175
     4
176
     1
 91
   262177
178
     0
145
0.0
170
     1
140
3.0
 92
        0
301
CELL_VALUE
 93
        0
 90
        4
  1
 
 94
        0
300

302

304
ACVALUE_END
171
     1
172
     0
173
     1
174
     0
175
     1
176
     1
 91
        1
178
     0
145
0.0
170
     1
 92
        0
301
CELL_VALUE
 93
        3
 90
        0
 94
        0
300

302

304
ACVALUE_END
171
     1
172
     0
173
     1
174
     0
175
     1
176
     1
 91
        1
178
     0
145
0.0
170
     1
 92
        0
301
CELL_VALUE
 93
        3
 90
        0
 94
        0
300

302

304
ACVALUE_END
171
     1
172
     0
173
     1
174
     0
175
     1
176
     1
 91
        1
178
     0
145
0.0
170
     1
 92
        0
301
CELL_VALUE
 93
        3
 90
        0
 94
        0
300

302

304
ACVALUE_END
171
     1
172
     0
173
     0
174
     0
175
     2
176
     2
 91
   262193
178
     0
145
0.0
170
     1
  7
TEXTSTYLE_3
140
1.3
 92
        0
301
CELL_VALUE
 93
        0
 90
        4
  1
Visto
 94
        0
300

302

304
ACVALUE_END
171
     1
172
     0
173
     1
174
     0
175
     1
176
     1
 91
        1
178
     0
145
0.0
170
     1
 92
        0
301
CELL_VALUE
 93
        3
 90
        0
 94
        0
300

302

304
ACVALUE_END
171
     1
172
     0
173
     0
174
     0
175
     1
176
     2
 91
   262201
178
     0
145
0.0
170
     1
  7
TEXTSTYLE_3
 64
     5
140
1.3
 92
        0
301
CELL_VALUE
 93
        0
 90
        4
  1
Scala\P1:1
 94
        0
300

302

304
ACVALUE_END
171
     1
172
     0
173
     1
174
     0
175
     1
176
     1
 91
        1
178
     0
145
0.0
170
     1
 92
        0
301
CELL_VALUE
 93
        3
 90
        0
 94
        0
300

302

304
ACVALUE_END
171
     1
172
     0
173
     1
174
     0
175
     1
176
     1
 91
        1
178
     0
145
0.0
170
     1
 92
        0
301
CELL_VALUE
 93
        3
 90
        0
 94
        0
300

302

304
ACVALUE_END
171
     1
172
     0
173
     1
174
     0
175
     1
176
     1
 91
        1
178
     0
145
0.0
170
     1
 92
        0
301
CELL_VALUE
 93
        3
 90
        0
 94
        0
300

302

304
ACVALUE_END
171
     1
172
     0
173
     1
174
     0
175
     1
176
     1
 91
        1
178
     0
145
0.0
170
     1
 92
        0
301
CELL_VALUE
 93
        3
 90
        0
 94
        0
300

302

304
ACVALUE_END
171
     1
172
     0
173
     0
174
     0
175
     1
176
     1
 91
   262177
178
     0
145
0.0
170
     1
140
3.0
 92
        0
301
CELL_VALUE
 93
        0
 90
        4
  1
 
 94
        0
300

302

304
ACVALUE_END
171
     1
172
     0
173
     0
174
     0
175
     1
176
     1
 91
   262177
178
     0
145
0.0
170
     1
140
3.0
 92
        0
301
CELL_VALUE
 93
        0
 90
        4
  1
 
 94
        0
300

302

304
ACVALUE_END
171
     1
172
     0
173
     0
174
     0
175
     1
176
     1
 91
   262177
178
     0
145
0.0
170
     1
140
3.0
 92
        0
301
CELL_VALUE
 93
        0
 90
        4
  1
 
 94
        0
300

302

304
ACVALUE_END
171
     1
172
     0
173
     0
174
     0
175
     1
176
     1
 91
   262201
178
     0
145
0.0
170
     1
  7
TEXTSTYLE_3
 64
     5
140
1.199999999999999
 92
        0
301
CELL_VALUE
 93
        0
 90
        4
  1
Descrizione
 94
        0
300

302

304
ACVALUE_END
171
     1
172
     0
173
     0
174
     0
175
     1
176
     1
 91
   262177
178
     0
145
0.0
170
     1
140
3.0
 92
        0
301
CELL_VALUE
 93
        0
 90
        4
  1
 
 94
        0
300

302

304
ACVALUE_END
171
     1
172
     0
173
     0
174
     0
175
     1
176
     1
 91
   262177
178
     0
145
0.0
170
     1
140
3.0
 92
        0
301
CELL_VALUE
 93
        0
 90
        4
  1
 
 94
        0
300

302

304
ACVALUE_END
171
     1
172
     0
173
     0
174
     0
175
     1
176
     1
 91
   262177
178
     0
145
0.0
170
     1
140
3.0
 92
        0
301
CELL_VALUE
 93
        0
 90
        4
  1
 
 94
        0
300

302

304
ACVALUE_END
171
     1
172
     0
173
     0
174
     0
175
     1
176
     1
 91
   262177
178
     0
145
0.0
170
     1
140
3.0
 92
        0
301
CELL_VALUE
 93
        0
 90
        4
  1
 
 94
        0
300

302

304
ACVALUE_END
171
     1
172
     0
173
     1
174
     0
175
     1
176
     1
 91
        1
178
     0
145
0.0
170
     1
 92
        0
301
CELL_VALUE
 93
        3
 90
        0
 94
        0
300

302

304
ACVALUE_END
171
     1
172
     0
173
     1
174
     0
175
     1
176
     1
 91
        1
178
     0
145
0.0
170
     1
 92
        0
301
CELL_VALUE
 93
        3
 90
        0
 94
        0
300

302

304
ACVALUE_END
171
     1
172
     0
173
     1
174
     0
175
     1
176
     1
 91
        1
178
     0
145
0.0
170
     1
 92
        0
301
CELL_VALUE
 93
        3
 90
        0
 94
        0
300

302

304
ACVALUE_END
171
     1
172
     0
173
     1
174
     0
175
     1
176
     1
 91
        1
178
     0
145
0.0
170
     1
 92
        0
301
CELL_VALUE
 93
        3
 90
        0
 94
        0
300

302

304
ACVALUE_END
171
     1
172
     0
173
     1
174
     0
175
     1
176
     1
 91
        1
178
     0
145
0.0
170
     1
 92
        0
301
CELL_VALUE
 93
        3
 90
        0
 94
        0
300

302

304
ACVALUE_END
171
     1
172
     0
173
     0
174
     0
175
     2
176
     2
 91
   262177
178
     0
145
0.0
170
     5
140
3.0
 92
        0
301
CELL_VALUE
 93
        0
 90
        4
  1
 
 94
        0
300

302

304
ACVALUE_END
171
     1
172
     0
173
     1
174
     0
175
     1
176
     1
 91
        1
178
     0
145
0.0
170
     5
 92
        0
301
CELL_VALUE
 93
        3
 90
        0
 94
        0
300

302

304
ACVALUE_END
171
     1
172
     0
173
     0
174
     0
175
     1
176
     1
 91
   262177
178
     0
145
0.0
170
     1
140
3.0
 92
        0
301
CELL_VALUE
 93
        0
 90
        4
  1
 
 94
        0
300

302

304
ACVALUE_END
171
     1
172
     0
173
     0
174
     0
175
     1
176
     1
 91
   262177
178
     0
145
0.0
170
     1
140
3.0
 92
        0
301
CELL_VALUE
 93
        0
 90
        4
  1
 
 94
        0
300

302

304
ACVALUE_END
171
     1
172
     0
173
     0
174
     0
175
     1
176
     1
 91
   262177
178
     0
145
0.0
170
     1
140
3.0
 92
        0
301
CELL_VALUE
 93
        0
 90
        4
  1
 
 94
        0
300

302

304
ACVALUE_END
171
     1
172
     0
173
     0
174
     0
175
     5
176
     1
 91
   262193
178
     0
145
0.0
170
     4
  7
TEXTSTYLE_3
140
1.3
 92
        0
301
CELL_VALUE
 93
        0
 90
        4
  1
Macchina o codice prenotante:   21680
 94
        0
300

302

304
ACVALUE_END
171
     1
172
     0
173
     1
174
     0
175
     1
176
     1
 91
        1
178
     0
145
0.0
170
     1
 92
        0
301
CELL_VALUE
 93
        3
 90
        0
 94
        0
300

302

304
ACVALUE_END
171
     1
172
     0
173
     1
174
     0
175
     1
176
     1
 91
        1
178
     0
145
0.0
170
     1
 92
        0
301
CELL_VALUE
 93
        3
 90
        0
 94
        0
300

302

304
ACVALUE_END
171
     1
172
     0
173
     1
174
     0
175
     1
176
     1
 91
        1
178
     0
145
0.0
170
     1
 92
        0
301
CELL_VALUE
 93
        3
 90
        0
 94
        0
300

302

304
ACVALUE_END
171
     1
172
     0
173
     1
174
     0
175
     1
176
     1
 91
        1
178
     0
145
0.0
170
     4
 92
        0
301
CELL_VALUE
 93
        3
 90
        0
 94
        0
300

302

304
ACVALUE_END
171
     1
172
     0
173
     0
174
     0
175
     2
176
     2
 91
   262193
178
     0
145
0.0
170
     1
  7
TEXTSTYLE_3
140
1.3
 92
        0
301
CELL_VALUE
 93
        0
 90
        4
  1
Firma\Pcalvo
 94
        0
300

302

304
ACVALUE_END
171
     1
172
     0
173
     1
174
     0
175
     1
176
     1
 91
        1
178
     0
145
0.0
170
     1
 92
        0
301
CELL_VALUE
 93
        3
 90
        0
 94
        0
300

302

304
ACVALUE_END
171
     1
172
     0
173
     0
174
     0
175
     1
176
     2
 91
   262201
178
     0
145
0.0
170
     1
  7
TEXTSTYLE_3
 64
     5
140
1.3
 92
        0
301
CELL_VALUE
 93
        0
 90
        4
  1
Data\P10-Mar-05
 94
        0
300

302

304
ACVALUE_END
171
     1
172
     0
173
     1
174
     0
175
     1
176
     1
 91
        1
178
     0
145
0.0
170
     1
 92
        0
301
CELL_VALUE
 93
        3
 90
        0
 94
        0
300

302

304
ACVALUE_END
171
     1
172
     0
173
     1
174
     0
175
     1
176
     1
 91
        1
178
     0
145
0.0
170
     1
 92
        0
301
CELL_VALUE
 93
        3
 90
        0
 94
        0
300

302

304
ACVALUE_END
171
     1
172
     0
173
     1
174
     0
175
     1
176
     1
 91
        1
178
     0
145
0.0
170
     1
 92
        0
301
CELL_VALUE
 93
        3
 90
        0
 94
        0
300

302

304
ACVALUE_END
171
     1
172
     0
173
     1
174
     0
175
     1
176
     1
 91
        1
178
     0
145
0.0
170
     1
 92
        0
301
CELL_VALUE
 93
        3
 90
        0
 94
        0
300

302

304
ACVALUE_END
171
     1
172
     0
173
     0
174
     0
175
     1
176
     1
 91
   262177
178
     0
145
0.0
170
     1
140
3.0
 92
        0
301
CELL_VALUE
 93
        0
 90
        4
  1
 
 94
        0
300

302

304
ACVALUE_END
171
     1
172
     0
173
     0
174
     0
175
     1
176
     1
 91
   262177
178
     0
145
0.0
170
     1
140
3.0
 92
        0
301
CELL_VALUE
 93
        0
 90
        4
  1
 
 94
        0
300

302

304
ACVALUE_END
171
     1
172
     0
173
     0
174
     0
175
     1
176
     1
 91
   262177
178
     0
145
0.0
170
     1
140
3.0
 92
        0
301
CELL_VALUE
 93
        0
 90
        4
  1
 
 94
        0
300

302

304
ACVALUE_END
171
     1
172
     0
173
     0
174
     0
175
     5
176
     1
 91
   262193
178
     0
145
0.0
170
     1
  7
TEXTSTYLE_3
140
1.3
 92
        0
301
CELL_VALUE
 93
        0
 90
        4
  1
Tolleranze generali per quote senza valori:\fgdt;{\fgdt;n}\ftxt;=H11-h11 - lineari\fgdt;{\fgdt;`}\ftxt;0.2
 94
        0
300

302

304
ACVALUE_END
171
     1
172
     0
173
     1
174
     0
175
     1
176
     1
 91
        1
178
     0
145
0.0
170
     1
 92
        0
301
CELL_VALUE
 93
        3
 90
        0
 94
        0
300

302

304
ACVALUE_END
171
     1
172
     0
173
     1
174
     0
175
     1
176
     1
 91
        1
178
     0
145
0.0
170
     1
 92
        0
301
CELL_VALUE
 93
        3
 90
        0
 94
        0
300

302

304
ACVALUE_END
171
     1
172
     0
173
     1
174
     0
175
     1
176
     1
 91
        1
178
     0
145
0.0
170
     1
 92
        0
301
CELL_VALUE
 93
        3
 90
        0
 94
        0
300

302

304
ACVALUE_END
171
     1
172
     0
173
     1
174
     0
175
     1
176
     1
 91
        1
178
     0
145
0.0
170
     1
 92
        0
301
CELL_VALUE
 93
        3
 90
        0
 94
        0
300

302

304
ACVALUE_END
171
     1
172
     0
173
     1
174
     0
175
     1
176
     1
 91
        1
178
     0
145
0.0
170
     1
 92
        0
301
CELL_VALUE
 93
        3
 90
        0
 94
        0
300

302

304
ACVALUE_END
171
     1
172
     0
173
     1
174
     0
175
     1
176
     1
 91
        1
178
     0
145
0.0
170
     1
 92
        0
301
CELL_VALUE
 93
        3
 90
        0
 94
        0
300

302

304
ACVALUE_END
171
     1
172
     0
173
     1
174
     0
175
     1
176
     1
 91
        1
178
     0
145
0.0
170
     1
 92
        0
301
CELL_VALUE
 93
        3
 90
        0
 94
        0
300

302

304
ACVALUE_END
171
     1
172
     0
173
     0
174
     0
175
     4
176
     1
 91
   262193
178
     0
145
0.0
170
     1
  7
TEXTSTYLE_3
140
1.3
 92
        0
301
CELL_VALUE
 93
        0
 90
        4
  1
Rugosita' \fgdt;{\fgdt;a}\ftxt;0.8=rettifica
 94
        0
300

302

304
ACVALUE_END
171
     1
172
     0
173
     1
174
     0
175
     1
176
     1
 91
        1
178
     0
145
0.0
170
     1
 92
        0
301
CELL_VALUE
 93
        3
 90
        0
 94
        0
300

302

304
ACVALUE_END
171
     1
172
     0
173
     1
174
     0
175
     1
176
     1
 91
        1
178
     0
145
0.0
170
     1
 92
        0
301
CELL_VALUE
 93
        3
 90
        0
 94
        0
300

302

304
ACVALUE_END
171
     1
172
     0
173
     1
174
     0
175
     1
176
     1
 91
        1
178
     0
145
0.0
170
     1
 92
        0
301
CELL_VALUE
 93
        3
 90
        0
 94
        0
300

302

304
ACVALUE_END
  0
LEADER
  5
281
330
219
100
AcDbEntity
  8
0
  6
Continuous
 62
     2
100
AcDbLeader
  3
STANDARD
 73
     0
 40
2.0
 41
10.2
 76
     3
 10
131.8356243664
 20
222.4061201464
 30
0.0
 10
144.5609693295
 20
240.4391011236
 30
0.0
 10
151.5609693295
 20
240.4391011236
 30
0.0
340
282
1001
ACAD
1000
DSTYLE
1002
{
1070
    77
1070
     0
1002
}
  0
MTEXT
  5
282
102
{ACAD_REACTORS
330
281
102
}
330
219
100
AcDbEntity
  8
0
  6
Continuous
 62
     5
100
AcDbMText
 10
151.5609693295
 20
240.6533868379
 30
0.0
 40
1.5
 41
20.8285714286
 46
0.0
 71
     1
 72
     1
  1
HSK63A
 73
     2
 44
0.9
  0
LINE
  5
283
330
219
100
AcDbEntity
  8
0
  6
Continuous
 62
     7
100
AcDbLine
 10
0.0
 20
0.0
 30
0.0
 11
210.0
 21
0.0
 31
0.0
  0
LINE
  5
284
330
219
100
AcDbEntity
  8
0
  6
Continuous
 62
     7
100
AcDbLine
 10
0.0
 20
0.0
 30
0.0
 11
0.0
 21
297.0
 31
0.0
  0
LINE
  5
285
330
219
100
AcDbEntity
  8
0
  6
Continuous
 62
     7
100
AcDbLine
 10
210.0
 20
0.0
 30
0.0
 11
210.0
 21
297.0
 31
0.0
  0
LINE
  5
286
330
219
100
AcDbEntity
  8
0
  6
Continuous
 62
     7
100
AcDbLine
 10
0.0
 20
297.0
 30
0.0
 11
210.0
 21
297.0
 31
0.0
  0
LINE
  5
287
330
219
100
AcDbEntity
  8
0_COMPONENTS
  6
Continuous
 62
     7
100
AcDbLine
 10
136.495569142
 20
112.6869705509
 30
0.0
 11
89.75967075940001
 21
112.6869705509
 31
0.0
  0
LINE
  5
288
330
219
100
AcDbEntity
  8
0_COMPONENTS
  6
Continuous
 62
     7
100
AcDbLine
 10
88.0276199507
 20
115.1869705509
 30
0.0
 11
138.2276199507
 21
115.1869705509
 31
0.0
  0
LINE
  5
289
330
219
100
AcDbEntity
  8
0_COMPONENTS
  6
Continuous
 62
     7
100
AcDbLine
 10
87.7276199507
 20
128.9869705509
 30
0.0
 11
88.0276199507
 21
128.6869705509
 31
0.0
  0
LINE
  5
28A
330
219
100
AcDbEntity
  8
0_COMPONENTS
  6
Continuous
 62
     7
100
AcDbLine
 10
88.0276199507
 20
115.1869705509
 30
0.0
 11
89.3266580567
 21
112.9369705504
 31
0.0
  0
LINE
  5
28B
330
219
100
AcDbEntity
  8
0_COMPONENTS
  6
Continuous
 62
     7
100
AcDbLine
 10
88.0276199507
 20
128.6869705509
 30
0.0
 11
138.2276199507
 21
128.6869705509
 31
0.0
  0
LINE
  5
28C
330
219
100
AcDbEntity
  8
0_COMPONENTS
  6
Continuous
 62
     7
100
AcDbLine
 10
87.7276199507
 20
128.9869705509
 30
0.0
 11
138.5276199507
 21
128.9869705509
 31
0.0
  0
LINE
  5
28D
330
219
100
AcDbEntity
  8
0
  6
Continuous
 62
     7
100
AcDbLine
 10
88.6276199507
 20
211.4869705509
 30
0.0
 11
88.12761995069999
 21
210.9869705509
 31
0.0
  0
LINE
  5
28E
330
219
100
AcDbEntity
  8
0
  6
Continuous
 62
     7
100
AcDbLine
 10
102.2592054959
 20
236.1954309852
 30
0.0
 11
102.1480907524
 21
235.9652337513
 31
0.0
  0
LINE
  5
28F
330
219
100
AcDbEntity
  8
0
  6
Continuous
 62
     7
100
AcDbLine
 10
119.3976199507
 20
236.3869705509
 30
0.0
 11
118.3976199507
 21
235.3869705509
 31
0.0
  0
LINE
  5
290
330
219
100
AcDbEntity
  8
0
  6
Continuous
 62
     7
100
AcDbLine
 10
104.8026811005
 20
236.3686947545
 30
0.0
 11
104.4206700979
 21
235.5772797417
 31
0.0
  0
LINE
  5
291
330
219
100
AcDbEntity
  8
0_COMPONENTS
  6
Continuous
 62
     7
100
AcDbLine
 10
87.7276199507
 20
147.3869705509
 30
0.0
 11
138.5276199507
 21
147.3869705509
 31
0.0
  0
LINE
  5
292
330
219
100
AcDbEntity
  8
0_COMPONENTS
  6
Continuous
 62
     7
100
AcDbLine
 10
88.0276199507
 20
147.6869705509
 30
0.0
 11
138.2276199507
 21
147.6869705509
 31
0.0
  0
LINE
  5
293
330
219
100
AcDbEntity
  8
0_COMPONENTS
  6
Continuous
 62
     7
100
AcDbLine
 10
87.7276199507
 20
147.3869705509
 30
0.0
 11
87.7276199507
 21
128.9869705509
 31
0.0
  0
LINE
  5
294
330
219
100
AcDbEntity
  8
0_COMPONENTS
  6
Continuous
 62
     7
100
AcDbLine
 10
88.0276199507
 20
164.1869705509
 30
0.0
 11
88.0276199507
 21
147.6869705509
 31
0.0
  0
LINE
  5
295
330
219
100
AcDbEntity
  8
0_COMPONENTS
  6
Continuous
 62
     7
100
AcDbLine
 10
88.0276199507
 20
128.6869705509
 30
0.0
 11
88.0276199507
 21
115.1869705509
 31
0.0
  0
LINE
  5
296
330
219
100
AcDbEntity
  8
0
  6
Continuous
 62
     7
100
AcDbLine
 10
88.12761995069999
 20
210.9869705509
 30
0.0
 11
88.12761995069999
 21
196.8644696257
 31
0.0
  0
LINE
  5
297
330
219
100
AcDbEntity
  8
0
  6
Continuous
 62
     7
100
AcDbLine
 10
88.12761995069999
 20
190.1094714761
 30
0.0
 11
88.12761995069999
 21
186.0369705509
 31
0.0
  0
LINE
  5
298
330
219
100
AcDbEntity
  8
3_ALL_AXES
  6
Continuous
 62
     7
100
AcDbLine
 10
90.5276199507
 20
168.6869705509
 30
0.0
 11
90.5276199507
 21
164.6869705509
 31
0.0
  0
LINE
  5
299
330
219
100
AcDbEntity
  8
0
  6
Continuous
 62
     7
100
AcDbLine
 10
90.5276199507
 20
169.1869705509
 30
0.0
 11
90.5276199507
 21
164.6869705509
 31
0.0
  0
LINE
  5
29A
330
219
100
AcDbEntity
  8
0
  6
Continuous
 62
     7
100
AcDbLine
 10
88.12761995069999
 20
190.1094714761
 30
0.0
 11
90.73002468650001
 21
191.6119705509
 31
0.0
  0
LINE
  5
29B
330
219
100
AcDbEntity
  8
0
  6
Continuous
 62
     7
100
AcDbLine
 10
91.62761995069999
 20
191.6119705509
 30
0.0
 11
91.62761995069999
 21
195.3619705509
 31
0.0
  0
LINE
  5
29C
330
219
100
AcDbEntity
  8
0
  6
Continuous
 62
     7
100
AcDbLine
 10
92.1276199507
 20
185.5369705509
 30
0.0
 11
92.1276199507
 21
169.4869705509
 31
0.0
  0
LINE
  5
29D
330
219
100
AcDbEntity
  8
0
  6
Continuous
 62
     7
100
AcDbLine
 10
93.5125747048
 20
190.1094714761
 30
0.0
 11
93.5125747048
 21
186.0369705509
 31
0.0
  0
LINE
  5
29E
330
219
100
AcDbEntity
  8
0
  6
Continuous
 62
     7
100
AcDbLine
 10
93.5125747048
 20
196.8644696257
 30
0.0
 11
93.5125747048
 21
204.0024023429
 31
0.0
  0
LINE
  5
29F
330
219
100
AcDbEntity
  8
0
  6
Continuous
 62
     7
100
AcDbLine
 10
94.2776199507
 20
212.349543248
 30
0.0
 11
94.2776199507
 21
211.8869705509
 31
0.0
  0
LINE
  5
2A0
330
219
100
AcDbEntity
  8
0
  6
Continuous
 62
     7
100
AcDbLine
 10
95.0723440898
 20
235.4369987365
 30
0.0
 11
93.9728472234
 21
213.4869705509
 31
0.0
  0
LINE
  5
2A1
330
219
100
AcDbEntity
  8
0
  6
Continuous
 62
     7
100
AcDbLine
 10
97.1276199507
 20
198.835493637
 30
0.0
 11
97.1276199507
 21
195.3619705509
 31
0.0
  0
LINE
  5
2A2
330
219
100
AcDbEntity
  8
0
  6
Continuous
 62
     7
100
AcDbLine
 10
97.1276199507
 20
185.5369705509
 30
0.0
 11
97.1276199507
 21
191.6119705509
 31
0.0
  0
LINE
  5
2A3
330
219
100
AcDbEntity
  8
0
  6
Continuous
 62
     7
100
AcDbLine
 10
97.6276199507
 20
191.6119705509
 30
0.0
 11
97.6276199507
 21
186.0369705509
 31
0.0
  0
LINE
  5
2A4
330
219
100
AcDbEntity
  8
0
  6
Continuous
 62
     7
100
AcDbLine
 10
97.6276199507
 20
195.3619705509
 30
0.0
 11
97.6276199507
 21
198.835493637
 31
0.0
  0
LINE
  5
2A5
330
219
100
AcDbEntity
  8
0
  6
Continuous
 62
     7
100
AcDbLine
 10
107.1276199507
 20
186.4397986464
 30
0.0
 11
106.6847672066
 21
185.9969459023
 31
0.0
  0
LINE
  5
2A6
330
219
100
AcDbEntity
  8
0
  6
Continuous
 62
     7
100
AcDbLine
 10
107.1276199507
 20
186.0369705509
 30
0.0
 11
106.6861985945
 21
185.5955491947
 31
0.0
  0
LINE
  5
2A7
330
219
100
AcDbEntity
  8
0
  6
Continuous
 62
     7
100
AcDbLine
 10
90.82761995069999
 20
169.4869705509
 30
0.0
 11
90.5276199507
 21
169.1869705509
 31
0.0
  0
LINE
  5
2A8
330
219
100
AcDbEntity
  8
0
  6
Continuous
 62
     7
100
AcDbLine
 10
107.6276199507
 20
185.8298637697
 30
0.0
 11
107.5347267319
 21
185.7369705509
 31
0.0
  0
LINE
  5
2A9
330
219
100
AcDbEntity
  8
0_COMPONENTS
  6
Continuous
 62
     7
100
AcDbLine
 10
88.5276199507
 20
164.6869705509
 30
0.0
 11
88.0276199507
 21
164.1869705509
 31
0.0
  0
LINE
  5
2AA
330
219
100
AcDbEntity
  8
0
  6
Continuous
 62
     7
100
AcDbLine
 10
106.5447772382
 20
185.5369705509
 30
0.0
 11
106.6861985945
 21
185.5955491947
 31
0.0
  0
LINE
  5
2AB
330
219
100
AcDbEntity
  8
0_COMPONENTS
  6
Continuous
 62
     7
100
AcDbLine
 10
88.0276199507
 20
164.1869705509
 30
0.0
 11
138.2276199507
 21
164.1869705509
 31
0.0
  0
LINE
  5
2AC
330
219
100
AcDbEntity
  8
0_COMPONENTS
  6
Continuous
 62
     7
100
AcDbLine
 10
88.5276199507
 20
164.6869705509
 30
0.0
 11
137.7276199507
 21
164.6869705509
 31
0.0
  0
LINE
  5
2AD
330
219
100
AcDbEntity
  8
0
  6
Continuous
 62
     7
100
AcDbLine
 10
88.12761995069999
 20
186.0369705509
 30
0.0
 11
88.6276199507
 21
185.5369705509
 31
0.0
  0
LINE
  5
2AE
330
219
100
AcDbEntity
  8
0
  6
Continuous
 62
     7
100
AcDbLine
 10
93.9728472234
 20
213.4869705509
 30
0.0
 11
94.2776199507
 21
212.349543248
 31
0.0
  0
LINE
  5
2AF
330
219
100
AcDbEntity
  8
0
  6
Continuous
 62
     7
100
AcDbLine
 10
106.6447236655
 20
186.0369705509
 30
0.0
 11
106.6447236655
 21
190.1094714761
 31
0.0
  0
LINE
  5
2B0
330
219
100
AcDbEntity
  8
0
  6
Continuous
 62
     7
100
AcDbLine
 10
106.6447236655
 20
196.8644696257
 30
0.0
 11
106.6447236655
 21
198.536970551
 31
0.0
  0
LINE
  5
2B1
330
219
100
AcDbEntity
  8
0
  6
Continuous
 62
     7
100
AcDbLine
 10
107.1276199507
 20
186.0369705509
 30
0.0
 11
107.1276199507
 21
191.6119705509
 31
0.0
  0
LINE
  5
2B2
330
219
100
AcDbEntity
  8
0
  6
Continuous
 62
     7
100
AcDbLine
 10
107.1276199507
 20
195.3619705509
 30
0.0
 11
107.1276199507
 21
198.536970551
 31
0.0
  0
LINE
  5
2B3
330
219
100
AcDbEntity
  8
0
  6
Continuous
 62
     7
100
AcDbLine
 10
107.5347267319
 20
185.7369705509
 30
0.0
 11
107.5347267319
 21
185.5369705509
 31
0.0
  0
LINE
  5
2B4
330
219
100
AcDbEntity
  8
0
  6
Continuous
 62
     7
100
AcDbLine
 10
107.6276199507
 20
185.8298637697
 30
0.0
 11
107.6276199507
 21
191.6119705509
 31
0.0
  0
LINE
  5
2B5
330
219
100
AcDbEntity
  8
0
  6
Continuous
 62
     7
100
AcDbLine
 10
107.6276199507
 20
195.3619705509
 30
0.0
 11
107.6276199507
 21
198.5369705509
 31
0.0
  0
LINE
  5
2B6
330
219
100
AcDbEntity
  8
0
  6
Continuous
 62
     7
100
AcDbLine
 10
107.8576199507
 20
235.3869705509
 30
0.0
 11
107.8576199507
 21
233.3869705509
 31
0.0
  0
LINE
  5
2B7
330
219
100
AcDbEntity
  8
0
  6
Continuous
 62
     7
100
AcDbLine
 10
108.5178477221
 20
195.3619705509
 30
0.0
 11
108.5178477221
 21
191.6119705509
 31
0.0
  0
LINE
  5
2B8
330
219
100
AcDbEntity
  8
0
  6
Continuous
 62
     7
100
AcDbLine
 10
135.5252152149
 20
195.3619705509
 30
0.0
 11
138.1276199507
 21
196.8644696257
 31
0.0
  0
LINE
  5
2B9
330
219
100
AcDbEntity
  8
3_ALL_AXES
  6
Continuous
 62
     7
100
AcDbLine
 10
90.5276199507
 20
168.6869705509
 30
0.0
 11
135.7276199507
 21
168.6869705509
 31
0.0
  0
LINE
  5
2BA
330
219
100
AcDbEntity
  8
0
  6
Continuous
 62
     7
100
AcDbLine
 10
90.5276199507
 20
169.1869705509
 30
0.0
 11
135.7276199507
 21
169.1869705509
 31
0.0
  0
LINE
  5
2BB
330
219
100
AcDbEntity
  8
0
  6
Continuous
 62
     7
100
AcDbLine
 10
90.82796172150001
 20
169.4869705509
 30
0.0
 11
135.4272781799
 21
169.4869705509
 31
0.0
  0
LINE
  5
2BC
330
219
100
AcDbEntity
  8
DEFAULT_1
  6
CENTER
 62
     7
100
AcDbLine
 10
113.1276199507
 20
242.3869705509
 30
0.0
 11
113.1276199507
 21
106.6869705509
 31
0.0
  0
LINE
  5
2BD
330
219
100
AcDbEntity
  8
0
  6
Continuous
 62
     7
100
AcDbLine
 10
97.6276199507
 20
186.0369705509
 30
0.0
 11
98.12761995069999
 21
185.5369705509
 31
0.0
  0
LINE
  5
2BE
330
219
100
AcDbEntity
  8
0_COMPONENTS
  6
Continuous
 62
     7
100
AcDbLine
 10
138.2276199507
 20
147.6869705509
 30
0.0
 11
138.5276199507
 21
147.3869705509
 31
0.0
  0
LINE
  5
2BF
330
219
100
AcDbEntity
  8
0
  6
Continuous
 62
     7
100
AcDbLine
 10
117.7373921794
 20
195.3619705509
 30
0.0
 11
117.7373921794
 21
191.6119705509
 31
0.0
  0
LINE
  5
2C0
330
219
100
AcDbEntity
  8
0_COMPONENTS
  6
Continuous
 62
     7
100
AcDbLine
 10
88.0276199507
 20
147.6869705509
 30
0.0
 11
87.7276199507
 21
147.3869705509
 31
0.0
  0
LINE
  5
2C1
330
219
100
AcDbEntity
  8
0
  6
Continuous
 62
     7
100
AcDbLine
 10
118.3976199507
 20
235.3869705509
 30
0.0
 11
118.3976199507
 21
233.3869705509
 31
0.0
  0
LINE
  5
2C2
330
219
100
AcDbEntity
  8
0
  6
Continuous
 62
     7
100
AcDbLine
 10
118.6276199507
 20
198.5369705509
 30
0.0
 11
118.6276199507
 21
195.3619705509
 31
0.0
  0
LINE
  5
2C3
330
219
100
AcDbEntity
  8
0
  6
Continuous
 62
     7
100
AcDbLine
 10
118.6276199507
 20
191.6119705509
 30
0.0
 11
118.6276199507
 21
185.8298637697
 31
0.0
  0
LINE
  5
2C4
330
219
100
AcDbEntity
  8
0
  6
Continuous
 62
     7
100
AcDbLine
 10
118.7205131695
 20
185.7369705509
 30
0.0
 11
118.7205131695
 21
185.5369705509
 31
0.0
  0
LINE
  5
2C5
330
219
100
AcDbEntity
  8
0
  6
Continuous
 62
     7
100
AcDbLine
 10
119.1276199507
 20
186.0369705509
 30
0.0
 11
119.1276199507
 21
191.6119705509
 31
0.0
  0
LINE
  5
2C6
330
219
100
AcDbEntity
  8
0
  6
Continuous
 62
     7
100
AcDbLine
 10
119.1276199507
 20
195.3619705509
 30
0.0
 11
119.1276199507
 21
198.536970551
 31
0.0
  0
LINE
  5
2C7
330
219
100
AcDbEntity
  8
0
  6
Continuous
 62
     7
100
AcDbLine
 10
119.610516236
 20
186.4429855208
 30
0.0
 11
119.610516236
 21
190.1094714761
 31
0.0
  0
LINE
  5
2C8
330
219
100
AcDbEntity
  8
0
  6
Continuous
 62
     7
100
AcDbLine
 10
119.610516236
 20
196.8644696257
 30
0.0
 11
119.610516236
 21
198.536970551
 31
0.0
  0
LINE
  5
2C9
330
219
100
AcDbEntity
  8
0
  6
Continuous
 62
     7
100
AcDbLine
 10
132.2823926779999
 20
213.4869705509
 30
0.0
 11
131.9776199507
 21
212.349543248
 31
0.0
  0
LINE
  5
2CA
330
219
100
AcDbEntity
  8
0
  6
Continuous
 62
     7
100
AcDbLine
 10
90.73002468650001
 20
195.3619705509
 30
0.0
 11
88.12761995069999
 21
196.8644696257
 31
0.0
  0
LINE
  5
2CB
330
219
100
AcDbEntity
  8
0
  6
Continuous
 62
     7
100
AcDbLine
 10
138.1276199507
 20
186.0369705509
 30
0.0
 11
137.6276199507
 21
185.5369705509
 31
0.0
  0
LINE
  5
2CC
330
219
100
AcDbEntity
  8
0
  6
Continuous
 62
     7
100
AcDbLine
 10
137.6273727224
 20
185.5369705509
 30
0.0
 11
119.7104626632
 21
185.5369705509
 31
0.0
  0
LINE
  5
2CD
330
219
100
AcDbEntity
  8
0
  6
Continuous
 62
     7
100
AcDbLine
 10
88.62788660049998
 20
185.5369705509
 30
0.0
 11
119.6805350289
 21
185.5369705509
 31
0.0
  0
LINE
  5
2CE
330
219
100
AcDbEntity
  8
0
  6
Continuous
 62
     7
100
AcDbLine
 10
107.5347267319
 20
185.7369705509
 30
0.0
 11
118.7205131695
 21
185.7369705509
 31
0.0
  0
LINE
  5
2CF
330
219
100
AcDbEntity
  8
0
  6
Continuous
 62
     7
100
AcDbLine
 10
138.1276199507
 20
186.0369705509
 30
0.0
 11
119.9595529128
 21
186.0369705509
 31
0.0
  0
LINE
  5
2D0
330
219
100
AcDbEntity
  8
0
  6
Continuous
 62
     7
100
AcDbLine
 10
106.6447236655
 20
186.0369705509
 30
0.0
 11
88.12761995069999
 21
186.0369705509
 31
0.0
  0
LINE
  5
2D1
330
219
100
AcDbEntity
  8
0
  6
Continuous
 62
     7
100
AcDbLine
 10
119.569041307
 20
185.5955491947
 30
0.0
 11
119.7104626632
 21
185.5369705509
 31
0.0
  0
LINE
  5
2D2
330
219
100
AcDbEntity
  8
0_COMPONENTS
  6
Continuous
 62
     7
100
AcDbLine
 10
137.7276199507
 20
164.6869705509
 30
0.0
 11
138.2276199507
 21
164.1869705509
 31
0.0
  0
LINE
  5
2D3
330
219
100
AcDbEntity
  8
0
  6
Continuous
 62
     7
100
AcDbLine
 10
118.7205131695
 20
185.7369705509
 30
0.0
 11
118.6276199507
 21
185.8298637697
 31
0.0
  0
LINE
  5
2D4
330
219
100
AcDbEntity
  8
0
  6
Continuous
 62
     7
100
AcDbLine
 10
135.4276199507
 20
169.4869705509
 30
0.0
 11
135.7276199507
 21
169.1869705509
 31
0.0
  0
LINE
  5
2D5
330
219
100
AcDbEntity
  8
0
  6
Continuous
 62
     7
100
AcDbLine
 10
119.1276199507
 20
186.0369705509
 30
0.0
 11
119.569041307
 21
185.5955491947
 31
0.0
  0
LINE
  5
2D6
330
219
100
AcDbEntity
  8
0
  6
Continuous
 62
     7
100
AcDbLine
 10
138.1276199507
 20
190.1094714761
 30
0.0
 11
119.610516236
 21
190.1094714761
 31
0.0
  0
LINE
  5
2D7
330
219
100
AcDbEntity
  8
0
  6
Continuous
 62
     7
100
AcDbLine
 10
106.6447236655
 20
190.1094714761
 30
0.0
 11
97.6276199507
 21
190.1094714761
 31
0.0
  0
LINE
  5
2D8
330
219
100
AcDbEntity
  8
0
  6
Continuous
 62
     7
100
AcDbLine
 10
93.5125747048
 20
190.1094714761
 30
0.0
 11
88.12761995069999
 21
190.1094714761
 31
0.0
  0
LINE
  5
2D9
330
219
100
AcDbEntity
  8
0
  6
Continuous
 62
     7
100
AcDbLine
 10
90.730184202
 20
191.6119705509
 30
0.0
 11
108.5178477221
 21
191.6119705509
 31
0.0
  0
LINE
  5
2DA
330
219
100
AcDbEntity
  8
0
  6
Continuous
 62
     7
100
AcDbLine
 10
117.7373921794
 20
191.6119705509
 30
0.0
 11
135.5251557776
 21
191.6119705509
 31
0.0
  0
LINE
  5
2DB
330
219
100
AcDbEntity
  8
0
  6
Continuous
 62
     7
100
AcDbLine
 10
131.1828958116
 20
235.4369987365
 30
0.0
 11
132.2823926779999
 21
213.4869705509
 31
0.0
  0
LINE
  5
2DC
330
219
100
AcDbEntity
  8
0
  6
Continuous
 62
     7
100
AcDbLine
 10
131.9776199507
 20
212.349543248
 30
0.0
 11
131.9776199507
 21
211.8869705509
 31
0.0
  0
LINE
  5
2DD
330
219
100
AcDbEntity
  8
0
  6
Continuous
 62
     7
100
AcDbLine
 10
134.1276199507
 20
185.5369705509
 30
0.0
 11
134.1276199507
 21
169.4869705509
 31
0.0
  0
LINE
  5
2DE
330
219
100
AcDbEntity
  8
0
  6
Continuous
 62
     7
100
AcDbLine
 10
134.6276199507
 20
191.6119705509
 30
0.0
 11
134.6276199507
 21
195.3619705509
 31
0.0
  0
LINE
  5
2DF
330
219
100
AcDbEntity
  8
3_ALL_AXES
  6
Continuous
 62
     7
100
AcDbLine
 10
135.7276199507
 20
168.6869705509
 30
0.0
 11
135.7276199507
 21
164.6869705509
 31
0.0
  0
LINE
  5
2E0
330
219
100
AcDbEntity
  8
0
  6
Continuous
 62
     7
100
AcDbLine
 10
135.7276199507
 20
169.1869705509
 30
0.0
 11
135.7276199507
 21
164.6869705509
 31
0.0
  0
LINE
  5
2E1
330
219
100
AcDbEntity
  8
0
  6
Continuous
 62
     7
100
AcDbLine
 10
135.5251557776
 20
195.3619705509
 30
0.0
 11
117.7373921794
 21
195.3619705509
 31
0.0
  0
LINE
  5
2E2
330
219
100
AcDbEntity
  8
0
  6
Continuous
 62
     7
100
AcDbLine
 10
90.730184202
 20
195.3619705509
 30
0.0
 11
108.5178477221
 21
195.3619705509
 31
0.0
  0
LINE
  5
2E3
330
219
100
AcDbEntity
  8
0
  6
Continuous
 62
     7
100
AcDbLine
 10
88.12761995069999
 20
196.8644696257
 30
0.0
 11
93.5125747048
 21
196.8644696257
 31
0.0
  0
LINE
  5
2E4
330
219
100
AcDbEntity
  8
0
  6
Continuous
 62
     7
100
AcDbLine
 10
97.6276199507
 20
196.8644696257
 30
0.0
 11
106.6447236655
 21
196.8644696257
 31
0.0
  0
LINE
  5
2E5
330
219
100
AcDbEntity
  8
0
  6
Continuous
 62
     7
100
AcDbLine
 10
119.610516236
 20
196.8644696257
 30
0.0
 11
138.1276199507
 21
196.8644696257
 31
0.0
  0
LINE
  5
2E6
330
219
100
AcDbEntity
  8
0
  6
Continuous
 62
     7
100
AcDbLine
 10
138.1276199507
 20
210.9869705509
 30
0.0
 11
138.1276199507
 21
209.9869681005
 31
0.0
  0
LINE
  5
2E7
330
219
100
AcDbEntity
  8
0
  6
Continuous
 62
     7
100
AcDbLine
 10
138.1276199507
 20
198.9869730013
 30
0.0
 11
138.1276199507
 21
196.8644696257
 31
0.0
  0
LINE
  5
2E8
330
219
100
AcDbEntity
  8
0
  6
Continuous
 62
     7
100
AcDbLine
 10
138.1276199507
 20
190.1094714761
 30
0.0
 11
138.1276199507
 21
186.0369705509
 31
0.0
  0
LINE
  5
2E9
330
219
100
AcDbEntity
  8
0_COMPONENTS
  6
Continuous
 62
     7
100
AcDbLine
 10
138.2276199507
 20
164.1869705509
 30
0.0
 11
138.2276199507
 21
147.6869705509
 31
0.0
  0
LINE
  5
2EA
330
219
100
AcDbEntity
  8
0_COMPONENTS
  6
Continuous
 62
     7
100
AcDbLine
 10
138.2276199507
 20
128.6869705509
 30
0.0
 11
138.2276199507
 21
115.1869705509
 31
0.0
  0
LINE
  5
2EB
330
219
100
AcDbEntity
  8
0_COMPONENTS
  6
Continuous
 62
     7
100
AcDbLine
 10
138.5276199507
 20
147.3869705509
 30
0.0
 11
138.5276199507
 21
128.9869705509
 31
0.0
  0
LINE
  5
2EC
330
219
100
AcDbEntity
  8
0
  6
Continuous
 62
     7
100
AcDbLine
 10
106.6447236655
 20
198.536970551
 30
0.0
 11
107.6276199507
 21
198.5369705509
 31
0.0
  0
LINE
  5
2ED
330
219
100
AcDbEntity
  8
0
  6
Continuous
 62
     7
100
AcDbLine
 10
118.6276199507
 20
198.5369705509
 30
0.0
 11
119.610516236
 21
198.536970551
 31
0.0
  0
LINE
  5
2EE
330
219
100
AcDbEntity
  8
0
  6
Continuous
 62
     7
100
AcDbLine
 10
97.1276199507
 20
198.835493637
 30
0.0
 11
97.6276199507
 21
198.8354936343
 31
0.0
  0
LINE
  5
2EF
330
219
100
AcDbEntity
  8
0
  6
Continuous
 62
     7
100
AcDbLine
 10
138.1276199507
 20
190.1094714761
 30
0.0
 11
135.5252152149
 21
191.6119705509
 31
0.0
  0
LINE
  5
2F0
330
219
100
AcDbEntity
  8
0
  6
Continuous
 62
     7
100
AcDbLine
 10
121.452558801
 20
236.3686947545
 30
0.0
 11
121.8345698035
 21
235.5772797417
 31
0.0
  0
LINE
  5
2F1
330
219
100
AcDbEntity
  8
0
  6
Continuous
 62
     7
100
AcDbLine
 10
138.1276199507
 20
210.9869705509
 30
0.0
 11
88.12761995069999
 21
210.9869705509
 31
0.0
  0
LINE
  5
2F2
330
219
100
AcDbEntity
  8
0
  6
Continuous
 62
     7
100
AcDbLine
 10
137.6273328795
 20
211.4869705509
 30
0.0
 11
88.62790702199999
 21
211.4869705509
 31
0.0
  0
LINE
  5
2F3
330
219
100
AcDbEntity
  8
0
  6
Continuous
 62
     7
100
AcDbLine
 10
94.2776199507
 20
211.8869705509
 30
0.0
 11
131.9776199507
 21
211.8869705509
 31
0.0
  0
LINE
  5
2F4
330
219
100
AcDbEntity
  8
0
  6
Continuous
 62
     7
100
AcDbLine
 10
94.2776199507
 20
212.349543248
 30
0.0
 11
131.9776199507
 21
212.349543248
 31
0.0
  0
LINE
  5
2F5
330
219
100
AcDbEntity
  8
0
  6
Continuous
 62
     7
100
AcDbLine
 10
132.2823926779999
 20
213.4869705509
 30
0.0
 11
93.9728472234
 21
213.4869705509
 31
0.0
  0
LINE
  5
2F6
330
219
100
AcDbEntity
  8
0
  6
Continuous
 62
     7
100
AcDbLine
 10
106.8576199507
 20
236.3869705509
 30
0.0
 11
107.8576199507
 21
235.3869705509
 31
0.0
  0
LINE
  5
2F7
330
219
100
AcDbEntity
  8
0
  6
Continuous
 62
     7
100
AcDbLine
 10
123.9960344056
 20
236.1954309852
 30
0.0
 11
124.107149149
 21
235.9652337513
 31
0.0
  0
LINE
  5
2F8
330
219
100
AcDbEntity
  8
0
  6
Continuous
 62
     7
100
AcDbLine
 10
137.6276199507
 20
211.4869705509
 30
0.0
 11
138.1276199507
 21
210.9869705509
 31
0.0
  0
LINE
  5
2F9
330
219
100
AcDbEntity
  8
0_COMPONENTS
  6
Continuous
 62
     7
100
AcDbLine
 10
138.2276199507
 20
115.1869705509
 30
0.0
 11
136.9285818447
 21
112.9369705504
 31
0.0
  0
LINE
  5
2FA
330
219
100
AcDbEntity
  8
0_COMPONENTS
  6
Continuous
 62
     7
100
AcDbLine
 10
138.5276199507
 20
128.9869705509
 30
0.0
 11
138.2276199507
 21
128.6869705509
 31
0.0
  0
LINE
  5
2FB
330
219
100
AcDbEntity
  8
0
  6
Continuous
 62
     7
100
AcDbLine
 10
118.9235683277
 20
231.8869705509
 30
0.0
 11
107.3329172511
 21
231.8869705509
 31
0.0
  0
LINE
  5
2FC
330
219
100
AcDbEntity
  8
0
  6
Continuous
 62
     7
100
AcDbLine
 10
104.9072273696
 20
233.3869705509
 30
0.0
 11
107.8576199507
 21
233.3869705509
 31
0.0
  0
LINE
  5
2FD
330
219
100
AcDbEntity
  8
0
  6
Continuous
 62
     7
100
AcDbLine
 10
118.3976199507
 20
233.3869705509
 30
0.0
 11
121.3480125318
 21
233.3869705509
 31
0.0
  0
LINE
  5
2FE
330
219
100
AcDbEntity
  8
0
  6
Continuous
 62
     7
100
AcDbLine
 10
105.2505025071
 20
235.3869705509
 30
0.0
 11
107.8576199507
 21
235.3869705509
 31
0.0
  0
LINE
  5
2FF
330
219
100
AcDbEntity
  8
0
  6
Continuous
 62
     7
100
AcDbLine
 10
118.3976199507
 20
235.3869705509
 30
0.0
 11
121.0047373943
 21
235.3869705509
 31
0.0
  0
LINE
  5
300
330
219
100
AcDbEntity
  8
0
  6
Continuous
 62
     7
100
AcDbLine
 10
95.0723440898
 20
235.4369987365
 30
0.0
 11
105.1198063027
 21
235.4369987365
 31
0.0
  0
LINE
  5
301
330
219
100
AcDbEntity
  8
0
  6
Continuous
 62
     7
100
AcDbLine
 10
121.1354335988
 20
235.4369987365
 30
0.0
 11
131.1828958116
 21
235.4369987365
 31
0.0
  0
LINE
  5
303
330
219
100
AcDbEntity
  8
0
  6
Continuous
 62
     7
100
AcDbLine
 10
96.07128339229999
 20
236.3869705509
 30
0.0
 11
100.9879880756
 21
236.3869705509
 31
0.0
  0
LINE
  5
304
330
219
100
AcDbEntity
  8
0
  6
Continuous
 62
     7
100
AcDbLine
 10
125.1276199507
 20
236.3869705509
 30
0.0
 11
130.1839584583
 21
236.3869705509
 31
0.0
  0
ARC
  5
305
330
219
100
AcDbEntity
  8
0
  6
Continuous
 62
     7
100
AcDbCircle
 10
64.80966110219999
 20
95.19892594279999
 30
0.0
 40
109.5953711469
100
AcDbArc
 50
59.99808661220001
 51
60.28917666969999
  0
ARC
  5
306
330
219
100
AcDbEntity
  8
0
  6
Continuous
 62
     7
100
AcDbCircle
 10
93.2867958649
 20
163.4603815503
 30
0.0
 40
34.9447898755
100
AcDbArc
 50
40.2455367398
 51
41.1234248643
  0
ARC
  5
307
330
219
100
AcDbEntity
  8
0_COMPONENTS
  6
Continuous
 62
     7
100
AcDbCircle
 10
89.7596707583
 20
113.1869705509
 30
0.0
 40
0.5
100
AcDbArc
 50
210.0000000698
 51
270.0000001322
  0
ARC
  5
308
330
219
100
AcDbEntity
  8
0
  6
Continuous
 62
     7
100
AcDbCircle
 10
32.3623833249
 20
272.6379417595
 30
0.0
 40
122.6450410568
100
AcDbArc
 50
315.0542634693
 51
315.3479061547
  0
ARC
  5
309
330
219
100
AcDbEntity
  8
0
  6
Continuous
 62
     7
100
AcDbCircle
 10
36.4531826109
 20
269.4903907514
 30
0.0
 40
118.0584008998
100
AcDbArc
 50
314.7613971531
 51
315.0181712947
  0
ARC
  5
30A
330
219
100
AcDbEntity
  8
0
  6
Continuous
 62
     7
100
AcDbCircle
 10
64.80966110219999
 20
291.775015159
 30
0.0
 40
109.5953711469
100
AcDbArc
 50
299.7108233303
 51
300.0019133878
  0
ARC
  5
30B
330
219
100
AcDbEntity
  8
0
  6
Continuous
 62
     7
100
AcDbCircle
 10
94.02395231520001
 20
265.987202491
 30
0.0
 40
81.3796089434
100
AcDbArc
 50
279.385213711
 51
279.5565875173
  0
ARC
  5
30C
330
219
100
AcDbEntity
  8
0
  6
Continuous
 62
     7
100
AcDbCircle
 10
91.62761995069999
 20
198.835493637
 30
0.0
 40
6.0
100
AcDbArc
 50
0.0
 51
67.5565610017
  0
ARC
  5
30D
330
219
100
AcDbEntity
  8
0
  6
Continuous
 62
     7
100
AcDbCircle
 10
113.1276199507
 20
198.5369705509
 30
0.0
 40
6.0
100
AcDbArc
 50
0.0000000014
 51
179.9999999985
  0
ARC
  5
30E
330
219
100
AcDbEntity
  8
0
  6
Continuous
 62
     7
100
AcDbCircle
 10
113.1276199507
 20
198.5369705509
 30
0.0
 40
5.5
100
AcDbArc
 50
0.0
 51
180.0
  0
ARC
  5
30F
330
219
100
AcDbEntity
  8
0
  6
Continuous
 62
     7
100
AcDbCircle
 10
91.62761995069999
 20
198.835493637
 30
0.0
 40
5.5
100
AcDbArc
 50
0.0
 51
69.9573800954
  0
CIRCLE
  5
311
330
219
100
AcDbEntity
  8
0
  6
Continuous
 62
     7
100
AcDbCircle
 10
113.1276199507
 20
218.9869705509
 30
0.0
 40
3.0
  0
ARC
  5
312
330
219
100
AcDbEntity
  8
0
  6
Continuous
 62
     7
100
AcDbCircle
 10
104.13916452
 20
232.6793868828
 30
0.0
 40
2.926786880099999
100
AcDbArc
 50
67.6841156425
 51
70.4239678089
  0
ARC
  5
313
330
219
100
AcDbEntity
  8
0
  6
Continuous
 62
     7
100
AcDbCircle
 10
109.3576199507
 20
233.3869705509
 30
0.0
 40
1.5
100
AcDbArc
 50
180.0
 51
270.0
  0
ARC
  5
314
330
219
100
AcDbEntity
  8
0
  6
Continuous
 62
     7
100
AcDbCircle
 10
96.0710918962
 20
235.3869705509
 30
0.0
 40
1.0
100
AcDbArc
 50
90.0
 51
177.1323990795
  0
ARC
  5
315
330
219
100
AcDbEntity
  8
0
  6
Continuous
 62
     7
100
AcDbCircle
 10
93.67761995069999
 20
211.8869705509
 30
0.0
 40
0.6
100
AcDbArc
 50
317.8046766054
 51
360.0
  0
ARC
  5
316
330
219
100
AcDbEntity
  8
0
  6
Continuous
 62
     7
100
AcDbCircle
 10
144.5595317962
 20
77.70059719149999
 30
0.0
 40
123.4566597889
100
AcDbArc
 50
112.6784607421
 51
114.4236809037
  0
ARC
  5
317
330
219
100
AcDbEntity
  8
0
  6
Continuous
 62
     7
100
AcDbCircle
 10
161.4457316882
 20
95.1986312632
 30
0.0
 40
109.5957027909
100
AcDbArc
 50
119.7108164194
 51
120.0019055746
  0
ARC
  5
318
330
219
100
AcDbEntity
  8
0_COMPONENTS
  6
Continuous
 62
     7
100
AcDbCircle
 10
136.4955691431
 20
113.1869705509
 30
0.0
 40
0.5
100
AcDbArc
 50
269.9999998678
 51
329.9999999302
  0
ARC
  5
319
330
219
100
AcDbEntity
  8
0
  6
Continuous
 62
     7
100
AcDbCircle
 10
144.5595317962
 20
309.2733439103
 30
0.0
 40
123.4566597889
100
AcDbArc
 50
245.5763190963001
 51
247.3215392579
  0
ARC
  5
31A
330
219
100
AcDbEntity
  8
0
  6
Continuous
 62
     7
100
AcDbCircle
 10
195.198641684
 20
235.2842203105
 30
0.0
 40
112.9838387849
100
AcDbArc
 50
205.8412206678
 51
206.1232868243
  0
ARC
  5
31B
330
219
100
AcDbEntity
  8
0
  6
Continuous
 62
     7
100
AcDbCircle
 10
161.4457316855
 20
291.775309834
 30
0.0
 40
109.5957027856
100
AcDbArc
 50
239.9980944254
 51
240.2891835806001
  0
ARC
  5
31C
330
219
100
AcDbEntity
  8
0
  6
Continuous
 62
     7
100
AcDbCircle
 10
132.2312875869
 20
265.9872024954
 30
0.0
 40
81.37960894789999
100
AcDbArc
 50
260.4434124827
 51
260.614786289
  0
ARC
  5
31D
330
219
100
AcDbEntity
  8
0
  6
Continuous
 62
     7
100
AcDbCircle
 10
162.130170971
 20
204.4869705509
 30
0.0
 40
24.507651999
100
AcDbArc
 50
178.8309823603
 51
181.1690176397
  0
ARC
  5
31F
330
219
100
AcDbEntity
  8
0
  6
Continuous
 62
     7
100
AcDbCircle
 10
122.1160753814
 20
232.6793868828
 30
0.0
 40
2.926786880099999
100
AcDbArc
 50
109.576032191
 51
112.3158843575
  0
ARC
  5
320
330
219
100
AcDbEntity
  8
0
  6
Continuous
 62
     7
100
AcDbCircle
 10
116.8976199507
 20
233.3869705509
 30
0.0
 40
1.5
100
AcDbArc
 50
270.0
 51
360.0
  0
ARC
  5
321
330
219
100
AcDbEntity
  8
0
  6
Continuous
 62
     7
100
AcDbCircle
 10
130.1841480053
 20
235.3869705509
 30
0.0
 40
1.0
100
AcDbArc
 50
2.8676009205
 51
90.0
  0
ARC
  5
322
330
219
100
AcDbEntity
  8
0
  6
Continuous
 62
     7
100
AcDbCircle
 10
132.5776199507
 20
211.8869705509
 30
0.0
 40
0.6
100
AcDbArc
 50
180.0
 51
222.1953233946
  0
SPLINE
  5
323
330
219
100
AcDbEntity
  8
0
  6
Continuous
 62
     7
100
AcDbSpline
210
0.0
220
0.0
230
1.0
 70
     8
 71
     3
 72
    21
 73
    17
 74
     0
 42
0.0000001
 43
0.0000000001
 40
0.0
 40
0.0
 40
0.0
 40
0.0
 40
0.0013239755
 40
0.0052771376
 40
0.01183136
 40
0.0209585277
 40
0.0467665993
 40
0.082183292
 40
0.1266045624
 40
0.1793151819
 40
0.2395591252
 40
0.3065767785
 40
0.4579104978000001
 40
0.6274865813
 40
0.8099544579999999
 40
1.0
 40
1.0
 40
1.0
 40
1.0
 10
138.1276199507
 20
198.9869705509
 30
0.0
 10
138.1268544218
 20
198.9890543889
 30
0.0
 10
138.1261729809
 20
198.9980051441
 30
0.0
 10
138.1217984843
 20
199.0172955725
 30
0.0
 10
138.1164871554999
 20
199.0498359862
 30
0.0
 10
138.1040283932
 20
199.1182526553
 30
0.0
 10
138.0838632336
 20
199.234501629
 30
0.0
 10
138.0540146061
 20
199.4091036241
 30
0.0
 10
138.018002135
 20
199.6284259245
 30
0.0
 10
137.9771190536
 20
199.8891242746
 30
0.0
 10
137.9329737745
 20
200.1876552281
 30
0.0
 10
137.8691810965
 20
200.6504260417
 30
0.0
 10
137.791482071
 20
201.296302411
 30
0.0
 10
137.7124154528
 20
202.1367494426
 30
0.0
 10
137.6537493202
 20
203.0439488172
 30
0.0
 10
137.6330202398
 20
203.6683534929
 30
0.0
 10
137.6276199507
 20
203.9869705509
 30
0.0
  0
SPLINE
  5
324
330
219
100
AcDbEntity
  8
0
  6
Continuous
 62
     7
100
AcDbSpline
210
0.0
220
0.0
230
1.0
 70
     8
 71
     3
 72
    23
 73
    19
 74
     0
 42
0.0000001
 43
0.0000000001
 40
0.0
 40
0.0
 40
0.0
 40
0.0
 40
0.1900450175
 40
0.3725123921
 40
0.5420880048
 40
0.6203925245000001
 40
0.6934240661
 40
0.7604415343000001
 40
0.8206853117999999
 40
0.8733957861
 40
0.9178169331999999
 40
0.9532335229
 40
0.9673752613999999
 40
0.9790415312
 40
0.9881686748999999
 40
0.9947228806
 40
0.9986760315999999
 40
1.0
 40
1.0
 40
1.0
 40
1.0
 10
137.6276199507
 20
204.9869705509
 30
0.0
 10
137.6330202399
 20
205.3055876132
 30
0.0
 10
137.6537493565
 20
205.9299930242
 30
0.0
 10
137.7124153433
 20
206.8371893306
 30
0.0
 10
137.78001155
 20
207.5557146684
 30
0.0
 10
137.8411308535
 20
208.0903406239
 30
0.0
 10
137.8871103199
 20
208.4535794464
 30
0.0
 10
137.9329740532
 20
208.7862895821
 30
0.0
 10
137.9771183867
 20
209.0848058985
 30
0.0
 10
138.0180041307
 20
209.3455481679
 30
0.0
 10
138.0540089744
 20
209.5647440532
 30
0.0
 10
138.0805794741
 20
209.7203634706
 30
0.0
 10
138.098052639
 20
209.8210697187
 30
0.0
 10
138.1085709932
 20
209.8796698339
 30
0.0
 10
138.1156957548
 20
209.9224444298
 30
0.0
 10
138.123529539
 20
209.9602630872
 30
0.0
 10
138.1234474665
 20
209.9702416673
 30
0.0
 10
138.1287628149
 20
209.9888737721
 30
0.0
 10
138.1276199507
 20
209.9869705509
 30
0.0
  0
LINE
  5
325
330
219
100
AcDbEntity
  8
0
  6
Continuous
 62
     7
100
AcDbLine
 10
138.1082465582
 20
199.0954054987
 30
0.0
 11
138.1276199507
 21
198.9869705509
 31
0.0
  0
SPLINE
  5
326
330
219
100
AcDbEntity
  8
0
  6
Continuous
 62
     7
100
AcDbSpline
210
0.0
220
0.0
230
1.0
 70
     8
 71
     3
 72
    13
 73
     9
 74
     0
 42
0.0000001
 43
0.0000000001
 40
0.0
 40
0.0
 40
0.0
 40
0.0
 40
0.0187817454
 40
0.0732489619
 40
0.1609813314
 40
0.2795553591
 40
0.5974749629
 40
1.0
 40
1.0
 40
1.0
 40
1.0
 10
106.6861985945
 20
185.5955491947
 30
0.0
 10
106.6866667601
 20
185.5960173603
 30
0.0
 10
106.6896567661
 20
185.595573913
 30
0.0
 10
106.6948453305
 20
185.5972841819
 30
0.0
 10
106.7041415278
 20
185.5983356798
 30
0.0
 10
106.7222432742
 20
185.6016155637
 30
0.0
 10
106.7514956193
 20
185.6063732015
 30
0.0
 10
106.7765101688
 20
185.6106473689
 30
0.0
 10
106.7905051903
 20
185.6129894477
 30
0.0
  0
LINE
  5
327
330
219
100
AcDbEntity
  8
0
  6
Continuous
 62
     7
100
AcDbLine
 10
106.7905051903
 20
185.6129894477
 30
0.0
 11
106.9153060921
 21
185.6337185617
 31
0.0
  0
LINE
  5
328
330
219
100
AcDbEntity
  8
0
  6
Continuous
 62
     7
100
AcDbLine
 10
106.9153060921
 20
185.6337185617
 30
0.0
 11
107.2946352273
 21
185.6969183538
 31
0.0
  0
LINE
  5
329
330
219
100
AcDbEntity
  8
0
  6
Continuous
 62
     7
100
AcDbLine
 10
107.1276199507
 20
186.0369705509
 30
0.0
 11
107.6276199507
 21
185.8298637697
 31
0.0
  0
LINE
  5
32A
330
219
100
AcDbEntity
  8
0
  6
Continuous
 62
     7
100
AcDbLine
 10
119.1276199507
 20
186.0369705509
 30
0.0
 11
119.0862651636
 21
186.0198408372
 31
0.0
  0
LINE
  5
32B
330
219
100
AcDbEntity
  8
0
  6
Continuous
 62
     7
100
AcDbLine
 10
119.0862651636
 20
186.0198408372
 30
0.0
 11
118.6276199507
 21
185.8298637697
 31
0.0
  0
SPLINE
  5
32C
330
219
100
AcDbEntity
  8
0
  6
Continuous
 62
     7
100
AcDbSpline
210
0.0
220
0.0
230
1.0
 70
     8
 71
     3
 72
     9
 73
     5
 74
     0
 42
0.0000001
 43
0.0000000001
 40
0.0
 40
0.0
 40
0.0
 40
0.0
 40
0.496294813
 40
1.0
 40
1.0
 40
1.0
 40
1.0
 10
121.8345698035
 20
235.5772797417
 30
0.0
 10
121.7161606562
 20
235.5772797417
 30
0.0
 10
121.4771443411
 20
235.548103293
 30
0.0
 10
121.2486855942
 20
235.4772048999
 30
0.0
 10
121.1354335988
 20
235.4369987365
 30
0.0
  0
SPLINE
  5
32D
330
219
100
AcDbEntity
  8
0
  6
Continuous
 62
     7
100
AcDbSpline
210
0.0
220
0.0
230
1.0
 70
     8
 71
     3
 72
    15
 73
    11
 74
     0
 42
0.0000001
 43
0.0000000001
 40
0.0
 40
0.0
 40
0.0
 40
0.0
 40
0.0521716478
 40
0.1077089994
 40
0.2247030482
 40
0.346841925
 40
0.4725577156
 40
0.6010884529000001
 40
0.7320020668
 40
1.0
 40
1.0
 40
1.0
 40
1.0
 10
124.107149149
 20
235.9652337513
 30
0.0
 10
124.077511332
 20
235.9375591749
 30
0.0
 10
124.0055291389
 20
235.8925908371
 30
0.0
 10
123.8459200819
 20
235.821847363
 30
0.0
 10
123.6258260247
 20
235.7555543386
 30
0.0
 10
123.3485923939
 20
235.6957310044
 30
0.0
 10
123.0594255637
 20
235.6503826042
 30
0.0
 10
122.7618811379
 20
235.6168530036
 30
0.0
 10
122.3530440887
 20
235.5858229088
 30
0.0
 10
122.0428677998
 20
235.5772797417
 30
0.0
 10
121.8345698035
 20
235.5772797417
 30
0.0
  0
SPLINE
  5
32E
330
219
100
AcDbEntity
  8
0
  6
Continuous
 62
     7
100
AcDbSpline
210
0.0
220
0.0
230
1.0
 70
     8
 71
     3
 72
    11
 73
     7
 74
     0
 42
0.0000001
 43
0.0000000001
 40
0.0
 40
0.0
 40
0.0
 40
0.0
 40
0.313011198
 40
0.5852901561000001
 40
0.8010983239999999
 40
1.0
 40
1.0
 40
1.0
 40
1.0
 10
123.9960344056
 20
236.1954309852
 30
0.0
 10
124.0260015033
 20
236.1839432825
 30
0.0
 10
124.0800469538
 20
236.1564331175
 30
0.0
 10
124.1378847375
 20
236.0928651228
 30
0.0
 10
124.1464469171
 20
236.0176688581
 30
0.0
 10
124.1220549041
 20
235.9791521333
 30
0.0
 10
124.107149149
 20
235.9652337513
 30
0.0
  0
SPLINE
  5
32F
330
219
100
AcDbEntity
  8
0
  6
Continuous
 62
     7
100
AcDbSpline
210
0.0
220
0.0
230
1.0
 70
     8
 71
     3
 72
    14
 73
    10
 74
     0
 42
0.0000001
 43
0.0000000001
 40
0.0
 40
0.0
 40
0.0
 40
0.0
 40
0.2434756868
 40
0.4888711049000001
 40
0.6128456128000001
 40
0.7383357045000001
 40
0.8664608642000001
 40
0.9322656592000001
 40
1.0
 40
1.0
 40
1.0
 40
1.0
 10
121.452558801
 20
236.3686947545
 30
0.0
 10
121.6600763185
 20
236.3686947545
 30
0.0
 10
122.0767490504
 20
236.366451596
 30
0.0
 10
122.5990236237
 20
236.356133406
 30
0.0
 10
123.0204559929
 20
236.3380951442
 30
0.0
 10
123.3415321393
 20
236.3161391835
 30
0.0
 10
123.6124110281
 20
236.2860926994
 30
0.0
 10
123.8317828962
 20
236.2459024924
 30
0.0
 10
123.9421286231
 20
236.2160954355
 30
0.0
 10
123.9960344056
 20
236.1954309852
 30
0.0
  0
SPLINE
  5
330
330
219
100
AcDbEntity
  8
0
  6
Continuous
 62
     7
100
AcDbSpline
210
0.0
220
0.0
230
1.0
 70
     8
 71
     3
 72
     9
 73
     5
 74
     0
 42
0.0000001
 43
0.0000000001
 40
0.0
 40
0.0
 40
0.0
 40
0.0
 40
0.2586489623999999
 40
1.0
 40
1.0
 40
1.0
 40
1.0
 10
120.7478150574
 20
236.3869705509
 30
0.0
 10
120.808596819
 20
236.3869705509
 30
0.0
 10
121.0435716065
 20
236.382264871
 30
0.0
 10
121.2783434411
 20
236.3686947545
 30
0.0
 10
121.452558801
 20
236.3686947545
 30
0.0
  0
SPLINE
  5
331
330
219
100
AcDbEntity
  8
0
  6
Continuous
 62
     7
100
AcDbSpline
210
0.0
220
0.0
230
1.0
 70
     8
 71
     3
 72
     9
 73
     5
 74
     0
 42
0.0000001
 43
0.0000000001
 40
0.0
 40
0.0
 40
0.0
 40
0.0
 40
0.2358336756
 40
1.0
 40
1.0
 40
1.0
 40
1.0
 10
104.8026811005
 20
236.3686947545
 30
0.0
 10
104.8581014951
 20
236.3686947545
 30
0.0
 10
105.0930851458
 20
236.3728452968
 30
0.0
 10
105.32784744
 20
236.3869705509
 30
0.0
 10
105.507424844
 20
236.3869705509
 30
0.0
  0
SPLINE
  5
332
330
219
100
AcDbEntity
  8
0
  6
Continuous
 62
     7
100
AcDbSpline
210
0.0
220
0.0
230
1.0
 70
     8
 71
     3
 72
    14
 73
    10
 74
     0
 42
0.0000001
 43
0.0000000001
 40
0.0
 40
0.0
 40
0.0
 40
0.0
 40
0.0677344058
 40
0.1335382903
 40
0.2616630277
 40
0.387153288
 40
0.5111280032
 40
0.7565238745000001
 40
1.0
 40
1.0
 40
1.0
 40
1.0
 10
102.2592054959
 20
236.1954309852
 30
0.0
 10
102.3131113289
 20
236.2160954549
 30
0.0
 10
102.4234563286
 20
236.245902492
 30
0.0
 10
102.6428273408
 20
236.2860913741
 30
0.0
 10
102.9137051058
 20
236.3161384146
 30
0.0
 10
103.2347811539
 20
236.3380954626
 30
0.0
 10
103.6562142325
 20
236.3561335107
 30
0.0
 10
104.1784897278
 20
236.3664517983
 30
0.0
 10
104.5951632134
 20
236.3686947545
 30
0.0
 10
104.8026811005
 20
236.3686947545
 30
0.0
  0
SPLINE
  5
333
330
219
100
AcDbEntity
  8
0
  6
Continuous
 62
     7
100
AcDbSpline
210
0.0
220
0.0
230
1.0
 70
     8
 71
     3
 72
    11
 73
     7
 74
     0
 42
0.0000001
 43
0.0000000001
 40
0.0
 40
0.0
 40
0.0
 40
0.0
 40
0.1989099002
 40
0.4147583584000001
 40
0.6870005168000001
 40
1.0
 40
1.0
 40
1.0
 40
1.0
 10
102.1480907524
 20
235.9652337513
 30
0.0
 10
102.1331845034
 20
235.9791525945
 30
0.0
 10
102.1087850192
 20
236.0176740464
 30
0.0
 10
102.1173744061
 20
236.0928678905
 30
0.0
 10
102.175190202
 20
236.1564452047
 30
0.0
 10
102.2292397657
 20
236.1839438068
 30
0.0
 10
102.2592054959
 20
236.1954309852
 30
0.0
  0
SPLINE
  5
334
330
219
100
AcDbEntity
  8
0
  6
Continuous
 62
     7
100
AcDbSpline
210
0.0
220
0.0
230
1.0
 70
     8
 71
     3
 72
    15
 73
    11
 74
     0
 42
0.0000001
 43
0.0000000001
 40
0.0
 40
0.0
 40
0.0
 40
0.0
 40
0.2679976988
 40
0.3989112192
 40
0.5274418619
 40
0.6531575816
 40
0.7752963985
 40
0.8922904308999999
 40
0.9478278763
 40
1.0
 40
1.0
 40
1.0
 40
1.0
 10
104.4206700979
 20
235.5772797417
 30
0.0
 10
104.2123722808
 20
235.5772797417
 30
0.0
 10
103.9021962441
 20
235.5858229291
 30
0.0
 10
103.4933595108
 20
235.6168529109
 30
0.0
 10
103.1958152787
 20
235.6503825137
 30
0.0
 10
102.9066486292
 20
235.6957308597
 30
0.0
 10
102.6294150173
 20
235.7555539696
 30
0.0
 10
102.4093211501
 20
235.8218473599
 30
0.0
 10
102.2497111873
 20
235.8925899609
 30
0.0
 10
102.1777288402
 20
235.9375589221
 30
0.0
 10
102.1480907524
 20
235.9652337513
 30
0.0
  0
SPLINE
  5
335
330
219
100
AcDbEntity
  8
0
  6
Continuous
 62
     7
100
AcDbSpline
210
0.0
220
0.0
230
1.0
 70
     8
 71
     3
 72
     9
 73
     5
 74
     0
 42
0.0000001
 43
0.0000000001
 40
0.0
 40
0.0
 40
0.0
 40
0.0
 40
0.5038295950000001
 40
1.0
 40
1.0
 40
1.0
 40
1.0
 10
105.1198063027
 20
235.4369987365
 30
0.0
 10
105.0065268883
 20
235.4772146341
 30
0.0
 10
104.778057578
 20
235.5480691605
 30
0.0
 10
104.5390489856
 20
235.5772797417
 30
0.0
 10
104.4206700979
 20
235.5772797417
 30
0.0
  0
SPLINE
  5
336
330
219
100
AcDbEntity
  8
0
  6
Continuous
 62
     7
100
AcDbSpline
210
0.0
220
0.0
230
1.0
 70
     8
 71
     3
 72
     9
 73
     5
 74
     0
 42
0.0000001
 43
0.0000000001
 40
0.0
 40
0.0
 40
0.0
 40
0.0
 40
0.5001426607
 40
1.0
 40
1.0
 40
1.0
 40
1.0
 10
121.0047373943
 20
235.3869705509
 30
0.0
 10
121.0526788086
 20
235.0520336807
 30
0.0
 10
121.1548946254
 20
234.3832715756
 30
0.0
 10
121.2768234651
 20
233.7175497728
 30
0.0
 10
121.3480125318
 20
233.3869705509
 30
0.0
  0
SPLINE
  5
337
330
219
100
AcDbEntity
  8
0
  6
Continuous
 62
     7
100
AcDbSpline
210
0.0
220
0.0
230
1.0
 70
     8
 71
     3
 72
     9
 73
     5
 74
     0
 42
0.0000001
 43
0.0000000001
 40
0.0
 40
0.0
 40
0.0
 40
0.0
 40
0.4998572763000001
 40
1.0
 40
1.0
 40
1.0
 40
1.0
 10
104.9072273696
 20
233.3869705509
 30
0.0
 10
104.9784164272
 20
233.7175497305
 30
0.0
 10
105.1003450534
 20
234.3832715705
 30
0.0
 10
105.2025610869
 20
235.0520336391
 30
0.0
 10
105.2505025071
 20
235.3869705509
 30
0.0
  0
SPLINE
  5
338
330
219
100
AcDbEntity
  8
0
  6
Continuous
 62
     7
100
AcDbSpline
210
0.0
220
0.0
230
1.0
 70
     8
 71
     3
 72
    18
 73
    14
 74
     0
 42
0.0000001
 43
0.0000000001
 40
0.0
 40
0.0
 40
0.0
 40
0.0
 40
0.0660009826
 40
0.0984469424
 40
0.1303690936
 40
0.193119972
 40
0.255319802
 40
0.3172407054
 40
0.3790372144
 40
0.5024835487
 40
0.6260752495000001
 40
0.7500985348000001
 40
1.0
 40
1.0
 40
1.0
 40
1.0
 10
121.3480125318
 20
233.3869705509
 30
0.0
 10
121.3621845918
 20
233.321160044
 30
0.0
 10
121.3556935382
 20
233.2150733201
 30
0.0
 10
121.3014423067
 20
233.0932897088
 30
0.0
 10
121.2330866835
 20
232.9827344691
 30
0.0
 10
121.1297741159
 20
232.8597429143
 30
0.0
 10
120.9931749023
 20
232.7266204304
 30
0.0
 10
120.8481591103
 20
232.6042023608
 30
0.0
 10
120.6463144496
 20
232.4529925169
 30
0.0
 10
120.3794818521
 20
232.2844459371
 30
0.0
 10
120.0391807316
 20
232.1168691941
 30
0.0
 10
119.560776343
 20
231.945839141
 30
0.0
 10
119.1773313431
 20
231.8869705509
 30
0.0
 10
118.9224388017
 20
231.8869705509
 30
0.0
  0
SPLINE
  5
339
330
219
100
AcDbEntity
  8
0
  6
Continuous
 62
     7
100
AcDbSpline
210
0.0
220
0.0
230
1.0
 70
     8
 71
     3
 72
    18
 73
    14
 74
     0
 42
0.0000001
 43
0.0000000001
 40
0.0
 40
0.0
 40
0.0
 40
0.0
 40
0.2498184571
 40
0.3738194167
 40
0.4973909802000001
 40
0.6208159457
 40
0.6826007913
 40
0.744511788
 40
0.806692194
 40
0.8694446367000001
 40
0.9335771112999999
 40
0.9665926309999999
 40
1.0
 40
1.0
 40
1.0
 40
1.0
 10
107.3328010998
 20
231.8869705509
 30
0.0
 10
107.0778979097
 20
231.8869705509
 30
0.0
 10
106.6944179906
 20
231.9458495317
 30
0.0
 10
106.2159578845
 20
232.1169067586
 30
0.0
 10
105.8755952657
 20
232.2845380362
 30
0.0
 10
105.6087218137
 20
232.4531246725
 30
0.0
 10
105.406836065
 20
232.60439117
 30
0.0
 10
105.2618603009
 20
232.7268266126
 30
0.0
 10
105.1250831304
 20
232.860086795
 30
0.0
 10
105.0012109263
 20
233.0080921754
 30
0.0
 10
104.919731508
 20
233.1528955591
 30
0.0
 10
104.8944879735
 20
233.2851166637
 30
0.0
 10
104.9000512895
 20
233.3536471335
 30
0.0
 10
104.9072273696
 20
233.3869705509
 30
0.0
  0
SPLINE
  5
33A
330
219
100
AcDbEntity
  8
0
  6
Continuous
 62
     7
100
AcDbSpline
210
0.0
220
0.0
230
1.0
 70
     8
 71
     3
 72
    16
 73
    12
 74
     0
 42
0.0000001
 43
0.0000000001
 40
0.0
 40
0.0
 40
0.0
 40
0.0
 40
0.1235814236
 40
0.1867849936
 40
0.2506443432
 40
0.3773403025
 40
0.5010736097000001
 40
0.6252416927000001
 40
0.7517583454000001
 40
0.8777402671999999
 40
1.0
 40
1.0
 40
1.0
 40
1.0
 10
106.6447236655
 20
198.536970551
 30
0.0
 10
106.6452140833
 20
198.9565533255
 30
0.0
 10
106.705651984
 20
199.5929993663
 30
0.0
 10
106.9106647326
 20
200.4199770414
 30
0.0
 10
107.1980743663
 20
201.233509523
 30
0.0
 10
107.7042507757
 20
202.1816869019
 30
0.0
 10
108.5160921346
 20
203.1708892971
 30
0.0
 10
109.504710108
 20
203.9830415877
 30
0.0
 10
110.6408910336
 20
204.5885893747
 30
0.0
 10
111.8675008661
 20
204.9557935248
 30
0.0
 10
112.7125242883
 20
205.0369890074
 30
0.0
 10
113.1276199507
 20
205.0369705509
 30
0.0
  0
SPLINE
  5
33B
330
219
100
AcDbEntity
  8
0
  6
Continuous
 62
     7
100
AcDbSpline
210
0.0
220
0.0
230
1.0
 70
     8
 71
     3
 72
    16
 73
    12
 74
     0
 42
0.0000001
 43
0.0000000001
 40
0.0
 40
0.0
 40
0.0
 40
0.0
 40
0.1224698911
 40
0.2485626085
 40
0.3750364067
 40
0.499062961
 40
0.6229154128
 40
0.7496624843000001
 40
0.8134707906
 40
0.8765957042
 40
1.0
 40
1.0
 40
1.0
 40
1.0
 10
113.1276199507
 20
205.0369705509
 30
0.0
 10
113.5434289977
 20
205.0369520627
 30
0.0
 10
114.3895531111
 20
204.9555647252
 30
0.0
 10
115.6169317315
 20
204.5875466606
 30
0.0
 10
116.7525985281
 20
203.9815866085
 30
0.0
 10
117.740758956
 20
203.1692645615
 30
0.0
 10
118.552372514
 20
202.1797224447
 30
0.0
 10
119.0583082945
 20
201.2309516809
 30
0.0
 10
119.3452982154
 20
200.4175565724
 30
0.0
 10
119.5497479987
 20
199.5915167364
 30
0.0
 10
119.6100356037
 20
198.9559518082
 30
0.0
 10
119.610516236
 20
198.536970551
 30
0.0
  0
SPLINE
  5
33C
330
219
100
AcDbEntity
  8
0
  6
Continuous
 62
     7
100
AcDbSpline
210
0.0
220
0.0
230
1.0
 70
     8
 71
     3
 72
    21
 73
    17
 74
     0
 42
0.0000001
 43
0.0000000001
 40
0.0
 40
0.0
 40
0.0
 40
0.0
 40
0.0627282509
 40
0.1252943179
 40
0.1877096098
 40
0.2500576163
 40
0.3124582787
 40
0.3750149056
 40
0.4999988013000001
 40
0.6249855432000001
 40
0.6875421306999999
 40
0.7499422371
 40
0.8122904052999999
 40
0.8747060267
 40
0.9372724284
 40
1.0
 40
1.0
 40
1.0
 40
1.0
 10
116.6190163555
 20
219.0077213185
 30
0.0
 10
116.6205403768
 20
218.7777458593
 30
0.0
 10
116.5794053409
 20
218.3166289364
 30
0.0
 10
116.3812758152
 20
217.6532095327
 30
0.0
 10
116.0621663909
 20
217.0401389439
 30
0.0
 10
115.6277689012
 20
216.5029703353
 30
0.0
 10
115.0942420581
 20
216.0629907688
 30
0.0
 10
114.2818231834
 20
215.6288464525
 30
0.0
 10
113.1275800802
 20
215.3933419593
 30
0.0
 10
111.9735420488
 20
215.6292071858
 30
0.0
 10
111.1608981881
 20
216.0629038706
 30
0.0
 10
110.627196954
 20
216.5027072506
 30
0.0
 10
110.1929450441
 20
217.0400416149
 30
0.0
 10
109.8742887032
 20
217.653322109
 30
0.0
 10
109.6758406114
 20
218.3166061289
 30
0.0
 10
109.6345933732
 20
218.7777490781
 30
0.0
 10
109.6362235459
 20
219.0077213185
 30
0.0
  0
SPLINE
  5
33D
330
219
100
AcDbEntity
  8
0
  6
Continuous
 62
     7
100
AcDbSpline
210
0.0
220
0.0
230
1.0
 70
     8
 71
     3
 72
    22
 73
    18
 74
     0
 42
0.0000001
 43
0.0000000001
 40
0.0
 40
0.0
 40
0.0
 40
0.0
 40
0.062556171
 40
0.1251483221
 40
0.1877001426
 40
0.2502003965
 40
0.3126743134
 40
0.3751719749
 40
0.4377178514000001
 40
0.5002965092000001
 40
0.6248286474000001
 40
0.6873261783000001
 40
0.7497995775000001
 40
0.8123000138
 40
0.8748518505999999
 40
0.9374445943999999
 40
1.0
 40
1.0
 40
1.0
 40
1.0
 10
109.6362235459
 20
219.0077213185
 30
0.0
 10
109.6378370016
 20
219.2353352424
 30
0.0
 10
109.6853167627
 20
219.6917826598
 30
0.0
 10
109.8899035943
 20
220.3475375021
 30
0.0
 10
110.2119040963
 20
220.9543712282
 30
0.0
 10
110.6476996603
 20
221.4853974823
 30
0.0
 10
111.1795695458
 20
221.9196374424
 30
0.0
 10
111.7861606027
 20
222.2413111112
 30
0.0
 10
112.4437694343
 20
222.4405468406
 30
0.0
 10
113.3523037583
 20
222.5323471731
 30
0.0
 10
114.2697305138
 20
222.3471772536
 30
0.0
 10
115.0755293926
 20
221.9197460168
 30
0.0
 10
115.6078735622
 20
221.4856528069
 30
0.0
 10
116.0434502594
 20
220.9544741258
 30
0.0
 10
116.3650120711
 20
220.3474190305
 30
0.0
 10
116.5699121193
 20
219.6918054297
 30
0.0
 10
116.6175079976
 20
219.235333178
 30
0.0
 10
116.6190163555
 20
219.0077213185
 30
0.0
  0
SPLINE
  5
33E
330
219
100
AcDbEntity
  8
0
  6
Continuous
 62
     7
100
AcDbSpline
210
0.0
220
0.0
230
1.0
 70
     8
 71
     3
 72
    12
 73
     8
 74
     0
 42
0.0000001
 43
0.0000000001
 40
0.0
 40
0.0
 40
0.0
 40
0.0
 40
0.3150731128
 40
0.5766887606000001
 40
0.6874886439
 40
0.7916583034000001
 40
1.0
 40
1.0
 40
1.0
 40
1.0
 10
93.5125747048
 20
204.0024023429
 30
0.0
 10
93.5125747048
 20
204.0726380602
 30
0.0
 10
93.53027627420001
 20
204.2027069826
 30
0.0
 10
93.6168455417
 20
204.3389682281
 30
0.0
 10
93.7103500853
 20
204.3931025879
 30
0.0
 10
93.8037277025
 20
204.4137031216
 30
0.0
 10
93.8753217192
 20
204.3987654925
 30
0.0
 10
93.9182472384
 20
204.3810347854
 30
0.0
  0
LINE
  5
33F
330
219
100
AcDbEntity
  8
0
  6
Continuous
 62
     7
100
AcDbLine
 10
106.6447236655
 20
186.0369705509
 30
0.0
 11
106.6847672066
 21
185.9969459023
 31
0.0
  0
LINE
  5
340
330
219
100
AcDbEntity
  8
0
  6
Continuous
 62
     7
100
AcDbLine
 10
106.71284578
 20
185.6221963800999
 30
0.0
 11
106.6847672066
 21
185.9969459023
 31
0.0
  0
LINE
  5
341
330
219
100
AcDbEntity
  8
0
  6
Continuous
 62
     7
100
AcDbLine
 10
119.5847114842
 20
185.663575649
 30
0.0
 11
119.5426771001
 21
185.6219142987
 31
0.0
  0
LINE
  5
342
330
219
100
AcDbEntity
  8
0
  6
Continuous
 62
     7
100
AcDbLine
 10
118.9606046741
 20
185.6969183538
 30
0.0
 11
119.3399338094
 21
185.6337185617
 31
0.0
  0
LINE
  5
343
330
219
100
AcDbEntity
  8
0
  6
Continuous
 62
     7
100
AcDbLine
 10
119.3399338094
 20
185.6337185617
 30
0.0
 11
119.4647347111
 21
185.6129894477
 31
0.0
  0
LINE
  5
344
330
219
100
AcDbEntity
  8
0
  6
Continuous
 62
     7
100
AcDbLine
 10
119.4647347111
 20
185.6129894477
 30
0.0
 11
119.5435567534
 21
185.5997338494
 31
0.0
  0
ENDSEC
  0
SECTION
  2
OBJECTS
  0
DICTIONARY
  5
C
330
0
100
AcDbDictionary
281
     1
  3
ACAD_CIP_PREVIOUS_PRODUCT_INFO
350
39C
  3
ACAD_COLOR
350
37E
  3
ACAD_DETAILVIEWSTYLE
350
395
  3
ACAD_GROUP
350
D
  3
ACAD_LAYOUT
350
1A
  3
ACAD_MATERIAL
350
34C
  3
ACAD_MLEADERSTYLE
350
391
  3
ACAD_MLINESTYLE
350
17
  3
ACAD_PLOTSETTINGS
350
19
  3
ACAD_PLOTSTYLENAME
350
E
  3
ACAD_SCALELIST
350
37F
  3
ACAD_SECTIONVIEWSTYLE
350
393
  3
ACAD_TABLESTYLE
350
345
  3
ACAD_VISUALSTYLE
350
365
  3
ACDB_RECOMPOSE_DATA
350
3A8
  3
AcDbVariableDictionary
350
39D
  0
XRECORD
  5
39C
102
{ACAD_REACTORS
330
C
102
}
330
C
100
AcDbXrecord
280
     1
300
ACDLT
300
2021
300

  0
DICTIONARY
  5
37E
102
{ACAD_REACTORS
330
C
102
}
330
C
100
AcDbDictionary
281
     1
  0
DICTIONARY
  5
395
102
{ACAD_REACTORS
330
C
102
}
330
C
100
AcDbDictionary
281
     1
  3
Metric50
350
396
  0
DICTIONARY
  5
D
102
{ACAD_REACTORS
330
C
102
}
330
C
100
AcDbDictionary
281
     1
  0
DICTIONARY
  5
1A
102
{ACAD_REACTORS
330
C
102
}
330
C
100
AcDbDictionary
281
     1
  3
Layout1
350
347
  3
Model
350
346
  0
DICTIONARY
  5
34C
102
{ACAD_REACTORS
330
C
102
}
330
C
100
AcDbDictionary
281
     1
  3
ByBlock
350
355
  3
ByLayer
350
34D
  3
Global
350
35D
  0
DICTIONARY
  5
391
102
{ACAD_REACTORS
330
C
102
}
330
C
100
AcDbDictionary
281
     1
  3
Standard
350
392
  0
DICTIONARY
  5
17
102
{ACAD_REACTORS
330
C
102
}
330
C
100
AcDbDictionary
281
     1
  3
Standard
350
18
  0
DICTIONARY
  5
19
102
{ACAD_REACTORS
330
C
102
}
330
C
100
AcDbDictionary
281
     1
  0
ACDBDICTIONARYWDFLT
  5
E
102
{ACAD_REACTORS
330
C
102
}
330
C
100
AcDbDictionary
281
     1
  3
Normal
350
F
100
AcDbDictionaryWithDefault
340
F
  0
DICTIONARY
  5
37F
102
{ACAD_REACTORS
330
C
102
}
330
C
100
AcDbDictionary
281
     1
  3
A0
350
380
  3
A1
350
381
  3
A2
350
382
  3
A3
350
383
  3
A4
350
384
  3
A5
350
385
  3
A6
350
386
  3
A7
350
387
  3
A8
350
388
  3
A9
350
389
  3
B0
350
38A
  3
B1
350
38B
  3
B2
350
38C
  3
B3
350
38D
  3
B4
350
38E
  3
B5
350
38F
  3
B6
350
390
  0
DICTIONARY
  5
393
102
{ACAD_REACTORS
330
C
102
}
330
C
100
AcDbDictionary
281
     1
  3
Metric50
350
394
  0
DICTIONARY
  5
345
330
C
100
AcDbDictionary
281
     1
  3
Standard
350
348
  3
Standard1
350
349
  0
DICTIONARY
  5
365
102
{ACAD_REACTORS
330
C
102
}
330
C
100
AcDbDictionary
281
     1
  3
2dWireframe
350
36B
  3
Basic
350
36A
  3
Brighten
350
371
  3
ColorChange
350
375
  3
Conceptual
350
36E
  3
Dim
350
370
  3
EdgeColorOff
350
37D
  3
Facepattern
350
374
  3
Flat
350
366
  3
FlatWithEdges
350
367
  3
Gouraud
350
368
  3
GouraudWithEdges
350
369
  3
Hidden
350
36D
  3
JitterOff
350
37B
  3
Linepattern
350
373
  3
OverhangOff
350
37C
  3
Realistic
350
36F
  3
Shaded
350
37A
  3
Shaded with edges
350
379
  3
Shades of Gray
350
376
  3
Sketchy
350
377
  3
Thicken
350
372
  3
Wireframe
350
36C
  3
X-Ray
350
378
  0
XRECORD
  5
3A8
102
{ACAD_REACTORS
330
C
102
}
330
C
100
AcDbXrecord
280
     1
 90
        1
330
348
330
349
  0
DICTIONARY
  5
39D
102
{ACAD_REACTORS
330
C
102
}
330
C
100
AcDbDictionary
281
     1
  3
CANNOSCALE
350
3A2
  3
CMLEADERSTYLE
350
39F
  3
CTABLESTYLE
350
39E
  3
CVIEWDETAILSTYLE
350
3A0
  3
CVIEWSECTIONSTYLE
350
3A1
  0
ACDBDETAILVIEWSTYLE
  5
396
102
{ACAD_XDICTIONARY
360
3AB
102
}
102
{ACAD_REACTORS
330
395
102
}
330
395
100
AcDbModelDocViewStyle
 70
     0
  3
Metric50
290
     0
100
AcDbDetailViewStyle
 70
     0
 71
     0
 90
        3
 71
     1
340
11
 62
   256
 40
5.0
340
0
 62
   256
 40
5.0
300

 40
0.0
280
     1
 71
     2
340
16
 90
       25
 62
   256
 71
     3
340
11
 62
   256
 40
5.0
 90
        0
 40
15.0
 90
        1
300
%<\AcVar ViewDetailId>% (%<\AcVar ViewScale \f "%sn">%)
 71
     4
340
16
 90
       25
 62
   256
340
16
 90
       25
 62
   256
280
     0
  0
LAYOUT
  5
347
102
{ACAD_REACTORS
330
1A
102
}
330
1A
100
AcDbPlotSettings
  1

  2
none_device
  4

  6

 40
0.0
 41
0.0
 42
0.0
 43
0.0
 44
210.0
 45
297.0
 46
0.0
 47
0.0
 48
0.0
 49
0.0
140
0.0
141
0.0
142
1.0
143
1.0
 70
     0
 72
     1
 73
     0
 74
     0
  7

 75
     0
147
1.0
 76
     0
 77
     2
 78
   300
148
0.0
149
0.0
100
AcDbLayout
  1
Layout1
 70
     1
 71
     1
 10
0.0
 20
0.0
 11
12.0
 21
9.0
 12
0.0
 22
0.0
 32
0.0
 14
1.000000000000000E+20
 24
1.000000000000000E+20
 34
1.000000000000000E+20
 15
-1.000000000000000E+20
 25
-1.000000000000000E+20
 35
-1.000000000000000E+20
146
0.0
 13
0.0
 23
0.0
 33
0.0
 16
1.0
 26
0.0
 36
0.0
 17
0.0
 27
1.0
 37
0.0
 76
     0
330
21A
  0
LAYOUT
  5
346
102
{ACAD_REACTORS
330
1A
102
}
330
1A
100
AcDbPlotSettings
  1

  2
none_device
  4

  6

 40
0.0
 41
0.0
 42
0.0
 43
0.0
 44
210.0
 45
297.0
 46
0.0
 47
0.0
 48
0.0
 49
0.0
140
0.0
141
0.0
142
1.0
143
1.0
 70
  1024
 72
     1
 73
     0
 74
     0
  7

 75
     0
147
1.0
 76
     0
 77
     2
 78
   300
148
0.0
149
0.0
100
AcDbLayout
  1
Model
 70
     0
 71
     0
 10
0.0
 20
0.0
 11
210.0
 21
297.0
 12
0.0
 22
0.0
 32
0.0
 14
0.0
 24
0.0
 34
0.0
 15
0.0
 25
0.0
 35
0.0
146
0.0
 13
0.0
 23
0.0
 33
0.0
 16
1.0
 26
0.0
 36
0.0
 17
0.0
 27
1.0
 37
0.0
 76
     0
330
219
331
1F4
  0
MATERIAL
  5
355
102
{ACAD_XDICTIONARY
360
356
102
}
102
{ACAD_REACTORS
330
34C
102
}
330
34C
100
AcDbMaterial
  1
ByBlock
 72
     0
 43
0.0008202099737533
 43
0.0
 43
0.0
 43
0.0
 43
0.0
 43
0.0008202099737533
 43
0.0
 43
0.0
 43
0.0
 43
0.0
 43
1.0
 43
0.0
 43
0.0
 43
0.0
 43
0.0
 43
1.0
 77
     0
 47
0.0008202099737533
 47
0.0
 47
0.0
 47
0.0
 47
0.0
 47
0.0008202099737533
 47
0.0
 47
0.0
 47
0.0
 47
0.0
 47
1.0
 47
0.0
 47
0.0
 47
0.0
 47
0.0
 47
1.0
171
     0
 49
0.0008202099737533
 49
0.0
 49
0.0
 49
0.0
 49
0.0
 49
0.0008202099737533
 49
0.0
 49
0.0
 49
0.0
 49
0.0
 49
1.0
 49
0.0
 49
0.0
 49
0.0
 49
0.0
 49
1.0
175
     0
142
0.0008202099737533
142
0.0
142
0.0
142
0.0
142
0.0
142
0.0008202099737533
142
0.0
142
0.0
142
0.0
142
0.0
142
1.0
142
0.0
142
0.0
142
0.0
142
0.0
142
1.0
179
     0
144
0.0008202099737533
144
0.0
144
0.0
144
0.0
144
0.0
144
0.0008202099737533
144
0.0
144
0.0
144
0.0
144
0.0
144
1.0
144
0.0
144
0.0
144
0.0
144
0.0
144
1.0
147
0.0008202099737533
147
0.0
147
0.0
147
0.0
147
0.0
147
0.0008202099737533
147
0.0
147
0.0
147
0.0
147
0.0
147
1.0
147
0.0
147
0.0
147
0.0
147
0.0
147
1.0
  0
MATERIAL
  5
34D
102
{ACAD_XDICTIONARY
360
34E
102
}
102
{ACAD_REACTORS
330
34C
102
}
330
34C
100
AcDbMaterial
  1
ByLayer
 72
     0
 43
0.0008202099737533
 43
0.0
 43
0.0
 43
0.0
 43
0.0
 43
0.0008202099737533
 43
0.0
 43
0.0
 43
0.0
 43
0.0
 43
1.0
 43
0.0
 43
0.0
 43
0.0
 43
0.0
 43
1.0
 77
     0
 47
0.0008202099737533
 47
0.0
 47
0.0
 47
0.0
 47
0.0
 47
0.0008202099737533
 47
0.0
 47
0.0
 47
0.0
 47
0.0
 47
1.0
 47
0.0
 47
0.0
 47
0.0
 47
0.0
 47
1.0
171
     0
 49
0.0008202099737533
 49
0.0
 49
0.0
 49
0.0
 49
0.0
 49
0.0008202099737533
 49
0.0
 49
0.0
 49
0.0
 49
0.0
 49
1.0
 49
0.0
 49
0.0
 49
0.0
 49
0.0
 49
1.0
175
     0
142
0.0008202099737533
142
0.0
142
0.0
142
0.0
142
0.0
142
0.0008202099737533
142
0.0
142
0.0
142
0.0
142
0.0
142
1.0
142
0.0
142
0.0
142
0.0
142
0.0
142
1.0
179
     0
144
0.0008202099737533
144
0.0
144
0.0
144
0.0
144
0.0
144
0.0008202099737533
144
0.0
144
0.0
144
0.0
144
0.0
144
1.0
144
0.0
144
0.0
144
0.0
144
0.0
144
1.0
147
0.0008202099737533
147
0.0
147
0.0
147
0.0
147
0.0
147
0.0008202099737533
147
0.0
147
0.0
147
0.0
147
0.0
147
1.0
147
0.0
147
0.0
147
0.0
147
0.0
147
1.0
  0
MATERIAL
  5
35D
102
{ACAD_XDICTIONARY
360
35E
102
}
102
{ACAD_REACTORS
330
34C
102
}
330
34C
100
AcDbMaterial
  1
Global
 72
     0
 43
0.0008202099737533
 43
0.0
 43
0.0
 43
0.0
 43
0.0
 43
0.0008202099737533
 43
0.0
 43
0.0
 43
0.0
 43
0.0
 43
1.0
 43
0.0
 43
0.0
 43
0.0
 43
0.0
 43
1.0
 77
     0
 47
0.0008202099737533
 47
0.0
 47
0.0
 47
0.0
 47
0.0
 47
0.0008202099737533
 47
0.0
 47
0.0
 47
0.0
 47
0.0
 47
1.0
 47
0.0
 47
0.0
 47
0.0
 47
0.0
 47
1.0
171
     0
 49
0.0008202099737533
 49
0.0
 49
0.0
 49
0.0
 49
0.0
 49
0.0008202099737533
 49
0.0
 49
0.0
 49
0.0
 49
0.0
 49
1.0
 49
0.0
 49
0.0
 49
0.0
 49
0.0
 49
1.0
175
     0
142
0.0008202099737533
142
0.0
142
0.0
142
0.0
142
0.0
142
0.0008202099737533
142
0.0
142
0.0
142
0.0
142
0.0
142
1.0
142
0.0
142
0.0
142
0.0
142
0.0
142
1.0
179
     0
144
0.0008202099737533
144
0.0
144
0.0
144
0.0
144
0.0
144
0.0008202099737533
144
0.0
144
0.0
144
0.0
144
0.0
144
1.0
144
0.0
144
0.0
144
0.0
144
0.0
144
1.0
147
0.0008202099737533
147
0.0
147
0.0
147
0.0
147
0.0
147
0.0008202099737533
147
0.0
147
0.0
147
0.0
147
0.0
147
1.0
147
0.0
147
0.0
147
0.0
147
0.0
147
1.0
  0
MLEADERSTYLE
  5
392
102
{ACAD_REACTORS
330
391
102
}
330
391
100
AcDbMLeaderStyle
179
     2
170
     2
171
     1
172
     0
 90
        2
 40
0.0
 41
0.0
173
     1
 91
-1056964608
340
14
 92
       -2
290
     1
 42
2.0
291
     1
 43
0.36
  3
Standard
 44
4.0
300

342
11
174
     1
178
     6
175
     1
176
     0
 93
-1056964608
 45
4.0
292
     0
297
     0
 46
4.0
 94
-1056964608
 47
1.0
 49
1.0
140
1.0
293
     1
141
0.0
294
     1
177
     0
142
1.0
295
     0
296
     0
143
0.125
271
     0
272
     9
273
     9
298
     1
  0
MLINESTYLE
  5
18
102
{ACAD_REACTORS
330
17
102
}
330
17
100
AcDbMlineStyle
  2
STANDARD
 70
     0
  3

 62
   256
 51
90.0
 52
90.0
 71
     2
 49
0.5
 62
   256
  6
BYLAYER
 49
-0.5
 62
   256
  6
BYLAYER
  0
ACDBPLACEHOLDER
  5
F
102
{ACAD_REACTORS
330
E
102
}
330
E
  0
SCALE
  5
380
102
{ACAD_REACTORS
330
37F
102
}
330
37F
100
AcDbScale
 70
     0
300
1:1
140
1.0
141
1.0
290
     1
  0
SCALE
  5
381
102
{ACAD_REACTORS
330
37F
102
}
330
37F
100
AcDbScale
 70
     0
300
1:2
140
1.0
141
2.0
290
     0
  0
SCALE
  5
382
102
{ACAD_REACTORS
330
37F
102
}
330
37F
100
AcDbScale
 70
     0
300
1:4
140
1.0
141
4.0
290
     0
  0
SCALE
  5
383
102
{ACAD_REACTORS
330
37F
102
}
330
37F
100
AcDbScale
 70
     0
300
1:5
140
1.0
141
5.0
290
     0
  0
SCALE
  5
384
102
{ACAD_REACTORS
330
37F
102
}
330
37F
100
AcDbScale
 70
     0
300
1:8
140
1.0
141
8.0
290
     0
  0
SCALE
  5
385
102
{ACAD_REACTORS
330
37F
102
}
330
37F
100
AcDbScale
 70
     0
300
1:10
140
1.0
141
10.0
290
     0
  0
SCALE
  5
386
102
{ACAD_REACTORS
330
37F
102
}
330
37F
100
AcDbScale
 70
     0
300
1:16
140
1.0
141
16.0
290
     0
  0
SCALE
  5
387
102
{ACAD_REACTORS
330
37F
102
}
330
37F
100
AcDbScale
 70
     0
300
1:20
140
1.0
141
20.0
290
     0
  0
SCALE
  5
388
102
{ACAD_REACTORS
330
37F
102
}
330
37F
100
AcDbScale
 70
     0
300
1:30
140
1.0
141
30.0
290
     0
  0
SCALE
  5
389
102
{ACAD_REACTORS
330
37F
102
}
330
37F
100
AcDbScale
 70
     0
300
1:40
140
1.0
141
40.0
290
     0
  0
SCALE
  5
38A
102
{ACAD_REACTORS
330
37F
102
}
330
37F
100
AcDbScale
 70
     0
300
1:50
140
1.0
141
50.0
290
     0
  0
SCALE
  5
38B
102
{ACAD_REACTORS
330
37F
102
}
330
37F
100
AcDbScale
 70
     0
300
1:100
140
1.0
141
100.0
290
     0
  0
SCALE
  5
38C
102
{ACAD_REACTORS
330
37F
102
}
330
37F
100
AcDbScale
 70
     0
300
2:1
140
2.0
141
1.0
290
     0
  0
SCALE
  5
38D
102
{ACAD_REACTORS
330
37F
102
}
330
37F
100
AcDbScale
 70
     0
300
4:1
140
4.0
141
1.0
290
     0
  0
SCALE
  5
38E
102
{ACAD_REACTORS
330
37F
102
}
330
37F
100
AcDbScale
 70
     0
300
8:1
140
8.0
141
1.0
290
     0
  0
SCALE
  5
38F
102
{ACAD_REACTORS
330
37F
102
}
330
37F
100
AcDbScale
 70
     0
300
10:1
140
10.0
141
1.0
290
     0
  0
SCALE
  5
390
102
{ACAD_REACTORS
330
37F
102
}
330
37F
100
AcDbScale
 70
     0
300
100:1
140
100.0
141
1.0
290
     0
  0
ACDBSECTIONVIEWSTYLE
  5
394
102
{ACAD_XDICTIONARY
360
3A9
102
}
102
{ACAD_REACTORS
330
393
102
}
330
393
100
AcDbModelDocViewStyle
 70
     0
  3
Metric50
290
     0
100
AcDbSectionViewStyle
 70
     0
 71
     0
 90
      102
 71
     1
340
11
 62
   256
 40
5.0
340
0
340
0
 62
   256
 40
5.0
300
I, O, Q, S, X, Z
 40
10.0
 90
        0
 40
2.5
 90
        0
 71
     2
340
16
 90
       25
 62
   256
340
16
 90
       50
 62
   256
 40
5.0
 40
2.5
 40
5.0
 71
     3
340
11
 62
   256
 40
5.0
 90
        0
 40
15.0
 90
        1
300
%<\AcVar ViewSectionStartId>%-%<\AcVar ViewSectionEndId>% (%<\AcVar ViewScale \f "%sn">%)
 71
     4
 62
   256
 62
   257
300
ANSI31
 40
1.0
 90
        0
290
     0
290
     0
 90
        6
 40
0.0
 40
1.570796326794896
 40
0.2617993877991494
 40
1.308996938995747
 40
-0.2617993877991494
 40
1.832595714594046
  0
TABLESTYLE
  5
348
102
{ACAD_XDICTIONARY
360
3A4
102
}
102
{ACAD_REACTORS
330
345
102
}
330
345
100
AcDbTableStyle
280
     0
  3
Standard
 70
     0
 71
     0
 40
0.06
 41
0.06
280
     1
281
     1
  7
STANDARD
140
0.18
170
     1
 62
     0
 63
     7
283
     0
 90
      512
 91
        0
  1

274
    -2
284
     1
 64
     0
275
    -2
285
     1
 65
     0
276
    -2
286
     1
 66
     0
277
    -2
287
     1
 67
     0
278
    -2
288
     1
 68
     0
279
    -2
289
     1
 69
     0
  7
STANDARD
140
0.18
170
     1
 62
     0
 63
     7
283
     0
 90
      512
 91
        0
  1

274
    -2
284
     1
 64
     0
275
    -2
285
     1
 65
     0
276
    -2
286
     1
 66
     0
277
    -2
287
     1
 67
     0
278
    -2
288
     1
 68
     0
279
    -2
289
     1
 69
     0
  7
STANDARD
140
0.18
170
     1
 62
     0
 63
     7
283
     0
 90
      512
 91
        0
  1

274
    -2
284
     1
 64
     0
275
    -2
285
     1
 65
     0
276
    -2
286
     1
 66
     0
277
    -2
287
     1
 67
     0
278
    -2
288
     1
 68
     0
279
    -2
289
     1
 69
     0
  0
TABLESTYLE
  5
349
102
{ACAD_XDICTIONARY
360
3A6
102
}
102
{ACAD_REACTORS
330
345
330
280
102
}
330
345
100
AcDbTableStyle
280
     0
  3
Standard1
 70
     1
 71
     0
 40
0.06
 41
0.06
280
     1
281
     1
  7
STANDARD
140
0.18
170
     1
 62
     0
 63
     7
283
     0
 90
      512
 91
        0
  1

274
    -2
284
     1
 64
     0
275
    -2
285
     1
 65
     0
276
    -2
286
     1
 66
     0
277
    -2
287
     1
 67
     0
278
    -2
288
     1
 68
     0
279
    -2
289
     1
 69
     0
  7
STANDARD
140
0.18
170
     1
 62
     0
 63
     7
283
     0
 90
      512
 91
        0
  1

274
    -2
284
     1
 64
     0
275
    -2
285
     1
 65
     0
276
    -2
286
     1
 66
     0
277
    -2
287
     1
 67
     0
278
    -2
288
     1
 68
     0
279
    -2
289
     1
 69
     0
  7
STANDARD
140
0.18
170
     1
 62
     0
 63
     7
283
     0
 90
      512
 91
        0
  1

274
    -2
284
     1
 64
     0
275
    -2
285
     1
 65
     0
276
    -2
286
     1
 66
     0
277
    -2
287
     1
 67
     0
278
    -2
288
     1
 68
     0
279
    -2
289
     1
 69
     0
  0
VISUALSTYLE
  5
36B
102
{ACAD_REACTORS
330
365
102
}
330
365
100
AcDbVisualStyle
  2
2dWireframe
 70
     4
177
     3
291
     0
 70
    58
 90
        0
176
     1
 90
        2
176
     1
 90
        0
176
     1
 90
        0
176
     1
 40
0.6
176
     1
 40
30.0
176
     1
 62
     7
420
 16777215
176
     1
 90
        1
176
     1
 90
        4
176
     1
 62
     7
176
     1
 62
   257
176
     1
 90
        1
176
     1
 90
        1
176
     1
 40
1.0
176
     1
 90
        0
176
     1
 62
   257
176
     1
 40
1.0
176
     1
 90
        1
176
     1
 90
        6
176
     1
 90
        2
176
     1
 62
     7
176
     1
 90
        5
176
     1
 90
        0
176
     1
 90
        0
176
     1
290
     0
176
     1
 90
        1
176
     1
 40
0.0
176
     1
 90
        0
176
     1
290
     1
176
     1
290
     1
176
     1
290
     0
176
     1
290
     0
176
     1
290
     0
176
     1
290
     0
176
     1
290
     0
176
     1
290
     0
176
     1
290
     0
176
     1
 90
       50
176
     1
 40
0.0
176
     1
 40
1.0
176
     1
 90
        0
176
     1
 62
    18
420
        0
176
     1
 90
       50
176
     1
 90
        3
176
     1
 62
     5
420
      255
176
     1
290
     0
176
     1
 90
       50
176
     1
 90
       50
176
     1
 90
       50
176
     1
290
     0
176
     1
 90
       50
176
     1
 62
   256
176
     0
 40
1.0
176
     0
 90
        2
176
     1
  1
strokes_ogs.tif
176
     1
290
     0
176
     1
 40
1.0
176
     1
 40
1.0
176
     1
1001
ACAD
1000
AcDbSavedByObjectVersion
1070
     0
  0
VISUALSTYLE
  5
36A
102
{ACAD_REACTORS
330
365
102
}
330
365
100
AcDbVisualStyle
  2
Basic
 70
     7
177
     3
291
     1
 70
    58
 90
        1
176
     1
 90
        0
176
     1
 90
        1
176
     1
 90
        0
176
     1
 40
0.6
176
     1
 40
30.0
176
     1
 62
     7
420
 16777215
176
     1
 90
        0
176
     1
 90
        4
176
     1
 62
     7
176
     1
 62
   257
176
     1
 90
        1
176
     1
 90
        1
176
     1
 40
1.0
176
     1
 90
        8
176
     1
 62
     7
176
     1
 40
1.0
176
     1
 90
        1
176
     1
 90
        6
176
     1
 90
        2
176
     1
 62
     7
176
     1
 90
        5
176
     1
 90
        0
176
     1
 90
        0
176
     1
290
     0
176
     1
 90
        1
176
     1
 40
0.0
176
     1
 90
        0
176
     1
290
     0
176
     1
290
     1
176
     1
290
     1
176
     1
290
     0
176
     1
290
     0
176
     1
290
     0
176
     1
290
     0
176
     1
290
     0
176
     1
290
     0
176
     1
 90
       50
176
     1
 40
0.0
176
     1
 40
1.0
176
     1
 90
        0
176
     1
 62
    18
420
        0
176
     1
 90
       50
176
     1
 90
        3
176
     1
 62
     5
420
      255
176
     1
290
     0
176
     1
 90
       50
176
     1
 90
       50
176
     1
 90
       50
176
     1
290
     0
176
     1
 90
       50
176
     1
 62
   256
176
     0
 40
1.0
176
     0
 90
        2
176
     1
  1
strokes_ogs.tif
176
     1
290
     0
176
     1
 40
1.0
176
     1
 40
1.0
176
     1
1001
ACAD
1000
AcDbSavedByObjectVersion
1070
     0
  0
VISUALSTYLE
  5
371
102
{ACAD_REACTORS
330
365
102
}
330
365
100
AcDbVisualStyle
  2
Brighten
 70
    12
177
     3
291
     1
 70
    58
 90
        2
176
     1
 90
        2
176
     1
 90
        0
176
     1
 90
        0
176
     1
 40
0.6
176
     1
 40
30.0
176
     1
 62
     7
420
 16777215
176
     1
 90
        1
176
     1
 90
        4
176
     1
 62
     7
176
     1
 62
   257
176
     1
 90
        1
176
     1
 90
        1
176
     1
 40
1.0
176
     1
 90
        8
176
     1
 62
     7
176
     1
 40
1.0
176
     1
 90
        1
176
     1
 90
        6
176
     1
 90
        2
176
     1
 62
     7
176
     1
 90
        5
176
     1
 90
        0
176
     1
 90
        0
176
     1
290
     0
176
     1
 90
        1
176
     1
 40
50.0
176
     1
 90
        0
176
     1
290
     0
176
     1
290
     1
176
     1
290
     1
176
     1
290
     0
176
     1
290
     0
176
     1
290
     0
176
     1
290
     0
176
     1
290
     0
176
     1
290
     0
176
     1
 90
       50
176
     1
 40
0.0
176
     1
 40
1.0
176
     1
 90
        0
176
     1
 62
    18
420
        0
176
     1
 90
       50
176
     1
 90
        3
176
     1
 62
     5
420
      255
176
     1
290
     0
176
     1
 90
       50
176
     1
 90
       50
176
     1
 90
       50
176
     1
290
     0
176
     1
 90
       50
176
     1
 62
   256
176
     0
 40
1.0
176
     0
 90
        2
176
     1
  1
strokes_ogs.tif
176
     1
290
     0
176
     1
 40
1.0
176
     1
 40
1.0
176
     1
1001
ACAD
1000
AcDbSavedByObjectVersion
1070
     0
  0
VISUALSTYLE
  5
375
102
{ACAD_REACTORS
330
365
102
}
330
365
100
AcDbVisualStyle
  2
ColorChange
 70
    16
177
     3
291
     1
 70
    58
 90
        2
176
     1
 90
        2
176
     1
 90
        3
176
     1
 90
        0
176
     1
 40
0.6
176
     1
 40
30.0
176
     1
 62
     8
420
  8421504
176
     1
 90
        1
176
     1
 90
        4
176
     1
 62
     7
176
     1
 62
   257
176
     1
 90
        1
176
     1
 90
        1
176
     1
 40
1.0
176
     1
 90
        8
176
     1
 62
     8
420
  8421504
176
     1
 40
1.0
176
     1
 90
        1
176
     1
 90
        6
176
     1
 90
        2
176
     1
 62
     7
176
     1
 90
        5
176
     1
 90
        0
176
     1
 90
        0
176
     1
290
     0
176
     1
 90
        1
176
     1
 40
0.0
176
     1
 90
        0
176
     1
290
     0
176
     1
290
     1
176
     1
290
     1
176
     1
290
     0
176
     1
290
     0
176
     1
290
     0
176
     1
290
     0
176
     1
290
     0
176
     1
290
     0
176
     1
 90
       50
176
     1
 40
0.0
176
     1
 40
1.0
176
     1
 90
        0
176
     1
 62
    18
420
        0
176
     1
 90
       50
176
     1
 90
        3
176
     1
 62
     5
420
      255
176
     1
290
     0
176
     1
 90
       50
176
     1
 90
       50
176
     1
 90
       50
176
     1
290
     0
176
     1
 90
       50
176
     1
 62
   256
176
     0
 40
1.0
176
     0
 90
        2
176
     1
  1
strokes_ogs.tif
176
     1
290
     0
176
     1
 40
1.0
176
     1
 40
1.0
176
     1
1001
ACAD
1000
AcDbSavedByObjectVersion
1070
     0
  0
VISUALSTYLE
  5
36E
102
{ACAD_REACTORS
330
365
102
}
330
365
100
AcDbVisualStyle
  2
Conceptual
 70
     9
177
     3
291
     0
 70
    58
 90
        3
176
     1
 90
        2
176
     1
 90
        0
176
     1
 90
        0
176
     1
 40
0.6
176
     1
 40
30.0
176
     1
 62
     7
420
 16777215
176
     1
 90
        2
176
     1
 90
        2
176
     1
 62
     7
176
     1
 62
   257
176
     1
 90
        1
176
     1
 90
        1
176
     1
 40
179.0
176
     1
 90
        8
176
     1
 62
     7
176
     1
 40
1.0
176
     1
 90
        1
176
     1
 90
        6
176
     1
 90
        2
176
     1
 62
     7
176
     1
 90
        3
176
     1
 90
        0
176
     1
 90
        0
176
     1
290
     0
176
     1
 90
        1
176
     1
 40
0.0
176
     1
 90
        0
176
     1
290
     0
176
     1
290
     1
176
     1
290
     1
176
     1
290
     0
176
     1
290
     0
176
     1
290
     0
176
     1
290
     0
176
     1
290
     0
176
     1
290
     0
176
     1
 90
       50
176
     1
 40
0.0
176
     1
 40
1.0
176
     1
 90
        0
176
     1
 62
    18
420
        0
176
     1
 90
       50
176
     1
 90
        3
176
     1
 62
     5
420
      255
176
     1
290
     0
176
     1
 90
       50
176
     1
 90
       50
176
     1
 90
       50
176
     1
290
     0
176
     1
 90
       50
176
     1
 62
   256
176
     0
 40
1.0
176
     0
 90
        2
176
     1
  1
strokes_ogs.tif
176
     1
290
     0
176
     1
 40
1.0
176
     1
 40
1.0
176
     1
1001
ACAD
1000
AcDbSavedByObjectVersion
1070
     0
  0
VISUALSTYLE
  5
370
102
{ACAD_REACTORS
330
365
102
}
330
365
100
AcDbVisualStyle
  2
Dim
 70
    11
177
     3
291
     1
 70
    58
 90
        2
176
     1
 90
        2
176
     1
 90
        0
176
     1
 90
        0
176
     1
 40
0.6
176
     1
 40
30.0
176
     1
 62
     7
420
 16777215
176
     1
 90
        1
176
     1
 90
        4
176
     1
 62
     7
176
     1
 62
   257
176
     1
 90
        1
176
     1
 90
        1
176
     1
 40
1.0
176
     1
 90
        8
176
     1
 62
     7
176
     1
 40
1.0
176
     1
 90
        1
176
     1
 90
        6
176
     1
 90
        2
176
     1
 62
     7
176
     1
 90
        5
176
     1
 90
        0
176
     1
 90
        0
176
     1
290
     0
176
     1
 90
        1
176
     1
 40
-50.0
176
     1
 90
        0
176
     1
290
     0
176
     1
290
     1
176
     1
290
     1
176
     1
290
     0
176
     1
290
     0
176
     1
290
     0
176
     1
290
     0
176
     1
290
     0
176
     1
290
     0
176
     1
 90
       50
176
     1
 40
0.0
176
     1
 40
1.0
176
     1
 90
        0
176
     1
 62
    18
420
        0
176
     1
 90
       50
176
     1
 90
        3
176
     1
 62
     5
420
      255
176
     1
290
     0
176
     1
 90
       50
176
     1
 90
       50
176
     1
 90
       50
176
     1
290
     0
176
     1
 90
       50
176
     1
 62
   256
176
     0
 40
1.0
176
     0
 90
        2
176
     1
  1
strokes_ogs.tif
176
     1
290
     0
176
     1
 40
1.0
176
     1
 40
1.0
176
     1
1001
ACAD
1000
AcDbSavedByObjectVersion
1070
     0
  0
VISUALSTYLE
  5
37D
102
{ACAD_REACTORS
330
365
102
}
330
365
100
AcDbVisualStyle
  2
EdgeColorOff
 70
    22
177
     3
291
     1
 70
    58
 90
        2
176
     0
 90
        2
176
     0
 90
        0
176
     0
 90
        0
176
     0
 40
0.6
176
     0
 40
30.0
176
     0
 62
     7
420
 16777215
176
     0
 90
        1
176
     0
 90
        4
176
     0
 62
     7
176
     0
 62
   257
176
     0
 90
        1
176
     0
 90
        1
176
     0
 40
1.0
176
     0
 90
        8
176
     2
 62
     7
176
     0
 40
1.0
176
     0
 90
        1
176
     0
 90
        6
176
     0
 90
        2
176
     0
 62
     7
176
     0
 90
        5
176
     0
 90
        0
176
     0
 90
        0
176
     0
290
     0
176
     0
 90
        1
176
     0
 40
0.0
176
     0
 90
        0
176
     0
290
     0
176
     0
290
     1
176
     0
290
     1
176
     0
290
     0
176
     0
290
     0
176
     0
290
     0
176
     0
290
     0
176
     0
290
     0
176
     0
290
     0
176
     0
 90
       50
176
     0
 40
0.0
176
     0
 40
1.0
176
     0
 90
        0
176
     0
 62
    18
420
        0
176
     0
 90
       50
176
     0
 90
        3
176
     0
 62
     5
420
      255
176
     0
290
     0
176
     0
 90
       50
176
     0
 90
       50
176
     0
 90
       50
176
     0
290
     0
176
     0
 90
       50
176
     0
 62
   256
176
     0
 40
1.0
176
     0
 90
        2
176
     0
  1
strokes_ogs.tif
176
     0
290
     0
176
     0
 40
1.0
176
     0
 40
1.0
176
     0
1001
ACAD
1000
AcDbSavedByObjectVersion
1070
     0
  0
VISUALSTYLE
  5
374
102
{ACAD_REACTORS
330
365
102
}
330
365
100
AcDbVisualStyle
  2
Facepattern
 70
    15
177
     3
291
     1
 70
    58
 90
        2
176
     1
 90
        2
176
     1
 90
        0
176
     1
 90
        0
176
     1
 40
0.6
176
     1
 40
30.0
176
     1
 62
     7
420
 16777215
176
     1
 90
        1
176
     1
 90
        4
176
     1
 62
     7
176
     1
 62
   257
176
     1
 90
        1
176
     1
 90
        1
176
     1
 40
1.0
176
     1
 90
        8
176
     1
 62
     7
176
     1
 40
1.0
176
     1
 90
        1
176
     1
 90
        6
176
     1
 90
        2
176
     1
 62
     7
176
     1
 90
        5
176
     1
 90
        0
176
     1
 90
        0
176
     1
290
     0
176
     1
 90
        1
176
     1
 40
0.0
176
     1
 90
        0
176
     1
290
     0
176
     1
290
     1
176
     1
290
     1
176
     1
290
     0
176
     1
290
     0
176
     1
290
     0
176
     1
290
     0
176
     1
290
     0
176
     1
290
     0
176
     1
 90
       50
176
     1
 40
0.0
176
     1
 40
1.0
176
     1
 90
        0
176
     1
 62
    18
420
        0
176
     1
 90
       50
176
     1
 90
        3
176
     1
 62
     5
420
      255
176
     1
290
     0
176
     1
 90
       50
176
     1
 90
       50
176
     1
 90
       50
176
     1
290
     0
176
     1
 90
       50
176
     1
 62
   256
176
     0
 40
1.0
176
     0
 90
        2
176
     1
  1
strokes_ogs.tif
176
     1
290
     0
176
     1
 40
1.0
176
     1
 40
1.0
176
     1
1001
ACAD
1000
AcDbSavedByObjectVersion
1070
     0
  0
VISUALSTYLE
  5
366
102
{ACAD_REACTORS
330
365
102
}
330
365
100
AcDbVisualStyle
  2
Flat
 70
     0
177
     3
291
     1
 70
    58
 90
        2
176
     1
 90
        1
176
     1
 90
        1
176
     1
 90
        2
176
     1
 40
0.6
176
     1
 40
30.0
176
     1
 62
     7
420
 16777215
176
     1
 90
        0
176
     1
 90
        0
176
     1
 62
     7
176
     1
 62
   257
176
     1
 90
        1
176
     1
 90
        1
176
     1
 40
1.0
176
     1
 90
        8
176
     1
 62
     7
176
     1
 40
1.0
176
     1
 90
        1
176
     1
 90
        6
176
     1
 90
        2
176
     1
 62
     7
176
     1
 90
        5
176
     1
 90
        0
176
     1
 90
        0
176
     1
290
     0
176
     1
 90
       13
176
     1
 40
0.0
176
     1
 90
        0
176
     1
290
     0
176
     1
290
     1
176
     1
290
     1
176
     1
290
     0
176
     1
290
     0
176
     1
290
     0
176
     1
290
     0
176
     1
290
     0
176
     1
290
     0
176
     1
 90
       50
176
     1
 40
0.0
176
     1
 40
1.0
176
     1
 90
        0
176
     1
 62
    18
420
        0
176
     1
 90
       50
176
     1
 90
        3
176
     1
 62
     5
420
      255
176
     1
290
     0
176
     1
 90
       50
176
     1
 90
       50
176
     1
 90
       50
176
     1
290
     0
176
     1
 90
       50
176
     1
 62
   256
176
     0
 40
1.0
176
     0
 90
        2
176
     1
  1
strokes_ogs.tif
176
     1
290
     0
176
     1
 40
1.0
176
     1
 40
1.0
176
     1
1001
ACAD
1000
AcDbSavedByObjectVersion
1070
     0
  0
VISUALSTYLE
  5
367
102
{ACAD_REACTORS
330
365
102
}
330
365
100
AcDbVisualStyle
  2
FlatWithEdges
 70
     1
177
     3
291
     1
 70
    58
 90
        2
176
     1
 90
        1
176
     1
 90
        1
176
     1
 90
        2
176
     1
 40
0.6
176
     1
 40
30.0
176
     1
 62
     7
420
 16777215
176
     1
 90
        1
176
     1
 90
        0
176
     1
 62
     7
176
     1
 62
   257
176
     1
 90
        1
176
     1
 90
        1
176
     1
 40
1.0
176
     1
 90
        0
176
     1
 62
   257
176
     1
 40
1.0
176
     1
 90
        1
176
     1
 90
        6
176
     1
 90
        2
176
     1
 62
     7
176
     1
 90
        5
176
     1
 90
        0
176
     1
 90
        0
176
     1
290
     0
176
     1
 90
       13
176
     1
 40
0.0
176
     1
 90
        0
176
     1
290
     0
176
     1
290
     1
176
     1
290
     1
176
     1
290
     0
176
     1
290
     0
176
     1
290
     0
176
     1
290
     0
176
     1
290
     0
176
     1
290
     0
176
     1
 90
       50
176
     1
 40
0.0
176
     1
 40
1.0
176
     1
 90
        0
176
     1
 62
    18
420
        0
176
     1
 90
       50
176
     1
 90
        3
176
     1
 62
     5
420
      255
176
     1
290
     0
176
     1
 90
       50
176
     1
 90
       50
176
     1
 90
       50
176
     1
290
     0
176
     1
 90
       50
176
     1
 62
   256
176
     0
 40
1.0
176
     0
 90
        2
176
     1
  1
strokes_ogs.tif
176
     1
290
     0
176
     1
 40
1.0
176
     1
 40
1.0
176
     1
1001
ACAD
1000
AcDbSavedByObjectVersion
1070
     0
  0
VISUALSTYLE
  5
368
102
{ACAD_REACTORS
330
365
102
}
330
365
100
AcDbVisualStyle
  2
Gouraud
 70
     2
177
     3
291
     1
 70
    58
 90
        2
176
     1
 90
        2
176
     1
 90
        1
176
     1
 90
        2
176
     1
 40
0.6
176
     1
 40
30.0
176
     1
 62
     7
420
 16777215
176
     1
 90
        0
176
     1
 90
        0
176
     1
 62
     7
176
     1
 62
   257
176
     1
 90
        1
176
     1
 90
        1
176
     1
 40
1.0
176
     1
 90
        0
176
     1
 62
     7
176
     1
 40
1.0
176
     1
 90
        1
176
     1
 90
        6
176
     1
 90
        2
176
     1
 62
     7
176
     1
 90
        5
176
     1
 90
        0
176
     1
 90
        0
176
     1
290
     0
176
     1
 90
       13
176
     1
 40
0.0
176
     1
 90
        0
176
     1
290
     0
176
     1
290
     1
176
     1
290
     1
176
     1
290
     0
176
     1
290
     0
176
     1
290
     0
176
     1
290
     0
176
     1
290
     0
176
     1
290
     0
176
     1
 90
       50
176
     1
 40
0.0
176
     1
 40
1.0
176
     1
 90
        0
176
     1
 62
    18
420
        0
176
     1
 90
       50
176
     1
 90
        3
176
     1
 62
     5
420
      255
176
     1
290
     0
176
     1
 90
       50
176
     1
 90
       50
176
     1
 90
       50
176
     1
290
     0
176
     1
 90
       50
176
     1
 62
   256
176
     0
 40
1.0
176
     0
 90
        2
176
     1
  1
strokes_ogs.tif
176
     1
290
     0
176
     1
 40
1.0
176
     1
 40
1.0
176
     1
1001
ACAD
1000
AcDbSavedByObjectVersion
1070
     0
  0
VISUALSTYLE
  5
369
102
{ACAD_REACTORS
330
365
102
}
330
365
100
AcDbVisualStyle
  2
GouraudWithEdges
 70
     3
177
     3
291
     1
 70
    58
 90
        2
176
     1
 90
        2
176
     1
 90
        1
176
     1
 90
        2
176
     1
 40
0.6
176
     1
 40
30.0
176
     1
 62
     7
420
 16777215
176
     1
 90
        1
176
     1
 90
        0
176
     1
 62
     7
176
     1
 62
   257
176
     1
 90
        1
176
     1
 90
        1
176
     1
 40
1.0
176
     1
 90
        0
176
     1
 62
   257
176
     1
 40
1.0
176
     1
 90
        1
176
     1
 90
        6
176
     1
 90
        2
176
     1
 62
     7
176
     1
 90
        5
176
     1
 90
        0
176
     1
 90
        0
176
     1
290
     0
176
     1
 90
       13
176
     1
 40
0.0
176
     1
 90
        0
176
     1
290
     0
176
     1
290
     1
176
     1
290
     1
176
     1
290
     0
176
     1
290
     0
176
     1
290
     0
176
     1
290
     0
176
     1
290
     0
176
     1
290
     0
176
     1
 90
       50
176
     1
 40
0.0
176
     1
 40
1.0
176
     1
 90
        0
176
     1
 62
    18
420
        0
176
     1
 90
       50
176
     1
 90
        3
176
     1
 62
     5
420
      255
176
     1
290
     0
176
     1
 90
       50
176
     1
 90
       50
176
     1
 90
       50
176
     1
290
     0
176
     1
 90
       50
176
     1
 62
   256
176
     0
 40
1.0
176
     0
 90
        2
176
     1
  1
strokes_ogs.tif
176
     1
290
     0
176
     1
 40
1.0
176
     1
 40
1.0
176
     1
1001
ACAD
1000
AcDbSavedByObjectVersion
1070
     0
  0
VISUALSTYLE
  5
36D
102
{ACAD_REACTORS
330
365
102
}
330
365
100
AcDbVisualStyle
  2
Hidden
 70
     6
177
     3
291
     0
 70
    58
 90
        1
176
     1
 90
        2
176
     1
 90
        2
176
     1
 90
        0
176
     1
 40
0.6
176
     1
 40
30.0
176
     1
 62
     7
420
 16777215
176
     1
 90
        2
176
     1
 90
        2
176
     1
 62
     7
176
     1
 62
   257
176
     1
 90
        2
176
     1
 90
        1
176
     1
 40
40.0
176
     1
 90
        0
176
     1
 62
   257
176
     1
 40
1.0
176
     1
 90
        1
176
     1
 90
        6
176
     1
 90
        2
176
     1
 62
     7
176
     1
 90
        3
176
     1
 90
        0
176
     1
 90
        0
176
     1
290
     0
176
     1
 90
        1
176
     1
 40
0.0
176
     1
 90
        0
176
     1
290
     0
176
     1
290
     1
176
     1
290
     1
176
     1
290
     0
176
     1
290
     0
176
     1
290
     0
176
     1
290
     0
176
     1
290
     0
176
     1
290
     0
176
     1
 90
       50
176
     1
 40
0.0
176
     1
 40
1.0
176
     1
 90
        0
176
     1
 62
    18
420
        0
176
     1
 90
       50
176
     1
 90
        3
176
     1
 62
     5
420
      255
176
     1
290
     0
176
     1
 90
       50
176
     1
 90
       50
176
     1
 90
       50
176
     1
290
     0
176
     1
 90
       50
176
     1
 62
   256
176
     0
 40
1.0
176
     0
 90
        2
176
     1
  1
strokes_ogs.tif
176
     1
290
     0
176
     1
 40
1.0
176
     1
 40
1.0
176
     1
1001
ACAD
1000
AcDbSavedByObjectVersion
1070
     0
  0
VISUALSTYLE
  5
37B
102
{ACAD_REACTORS
330
365
102
}
330
365
100
AcDbVisualStyle
  2
JitterOff
 70
    20
177
     3
291
     1
 70
    58
 90
        2
176
     0
 90
        2
176
     0
 90
        0
176
     0
 90
        0
176
     0
 40
0.6
176
     0
 40
30.0
176
     0
 62
     7
420
 16777215
176
     0
 90
        1
176
     0
 90
        4
176
     0
 62
     7
176
     0
 62
   257
176
     0
 90
        1
176
     0
 90
        1
176
     0
 40
1.0
176
     0
 90
       10
176
     2
 62
     7
176
     0
 40
1.0
176
     0
 90
        1
176
     0
 90
        6
176
     0
 90
        2
176
     0
 62
     7
176
     0
 90
        5
176
     0
 90
        0
176
     0
 90
        0
176
     0
290
     0
176
     0
 90
        1
176
     0
 40
0.0
176
     0
 90
        0
176
     0
290
     0
176
     0
290
     1
176
     0
290
     1
176
     0
290
     0
176
     0
290
     0
176
     0
290
     0
176
     0
290
     0
176
     0
290
     0
176
     0
290
     0
176
     0
 90
       50
176
     0
 40
0.0
176
     0
 40
1.0
176
     0
 90
        0
176
     0
 62
    18
420
        0
176
     0
 90
       50
176
     0
 90
        3
176
     0
 62
     5
420
      255
176
     0
290
     0
176
     0
 90
       50
176
     0
 90
       50
176
     0
 90
       50
176
     0
290
     0
176
     0
 90
       50
176
     0
 62
   256
176
     0
 40
1.0
176
     0
 90
        2
176
     0
  1
strokes_ogs.tif
176
     0
290
     0
176
     0
 40
1.0
176
     0
 40
1.0
176
     0
1001
ACAD
1000
AcDbSavedByObjectVersion
1070
     0
  0
VISUALSTYLE
  5
373
102
{ACAD_REACTORS
330
365
102
}
330
365
100
AcDbVisualStyle
  2
Linepattern
 70
    14
177
     3
291
     1
 70
    58
 90
        2
176
     1
 90
        2
176
     1
 90
        0
176
     1
 90
        0
176
     1
 40
0.6
176
     1
 40
30.0
176
     1
 62
     7
420
 16777215
176
     1
 90
        1
176
     1
 90
        4
176
     1
 62
     7
176
     1
 62
   257
176
     1
 90
        7
176
     1
 90
        7
176
     1
 40
1.0
176
     1
 90
        8
176
     1
 62
     7
176
     1
 40
1.0
176
     1
 90
        1
176
     1
 90
        6
176
     1
 90
        2
176
     1
 62
     7
176
     1
 90
        5
176
     1
 90
        0
176
     1
 90
        0
176
     1
290
     0
176
     1
 90
        1
176
     1
 40
0.0
176
     1
 90
        0
176
     1
290
     0
176
     1
290
     1
176
     1
290
     1
176
     1
290
     0
176
     1
290
     0
176
     1
290
     0
176
     1
290
     0
176
     1
290
     0
176
     1
290
     0
176
     1
 90
       50
176
     1
 40
0.0
176
     1
 40
1.0
176
     1
 90
        0
176
     1
 62
    18
420
        0
176
     1
 90
       50
176
     1
 90
        3
176
     1
 62
     5
420
      255
176
     1
290
     0
176
     1
 90
       50
176
     1
 90
       50
176
     1
 90
       50
176
     1
290
     0
176
     1
 90
       50
176
     1
 62
   256
176
     0
 40
1.0
176
     0
 90
        2
176
     1
  1
strokes_ogs.tif
176
     1
290
     0
176
     1
 40
1.0
176
     1
 40
1.0
176
     1
1001
ACAD
1000
AcDbSavedByObjectVersion
1070
     0
  0
VISUALSTYLE
  5
37C
102
{ACAD_REACTORS
330
365
102
}
330
365
100
AcDbVisualStyle
  2
OverhangOff
 70
    21
177
     3
291
     1
 70
    58
 90
        2
176
     0
 90
        2
176
     0
 90
        0
176
     0
 90
        0
176
     0
 40
0.6
176
     0
 40
30.0
176
     0
 62
     7
420
 16777215
176
     0
 90
        1
176
     0
 90
        4
176
     0
 62
     7
176
     0
 62
   257
176
     0
 90
        1
176
     0
 90
        1
176
     0
 40
1.0
176
     0
 90
        9
176
     2
 62
     7
176
     0
 40
1.0
176
     0
 90
        1
176
     0
 90
        6
176
     0
 90
        2
176
     0
 62
     7
176
     0
 90
        5
176
     0
 90
        0
176
     0
 90
        0
176
     0
290
     0
176
     0
 90
        1
176
     0
 40
0.0
176
     0
 90
        0
176
     0
290
     0
176
     0
290
     1
176
     0
290
     1
176
     0
290
     0
176
     0
290
     0
176
     0
290
     0
176
     0
290
     0
176
     0
290
     0
176
     0
290
     0
176
     0
 90
       50
176
     0
 40
0.0
176
     0
 40
1.0
176
     0
 90
        0
176
     0
 62
    18
420
        0
176
     0
 90
       50
176
     0
 90
        3
176
     0
 62
     5
420
      255
176
     0
290
     0
176
     0
 90
       50
176
     0
 90
       50
176
     0
 90
       50
176
     0
290
     0
176
     0
 90
       50
176
     0
 62
   256
176
     0
 40
1.0
176
     0
 90
        2
176
     0
  1
strokes_ogs.tif
176
     0
290
     0
176
     0
 40
1.0
176
     0
 40
1.0
176
     0
1001
ACAD
1000
AcDbSavedByObjectVersion
1070
     0
  0
VISUALSTYLE
  5
36F
102
{ACAD_REACTORS
330
365
102
}
330
365
100
AcDbVisualStyle
  2
Realistic
 70
     8
177
     3
291
     0
 70
    58
 90
        2
176
     1
 90
        3
176
     1
 90
        0
176
     1
 90
        2
176
     1
 40
0.6
176
     1
 40
30.0
176
     1
 62
     7
420
 16777215
176
     1
 90
        0
176
     1
 90
        0
176
     1
 62
     7
176
     1
 62
   257
176
     1
 90
        1
176
     1
 90
        1
176
     1
 40
1.0
176
     1
 90
        8
176
     1
 62
   257
176
     1
 40
1.0
176
     1
 90
        1
176
     1
 90
        6
176
     1
 90
        2
176
     1
 62
     7
176
     1
 90
        3
176
     1
 90
        0
176
     1
 90
        0
176
     1
290
     0
176
     1
 90
       13
176
     1
 40
0.0
176
     1
 90
        0
176
     1
290
     0
176
     1
290
     1
176
     1
290
     1
176
     1
290
     0
176
     1
290
     0
176
     1
290
     0
176
     1
290
     0
176
     1
290
     0
176
     1
290
     0
176
     1
 90
       50
176
     1
 40
0.0
176
     1
 40
1.0
176
     1
 90
        0
176
     1
 62
    18
420
        0
176
     1
 90
       50
176
     1
 90
        3
176
     1
 62
     5
420
      255
176
     1
290
     0
176
     1
 90
       50
176
     1
 90
       50
176
     1
 90
       50
176
     1
290
     0
176
     1
 90
       50
176
     1
 62
   256
176
     0
 40
1.0
176
     0
 90
        2
176
     1
  1
strokes_ogs.tif
176
     1
290
     0
176
     1
 40
1.0
176
     1
 40
1.0
176
     1
1001
ACAD
1000
AcDbSavedByObjectVersion
1070
     0
  0
VISUALSTYLE
  5
37A
102
{ACAD_REACTORS
330
365
102
}
330
365
100
AcDbVisualStyle
  2
Shaded
 70
    27
177
     3
291
     0
 70
    58
 90
        2
176
     1
 90
        2
176
     1
 90
        1
176
     1
 90
        2
176
     1
 40
0.6
176
     1
 40
30.0
176
     1
 62
     7
420
 16777215
176
     1
 90
        0
176
     1
 90
        4
176
     1
 62
     7
176
     1
 62
   257
176
     1
 90
        1
176
     1
 90
        1
176
     1
 40
1.0
176
     1
 90
        8
176
     1
 62
   257
176
     1
 40
1.0
176
     1
 90
        1
176
     1
 90
        6
176
     1
 90
        2
176
     1
 62
     8
420
  7895160
176
     1
 90
        3
176
     1
 90
        0
176
     1
 90
        0
176
     1
290
     0
176
     1
 90
        5
176
     1
 40
0.0
176
     1
 90
        0
176
     1
290
     0
176
     1
290
     1
176
     1
290
     1
176
     1
290
     0
176
     1
290
     0
176
     1
290
     0
176
     1
290
     0
176
     1
290
     0
176
     1
290
     0
176
     1
 90
       50
176
     1
 40
0.0
176
     1
 40
1.0
176
     1
 90
        0
176
     1
 62
    18
420
        0
176
     1
 90
       50
176
     1
 90
        3
176
     1
 62
     5
420
      255
176
     1
290
     0
176
     1
 90
       50
176
     1
 90
       50
176
     1
 90
       50
176
     1
290
     0
176
     1
 90
       50
176
     1
 62
   256
176
     0
 40
1.0
176
     0
 90
        2
176
     1
  1
strokes_ogs.tif
176
     1
290
     0
176
     1
 40
1.0
176
     1
 40
1.0
176
     1
1001
ACAD
1000
AcDbSavedByObjectVersion
1070
     0
  0
VISUALSTYLE
  5
379
102
{ACAD_REACTORS
330
365
102
}
330
365
100
AcDbVisualStyle
  2
Shaded with edges
 70
    26
177
     3
291
     0
 70
    58
 90
        2
176
     1
 90
        2
176
     1
 90
        1
176
     1
 90
        2
176
     1
 40
0.6
176
     1
 40
30.0
176
     1
 62
     7
420
 16777215
176
     1
 90
        1
176
     1
 90
        2
176
     1
 62
     7
176
     1
 62
   257
176
     1
 90
        2
176
     1
 90
        1
176
     1
 40
1.0
176
     1
 90
        8
176
     1
 62
   257
176
     1
 40
1.0
176
     1
 90
        1
176
     1
 90
        6
176
     1
 90
        2
176
     1
 62
     7
176
     1
 90
        3
176
     1
 90
        0
176
     1
 90
        0
176
     1
290
     0
176
     1
 90
        5
176
     1
 40
0.0
176
     1
 90
        0
176
     1
290
     0
176
     1
290
     1
176
     1
290
     1
176
     1
290
     0
176
     1
290
     0
176
     1
290
     0
176
     1
290
     0
176
     1
290
     0
176
     1
290
     0
176
     1
 90
       50
176
     1
 40
0.0
176
     1
 40
1.0
176
     1
 90
        0
176
     1
 62
    18
420
        0
176
     1
 90
       50
176
     1
 90
        3
176
     1
 62
     5
420
      255
176
     1
290
     0
176
     1
 90
       50
176
     1
 90
       50
176
     1
 90
       50
176
     1
290
     0
176
     1
 90
       50
176
     1
 62
   256
176
     0
 40
1.0
176
     0
 90
        2
176
     1
  1
strokes_ogs.tif
176
     1
290
     0
176
     1
 40
1.0
176
     1
 40
1.0
176
     1
1001
ACAD
1000
AcDbSavedByObjectVersion
1070
     0
  0
VISUALSTYLE
  5
376
102
{ACAD_REACTORS
330
365
102
}
330
365
100
AcDbVisualStyle
  2
Shades of Gray
 70
    23
177
     3
291
     0
 70
    58
 90
        2
176
     1
 90
        2
176
     1
 90
        3
176
     1
 90
        0
176
     1
 40
0.6
176
     1
 40
30.0
176
     1
 62
     7
420
 16777215
176
     1
 90
        2
176
     1
 90
        2
176
     1
 62
     7
176
     1
 62
     7
176
     1
 90
        1
176
     1
 90
        1
176
     1
 40
40.0
176
     1
 90
        8
176
     1
 62
     7
176
     1
 40
1.0
176
     1
 90
        1
176
     1
 90
        6
176
     1
 90
        2
176
     1
 62
     7
176
     1
 90
        3
176
     1
 90
        0
176
     1
 90
        0
176
     1
290
     0
176
     1
 90
        1
176
     1
 40
0.0
176
     1
 90
        0
176
     1
290
     0
176
     1
290
     1
176
     1
290
     1
176
     1
290
     0
176
     1
290
     0
176
     1
290
     0
176
     1
290
     0
176
     1
290
     0
176
     1
290
     0
176
     1
 90
       50
176
     1
 40
0.0
176
     1
 40
1.0
176
     1
 90
        0
176
     1
 62
    18
420
        0
176
     1
 90
       50
176
     1
 90
        3
176
     1
 62
     5
420
      255
176
     1
290
     0
176
     1
 90
       50
176
     1
 90
       50
176
     1
 90
       50
176
     1
290
     0
176
     1
 90
       50
176
     1
 62
   256
176
     0
 40
1.0
176
     0
 90
        2
176
     1
  1
strokes_ogs.tif
176
     1
290
     0
176
     1
 40
1.0
176
     1
 40
1.0
176
     1
1001
ACAD
1000
AcDbSavedByObjectVersion
1070
     0
  0
VISUALSTYLE
  5
377
102
{ACAD_REACTORS
330
365
102
}
330
365
100
AcDbVisualStyle
  2
Sketchy
 70
    24
177
     3
291
     0
 70
    58
 90
        1
176
     1
 90
        2
176
     1
 90
        2
176
     1
 90
        0
176
     1
 40
0.6
176
     1
 40
30.0
176
     1
 62
     7
420
 16777215
176
     1
 90
        2
176
     1
 90
        2
176
     1
 62
     7
176
     1
 62
     7
176
     1
 90
        1
176
     1
 90
        1
176
     1
 40
40.0
176
     1
 90
       11
176
     1
 62
     7
176
     1
 40
1.0
176
     1
 90
        1
176
     1
 90
        6
176
     1
 90
        2
176
     1
 62
     7
176
     1
 90
        6
176
     1
 90
        0
176
     1
 90
        0
176
     1
290
     0
176
     1
 90
        1
176
     1
 40
0.0
176
     1
 90
        0
176
     1
290
     0
176
     1
290
     1
176
     1
290
     1
176
     1
290
     0
176
     1
290
     0
176
     1
290
     0
176
     1
290
     0
176
     1
290
     0
176
     1
290
     0
176
     1
 90
       50
176
     1
 40
0.0
176
     1
 40
1.0
176
     1
 90
        0
176
     1
 62
    18
420
        0
176
     1
 90
       50
176
     1
 90
        3
176
     1
 62
     5
420
      255
176
     1
290
     0
176
     1
 90
       50
176
     1
 90
       50
176
     1
 90
       50
176
     1
290
     0
176
     1
 90
       50
176
     1
 62
   256
176
     0
 40
1.0
176
     0
 90
        2
176
     1
  1
strokes_ogs.tif
176
     1
290
     0
176
     1
 40
1.0
176
     1
 40
1.0
176
     1
1001
ACAD
1000
AcDbSavedByObjectVersion
1070
     0
  0
VISUALSTYLE
  5
372
102
{ACAD_REACTORS
330
365
102
}
330
365
100
AcDbVisualStyle
  2
Thicken
 70
    13
177
     3
291
     1
 70
    58
 90
        2
176
     1
 90
        2
176
     1
 90
        0
176
     1
 90
        0
176
     1
 40
0.6
176
     1
 40
30.0
176
     1
 62
     7
420
 16777215
176
     1
 90
        1
176
     1
 90
        4
176
     1
 62
     7
176
     1
 62
   257
176
     1
 90
        1
176
     1
 90
        1
176
     1
 40
1.0
176
     1
 90
       12
176
     1
 62
     7
176
     1
 40
1.0
176
     1
 90
        1
176
     1
 90
        6
176
     1
 90
        2
176
     1
 62
     7
176
     1
 90
        5
176
     1
 90
        0
176
     1
 90
        0
176
     1
290
     0
176
     1
 90
        1
176
     1
 40
0.0
176
     1
 90
        0
176
     1
290
     0
176
     1
290
     1
176
     1
290
     1
176
     1
290
     0
176
     1
290
     0
176
     1
290
     0
176
     1
290
     0
176
     1
290
     0
176
     1
290
     0
176
     1
 90
       50
176
     1
 40
0.0
176
     1
 40
1.0
176
     1
 90
        0
176
     1
 62
    18
420
        0
176
     1
 90
       50
176
     1
 90
        3
176
     1
 62
     5
420
      255
176
     1
290
     0
176
     1
 90
       50
176
     1
 90
       50
176
     1
 90
       50
176
     1
290
     0
176
     1
 90
       50
176
     1
 62
   256
176
     0
 40
1.0
176
     0
 90
        2
176
     1
  1
strokes_ogs.tif
176
     1
290
     0
176
     1
 40
1.0
176
     1
 40
1.0
176
     1
1001
ACAD
1000
AcDbSavedByObjectVersion
1070
     0
  0
VISUALSTYLE
  5
36C
102
{ACAD_REACTORS
330
365
102
}
330
365
100
AcDbVisualStyle
  2
Wireframe
 70
     5
177
     3
291
     0
 70
    58
 90
        0
176
     1
 90
        2
176
     1
 90
        0
176
     1
 90
        0
176
     1
 40
0.6
176
     1
 40
30.0
176
     1
 62
     7
420
 16777215
176
     1
 90
        1
176
     1
 90
        4
176
     1
 62
     7
176
     1
 62
   257
176
     1
 90
        1
176
     1
 90
        1
176
     1
 40
1.0
176
     1
 90
        0
176
     1
 62
   257
176
     1
 40
1.0
176
     1
 90
        1
176
     1
 90
        6
176
     1
 90
        2
176
     1
 62
     7
176
     1
 90
        3
176
     1
 90
        0
176
     1
 90
        0
176
     1
290
     0
176
     1
 90
        1
176
     1
 40
0.0
176
     1
 90
        0
176
     1
290
     0
176
     1
290
     1
176
     1
290
     1
176
     1
290
     0
176
     1
290
     0
176
     1
290
     0
176
     1
290
     0
176
     1
290
     0
176
     1
290
     0
176
     1
 90
       50
176
     1
 40
0.0
176
     1
 40
1.0
176
     1
 90
        0
176
     1
 62
    18
420
        0
176
     1
 90
       50
176
     1
 90
        3
176
     1
 62
     5
420
      255
176
     1
290
     0
176
     1
 90
       50
176
     1
 90
       50
176
     1
 90
       50
176
     1
290
     0
176
     1
 90
       50
176
     1
 62
   256
176
     0
 40
1.0
176
     0
 90
        2
176
     1
  1
strokes_ogs.tif
176
     1
290
     0
176
     1
 40
1.0
176
     1
 40
1.0
176
     1
1001
ACAD
1000
AcDbSavedByObjectVersion
1070
     0
  0
VISUALSTYLE
  5
378
102
{ACAD_REACTORS
330
365
102
}
330
365
100
AcDbVisualStyle
  2
X-Ray
 70
    25
177
     3
291
     0
 70
    58
 90
        2
176
     1
 90
        2
176
     1
 90
        1
176
     1
 90
        1
176
     1
 40
0.5
176
     1
 40
30.0
176
     1
 62
     7
420
 16777215
176
     1
 90
        1
176
     1
 90
        0
176
     1
 62
     7
176
     1
 62
   257
176
     1
 90
        1
176
     1
 90
        1
176
     1
 40
1.0
176
     1
 90
        8
176
     1
 62
     7
176
     1
 40
1.0
176
     1
 90
        1
176
     1
 90
        6
176
     1
 90
        2
176
     1
 62
     7
176
     1
 90
        3
176
     1
 90
        0
176
     1
 90
        0
176
     1
290
     0
176
     1
 90
       13
176
     1
 40
0.0
176
     1
 90
        0
176
     1
290
     0
176
     1
290
     1
176
     1
290
     1
176
     1
290
     0
176
     1
290
     0
176
     1
290
     0
176
     1
290
     0
176
     1
290
     0
176
     1
290
     0
176
     1
 90
       50
176
     1
 40
0.0
176
     1
 40
1.0
176
     1
 90
        0
176
     1
 62
    18
420
        0
176
     1
 90
       50
176
     1
 90
        3
176
     1
 62
     5
420
      255
176
     1
290
     0
176
     1
 90
       50
176
     1
 90
       50
176
     1
 90
       50
176
     1
290
     0
176
     1
 90
       50
176
     1
 62
   256
176
     0
 40
1.0
176
     0
 90
        2
176
     1
  1
strokes_ogs.tif
176
     1
290
     0
176
     1
 40
1.0
176
     1
 40
1.0
176
     1
1001
ACAD
1000
AcDbSavedByObjectVersion
1070
     0
  0
DICTIONARYVAR
  5
3A2
102
{ACAD_REACTORS
330
39D
102
}
330
39D
100
DictionaryVariables
280
     0
  1
1:1
  0
DICTIONARYVAR
  5
39F
102
{ACAD_REACTORS
330
39D
102
}
330
39D
100
DictionaryVariables
280
     0
  1
STANDARD
  0
DICTIONARYVAR
  5
39E
102
{ACAD_REACTORS
330
39D
102
}
330
39D
100
DictionaryVariables
280
     0
  1
STANDARD
  0
DICTIONARYVAR
  5
3A0
102
{ACAD_REACTORS
330
39D
102
}
330
39D
100
DictionaryVariables
280
     0
  1
Metric50
  0
DICTIONARYVAR
  5
3A1
102
{ACAD_REACTORS
330
39D
102
}
330
39D
100
DictionaryVariables
280
     0
  1
Metric50
  0
DICTIONARY
  5
3AB
330
396
100
AcDbDictionary
280
     1
281
     1
  3
ACAD_XREC_ROUNDTRIP
360
3AC
  0
DICTIONARY
  5
356
330
355
100
AcDbDictionary
280
     1
281
     1
  3
BUMPTILE
360
358
  3
DIFFUSETILE
360
357
  3
OPACITYTILE
360
35B
  3
REFLECTIONTILE
360
35A
  3
REFRACTIONTILE
360
35C
  3
SPECULARTILE
360
359
  0
DICTIONARY
  5
34E
330
34D
100
AcDbDictionary
280
     1
281
     1
  3
BUMPTILE
360
350
  3
DIFFUSETILE
360
34F
  3
OPACITYTILE
360
353
  3
REFLECTIONTILE
360
352
  3
REFRACTIONTILE
360
354
  3
SPECULARTILE
360
351
  0
DICTIONARY
  5
35E
330
35D
100
AcDbDictionary
280
     1
281
     1
  3
BUMPTILE
360
360
  3
DIFFUSETILE
360
35F
  3
OPACITYTILE
360
363
  3
REFLECTIONTILE
360
362
  3
REFRACTIONTILE
360
364
  3
SPECULARTILE
360
361
  0
DICTIONARY
  5
3A9
330
394
100
AcDbDictionary
280
     1
281
     1
  3
ACAD_XREC_ROUNDTRIP
360
3AA
  0
DICTIONARY
  5
3A4
330
348
100
AcDbDictionary
280
     1
281
     1
  3
ACAD_ROUNDTRIP_2008_TABLESTYLE_CELLSTYLEMAP
360
3A5
  0
DICTIONARY
  5
3A6
330
349
100
AcDbDictionary
280
     1
281
     1
  3
ACAD_ROUNDTRIP_2008_TABLESTYLE_CELLSTYLEMAP
360
3A7
  0
XRECORD
  5
3AC
102
{ACAD_REACTORS
330
3AB
102
}
330
3AB
100
AcDbXrecord
280
     1
102
DISPLAYNAME
  1
Metric50
102
FLAGS
 90
        0
  0
XRECORD
  5
358
102
{ACAD_REACTORS
330
356
102
}
330
356
100
AcDbXrecord
280
     1
270
     1
271
     1
  0
XRECORD
  5
357
102
{ACAD_REACTORS
330
356
102
}
330
356
100
AcDbXrecord
280
     1
270
     1
271
     1
  0
XRECORD
  5
35B
102
{ACAD_REACTORS
330
356
102
}
330
356
100
AcDbXrecord
280
     1
270
     1
271
     1
  0
XRECORD
  5
35A
102
{ACAD_REACTORS
330
356
102
}
330
356
100
AcDbXrecord
280
     1
270
     1
271
     1
  0
XRECORD
  5
35C
102
{ACAD_REACTORS
330
356
102
}
330
356
100
AcDbXrecord
280
     1
270
     1
271
     1
  0
XRECORD
  5
359
102
{ACAD_REACTORS
330
356
102
}
330
356
100
AcDbXrecord
280
     1
270
     1
271
     1
  0
XRECORD
  5
350
102
{ACAD_REACTORS
330
34E
102
}
330
34E
100
AcDbXrecord
280
     1
270
     1
271
     1
  0
XRECORD
  5
34F
102
{ACAD_REACTORS
330
34E
102
}
330
34E
100
AcDbXrecord
280
     1
270
     1
271
     1
  0
XRECORD
  5
353
102
{ACAD_REACTORS
330
34E
102
}
330
34E
100
AcDbXrecord
280
     1
270
     1
271
     1
  0
XRECORD
  5
352
102
{ACAD_REACTORS
330
34E
102
}
330
34E
100
AcDbXrecord
280
     1
270
     1
271
     1
  0
XRECORD
  5
354
102
{ACAD_REACTORS
330
34E
102
}
330
34E
100
AcDbXrecord
280
     1
270
     1
271
     1
  0
XRECORD
  5
351
102
{ACAD_REACTORS
330
34E
102
}
330
34E
100
AcDbXrecord
280
     1
270
     1
271
     1
  0
XRECORD
  5
360
102
{ACAD_REACTORS
330
35E
102
}
330
35E
100
AcDbXrecord
280
     1
270
     1
271
     1
  0
XRECORD
  5
35F
102
{ACAD_REACTORS
330
35E
102
}
330
35E
100
AcDbXrecord
280
     1
270
     1
271
     1
  0
XRECORD
  5
363
102
{ACAD_REACTORS
330
35E
102
}
330
35E
100
AcDbXrecord
280
     1
270
     1
271
     1
  0
XRECORD
  5
362
102
{ACAD_REACTORS
330
35E
102
}
330
35E
100
AcDbXrecord
280
     1
270
     1
271
     1
  0
XRECORD
  5
364
102
{ACAD_REACTORS
330
35E
102
}
330
35E
100
AcDbXrecord
280
     1
270
     1
271
     1
  0
XRECORD
  5
361
102
{ACAD_REACTORS
330
35E
102
}
330
35E
100
AcDbXrecord
280
     1
270
     1
271
     1
  0
XRECORD
  5
3AA
102
{ACAD_REACTORS
330
3A9
102
}
330
3A9
100
AcDbXrecord
280
     1
102
DISPLAYNAME
  1
Metric50
102
FLAGS
 90
        0
  0
CELLSTYLEMAP
  5
3A5
102
{ACAD_REACTORS
330
3A4
102
}
330
3A4
100
AcDbCellStyleMap
 90
        3
300
CELLSTYLE
  1
TABLEFORMAT_BEGIN
 90
        5
170
     1
 91
        0
 92
    32768
 62
   257
 93
        1
300
CONTENTFORMAT
  1
CONTENTFORMAT_BEGIN
 90
        0
 91
        0
 92
      512
 93
        0
300

 40
0.0
140
1.0
 94
        1
 62
     0
340
11
144
0.18
309
CONTENTFORMAT_END
171
     0
 94
        0
309
TABLEFORMAT_END
  1
CELLSTYLE_BEGIN
 90
        1
 91
        1
300
_TITLE
309
CELLSTYLE_END
300
CELLSTYLE
  1
TABLEFORMAT_BEGIN
 90
        5
170
     1
 91
        0
 92
        0
 62
   257
 93
        1
300
CONTENTFORMAT
  1
CONTENTFORMAT_BEGIN
 90
        0
 91
        0
 92
      512
 93
        0
300

 40
0.0
140
1.0
 94
        1
 62
     0
340
11
144
0.18
309
CONTENTFORMAT_END
171
     0
 94
        0
309
TABLEFORMAT_END
  1
CELLSTYLE_BEGIN
 90
        2
 91
        1
300
_HEADER
309
CELLSTYLE_END
300
CELLSTYLE
  1
TABLEFORMAT_BEGIN
 90
        5
170
     1
 91
        0
 92
        0
 62
   257
 93
        1
300
CONTENTFORMAT
  1
CONTENTFORMAT_BEGIN
 90
        0
 91
        0
 92
      512
 93
        0
300

 40
0.0
140
1.0
 94
        1
 62
     0
340
11
144
0.18
309
CONTENTFORMAT_END
171
     0
 94
        0
309
TABLEFORMAT_END
  1
CELLSTYLE_BEGIN
 90
        3
 91
        2
300
_DATA
309
CELLSTYLE_END
  0
CELLSTYLEMAP
  5
3A7
102
{ACAD_REACTORS
330
3A6
102
}
330
3A6
100
AcDbCellStyleMap
 90
        3
300
CELLSTYLE
  1
TABLEFORMAT_BEGIN
 90
        5
170
     1
 91
        0
 92
    32768
 62
   257
 93
        1
300
CONTENTFORMAT
  1
CONTENTFORMAT_BEGIN
 90
        0
 91
        0
 92
      512
 93
        0
300

 40
0.0
140
1.0
 94
        1
 62
     0
340
11
144
0.18
309
CONTENTFORMAT_END
171
     0
 94
        0
309
TABLEFORMAT_END
  1
CELLSTYLE_BEGIN
 90
        1
 91
        1
300
_TITLE
309
CELLSTYLE_END
300
CELLSTYLE
  1
TABLEFORMAT_BEGIN
 90
        5
170
     1
 91
        0
 92
        0
 62
   257
 93
        1
300
CONTENTFORMAT
  1
CONTENTFORMAT_BEGIN
 90
        0
 91
        0
 92
      512
 93
        0
300

 40
0.0
140
1.0
 94
        1
 62
     0
340
11
144
0.18
309
CONTENTFORMAT_END
171
     0
 94
        0
309
TABLEFORMAT_END
  1
CELLSTYLE_BEGIN
 90
        2
 91
        1
300
_HEADER
309
CELLSTYLE_END
300
CELLSTYLE
  1
TABLEFORMAT_BEGIN
 90
        5
170
     1
 91
        0
 92
        0
 62
   257
 93
        1
300
CONTENTFORMAT
  1
CONTENTFORMAT_BEGIN
 90
        0
 91
        0
 92
      512
 93
        0
300

 40
0.0
140
1.0
 94
        1
 62
     0
340
11
144
0.18
309
CONTENTFORMAT_END
171
     0
 94
        0
309
TABLEFORMAT_END
  1
CELLSTYLE_BEGIN
 90
        3
 91
        2
300
_DATA
309
CELLSTYLE_END
  0
ENDSEC
  0
EOF
