999
DXF file: G:\01-G-2007\disegni_dxf_wnt\pag64\83710120.dxf
999
Pro/ENGINEER 2002180 by Parametric Technology Corporation
0
SECTION
2
HEADER
9
$ACADVER
1
AC1014
9
$EXTMAX
10
420.0000000000
20
297.0000000000
9
$EXTMIN
10
0.0000000000
20
0.0000000000
9
$LIMMIN
10
0.0000000000
20
0.0000000000
9
$LIMMAX
10
420.0000000000
20
297.0000000000
9
$VIEWCTR
10
210.0000000000
20
148.5000000000
9
$VIEWSIZE
40
297.0000000000
9
$CLAYER
8
0
9
$LTSCALE
40
23.1000000000
9
$CELTYPE
6
BYLAYER
9
$DIMSCALE
40
1
9
$DIMASZ
40
4.7600000000
9
$DIMEXO
40
2.6250000000
9
$DIMDLI
40
15.9600000000
9
$DIMEXE
40
7.5600000000
9
$DIMCEN
40
3.7800000000
9
$DIMLFAC
40
1.0000000000
9
$DIMTXT
40
3.0000000000
9
$DIMTOL
70
1
9
$DIMLIM
70
0
9
$DIMTFAC
40
1.0000000000
9
$DIMTP
40
0.0010000000
9
$DIMTM
40
0.0010000000
9
$HANDSEED
5
2D6
0
ENDSEC
0
SECTION
2
CLASSES
0
ENDSEC
0
SECTION
2
TABLES
0
TABLE
2
VPORT
5
8
100
AcDbSymbolTable
70
2
0
VPORT
5
1F4
100
AcDbSymbolTableRecord
100
AcDbViewportTableRecord
2
*ACTIVE
70
0
10
0.0
20
0.0
11
1.0
21
1.0
12
210.0000000000
22
148.5000000000
13
0.0
23
0.0
14
1.0
24
1.0
15
0.0
25
0.0
16
0.0
26
0.0
36
1.0
17
0.0
27
0.0
37
0.0
40
297.0000000000
41
1.4141414141
42
50.0
43
0.0
44
0.0
50
0.0
51
0.0
71
0
72
100
73
1
74
1
75
0
76
0
77
0
78
0
0
ENDTAB
0
TABLE
2
LTYPE
5
5
100
AcDbSymbolTable
70
6
0
LTYPE
5
14
100
AcDbSymbolTableRecord
100
AcDbLinetypeTableRecord
2
BYBLOCK
70
0
3

72
65
73
0
40
0.0
0
LTYPE
5
15
100
AcDbSymbolTableRecord
100
AcDbLinetypeTableRecord
2
BYLAYER
70
0
3

72
65
73
0
40
0.0
0
LTYPE
5
16
100
AcDbSymbolTableRecord
100
AcDbLinetypeTableRecord
2
CONTINUOUS
70
64
3
Solid line
72
65
73
0
40
0
0
LTYPE
5
1F5
100
AcDbSymbolTableRecord
100
AcDbLinetypeTableRecord
2
CENTER
70
64
3
____ _ ____ _ ____ _ ____ _ ____ _ ____ _ ____
72
65
73
4
40
0.6
49
0.375
74
0
49
-0.075
74
0
49
0.075
74
0
49
-0.075
74
0
0
LTYPE
5
1F6
100
AcDbSymbolTableRecord
100
AcDbLinetypeTableRecord
2
HIDDEN
70
64
3
- - - - - - - - - - - - - - - - - - - -
72
65
73
2
40
0.2
49
0.1
74
0
49
-0.1
74
0
0
LTYPE
5
1F7
100
AcDbSymbolTableRecord
100
AcDbLinetypeTableRecord
2
PHANTOM
70
64
3
_____ _ _ _____ _ _ _____ _ _ _____
72
65
73
6
40
0.8
49
0.45
74
0
49
-0.05
74
0
49
0.1
74
0
49
-0.05
74
0
49
0.1
74
0
49
-0.05
74
0
0
LTYPE
5
1F8
100
AcDbSymbolTableRecord
100
AcDbLinetypeTableRecord
2
DOT
70
64
3
. . . . . . . . . . . . . . . . . . . .
72
65
73
2
40
0.2
49
0.1
74
0
49
-0.1
74
0
0
LTYPE
5
1F9
100
AcDbSymbolTableRecord
100
AcDbLinetypeTableRecord
2
DASHED
70
64
3
- - - - - - - - - - - - - - - - - - - -
72
65
73
2
40
0.2
49
0.1
74
0
49
-0.1
74
0
0
ENDTAB
0
TABLE
2
LAYER
5
2
100
AcDbSymbolTable
70
36
0
LAYER
5
10
100
AcDbSymbolTableRecord
100
AcDbLayerTableRecord
2
0
70
0
62
7
6
CONTINUOUS
0
LAYER
5
1FA
100
AcDbSymbolTableRecord
100
AcDbLayerTableRecord
2
DEFAULT_1
70
0
62
7
6
CENTER
0
LAYER
5
1FB
100
AcDbSymbolTableRecord
100
AcDbLayerTableRecord
2
DEFAULT_2
70
0
62
8
6
HIDDEN
0
LAYER
5
1FC
100
AcDbSymbolTableRecord
100
AcDbLayerTableRecord
2
DEFAULT_3
70
0
62
7
6
PHANTOM
0
LAYER
5
1FD
100
AcDbSymbolTableRecord
100
AcDbLayerTableRecord
2
0_COMPONENTS
70
0
62
7
6
CONTINUOUS
0
LAYER
5
1FE
100
AcDbSymbolTableRecord
100
AcDbLayerTableRecord
2
1_ALL_PLANES
70
0
62
7
6
CONTINUOUS
0
LAYER
5
1FF
100
AcDbSymbolTableRecord
100
AcDbLayerTableRecord
2
1__DEF_ASM_PLN
70
0
62
7
6
CONTINUOUS
0
LAYER
5
200
100
AcDbSymbolTableRecord
100
AcDbLayerTableRecord
2
1__DEF_PLANES
70
0
62
7
6
CONTINUOUS
0
LAYER
5
201
100
AcDbSymbolTableRecord
100
AcDbLayerTableRecord
2
2_ALL_CSYS
70
0
62
7
6
CONTINUOUS
0
LAYER
5
202
100
AcDbSymbolTableRecord
100
AcDbLayerTableRecord
2
2__DEF_ASM_CSYS
70
0
62
7
6
CONTINUOUS
0
LAYER
5
203
100
AcDbSymbolTableRecord
100
AcDbLayerTableRecord
2
2__DEF_CSYS
70
0
62
7
6
CONTINUOUS
0
LAYER
5
204
100
AcDbSymbolTableRecord
100
AcDbLayerTableRecord
2
3_ALL_AXES
70
0
62
7
6
CONTINUOUS
0
LAYER
5
205
100
AcDbSymbolTableRecord
100
AcDbLayerTableRecord
2
4_ALL_POINTS
70
0
62
7
6
CONTINUOUS
0
LAYER
5
206
100
AcDbSymbolTableRecord
100
AcDbLayerTableRecord
2
5_ALL_CURVES
70
0
62
7
6
CONTINUOUS
0
LAYER
5
207
100
AcDbSymbolTableRecord
100
AcDbLayerTableRecord
2
5_ALL_GTOLS_FREE_
70
0
62
7
6
CONTINUOUS
0
LAYER
5
208
100
AcDbSymbolTableRecord
100
AcDbLayerTableRecord
2
6_ALL_SURFS
70
0
62
7
6
CONTINUOUS
0
LAYER
5
209
100
AcDbSymbolTableRecord
100
AcDbLayerTableRecord
2
CURVA
70
0
62
7
6
CONTINUOUS
0
LAYER
5
20A
100
AcDbSymbolTableRecord
100
AcDbLayerTableRecord
2
CURVE
70
0
62
7
6
CONTINUOUS
0
LAYER
5
20B
100
AcDbSymbolTableRecord
100
AcDbLayerTableRecord
2
PIANI_INUTILI
70
0
62
7
6
CONTINUOUS
0
LAYER
5
20C
100
AcDbSymbolTableRecord
100
AcDbLayerTableRecord
2
PIANI_SCORD
70
0
62
7
6
CONTINUOUS
0
LAYER
5
20D
100
AcDbSymbolTableRecord
100
AcDbLayerTableRecord
2
XSEC_DATUMS
70
0
62
7
6
CONTINUOUS
0
ENDTAB
0
TABLE
2
STYLE
5
3
100
AcDbSymbolTable
70
1
0
STYLE
5
11
100
AcDbSymbolTableRecord
100
AcDbTextStyleTableRecord
2
STANDARD
70
0
40
0.0
41
1.2000000000
50
0.0
71
0
42
0.2
3
txt
4

0
ENDTAB
0
TABLE
2
VIEW
5
6
100
AcDbSymbolTable
70
0
0
ENDTAB
0
TABLE
2
UCS
5
7
100
AcDbSymbolTable
70
0
0
ENDTAB
0
TABLE
2
APPID
5
9
100
AcDbSymbolTable
70
1
0
APPID
5
20E
100
AcDbSymbolTableRecord
100
AcDbRegAppTableRecord
2
ACAD
70
0
0
ENDTAB
0
TABLE
2
DIMSTYLE
5
A
100
AcDbSymbolTable
70
1
0
DIMSTYLE
105
20F
100
AcDbSymbolTableRecord
100
AcDbDimStyleTableRecord
2
STANDARD
70
0
3

4

5

6

7

40
1.0
41
4.7600000000
42
0.0625
43
0.38
44
0.18
45
0.0
46
0.0
47
0.0010000000
48
0.0010000000
140
3.0000000000
141
0.09
142
0.0
143
25.4
144
1.0000000000
145
0.0
146
1.0000000000
147
0.09
71
1
72
0
73
0
74
0
75
0
76
0
77
1
78
8
170
0
171
2
172
0
173
0
174
0
175
0
176
0
177
0
178
5
270
2
271
3
272
3
273
2
274
2
340
11
275
0
280
0
281
0
282
0
283
1
284
8
285
0
286
0
287
3
288
0
0
DIMSTYLE
105
210
100
AcDbSymbolTableRecord
100
AcDbDimStyleTableRecord
2
DIMSTYLE_1
70
0
3

4

5

6

7

40
1.0
41
4.7600000000
42
0.0625
43
0.38
44
0.18
45
0.0
46
0.0
47
0.0100000000
48
0.0100000000
140
3.0000000000
141
0.09
142
0.0
143
25.4
144
1.0000000000
145
0.0
146
1.0000000000
147
0.09
71
0
72
0
73
0
74
0
75
0
76
0
77
1
78
8
170
0
171
2
172
0
173
0
174
0
175
0
176
0
177
0
178
5
270
2
271
3
272
3
273
2
274
2
340
11
275
0
280
0
281
0
282
0
283
1
284
8
285
0
286
0
287
3
288
0
0
DIMSTYLE
105
211
100
AcDbSymbolTableRecord
100
AcDbDimStyleTableRecord
2
DIMSTYLE_2
70
0
3

4

5

6

7

40
1.0
41
4.7600000000
42
0.0625
43
0.38
44
0.18
45
0.0
46
0.0
47
0.0000000000
48
0.0000000000
140
3.0000000000
141
0.09
142
0.0
143
25.4
144
1.0000000000
145
0.0
146
1.0000000000
147
0.09
71
0
72
0
73
0
74
0
75
0
76
0
77
1
78
8
170
0
171
2
172
0
173
0
174
0
175
0
176
0
177
0
178
5
270
2
271
0
272
0
273
2
274
2
340
11
275
0
280
0
281
0
282
0
283
1
284
8
285
0
286
0
287
3
288
0
0
ENDTAB
0
TABLE
2
BLOCK_RECORD
5
1
100
AcDbSymbolTable
70
0
0
BLOCK_RECORD
5
1B
100
AcDbSymbolTableRecord
100
AcDbBlockTableRecord
2
*MODEL_SPACE
0
BLOCK_RECORD
5
1C
100
AcDbSymbolTableRecord
100
AcDbBlockTableRecord
2
*PAPER_SPACE
0
BLOCK_RECORD
5
212
100
AcDbSymbolTableRecord
100
AcDbBlockTableRecord
2
*D0
0
BLOCK_RECORD
5
213
100
AcDbSymbolTableRecord
100
AcDbBlockTableRecord
2
*D1
0
BLOCK_RECORD
5
214
100
AcDbSymbolTableRecord
100
AcDbBlockTableRecord
2
*D2
0
BLOCK_RECORD
5
215
100
AcDbSymbolTableRecord
100
AcDbBlockTableRecord
2
*D3
0
ENDTAB
0
ENDSEC
0
SECTION
2
BLOCKS
0
BLOCK
5
1E
100
AcDbEntity
8
0
100
AcDbBlockBegin
2
*MODEL_SPACE
70
0
10
0.0
20
0.0
30
0.0
3
*MODEL_SPACE
1

0
ENDBLK
5
1F
100
AcDbEntity
8
0
100
AcDbBlockEnd
0
BLOCK
5
20
100
AcDbEntity
8
0
100
AcDbBlockBegin
2
*PAPER_SPACE
70
0
10
0.0
20
0.0
30
0.0
3
*PAPER_SPACE
1

0
ENDBLK
5
21
100
AcDbEntity
8
0
100
AcDbBlockEnd
0
BLOCK
5
216
100
AcDbEntity
8
0
100
AcDbBlockBegin
62
2
6
CONTINUOUS
2
*D0
70
65
10
0.0000000000
20
0.0000000000
3
*D0
1

0
TEXT
5
217
100
AcDbEntity
8
0
100
AcDbText
62
5
6
CONTINUOUS
10
321.0581777177
20
59.2953100487
7
STANDARD
40
3.0000000000
1
%%c
41
1.3333333333
72
5
11
325.0581777177
21
59.2953100487
100
AcDbText
0
TEXT
5
218
100
AcDbEntity
8
0
100
AcDbText
62
5
6
CONTINUOUS
10
325.0581777177
20
59.2953100487
7
STANDARD
40
3.0000000000
1
50.8
41
0.7142857143
72
5
11
333.6296062892
21
59.2953100487
100
AcDbText
0
LINE
5
219
100
AcDbEntity
8
0
100
AcDbLine
62
2
6
CONTINUOUS
10
299.8064928369
20
97.8466993697
11
299.8064928369
21
57.5453100487
0
LINE
5
21A
100
AcDbEntity
8
0
100
AcDbLine
62
2
6
CONTINUOUS
10
350.6064928369
20
97.8466993697
11
350.6064928369
21
57.5453100487
0
LINE
5
21B
100
AcDbEntity
8
0
100
AcDbLine
62
2
6
CONTINUOUS
10
299.8064928369
20
58.5453100487
11
325.2064928369
21
58.5453100487
0
LINE
5
21C
100
AcDbEntity
8
0
100
AcDbLine
62
2
6
CONTINUOUS
10
350.6064928369
20
58.5453100487
11
325.2064928369
21
58.5453100487
0
SOLID
5
21D
100
AcDbEntity
8
0
100
AcDbTrace
62
2
6
CONTINUOUS
10
304.5664928369
20
59.0453100487
11
299.8064928369
21
58.5453100487
12
304.5664928369
22
58.0453100487
13
304.5664928369
23
58.0453100487
0
SOLID
5
21E
100
AcDbEntity
8
0
100
AcDbTrace
62
2
6
CONTINUOUS
10
345.8464928369
20
58.0453100487
11
350.6064928369
21
58.5453100487
12
345.8464928369
22
59.0453100487
13
345.8464928369
23
59.0453100487
0
ENDBLK
5
21F
100
AcDbEntity
8
0
100
AcDbBlockEnd
0
BLOCK
5
220
100
AcDbEntity
8
0
100
AcDbBlockBegin
62
2
6
CONTINUOUS
2
*D1
70
65
10
0.0000000000
20
0.0000000000
3
*D1
1

0
TEXT
5
221
100
AcDbEntity
8
0
100
AcDbText
62
5
6
CONTINUOUS
10
392.2956563314
20
126.4269329083
7
STANDARD
40
3.0000000000
1
92
50
90.0000000000
41
0.7857142857
72
5
11
392.2956563314
21
131.1412186226
100
AcDbText
0
LINE
5
222
100
AcDbEntity
8
0
100
AcDbLine
62
2
6
CONTINUOUS
10
347.6480932558
20
80.6466993697
11
394.0456563314
21
80.6466993697
0
LINE
5
223
100
AcDbEntity
8
0
100
AcDbLine
62
2
6
CONTINUOUS
10
374.8064928369
20
172.6466993697
11
394.0456563314
21
172.6466993697
0
LINE
5
224
100
AcDbEntity
8
0
100
AcDbLine
62
2
6
CONTINUOUS
10
393.0456563314
20
80.6466993697
11
393.0456563314
21
126.6466993697
0
LINE
5
225
100
AcDbEntity
8
0
100
AcDbLine
62
2
6
CONTINUOUS
10
393.0456563314
20
172.6466993697
11
393.0456563314
21
126.6466993697
0
SOLID
5
226
100
AcDbEntity
8
0
100
AcDbTrace
62
2
6
CONTINUOUS
10
392.5456563314
20
85.4066993697
11
393.0456563314
21
80.6466993697
12
393.5456563314
22
85.4066993697
13
393.5456563314
23
85.4066993697
0
SOLID
5
227
100
AcDbEntity
8
0
100
AcDbTrace
62
2
6
CONTINUOUS
10
393.5456563314
20
167.8866993697
11
393.0456563314
21
172.6466993697
12
392.5456563314
22
167.8866993697
13
392.5456563314
23
167.8866993697
0
ENDBLK
5
228
100
AcDbEntity
8
0
100
AcDbBlockEnd
0
BLOCK
5
229
100
AcDbEntity
8
0
100
AcDbBlockBegin
62
2
6
CONTINUOUS
2
*D2
70
65
10
0.0000000000
20
0.0000000000
3
*D2
1

0
TEXT
5
22A
100
AcDbEntity
8
0
100
AcDbText
62
5
6
CONTINUOUS
10
382.1814523361
20
112.8420293998
7
STANDARD
40
3.0000000000
1
63
50
90.0000000000
41
0.7500000000
72
5
11
382.1814523361
21
117.3420293998
100
AcDbText
0
LINE
5
22B
100
AcDbEntity
8
0
100
AcDbLine
62
2
6
CONTINUOUS
10
374.4756672643
20
143.6966993697
11
383.9314523289
21
143.6966993697
0
LINE
5
22C
100
AcDbEntity
8
0
100
AcDbLine
62
2
6
CONTINUOUS
10
347.6480932558
20
80.6466993697
11
383.9314523289
21
80.6466993697
0
LINE
5
22D
100
AcDbEntity
8
0
100
AcDbLine
62
2
6
CONTINUOUS
10
382.9314523289
20
143.6966993697
11
382.9314523289
21
112.1716993697
0
LINE
5
22E
100
AcDbEntity
8
0
100
AcDbLine
62
2
6
CONTINUOUS
10
382.9314523289
20
80.6466993697
11
382.9314523289
21
112.1716993697
0
SOLID
5
22F
100
AcDbEntity
8
0
100
AcDbTrace
62
2
6
CONTINUOUS
10
383.4314523289
20
138.9366993697
11
382.9314523289
21
143.6966993697
12
382.4314523289
22
138.9366993697
13
382.4314523289
23
138.9366993697
0
SOLID
5
230
100
AcDbEntity
8
0
100
AcDbTrace
62
2
6
CONTINUOUS
10
382.4314523289
20
85.4066993697
11
382.9314523289
21
80.6466993697
12
383.4314523289
22
85.4066993697
13
383.4314523289
23
85.4066993697
0
ENDBLK
5
231
100
AcDbEntity
8
0
100
AcDbBlockEnd
0
BLOCK
5
232
100
AcDbEntity
8
0
100
AcDbBlockBegin
62
2
6
CONTINUOUS
2
*D3
70
65
10
0.0000000000
20
0.0000000000
3
*D3
1

0
TEXT
5
233
100
AcDbEntity
8
0
100
AcDbText
62
5
6
CONTINUOUS
10
320.6493087302
20
69.2223356259
7
STANDARD
40
3.0000000000
1
%%c
41
1.3333333333
72
5
11
324.6493087302
21
69.2223356259
100
AcDbText
0
TEXT
5
234
100
AcDbEntity
8
0
100
AcDbText
62
5
6
CONTINUOUS
10
324.6493087302
20
69.2223356259
7
STANDARD
40
3.0000000000
1
31
41
0.6428571429
72
5
11
328.5064515874
21
69.2223356259
100
AcDbText
0
LINE
5
235
100
AcDbEntity
8
0
100
AcDbLine
62
2
6
CONTINUOUS
10
340.7064928369
20
81.3466993697
11
340.7064928369
21
67.4723356259
0
LINE
5
236
100
AcDbEntity
8
0
100
AcDbLine
62
2
6
CONTINUOUS
10
309.7064928369
20
81.3466993697
11
309.7064928369
21
67.4723356259
0
LINE
5
237
100
AcDbEntity
8
0
100
AcDbLine
62
2
6
CONTINUOUS
10
340.7064928369
20
68.4723356259
11
325.2064928369
21
68.4723356259
0
LINE
5
238
100
AcDbEntity
8
0
100
AcDbLine
62
2
6
CONTINUOUS
10
309.7064928369
20
68.4723356259
11
325.2064928369
21
68.4723356259
0
SOLID
5
239
100
AcDbEntity
8
0
100
AcDbTrace
62
2
6
CONTINUOUS
10
335.9464928369
20
67.9723356259
11
340.7064928369
21
68.4723356259
12
335.9464928369
22
68.9723356259
13
335.9464928369
23
68.9723356259
0
SOLID
5
23A
100
AcDbEntity
8
0
100
AcDbTrace
62
2
6
CONTINUOUS
10
314.4664928369
20
68.9723356259
11
309.7064928369
21
68.4723356259
12
314.4664928369
22
67.9723356259
13
314.4664928369
23
67.9723356259
0
ENDBLK
5
23B
100
AcDbEntity
8
0
100
AcDbBlockEnd
0
ENDSEC
0
SECTION
2
ENTITIES
0
DIMENSION
5
23C
100
AcDbEntity
8
0
100
AcDbDimension
62
2
6
CONTINUOUS
2
*D0
10
350.6064928369
20
58.5453100487
11
327.3438920034
21
60.7953100487
70
160
1
%%c<>
3
DIMSTYLE_1
100
AcDbAlignedDimension
13
299.8064928369
23
97.8466993697
14
350.6064928369
24
97.8466993697
100
AcDbRotatedDimension
0
DIMENSION
5
23D
100
AcDbEntity
8
0
100
AcDbDimension
62
2
6
CONTINUOUS
2
*D1
10
393.0456563314
20
172.6466993697
11
390.7956563314
21
128.7840757654
70
160
3
DIMSTYLE_1
100
AcDbAlignedDimension
13
347.6480932558
23
80.6466993697
14
374.8064928369
24
172.6466993697
50
90.000000
100
AcDbRotatedDimension
0
DIMENSION
5
23E
100
AcDbEntity
8
0
100
AcDbDimension
62
2
6
CONTINUOUS
2
*D2
10
382.9314523289
20
80.6466993697
11
380.6814523361
21
115.0920293998
70
160
3
DIMSTYLE_2
100
AcDbAlignedDimension
13
374.4756672643
23
143.6966993697
14
347.6480932558
24
80.6466993697
50
270.000000
100
AcDbRotatedDimension
0
DIMENSION
5
23F
100
AcDbEntity
8
0
100
AcDbDimension
62
2
6
CONTINUOUS
2
*D3
10
309.7064928369
20
68.4723356259
11
324.5778801588
21
70.7223356259
70
160
1
%%c<>
3
DIMSTYLE_1
100
AcDbAlignedDimension
13
340.7064928369
23
81.3466993697
14
309.7064928369
24
81.3466993697
50
180.000000
100
AcDbRotatedDimension
0
LINE
5
240
100
AcDbEntity
8
0
100
AcDbLine
62
7
6
CONTINUOUS
10
432.5000000000
20
-3.0625000000
11
232.5000000000
21
-3.0625000000
0
LINE
5
241
100
AcDbEntity
8
0
100
AcDbLine
62
7
6
CONTINUOUS
10
232.5000000000
20
-3.0625000000
11
232.5000000000
21
283.9375000000
0
LINE
5
242
100
AcDbEntity
8
0
100
AcDbLine
62
7
6
CONTINUOUS
10
432.5000000000
20
283.9375000000
11
232.5000000000
21
283.9375000000
0
LINE
5
243
100
AcDbEntity
8
0
100
AcDbLine
62
7
6
CONTINUOUS
10
432.5000000000
20
-3.0625000000
11
432.5000000000
21
283.9375000000
0
LINE
5
244
100
AcDbEntity
8
0
100
AcDbLine
62
7
6
CONTINUOUS
10
348.5744420294
20
80.6466993697
11
301.8385436457
21
80.6466993697
0
LINE
5
245
100
AcDbEntity
8
0
100
AcDbLine
62
7
6
CONTINUOUS
10
301.4055309429
20
80.8966993692
11
349.0074547309
21
80.8966993692
0
LINE
5
246
100
AcDbEntity
8
0
100
AcDbLine
62
7
6
CONTINUOUS
10
300.1064928369
20
83.1466993697
11
350.3064928369
21
83.1466993697
0
LINE
5
247
100
AcDbEntity
8
0
100
AcDbLine
62
7
6
CONTINUOUS
10
300.1064928369
20
97.6466993697
11
350.3064928369
21
97.6466993697
0
LINE
5
248
100
AcDbEntity
8
0
100
AcDbLine
62
7
6
CONTINUOUS
10
299.8064928369
20
97.9466993697
11
350.6064928369
21
97.9466993697
0
LINE
5
249
100
AcDbEntity
8
0
100
AcDbLine
62
7
6
CONTINUOUS
10
299.8064928369
20
97.9466993697
11
300.1064928369
21
97.6466993697
0
LINE
5
24A
100
AcDbEntity
8
0
100
AcDbLine
62
7
6
CONTINUOUS
10
300.1064928369
20
83.1466993697
11
301.4055309429
21
80.8966993692
0
LINE
5
24B
100
AcDbEntity
8
0
100
AcDbLine
62
7
6
CONTINUOUS
10
275.2064928369
20
172.1466993697
11
275.2064928369
21
155.8942946339
0
LINE
5
24C
100
AcDbEntity
8
0
100
AcDbLine
62
7
6
CONTINUOUS
10
275.2064928369
20
149.3991041056
11
275.2064928369
21
144.1966993697
0
LINE
5
24D
100
AcDbEntity
8
0
100
AcDbLine
62
7
6
CONTINUOUS
10
279.2064928369
20
150.7716993697
11
279.2064928369
21
154.5216993697
0
LINE
5
24E
100
AcDbEntity
8
0
100
AcDbLine
62
7
6
CONTINUOUS
10
275.7064928369
20
172.6466993697
11
275.2064928369
21
172.1466993697
0
LINE
5
24F
100
AcDbEntity
8
0
100
AcDbLine
62
7
6
CONTINUOUS
10
335.2164928369
20
221.0466993697
11
336.7164928369
21
222.5466993697
0
LINE
5
250
100
AcDbEntity
8
0
100
AcDbLine
62
7
6
CONTINUOUS
10
275.2064928369
20
144.1966993697
11
275.7064928369
21
143.6966993697
0
LINE
5
251
100
AcDbEntity
8
0
100
AcDbLine
62
7
6
CONTINUOUS
10
286.3767362062
20
167.8483590174
11
286.3767362062
21
155.8942946339
0
LINE
5
252
100
AcDbEntity
8
0
100
AcDbLine
62
7
6
CONTINUOUS
10
286.3767362062
20
149.3991041056
11
286.3767362062
21
144.1966993697
0
LINE
5
253
100
AcDbEntity
8
0
100
AcDbLine
62
7
6
CONTINUOUS
10
287.6564928369
20
173.4466993697
11
287.6564928369
21
173.9066088623
0
LINE
5
254
100
AcDbEntity
8
0
100
AcDbLine
62
7
6
CONTINUOUS
10
289.6039553182
20
220.6467821565
11
287.3242115869
21
175.1466993697
0
LINE
5
255
100
AcDbEntity
8
0
100
AcDbLine
62
7
6
CONTINUOUS
10
299.8064928369
20
115.3466993697
11
350.6064928369
21
115.3466993697
0
LINE
5
256
100
AcDbEntity
8
0
100
AcDbLine
62
7
6
CONTINUOUS
10
300.1064928369
20
115.6466993697
11
350.3064928369
21
115.6466993697
0
LINE
5
257
100
AcDbEntity
8
0
100
AcDbLine
62
7
6
CONTINUOUS
10
291.6841122532
20
150.7716993697
11
291.6841122532
21
154.5216993697
0
LINE
5
258
100
AcDbEntity
8
0
100
AcDbLine
62
7
6
CONTINUOUS
10
293.7064928369
20
143.6966993697
11
293.7064928369
21
157.6966993697
0
LINE
5
259
100
AcDbEntity
8
0
100
AcDbLine
62
7
6
CONTINUOUS
10
294.0979334496
20
157.6966993697
11
294.0979334496
21
155.8942946339
0
LINE
5
25A
100
AcDbEntity
8
0
100
AcDbLine
62
7
6
CONTINUOUS
10
294.0979334496
20
149.3991041056
11
294.0979334496
21
144.1966993697
0
LINE
5
25B
100
AcDbEntity
8
0
100
AcDbLine
62
7
6
CONTINUOUS
10
287.6564928369
20
173.9066088623
11
287.3242115869
21
175.1466993697
0
LINE
5
25C
100
AcDbEntity
8
0
100
AcDbLine
62
7
6
CONTINUOUS
10
299.8064928369
20
115.3466993697
11
299.8064928369
21
97.9466993697
0
LINE
5
25D
100
AcDbEntity
8
0
100
AcDbLine
62
7
6
CONTINUOUS
10
300.1064928369
20
132.1466993697
11
300.1064928369
21
115.6466993697
0
LINE
5
25E
100
AcDbEntity
8
0
100
AcDbLine
62
7
6
CONTINUOUS
10
300.1064928369
20
97.6466993697
11
300.1064928369
21
83.1466993697
0
LINE
5
25F
100
AcDbEntity
8
0
100
AcDbLine
62
7
6
CONTINUOUS
10
302.6064928369
20
142.1966993697
11
302.6064928369
21
132.6466993697
0
LINE
5
260
100
AcDbEntity
8
0
100
AcDbLine
62
7
6
CONTINUOUS
10
275.2064928369
20
149.3991041056
11
277.5838975727
21
150.7716993697
0
LINE
5
261
100
AcDbEntity
8
0
100
AcDbLine
62
7
6
CONTINUOUS
10
300.1064928369
20
132.1466993697
11
350.3064928369
21
132.1466993697
0
LINE
5
262
100
AcDbEntity
8
0
100
AcDbLine
62
7
6
CONTINUOUS
10
300.6064928369
20
132.6466993697
11
349.8064928369
21
132.6466993697
0
LINE
5
263
100
AcDbEntity
8
0
100
AcDbLine
62
7
6
CONTINUOUS
10
277.5838975727
20
154.5216993697
11
275.2064928369
21
155.8942946339
0
LINE
5
264
100
AcDbEntity
8
DEFAULT_2
100
AcDbLine
62
8
6
HIDDEN
10
309.7064928369
20
81.4466993697
11
309.7064928369
21
114.6466993697
0
LINE
5
265
100
AcDbEntity
8
0
100
AcDbLine
62
7
6
CONTINUOUS
10
314.7176182610
20
157.6966993697
11
314.7176182610
21
155.8942946339
0
LINE
5
266
100
AcDbEntity
8
0
100
AcDbLine
62
7
6
CONTINUOUS
10
314.7176182610
20
149.3991041056
11
314.7176182610
21
144.1966993697
0
LINE
5
267
100
AcDbEntity
8
0
100
AcDbLine
62
7
6
CONTINUOUS
10
315.1964928369
20
221.0466993697
11
315.1964928369
21
214.5466993697
0
LINE
5
268
100
AcDbEntity
8
0
100
AcDbLine
62
7
6
CONTINUOUS
10
315.2064928369
20
143.7094013101
11
315.2064928369
21
157.6966993697
0
LINE
5
269
100
AcDbEntity
8
0
100
AcDbLine
62
7
6
CONTINUOUS
10
347.8064928366
20
142.1966993697
11
302.6064928372
21
142.1966993697
0
LINE
5
26A
100
AcDbEntity
8
0
100
AcDbLine
62
7
6
CONTINUOUS
10
374.7064808844
20
143.6966993697
11
275.7065077335
21
143.6966993697
0
LINE
5
26B
100
AcDbEntity
8
0
100
AcDbLine
62
7
6
CONTINUOUS
10
375.2064928369
20
144.1966993697
11
335.6953674129
21
144.1966993697
0
LINE
5
26C
100
AcDbEntity
8
0
100
AcDbLine
62
7
6
CONTINUOUS
10
314.7176182610
20
144.1966993697
11
294.0979334496
21
144.1966993697
0
LINE
5
26D
100
AcDbEntity
8
0
100
AcDbLine
62
7
6
CONTINUOUS
10
286.3767362062
20
144.1966993697
11
275.2064928369
21
144.1966993697
0
LINE
5
26E
100
AcDbEntity
8
0
100
AcDbLine
62
7
6
CONTINUOUS
10
350.3064928369
20
115.6466993697
11
350.6064928369
21
115.3466993697
0
LINE
5
26F
100
AcDbEntity
8
0
100
AcDbLine
62
7
6
CONTINUOUS
10
300.6064928369
20
132.6466993697
11
300.1064928369
21
132.1466993697
0
LINE
5
270
100
AcDbEntity
8
0
100
AcDbLine
62
7
6
CONTINUOUS
10
375.2064928369
20
149.3991041056
11
335.6953674129
21
149.3991041056
0
LINE
5
271
100
AcDbEntity
8
0
100
AcDbLine
62
7
6
CONTINUOUS
10
314.7176182610
20
149.3991041056
11
294.0979334496
21
149.3991041056
0
LINE
5
272
100
AcDbEntity
8
0
100
AcDbLine
62
7
6
CONTINUOUS
10
286.3767362062
20
149.3991041056
11
275.2064928369
21
149.3991041056
0
LINE
5
273
100
AcDbEntity
8
0
100
AcDbLine
62
7
6
CONTINUOUS
10
277.5839080346
20
150.7716993697
11
291.6841122532
21
150.7716993697
0
LINE
5
274
100
AcDbEntity
8
0
100
AcDbLine
62
7
6
CONTINUOUS
10
293.7064928369
20
150.7716993697
11
315.2064928369
21
150.7716993697
0
LINE
5
275
100
AcDbEntity
8
0
100
AcDbLine
62
7
6
CONTINUOUS
10
335.2064928369
20
150.7716993697
11
372.8290833662
21
150.7716993697
0
LINE
5
276
100
AcDbEntity
8
0
100
AcDbLine
62
7
6
CONTINUOUS
10
372.8290833662
20
154.5216993697
11
335.2064928369
21
154.5216993697
0
LINE
5
277
100
AcDbEntity
8
0
100
AcDbLine
62
7
6
CONTINUOUS
10
315.2064928369
20
154.5216993697
11
293.7064928369
21
154.5216993697
0
LINE
5
278
100
AcDbEntity
8
0
100
AcDbLine
62
7
6
CONTINUOUS
10
277.5839080346
20
154.5216993697
11
291.6841122532
21
154.5216993697
0
LINE
5
279
100
AcDbEntity
8
0
100
AcDbLine
62
7
6
CONTINUOUS
10
375.2064928369
20
155.8942946339
11
335.6953674129
21
155.8942946339
0
LINE
5
27A
100
AcDbEntity
8
0
100
AcDbLine
62
7
6
CONTINUOUS
10
314.7176182610
20
155.8942946339
11
294.0979334496
21
155.8942946339
0
LINE
5
27B
100
AcDbEntity
8
0
100
AcDbLine
62
7
6
CONTINUOUS
10
286.3767362062
20
155.8942946339
11
275.2064928369
21
155.8942946339
0
LINE
5
27C
100
AcDbEntity
8
0
100
AcDbLine
62
7
6
CONTINUOUS
10
315.2064928369
20
157.6966993697
11
314.7176182610
21
157.6966993697
0
LINE
5
27D
100
AcDbEntity
8
0
100
AcDbLine
62
7
6
CONTINUOUS
10
293.7064928369
20
157.6966993697
11
294.0979334496
21
157.6966993697
0
LINE
5
27E
100
AcDbEntity
8
0
100
AcDbLine
62
7
6
CONTINUOUS
10
335.2064928369
20
157.6966993697
11
335.6953674129
21
157.6966993697
0
LINE
5
27F
100
AcDbEntity
8
0
100
AcDbLine
62
7
6
CONTINUOUS
10
349.8064928369
20
132.6466993697
11
350.3064928369
21
132.1466993697
0
LINE
5
280
100
AcDbEntity
8
0
100
AcDbLine
62
7
6
CONTINUOUS
10
335.2064928369
20
143.7094013101
11
335.2064928369
21
157.6966993697
0
LINE
5
281
100
AcDbEntity
8
0
100
AcDbLine
62
7
6
CONTINUOUS
10
335.2164928369
20
221.0466993697
11
335.2164928369
21
214.5466993697
0
LINE
5
282
100
AcDbEntity
8
0
100
AcDbLine
62
7
6
CONTINUOUS
10
335.6953674129
20
157.6966993697
11
335.6953674129
21
155.8942946339
0
LINE
5
283
100
AcDbEntity
8
0
100
AcDbLine
62
7
6
CONTINUOUS
10
335.6953674129
20
149.3991041056
11
335.6953674129
21
144.1966993697
0
LINE
5
284
100
AcDbEntity
8
0
100
AcDbLine
62
7
6
CONTINUOUS
10
300.1064928369
20
115.6466993697
11
299.8064928369
21
115.3466993697
0
LINE
5
285
100
AcDbEntity
8
DEFAULT_2
100
AcDbLine
62
8
6
HIDDEN
10
340.7064928369
20
81.4466993697
11
340.7064928369
21
114.6466993697
0
LINE
5
286
100
AcDbEntity
8
0
100
AcDbLine
62
7
6
CONTINUOUS
10
347.8064928369
20
142.1966993697
11
347.8064928369
21
132.6466993697
0
LINE
5
287
100
AcDbEntity
8
0
100
AcDbLine
62
7
6
CONTINUOUS
10
372.8290881011
20
154.5216993697
11
375.2064928369
21
155.8942946339
0
LINE
5
288
100
AcDbEntity
8
0
100
AcDbLine
62
7
6
CONTINUOUS
10
375.2064928369
20
172.1466993697
11
275.2064928369
21
172.1466993697
0
LINE
5
289
100
AcDbEntity
8
0
100
AcDbLine
62
7
6
CONTINUOUS
10
374.7064928369
20
172.6466993697
11
275.7064928369
21
172.6466993697
0
LINE
5
28A
100
AcDbEntity
8
0
100
AcDbLine
62
7
6
CONTINUOUS
10
287.6564928369
20
173.4466993697
11
362.7564928369
21
173.4466993697
0
LINE
5
28B
100
AcDbEntity
8
0
100
AcDbLine
62
7
6
CONTINUOUS
10
287.6564928369
20
173.9066088623
11
362.7564928369
21
173.9066088623
0
LINE
5
28C
100
AcDbEntity
8
0
100
AcDbLine
62
7
6
CONTINUOUS
10
363.0887740869
20
175.1466993697
11
287.3242115869
21
175.1466993697
0
LINE
5
28D
100
AcDbEntity
8
0
100
AcDbLine
62
7
6
CONTINUOUS
10
375.2064928369
20
149.3991041056
11
372.8290881011
21
150.7716993697
0
LINE
5
28E
100
AcDbEntity
8
0
100
AcDbLine
62
7
6
CONTINUOUS
10
350.3064928369
20
132.1466993697
11
350.3064928369
21
115.6466993697
0
LINE
5
28F
100
AcDbEntity
8
0
100
AcDbLine
62
7
6
CONTINUOUS
10
350.3064928369
20
97.6466993697
11
350.3064928369
21
83.1466993697
0
LINE
5
290
100
AcDbEntity
8
0
100
AcDbLine
62
7
6
CONTINUOUS
10
350.6064928369
20
115.3466993697
11
350.6064928369
21
97.9466993697
0
LINE
5
291
100
AcDbEntity
8
0
100
AcDbLine
62
7
6
CONTINUOUS
10
362.7564928369
20
173.9066088623
11
363.0887740869
21
175.1466993697
0
LINE
5
292
100
AcDbEntity
8
0
100
AcDbLine
62
7
6
CONTINUOUS
10
360.8090303556
20
220.6467821565
11
363.0887740869
21
175.1466993697
0
LINE
5
293
100
AcDbEntity
8
0
100
AcDbLine
62
7
6
CONTINUOUS
10
362.7564928369
20
173.4466993697
11
362.7564928369
21
173.9066088623
0
LINE
5
294
100
AcDbEntity
8
0
100
AcDbLine
62
7
6
CONTINUOUS
10
375.2064928369
20
144.1966993697
11
374.7064928369
21
143.6966993697
0
LINE
5
295
100
AcDbEntity
8
0
100
AcDbLine
62
7
6
CONTINUOUS
10
371.2064928369
20
150.7716993697
11
371.2064928369
21
154.5216993697
0
LINE
5
296
100
AcDbEntity
8
0
100
AcDbLine
62
7
6
CONTINUOUS
10
315.1964928369
20
221.0466993697
11
313.6964928369
21
222.5466993697
0
LINE
5
297
100
AcDbEntity
8
0
100
AcDbLine
62
7
6
CONTINUOUS
10
375.2064928369
20
172.1466993697
11
375.2064928369
21
171.1466993697
0
LINE
5
298
100
AcDbEntity
8
0
100
AcDbLine
62
7
6
CONTINUOUS
10
375.2064928369
20
160.1466993697
11
375.2064928369
21
155.8942946339
0
LINE
5
299
100
AcDbEntity
8
0
100
AcDbLine
62
7
6
CONTINUOUS
10
375.2064928369
20
149.3991041056
11
375.2064928369
21
144.1966993697
0
LINE
5
29A
100
AcDbEntity
8
0
100
AcDbLine
62
7
6
CONTINUOUS
10
374.7064928369
20
172.6466993697
11
375.2064928369
21
172.1466993697
0
LINE
5
29B
100
AcDbEntity
8
0
100
AcDbLine
62
7
6
CONTINUOUS
10
350.3064928369
20
83.1466993697
11
349.0074547309
21
80.8966993692
0
LINE
5
29C
100
AcDbEntity
8
0
100
AcDbLine
62
7
6
CONTINUOUS
10
350.6064928369
20
97.9466993697
11
350.3064928369
21
97.6466993697
0
LINE
5
29D
100
AcDbEntity
8
0
100
AcDbLine
62
7
6
CONTINUOUS
10
337.6362061797
20
212.5466993697
11
312.7767794942
21
212.5466993697
0
LINE
5
29E
100
AcDbEntity
8
0
100
AcDbLine
62
7
6
CONTINUOUS
10
309.1108868589
20
214.5466993697
11
315.1964928369
21
214.5466993697
0
LINE
5
29F
100
AcDbEntity
8
0
100
AcDbLine
62
7
6
CONTINUOUS
10
335.2164928369
20
214.5466993697
11
341.3020988171
21
214.5466993697
0
LINE
5
2A0
100
AcDbEntity
8
0
100
AcDbLine
62
7
6
CONTINUOUS
10
289.6039553182
20
220.6467821565
11
310.1152389575
21
220.6467821565
0
LINE
5
2A1
100
AcDbEntity
8
0
100
AcDbLine
62
7
6
CONTINUOUS
10
340.2977467164
20
220.6467821565
11
360.8090303556
21
220.6467821565
0
LINE
5
2A2
100
AcDbEntity
8
0
100
AcDbLine
62
7
6
CONTINUOUS
10
310.2681650030
20
221.0466993697
11
315.1964928369
21
221.0466993697
0
LINE
5
2A3
100
AcDbEntity
8
0
100
AcDbLine
62
7
6
CONTINUOUS
10
335.2164928369
20
221.0466993697
11
340.1448206708
21
221.0466993697
0
LINE
5
2A4
100
AcDbEntity
8
0
100
AcDbLine
62
7
6
CONTINUOUS
10
291.6014496075
20
222.5466993697
11
313.6964928369
21
222.5466993697
0
LINE
5
2A5
100
AcDbEntity
8
0
100
AcDbLine
62
40
6
CONTINUOUS
10
335.2164931803
20
222.5467008956
11
336.7164928369
21
222.5466993697
0
LINE
5
2A6
100
AcDbEntity
8
0
100
AcDbLine
62
7
6
CONTINUOUS
10
336.7164928369
20
222.5466993697
11
358.8115360663
21
222.5466993697
0
ARC
5
2A7
100
AcDbEntity
8
0
100
AcDbCircle
62
7
6
CONTINUOUS
10
301.8385436445
20
81.1466993697
40
0.5000000000
100
AcDbArc
50
210.0000000698
51
270.0000000000
0
ARC
5
2A8
100
AcDbEntity
8
0
100
AcDbCircle
62
7
6
CONTINUOUS
10
348.5744420294
20
81.1466993697
40
0.5000000000
100
AcDbArc
50
270.0000000000
51
329.9999999302
0
ARC
5
2A9
100
AcDbEntity
8
0
100
AcDbCircle
62
7
6
CONTINUOUS
10
349.3064928369
20
142.1966993697
40
1.5000000000
100
AcDbArc
50
90.0000071073
51
180.0000000000
0
ARC
5
2AA
100
AcDbEntity
8
0
100
AcDbCircle
62
7
6
CONTINUOUS
10
301.1064928369
20
142.1966993697
40
1.5000000000
100
AcDbArc
50
0.0000000000
51
89.9999928927
0
ARC
5
2AB
100
AcDbEntity
8
0
100
AcDbCircle
62
7
6
CONTINUOUS
10
363.7564928369
20
173.4466993697
40
1.0000000000
100
AcDbArc
50
180.0000000000
51
234.6418826192
0
ARC
5
2AC
100
AcDbEntity
8
0
100
AcDbCircle
62
7
6
CONTINUOUS
10
286.6564928369
20
173.4466993697
40
1.0000000000
100
AcDbArc
50
305.3581173808
51
360.0000000000
0
ARC
5
2AD
100
AcDbEntity
8
0
100
AcDbCircle
62
7
6
CONTINUOUS
10
317.1964928369
20
214.5466993697
40
2.0000000000
100
AcDbArc
50
180.0000000000
51
270.0000000000
0
ARC
5
2AE
100
AcDbEntity
8
0
100
AcDbCircle
62
7
6
CONTINUOUS
10
333.2164928369
20
214.5466993697
40
2.0000000000
100
AcDbArc
50
292.5000006943
51
360.0000000000
0
ARC
5
2AF
100
AcDbEntity
8
0
100
AcDbCircle
62
7
6
CONTINUOUS
10
358.8115360663
20
220.5466993697
40
2.0000000000
100
AcDbArc
50
2.8683586220
51
90.0000000000
0
ARC
5
2B0
100
AcDbEntity
8
0
100
AcDbCircle
62
7
6
CONTINUOUS
10
291.6014496075
20
220.5466993697
40
2.0000000000
100
AcDbArc
50
90.0000000000
51
177.1316413780
0
CIRCLE
5
2B1
100
AcDbEntity
8
0
100
AcDbCircle
62
7
6
CONTINUOUS
10
325.2064928369
20
187.6466993697
40
6.0000000000
0
ARC
5
2B2
100
AcDbEntity
8
0
100
AcDbCircle
62
7
6
CONTINUOUS
10
325.2064928369
20
157.6966993697
40
10.0000000000
100
AcDbArc
50
0.0000000000
51
180.0000000000
0
ARC
5
2B3
100
AcDbEntity
8
0
100
AcDbCircle
62
7
6
CONTINUOUS
10
283.7064928369
20
157.6966993697
40
10.0000000000
100
AcDbArc
50
0.0000000000
51
70.7624233892
0
SPLINE
5
2B4
100
AcDbEntity
8
0
100
AcDbSpline
62
7
6
CONTINUOUS
70
0
71
3
72
38
73
34
74
32
42
0.0000001000
43
0.0000001000
44
0.0000000001
40
0.0000000000
40
0.0000000000
40
0.0000000000
40
0.0000000000
40
0.0024058140
40
0.0096264481
40
0.0216272671
40
0.0383668321
40
0.0597157209
40
0.0856609731
40
0.1159560484
40
0.1503683117
40
0.1886301424
40
0.2303037669
40
0.2750629528
40
0.3223073429
40
0.3716400911
40
0.4223670662
40
0.4740502458
40
0.5259599453
40
0.5776431090
40
0.6283698451
40
0.6777025675
40
0.7249463973
40
0.7697054509
40
0.8113782694
40
0.8496400568
40
0.8840512462
40
0.9143455461
40
0.9402891795
40
0.9616361911
40
0.9783740687
40
0.9903742985
40
0.9975941044
40
1.0000000000
40
1.0000000000
40
1.0000000000
40
1.0000000000
10
375.2064928369
20
160.1466993697
30
0.0000000000
10
375.2056214829
20
160.1554921240
30
0.0000000000
10
375.2021430276
20
160.1906756125
30
0.0000000000
10
375.1944011545
20
160.2697278305
30
0.0000000000
10
375.1817709623
20
160.4011965462
30
0.0000000000
10
375.1646852792
20
160.5843644092
30
0.0000000000
10
375.1437040348
20
160.8186036405
30
0.0000000000
10
375.1195814195
20
161.1025436216
30
0.0000000000
10
375.0932117327
20
161.4344390744
30
0.0000000000
10
375.0656417336
20
161.8116101184
30
0.0000000000
10
375.0380113956
20
162.2306686135
30
0.0000000000
10
375.0114807381
20
162.6878702056
30
0.0000000000
10
374.9872319047
20
163.1782332181
30
0.0000000000
10
374.9663335880
20
163.6969054116
30
0.0000000000
10
374.9497582262
20
164.2376634637
30
0.0000000000
10
374.9382558434
20
164.7948599189
30
0.0000000000
10
374.9323705371
20
165.3616094641
30
0.0000000000
10
374.9323711198
20
165.9319015048
30
0.0000000000
10
374.9382575731
20
166.4986501015
30
0.0000000000
10
374.9497610560
20
167.0558455025
30
0.0000000000
10
374.9663373965
20
167.5966004929
30
0.0000000000
10
374.9872366013
20
168.1152700101
30
0.0000000000
10
375.0114860657
20
168.6056274807
30
0.0000000000
10
375.0380173102
20
169.0628254272
30
0.0000000000
10
375.0656478748
20
169.4818768288
30
0.0000000000
10
375.0932179452
20
169.8590408979
30
0.0000000000
10
375.1195870697
20
170.1909236175
30
0.0000000000
10
375.1437086716
20
170.4748479403
30
0.0000000000
10
375.1646883970
20
170.7090681942
30
0.0000000000
10
375.1817727401
20
170.8922208603
30
0.0000000000
10
375.1944018682
20
171.0236782229
30
0.0000000000
10
375.2021432681
20
171.1027255576
30
0.0000000000
10
375.2056214534
20
171.1379063174
30
0.0000000000
10
375.2064928369
20
171.1466993697
30
0.0000000000
11
375.2064928369
21
160.1466993697
31
0.0000000000
11
375.2038848614
21
160.1730782353
31
0.0000000000
11
375.1961306155
21
160.2522570289
31
0.0000000000
11
375.1834859834
21
160.3838771333
31
0.0000000000
11
375.1663564564
21
160.5675179775
31
0.0000000000
11
375.1453715712
21
160.8018040024
31
0.0000000000
11
375.1211733440
21
161.0866450807
31
0.0000000000
11
375.0947375430
21
161.4193904305
31
0.0000000000
11
375.0670980031
21
161.7975390351
31
0.0000000000
11
375.0393645262
21
162.2181980573
31
0.0000000000
11
375.0127674854
21
162.6765907854
31
0.0000000000
11
374.9884129680
21
163.1691497320
31
0.0000000000
11
374.9674590775
21
163.6892707047
31
0.0000000000
11
374.9508083125
21
164.2325682087
31
0.0000000000
11
374.9392747143
21
164.7913635071
31
0.0000000000
11
374.9333626401
21
165.3607826754
31
0.0000000000
11
374.9333632244
21
165.9327283501
31
0.0000000000
11
374.9392764588
21
166.5021473305
31
0.0000000000
11
374.9508111271
21
167.0609399724
31
0.0000000000
11
374.9674629598
21
167.6042371600
31
0.0000000000
11
374.9884175988
21
168.1243519244
31
0.0000000000
11
375.0127729509
21
168.6169093699
31
0.0000000000
11
375.0393702753
21
169.0752931862
31
0.0000000000
11
375.0671044147
21
169.4959516866
31
0.0000000000
11
375.0947436718
21
169.8740884483
31
0.0000000000
11
375.1211792440
21
170.2068252457
31
0.0000000000
11
375.1453762770
21
170.4916485245
31
0.0000000000
11
375.1663594965
21
170.7259139332
31
0.0000000000
11
375.1834873740
21
170.9095362584
31
0.0000000000
11
375.1961314116
21
171.0411498981
31
0.0000000000
11
375.2038847732
21
171.1203196100
31
0.0000000000
11
375.2064928369
21
171.1466993697
31
0.0000000000
0
SPLINE
5
2B5
100
AcDbEntity
8
0
100
AcDbSpline
62
7
6
CONTINUOUS
70
0
71
3
72
14
73
10
74
8
42
0.0000001000
43
0.0000001000
44
0.0000000001
40
0.0000000000
40
0.0000000000
40
0.0000000000
40
0.0000000000
40
0.0996597975
40
0.2127645121
40
0.3428914771
40
0.4809838144
40
0.6426824710
40
0.8074631434
40
1.0000000000
40
1.0000000000
40
1.0000000000
40
1.0000000000
10
309.1108868589
20
214.5466993697
30
0.0000000000
10
309.1564402673
20
214.7470247758
30
0.0000000000
10
309.2487906584
20
215.1758221299
30
0.0000000000
10
309.3849836007
20
215.8694473351
30
0.0000000000
10
309.5241769499
20
216.6431203157
30
0.0000000000
10
309.6693263038
20
217.5174110965
30
0.0000000000
10
309.8148752232
20
218.4639798526
30
0.0000000000
10
309.9665468681
20
219.5230932540
30
0.0000000000
10
310.0642135848
20
220.2531787753
30
0.0000000000
10
310.1152389575
20
220.6467821565
30
0.0000000000
11
309.1108868589
21
214.5466993697
31
0.0000000000
11
309.2412342239
21
215.1490763251
31
0.0000000000
11
309.3765309282
21
215.8353312613
31
0.0000000000
11
309.5195392411
21
216.6272566283
31
0.0000000000
11
309.6598090790
21
217.4696519561
31
0.0000000000
11
309.8122223911
21
218.4579491835
31
0.0000000000
11
309.9569997899
21
219.4666528165
31
0.0000000000
11
310.1152389575
21
220.6467821565
31
0.0000000000
0
SPLINE
5
2B6
100
AcDbEntity
8
0
100
AcDbSpline
62
7
6
CONTINUOUS
70
0
71
3
72
34
73
30
74
28
42
0.0000001000
43
0.0000001000
44
0.0000000001
40
0.0000000000
40
0.0000000000
40
0.0000000000
40
0.0000000000
40
0.0756652558
40
0.1428900767
40
0.2030007816
40
0.2573007703
40
0.3066157146
40
0.3515548764
40
0.3927977130
40
0.4309074372
40
0.4654097120
40
0.4960741620
40
0.5230688923
40
0.5468732765
40
0.5680703452
40
0.5872585255
40
0.6054309830
40
0.6231171235
40
0.6410306375
40
0.6602004187
40
0.6821623041
40
0.7075287322
40
0.7363215857
40
0.7687408334
40
0.8052656964
40
0.8462367257
40
0.8920656056
40
0.9431825451
40
1.0000000000
40
1.0000000000
40
1.0000000000
40
1.0000000000
10
339.0983630688
20
222.5466993697
30
0.0000000000
10
339.1868960425
20
222.5466993697
30
0.0000000000
10
339.3541301411
20
222.5413379151
30
0.0000000000
10
339.5908197360
20
222.5203411506
30
0.0000000000
10
339.8014489579
20
222.4914953699
30
0.0000000000
10
339.9900500695
20
222.4576280256
30
0.0000000000
10
340.1598875839
20
222.4204649623
30
0.0000000000
10
340.3134843734
20
222.3810529569
30
0.0000000000
10
340.4530045736
20
222.3399083408
30
0.0000000000
10
340.5793085541
20
222.2974432166
30
0.0000000000
10
340.6921754290
20
222.2541644401
30
0.0000000000
10
340.7909160697
20
222.2106977956
30
0.0000000000
10
340.8758082824
20
222.1672044550
30
0.0000000000
10
340.9477907451
20
222.1232548703
30
0.0000000000
10
341.0077980649
20
222.0778003046
30
0.0000000000
10
341.0562141395
20
222.0288827927
30
0.0000000000
10
341.0911977716
20
221.9738909694
30
0.0000000000
10
341.1066437094
20
221.9114517731
30
0.0000000000
10
341.0982790327
20
221.8466729151
30
0.0000000000
10
341.0703838593
20
221.7828381610
30
0.0000000000
10
341.0264095942
20
221.7183037958
30
0.0000000000
10
340.9674327939
20
221.6513633637
30
0.0000000000
10
340.8942836258
20
221.5811688719
30
0.0000000000
10
340.8072481229
20
221.5069190629
30
0.0000000000
10
340.7059324078
20
221.4276586375
30
0.0000000000
10
340.5894910228
20
221.3424032113
30
0.0000000000
10
340.4569643453
20
221.2503082851
30
0.0000000000
10
340.3072180110
20
221.1505695924
30
0.0000000000
10
340.2009785994
20
221.0822783448
30
0.0000000000
10
340.1448206708
20
221.0466993697
30
0.0000000000
11
339.0983630688
21
222.5466993697
31
0.0000000000
11
339.3638316752
21
222.5383803598
31
0.0000000000
11
339.5988898738
21
222.5176398918
31
0.0000000000
11
339.8079442910
21
222.4890552803
31
0.0000000000
11
339.9955459836
21
222.4553643826
31
0.0000000000
11
340.1646402822
21
222.4183200181
31
0.0000000000
11
340.3174153056
21
222.3790366654
31
0.0000000000
11
340.4562390442
21
222.3379720955
31
0.0000000000
11
340.5829808136
21
222.2951760233
31
0.0000000000
11
340.6959773715
21
222.2515957181
31
0.0000000000
11
340.7943699445
21
222.2079516288
31
0.0000000000
11
340.8785264146
21
222.1644031052
31
0.0000000000
11
340.9495795380
21
222.1204332093
31
0.0000000000
11
341.0084740961
21
222.0749620754
31
0.0000000000
11
341.0551688586
21
222.0264217348
31
0.0000000000
11
341.0882993927
21
221.9719115472
31
0.0000000000
11
341.1027125311
21
221.9115262345
31
0.0000000000
11
341.0957043187
21
221.8490382840
31
0.0000000000
11
341.0700157370
21
221.7868453065
31
0.0000000000
11
341.0275043986
21
221.7225359613
31
0.0000000000
11
340.9692545077
21
221.6551919440
31
0.0000000000
11
340.8967296745
21
221.5848006903
31
0.0000000000
11
340.8104277344
21
221.5106262541
31
0.0000000000
11
340.7096447354
21
221.4313777456
31
0.0000000000
11
340.5937541443
21
221.3462169424
31
0.0000000000
11
340.4617649915
21
221.2542533450
31
0.0000000000
11
340.3125173426
21
221.1546531278
31
0.0000000000
11
340.1448206708
21
221.0466993697
31
0.0000000000
0
SPLINE
5
2B7
100
AcDbEntity
8
0
100
AcDbSpline
62
7
6
CONTINUOUS
70
0
71
3
72
16
73
12
74
10
42
0.0000001000
43
0.0000001000
44
0.0000000001
40
0.0000000000
40
0.0000000000
40
0.0000000000
40
0.0000000000
40
0.0476467614
40
0.1430441971
40
0.2860881169
40
0.4292404924
40
0.5721550341
40
0.7147292394
40
0.8572128369
40
0.9523815582
40
1.0000000000
40
1.0000000000
40
1.0000000000
40
1.0000000000
10
325.2064928369
20
194.1460729421
30
0.0000000000
10
325.3679530968
20
194.1460897333
30
0.0000000000
10
325.8527634813
20
194.1279679292
30
0.0000000000
10
326.8149123476
20
193.9833569796
30
0.0000000000
10
328.0463187769
20
193.5528455576
30
0.0000000000
10
329.2875746239
20
192.7724248096
30
0.0000000000
10
330.3227385234
20
191.7360920158
30
0.0000000000
10
331.1005700932
20
190.4980080562
30
0.0000000000
10
331.5312390692
20
189.2718197617
30
0.0000000000
10
331.6783234864
20
188.3129113637
30
0.0000000000
10
331.6982364135
20
187.8290488028
30
0.0000000000
10
331.6988612114
20
187.6676855215
30
0.0000000000
11
325.2064928369
21
194.1460729421
31
0.0000000000
11
325.6905107785
21
194.1280056350
31
0.0000000000
11
326.6494764530
21
193.9836737636
31
0.0000000000
11
328.0220619008
21
193.5036007481
31
0.0000000000
11
329.2540469993
21
192.7290807633
31
0.0000000000
11
330.2808131857
21
191.7012729352
31
0.0000000000
11
331.0519006548
21
190.4740723480
31
0.0000000000
11
331.5321175427
21
189.1075732295
31
0.0000000000
11
331.6789815883
21
188.1513442887
31
0.0000000000
11
331.6988612114
21
187.6676855215
31
0.0000000000
0
SPLINE
5
2B8
100
AcDbEntity
8
0
100
AcDbSpline
62
7
6
CONTINUOUS
70
0
71
3
72
16
73
12
74
10
42
0.0000001000
43
0.0000001000
44
0.0000000001
40
0.0000000000
40
0.0000000000
40
0.0000000000
40
0.0000000000
40
0.0476067593
40
0.1427775455
40
0.2853006967
40
0.4279267078
40
0.5708422516
40
0.7139677830
40
0.8569871888
40
0.9523617122
40
1.0000000000
40
1.0000000000
40
1.0000000000
40
1.0000000000
10
318.7141244625
20
187.6676855215
30
0.0000000000
10
318.7147491236
20
187.8290091781
30
0.0000000000
10
318.7346562613
20
188.3128390140
30
0.0000000000
10
318.8817400698
20
189.2718503376
30
0.0000000000
10
319.3125360812
20
190.4983388743
30
0.0000000000
10
320.0906494152
20
191.7366294492
30
0.0000000000
10
321.1260103899
20
192.7728901907
30
0.0000000000
10
322.3672015020
20
193.5530809081
30
0.0000000000
10
323.5983940058
20
193.9834227369
30
0.0000000000
10
324.5603574322
20
194.1279751361
30
0.0000000000
10
325.0450613082
20
194.1460897142
30
0.0000000000
10
325.2064928369
20
194.1460729421
30
0.0000000000
11
318.7141244625
21
187.6676855215
31
0.0000000000
11
318.7339947975
21
188.1512257236
31
0.0000000000
11
318.8808461014
21
189.1074776836
31
0.0000000000
11
319.3612180640
21
190.4743482195
31
0.0000000000
11
320.1326934358
21
191.7019267237
31
0.0000000000
11
321.1595998409
21
192.7296084886
31
0.0000000000
11
322.3914383033
21
193.5038484973
31
0.0000000000
11
323.7638212442
21
193.9837448945
31
0.0000000000
11
324.7225609404
21
194.1280120672
31
0.0000000000
11
325.2064928369
21
194.1460729421
31
0.0000000000
0
SPLINE
5
2B9
100
AcDbEntity
8
0
100
AcDbSpline
62
7
6
CONTINUOUS
70
0
71
3
72
16
73
12
74
10
42
0.0000001000
43
0.0000001000
44
0.0000000001
40
0.0000000000
40
0.0000000000
40
0.0000000000
40
0.0000000000
40
0.0471902315
40
0.1417130241
40
0.2837487452
40
0.4266648871
40
0.5702507482
40
0.7139141771
40
0.8572044518
40
0.9525041049
40
1.0000000000
40
1.0000000000
40
1.0000000000
40
1.0000000000
10
325.2064928369
20
181.1473257974
30
0.0000000000
10
325.0458826771
20
181.1473258295
30
0.0000000000
10
324.5634502447
20
181.1651801022
30
0.0000000000
10
323.6048579987
20
181.3081363778
30
0.0000000000
10
322.3740080722
20
181.7353017585
30
0.0000000000
10
321.1269704308
20
182.5151152618
30
0.0000000000
10
320.0824769987
20
183.5590632344
30
0.0000000000
10
319.2990635802
20
184.8121058436
30
0.0000000000
10
318.8707355578
20
186.0528702532
30
0.0000000000
10
318.7296635955
20
187.0198496018
30
0.0000000000
10
318.7134442679
20
187.5060364784
30
0.0000000000
10
318.7141244625
20
187.6676855215
30
0.0000000000
11
325.2064928369
21
181.1473257974
31
0.0000000000
11
324.7249922991
21
181.1651539543
31
0.0000000000
11
323.7704609579
21
181.3076858335
31
0.0000000000
11
322.4004806850
21
181.7834470910
31
0.0000000000
11
321.1632718145
21
182.5571805168
31
0.0000000000
11
320.1263403988
21
183.5935809636
31
0.0000000000
11
319.3486655744
21
184.8373242574
31
0.0000000000
11
318.8709540145
21
186.2201850934
31
0.0000000000
11
318.7302295345
21
187.1830015946
31
0.0000000000
11
318.7141244625
21
187.6676855215
31
0.0000000000
0
SPLINE
5
2BA
100
AcDbEntity
8
0
100
AcDbSpline
62
7
6
CONTINUOUS
70
0
71
3
72
36
73
32
74
30
42
0.0000001000
43
0.0000001000
44
0.0000000001
40
0.0000000000
40
0.0000000000
40
0.0000000000
40
0.0000000000
40
0.0514038066
40
0.0979036070
40
0.1398626725
40
0.1776561248
40
0.2116582910
40
0.2421761933
40
0.2695341344
40
0.2940547313
40
0.3157921330
40
0.3347471416
40
0.3512427097
40
0.3660183549
40
0.3798634162
40
0.3939258888
40
0.4096163407
40
0.4279897598
40
0.4493610996
40
0.4734189032
40
0.5007353719
40
0.5318120264
40
0.5667331197
40
0.6052515215
40
0.6469102663
40
0.6922510336
40
0.7419359300
40
0.7965610733
40
0.8569255038
40
0.9243078246
40
1.0000000000
40
1.0000000000
40
1.0000000000
40
1.0000000000
10
310.2681650030
20
221.0466993697
30
0.0000000000
10
310.2173526858
20
221.0788916214
30
0.0000000000
10
310.1209395520
20
221.1407830055
30
0.0000000000
10
309.9844921044
20
221.2311725567
30
0.0000000000
10
309.8627194200
20
221.3148411094
30
0.0000000000
10
309.7545594368
20
221.3924530168
30
0.0000000000
10
309.6590625267
20
221.4646903895
30
0.0000000000
10
309.5754058268
20
221.5322604156
30
0.0000000000
10
309.5029269660
20
221.5959010440
30
0.0000000000
10
309.4413543482
20
221.6562281001
30
0.0000000000
10
309.3909025385
20
221.7136078426
30
0.0000000000
10
309.3520084589
20
221.7682607843
30
0.0000000000
10
309.3249389901
20
221.8207271522
30
0.0000000000
10
309.3101643622
20
221.8718746421
30
0.0000000000
10
309.3088452243
20
221.9224437998
30
0.0000000000
10
309.3223027471
20
221.9723679758
30
0.0000000000
10
309.3512038214
20
222.0213492127
30
0.0000000000
10
309.3954824302
20
222.0692398792
30
0.0000000000
10
309.4541435064
20
222.1157545831
30
0.0000000000
10
309.5262962107
20
222.1611443371
30
0.0000000000
10
309.6118664176
20
222.2058817600
30
0.0000000000
10
309.7116261482
20
222.2504184049
30
0.0000000000
10
309.8257139671
20
222.2946059553
30
0.0000000000
10
309.9533147686
20
222.3378273232
30
0.0000000000
10
310.0941622555
20
222.3796005760
30
0.0000000000
10
310.2490791965
20
222.4195276114
30
0.0000000000
10
310.4201617268
20
222.4570919648
30
0.0000000000
10
310.6098604205
20
222.4912448525
30
0.0000000000
10
310.8213587226
20
222.5202620290
30
0.0000000000
10
311.0585820152
20
222.5413279839
30
0.0000000000
10
311.2260490757
20
222.5466993697
30
0.0000000000
10
311.3146226051
20
222.5466993697
30
0.0000000000
11
310.2681650030
21
221.0466993697
31
0.0000000000
11
310.1163583579
21
221.1442638938
31
0.0000000000
11
309.9803326683
21
221.2345088513
31
0.0000000000
11
309.8590040538
21
221.3180336104
31
0.0000000000
11
309.7513016273
21
221.3955125088
31
0.0000000000
11
309.6562199616
21
221.4676771088
31
0.0000000000
11
309.5730256002
21
221.5351787790
31
0.0000000000
11
309.5010548559
21
221.5987722238
31
0.0000000000
11
309.4398421864
21
221.6592939372
31
0.0000000000
11
309.3898360894
21
221.7169360827
31
0.0000000000
11
309.3517664142
21
221.7715125023
31
0.0000000000
11
309.3258521417
21
221.8232989116
31
0.0000000000
11
309.3121218885
21
221.8733192261
31
0.0000000000
11
309.3111843719
21
221.9219138578
31
0.0000000000
11
309.3237400313
21
221.9696574102
31
0.0000000000
11
309.3510252317
21
222.0175065910
31
0.0000000000
11
309.3941128017
21
222.0655044789
31
0.0000000000
11
309.4524017632
21
222.1127394940
31
0.0000000000
11
309.5235821386
21
222.1581945240
31
0.0000000000
11
309.6083632000
21
222.2030068174
31
0.0000000000
11
309.7078455192
21
222.2477861235
31
0.0000000000
11
309.8220702407
21
222.2923002323
31
0.0000000000
11
309.9500832214
21
222.3358577259
31
0.0000000000
11
310.0902551759
21
222.3775633765
31
0.0000000000
11
310.2443680455
21
222.4173695344
31
0.0000000000
11
310.4147210612
21
222.4548196621
31
0.0000000000
11
310.6034500132
21
222.4888015422
31
0.0000000000
11
310.8134013557
21
222.5175605946
31
0.0000000000
11
311.0490325081
21
222.5383728242
31
0.0000000000
11
311.3146226051
21
222.5466993697
31
0.0000000000
0
SPLINE
5
2BB
100
AcDbEntity
8
0
100
AcDbSpline
62
7
6
CONTINUOUS
70
0
71
3
72
16
73
12
74
10
42
0.0000001000
43
0.0000001000
44
0.0000000001
40
0.0000000000
40
0.0000000000
40
0.0000000000
40
0.0000000000
40
0.0474562243
40
0.1427137714
40
0.2859948813
40
0.4296811268
40
0.5732895243
40
0.7162252666
40
0.8582820037
40
0.9528064306
40
1.0000000000
40
1.0000000000
40
1.0000000000
40
1.0000000000
10
331.6988612114
20
187.6676855215
30
0.0000000000
10
331.6995464059
20
187.5061715754
30
0.0000000000
10
331.6833406333
20
187.0202635445
30
0.0000000000
10
331.5424141908
20
186.0535818416
30
0.0000000000
10
331.1142840419
20
184.8128533172
30
0.0000000000
10
330.3309615466
20
183.5596035691
30
0.0000000000
10
329.2864014969
20
182.5154016358
30
0.0000000000
10
328.0392218883
20
181.7354012416
30
0.0000000000
10
326.8082422708
20
181.3081574098
30
0.0000000000
10
325.8495635297
20
181.1651820505
30
0.0000000000
10
325.3671143010
20
181.1473257653
30
0.0000000000
10
325.2064928369
20
181.1473257974
30
0.0000000000
11
331.6988612114
21
187.6676855215
31
0.0000000000
11
331.6827846537
21
187.1834060951
31
0.0000000000
11
331.5422141724
21
186.2210019204
31
0.0000000000
11
331.0647214656
21
184.8381650412
31
0.0000000000
11
330.2870797313
21
183.5941269176
31
0.0000000000
11
329.2500791227
21
182.5574709332
31
0.0000000000
11
328.0127447261
21
181.7835617598
31
0.0000000000
11
326.6425738045
21
181.3076969375
31
0.0000000000
11
325.6880272177
21
181.1651564640
31
0.0000000000
11
325.2064928369
21
181.1473257974
31
0.0000000000
0
SPLINE
5
2BC
100
AcDbEntity
8
0
100
AcDbSpline
62
7
6
CONTINUOUS
70
0
71
3
72
10
73
6
74
4
42
0.0000001000
43
0.0000001000
44
0.0000000001
40
0.0000000000
40
0.0000000000
40
0.0000000000
40
0.0000000000
40
0.2899779631
40
0.6232721842
40
1.0000000000
40
1.0000000000
40
1.0000000000
40
1.0000000000
10
310.1152389575
20
220.6467821565
30
0.0000000000
10
310.1205968340
20
220.6881121496
30
0.0000000000
10
310.1391909011
20
220.7761517791
30
0.0000000000
10
310.1900589283
20
220.9110973480
30
0.0000000000
10
310.2393788998
20
221.0008421141
30
0.0000000000
10
310.2681650030
20
221.0466993697
30
0.0000000000
11
310.1152389575
21
220.6467821565
31
0.0000000000
11
310.1407365391
21
220.7691821151
31
0.0000000000
11
310.1907587215
21
220.9038987525
31
0.0000000000
11
310.2681650030
21
221.0466993697
31
0.0000000000
0
SPLINE
5
2BD
100
AcDbEntity
8
0
100
AcDbSpline
62
7
6
CONTINUOUS
70
0
71
3
72
10
73
6
74
4
42
0.0000001000
43
0.0000001000
44
0.0000000001
40
0.0000000000
40
0.0000000000
40
0.0000000000
40
0.0000000000
40
0.3761455418
40
0.7093162547
40
1.0000000000
40
1.0000000000
40
1.0000000000
40
1.0000000000
10
340.1448206708
20
221.0466993697
30
0.0000000000
10
340.1735622835
20
221.0009129891
30
0.0000000000
10
340.2228405296
20
220.9112628913
30
0.0000000000
10
340.2737467083
20
220.7763329513
30
0.0000000000
10
340.2923757990
20
220.6882127456
30
0.0000000000
10
340.2977467164
20
220.6467821565
30
0.0000000000
11
340.1448206708
21
221.0466993697
31
0.0000000000
11
340.2221226624
21
220.9041277784
31
0.0000000000
11
340.2721650280
21
220.7694754383
31
0.0000000000
11
340.2977467164
21
220.6467821565
31
0.0000000000
0
SPLINE
5
2BE
100
AcDbEntity
8
0
100
AcDbSpline
62
7
6
CONTINUOUS
70
0
71
3
72
10
73
6
74
4
42
0.0000001000
43
0.0000001000
44
0.0000000001
40
0.0000000000
40
0.0000000000
40
0.0000000000
40
0.0000000000
40
0.3426057135
40
0.6757061051
40
1.0000000000
40
1.0000000000
40
1.0000000000
40
1.0000000000
10
286.3767362062
20
149.3991041056
30
0.0000000000
10
286.7313013632
20
149.5580795663
30
0.0000000000
10
287.4312316683
20
149.8702015295
30
0.0000000000
10
288.4690253353
20
150.3277361015
30
0.0000000000
10
289.1525660030
20
150.6255503055
30
0.0000000000
10
289.4900879269
20
150.7716993697
30
0.0000000000
11
286.3767362062
21
149.3991041056
31
0.0000000000
11
287.4414153624
21
149.8738304724
31
0.0000000000
11
288.4784986947
21
150.3310037736
31
0.0000000000
11
289.4900879269
21
150.7716993697
31
0.0000000000
0
SPLINE
5
2BF
100
AcDbEntity
8
0
100
AcDbSpline
62
7
6
CONTINUOUS
70
0
71
3
72
10
73
6
74
4
42
0.0000001000
43
0.0000001000
44
0.0000000001
40
0.0000000000
40
0.0000000000
40
0.0000000000
40
0.0000000000
40
0.3426057135
40
0.6757061051
40
1.0000000000
40
1.0000000000
40
1.0000000000
40
1.0000000000
10
286.3767362062
20
155.8942946339
30
0.0000000000
10
286.7313013632
20
155.7353191732
30
0.0000000000
10
287.4312316683
20
155.4231972100
30
0.0000000000
10
288.4690253353
20
154.9656626380
30
0.0000000000
10
289.1525660030
20
154.6678484340
30
0.0000000000
10
289.4900879269
20
154.5216993697
30
0.0000000000
11
286.3767362062
21
155.8942946339
31
0.0000000000
11
287.4414153624
21
155.4195682671
31
0.0000000000
11
288.4784986947
21
154.9623949659
31
0.0000000000
11
289.4900879269
21
154.5216993697
31
0.0000000000
0
SPLINE
5
2C0
100
AcDbEntity
8
0
100
AcDbSpline
62
7
6
CONTINUOUS
70
0
71
3
72
10
73
6
74
4
42
0.0000001000
43
0.0000001000
44
0.0000000001
40
0.0000000000
40
0.0000000000
40
0.0000000000
40
0.0000000000
40
0.3357116992
40
0.6690333620
40
1.0000000000
40
1.0000000000
40
1.0000000000
40
1.0000000000
10
286.3767362062
20
144.1966993697
30
0.0000000000
10
286.4489344839
20
144.1406305387
30
0.0000000000
10
286.5928769689
20
144.0289691941
30
0.0000000000
10
286.8082073910
20
143.8623026272
30
0.0000000000
10
286.9513692693
20
143.7517436859
30
0.0000000000
10
287.0227266529
20
143.6966993697
30
0.0000000000
11
286.3767362062
21
144.1966993697
31
0.0000000000
11
286.5934215890
21
144.0286095398
31
0.0000000000
11
286.8087448128
21
143.8619493271
31
0.0000000000
11
287.0227266529
21
143.6966993697
31
0.0000000000
0
SPLINE
5
2C1
100
AcDbEntity
8
0
100
AcDbSpline
62
7
6
CONTINUOUS
70
0
71
3
72
20
73
16
74
14
42
0.0000001000
43
0.0000001000
44
0.0000000001
40
0.0000000000
40
0.0000000000
40
0.0000000000
40
0.0000000000
40
0.0301791403
40
0.0906218326
40
0.1816441873
40
0.2731138016
40
0.3643584529
40
0.4549042540
40
0.5450963013
40
0.6356428423
40
0.7268874275
40
0.8183570820
40
0.9093791886
40
0.9698216583
40
1.0000000000
40
1.0000000000
40
1.0000000000
40
1.0000000000
10
314.7176182610
20
157.6966993697
30
0.0000000000
10
314.7175516011
20
158.0274407251
30
0.0000000000
10
314.7644794256
20
159.0208480782
30
0.0000000000
10
315.1392208252
20
160.9876116634
30
0.0000000000
10
316.2544893882
20
163.4469834033
30
0.0000000000
10
318.2438740399
20
165.7470791470
30
0.0000000000
10
320.8000129583
20
167.3854325879
30
0.0000000000
10
323.7000941380
20
168.2315295465
30
0.0000000000
10
326.7129179362
20
168.2315269836
30
0.0000000000
10
329.6130045866
20
167.3854192762
30
0.0000000000
10
332.1691435324
20
165.7470514456
30
0.0000000000
10
334.1585172017
20
163.4469501181
30
0.0000000000
10
335.2737748387
20
160.9875789453
30
0.0000000000
10
335.6485080216
20
159.0208281080
30
0.0000000000
10
335.6954340681
20
158.0274319646
30
0.0000000000
10
335.6953674129
20
157.6966993697
30
0.0000000000
11
314.7176182610
21
157.6966993697
31
0.0000000000
11
314.7643375628
21
158.6877430515
31
0.0000000000
11
315.1371027853
21
160.6395288688
31
0.0000000000
11
316.3739571619
21
163.3643224581
31
0.0000000000
11
318.3410622656
21
165.6387500253
31
0.0000000000
11
320.8664771153
21
167.2575084664
31
0.0000000000
11
323.7239625133
21
168.0915166999
31
0.0000000000
11
326.6890411415
21
168.0915141354
31
0.0000000000
11
329.5465474692
21
167.2574907918
31
0.0000000000
11
332.0719540550
21
165.6387234855
31
0.0000000000
11
334.0390510774
21
163.3642871840
31
0.0000000000
11
335.2758922882
21
160.6394965764
31
0.0000000000
11
335.6486505836
21
158.6877168854
31
0.0000000000
11
335.6953674129
21
157.6966993697
31
0.0000000000
0
SPLINE
5
2C2
100
AcDbEntity
8
0
100
AcDbSpline
62
7
6
CONTINUOUS
70
0
71
3
72
10
73
6
74
4
42
0.0000001000
43
0.0000001000
44
0.0000000001
40
0.0000000000
40
0.0000000000
40
0.0000000000
40
0.0000000000
40
0.3314207516
40
0.6647446705
40
1.0000000000
40
1.0000000000
40
1.0000000000
40
1.0000000000
10
335.2064928369
20
155.6129533223
30
0.0000000000
10
335.2605444410
20
155.6439577729
30
0.0000000000
10
335.3689288068
20
155.7061956926
30
0.0000000000
10
335.5318869282
20
155.7999764130
30
0.0000000000
10
335.6407788029
20
155.8627778853
30
0.0000000000
10
335.6953674129
20
155.8942946339
30
0.0000000000
11
335.2064928369
21
155.6129533223
31
0.0000000000
11
335.3686038802
21
155.7060429375
31
0.0000000000
11
335.5315576377
21
155.7998205445
31
0.0000000000
11
335.6953674129
21
155.8942946339
31
0.0000000000
0
SPLINE
5
2C3
100
AcDbEntity
8
0
100
AcDbSpline
62
7
6
CONTINUOUS
70
0
71
3
72
10
73
6
74
4
42
0.0000001000
43
0.0000001000
44
0.0000000001
40
0.0000000000
40
0.0000000000
40
0.0000000000
40
0.0000000000
40
0.3314207501
40
0.6647446697
40
1.0000000000
40
1.0000000000
40
1.0000000000
40
1.0000000000
10
315.2064928369
20
155.6129533320
30
0.0000000000
10
315.1524412336
20
155.6439577823
30
0.0000000000
10
315.0440568626
20
155.7061956905
30
0.0000000000
10
314.8810987452
20
155.7999764146
30
0.0000000000
10
314.7722068706
20
155.8627778855
30
0.0000000000
10
314.7176182610
20
155.8942946339
30
0.0000000000
11
315.2064928369
21
155.6129533320
31
0.0000000000
11
315.0443817916
21
155.7060429386
31
0.0000000000
11
314.8814280351
21
155.7998205451
31
0.0000000000
11
314.7176182610
21
155.8942946339
31
0.0000000000
0
SPLINE
5
2C4
100
AcDbEntity
8
0
100
AcDbSpline
62
7
6
CONTINUOUS
70
0
71
3
72
10
73
6
74
4
42
0.0000001000
43
0.0000001000
44
0.0000000001
40
0.0000000000
40
0.0000000000
40
0.0000000000
40
0.0000000000
40
0.3314207516
40
0.6647446705
40
1.0000000000
40
1.0000000000
40
1.0000000000
40
1.0000000000
10
335.2064928369
20
149.6804454172
30
0.0000000000
10
335.2605444410
20
149.6494409666
30
0.0000000000
10
335.3689288068
20
149.5872030469
30
0.0000000000
10
335.5318869282
20
149.4934223265
30
0.0000000000
10
335.6407788029
20
149.4306208542
30
0.0000000000
10
335.6953674129
20
149.3991041056
30
0.0000000000
11
335.2064928369
21
149.6804454172
31
0.0000000000
11
335.3686038802
21
149.5873558020
31
0.0000000000
11
335.5315576377
21
149.4935781950
31
0.0000000000
11
335.6953674129
21
149.3991041056
31
0.0000000000
0
SPLINE
5
2C5
100
AcDbEntity
8
0
100
AcDbSpline
62
7
6
CONTINUOUS
70
0
71
3
72
10
73
6
74
4
42
0.0000001000
43
0.0000001000
44
0.0000000001
40
0.0000000000
40
0.0000000000
40
0.0000000000
40
0.0000000000
40
0.3309395712
40
0.6642615835
40
1.0000000000
40
1.0000000000
40
1.0000000000
40
1.0000000000
10
335.2064928369
20
143.7094013101
30
0.0000000000
10
335.2605146801
20
143.7630637677
30
0.0000000000
10
335.3688721002
20
143.8708506812
30
0.0000000000
10
335.5318333080
20
144.0332805177
30
0.0000000000
10
335.6407442111
20
144.1420761680
30
0.0000000000
10
335.6953674129
20
144.1966993697
30
0.0000000000
11
335.2064928369
21
143.7094013101
31
0.0000000000
11
335.3684565222
21
143.8704911442
31
0.0000000000
11
335.5314097461
21
144.0329178734
31
0.0000000000
11
335.6953674129
21
144.1966993697
31
0.0000000000
0
SPLINE
5
2C6
100
AcDbEntity
8
0
100
AcDbSpline
62
7
6
CONTINUOUS
70
0
71
3
72
10
73
6
74
4
42
0.0000001000
43
0.0000001000
44
0.0000000001
40
0.0000000000
40
0.0000000000
40
0.0000000000
40
0.0000000000
40
0.3309395712
40
0.6642615835
40
1.0000000000
40
1.0000000000
40
1.0000000000
40
1.0000000000
10
315.2064928369
20
143.7094013101
30
0.0000000000
10
315.1524709938
20
143.7630637677
30
0.0000000000
10
315.0441135736
20
143.8708506812
30
0.0000000000
10
314.8811523658
20
144.0332805177
30
0.0000000000
10
314.7722414627
20
144.1420761680
30
0.0000000000
10
314.7176182610
20
144.1966993697
30
0.0000000000
11
315.2064928369
21
143.7094013101
31
0.0000000000
11
315.0445291517
21
143.8704911442
31
0.0000000000
11
314.8815759278
21
144.0329178734
31
0.0000000000
11
314.7176182610
21
144.1966993697
31
0.0000000000
0
SPLINE
5
2C7
100
AcDbEntity
8
0
100
AcDbSpline
62
7
6
CONTINUOUS
70
0
71
3
72
10
73
6
74
4
42
0.0000001000
43
0.0000001000
44
0.0000000001
40
0.0000000000
40
0.0000000000
40
0.0000000000
40
0.0000000000
40
0.3314207501
40
0.6647446697
40
1.0000000000
40
1.0000000000
40
1.0000000000
40
1.0000000000
10
315.2064928369
20
149.6804454075
30
0.0000000000
10
315.1524412336
20
149.6494409572
30
0.0000000000
10
315.0440568626
20
149.5872030490
30
0.0000000000
10
314.8810987452
20
149.4934223249
30
0.0000000000
10
314.7722068706
20
149.4306208540
30
0.0000000000
10
314.7176182610
20
149.3991041056
30
0.0000000000
11
315.2064928369
21
149.6804454075
31
0.0000000000
11
315.0443817916
21
149.5873558009
31
0.0000000000
11
314.8814280351
21
149.4935781944
31
0.0000000000
11
314.7176182610
21
149.3991041056
31
0.0000000000
0
SPLINE
5
2C8
100
AcDbEntity
8
0
100
AcDbSpline
62
7
6
CONTINUOUS
70
0
71
3
72
9
73
5
74
3
42
0.0000001000
43
0.0000001000
44
0.0000000001
40
0.0000000000
40
0.0000000000
40
0.0000000000
40
0.0000000000
40
0.7855044496
40
1.0000000000
40
1.0000000000
40
1.0000000000
40
1.0000000000
10
286.3767362062
20
167.8483590174
30
0.0000000000
10
286.5879597277
20
167.7911293642
30
0.0000000000
10
286.8545567186
20
167.7096553482
30
0.0000000000
10
287.1175662463
20
167.6174844575
30
0.0000000000
10
287.1738073582
20
167.5972254948
30
0.0000000000
11
286.3767362062
21
167.8483590174
31
0.0000000000
11
287.0045724463
21
167.6565328039
31
0.0000000000
11
287.1738073582
21
167.5972254948
31
0.0000000000
0
SPLINE
5
2C9
100
AcDbEntity
8
0
100
AcDbSpline
62
7
6
CONTINUOUS
70
0
71
3
72
16
73
12
74
10
42
0.0000001000
43
0.0000001000
44
0.0000000001
40
0.0000000000
40
0.0000000000
40
0.0000000000
40
0.0000000000
40
0.0853763067
40
0.2275170546
40
0.3644312924
40
0.4970063076
40
0.6264961821
40
0.7525963849
40
0.8766605879
40
0.9589505884
40
1.0000000000
40
1.0000000000
40
1.0000000000
40
1.0000000000
10
287.1738073582
20
167.5972254948
30
0.0000000000
10
287.5181895597
20
167.4731734282
30
0.0000000000
10
288.4186123512
20
167.0937580420
30
0.0000000000
10
289.7655529247
20
166.2865320979
30
0.0000000000
10
291.1075094884
20
165.1287890575
30
0.0000000000
10
292.2058440956
20
163.8084677381
30
0.0000000000
10
293.0558310028
20
162.3703539417
30
0.0000000000
10
293.6587135357
20
160.8522638751
30
0.0000000000
10
293.9787319352
20
159.4580160292
30
0.0000000000
10
294.0847255809
20
158.4012791934
30
0.0000000000
10
294.0979390230
20
157.8726303453
30
0.0000000000
10
294.0979334496
20
157.6966993698
30
0.0000000000
11
287.1738073582
21
167.5972254948
31
0.0000000000
11
288.1855800625
21
167.1708831765
31
0.0000000000
11
289.7533101208
21
166.2316915362
31
0.0000000000
11
291.0863723906
21
165.0820367621
31
0.0000000000
11
292.1765707315
21
163.7717226120
31
0.0000000000
11
293.0237747273
21
162.3385271521
31
0.0000000000
11
293.6221951995
21
160.8317157975
31
0.0000000000
11
293.9790998998
21
159.2770421861
31
0.0000000000
11
294.0847542301
21
158.2243141184
31
0.0000000000
11
294.0979334496
21
157.6966993698
31
0.0000000000
0
SPLINE
5
2CA
100
AcDbEntity
8
0
100
AcDbSpline
62
7
6
CONTINUOUS
70
0
71
3
72
14
73
10
74
8
42
0.0000001000
43
0.0000001000
44
0.0000000001
40
0.0000000000
40
0.0000000000
40
0.0000000000
40
0.0000000000
40
0.1870341675
40
0.3500570356
40
0.5113144814
40
0.6526879657
40
0.7820920636
40
0.9002453332
40
1.0000000000
40
1.0000000000
40
1.0000000000
40
1.0000000000
10
340.2977467164
20
220.6467821565
30
0.0000000000
10
340.3473137844
20
220.2644279565
30
0.0000000000
10
340.4429139984
20
219.5491672620
30
0.0000000000
10
340.5919626114
20
218.5057173181
30
0.0000000000
10
340.7373560178
20
217.5568687683
30
0.0000000000
10
340.8827339481
20
216.6781910147
30
0.0000000000
10
341.0242836271
20
215.8890107160
30
0.0000000000
10
341.1619249545
20
215.1863797381
30
0.0000000000
10
341.2565020480
20
214.7472154584
30
0.0000000000
10
341.3020988171
20
214.5466993697
30
0.0000000000
11
340.2977467164
21
220.6467821565
31
0.0000000000
11
340.4513103917
21
219.5003603953
31
0.0000000000
11
340.5941765024
21
218.5023646285
31
0.0000000000
11
340.7456491206
21
217.5166833422
31
0.0000000000
11
340.8887877108
21
216.6541951592
31
0.0000000000
11
341.0305671563
21
215.8665907344
31
0.0000000000
11
341.1716328363
21
215.1496508871
31
0.0000000000
11
341.3020988171
21
214.5466993697
31
0.0000000000
0
SPLINE
5
2CB
100
AcDbEntity
8
0
100
AcDbSpline
62
7
6
CONTINUOUS
70
0
71
3
72
10
73
6
74
4
42
0.0000001000
43
0.0000001000
44
0.0000000001
40
0.0000000000
40
0.0000000000
40
0.0000000000
40
0.0000000000
40
0.3442346535
40
0.6773518029
40
1.0000000000
40
1.0000000000
40
1.0000000000
40
1.0000000000
10
286.3767362062
20
167.8483590174
30
0.0000000000
10
286.4496095196
20
167.7679271177
30
0.0000000000
10
286.5922415873
20
167.6089687779
30
0.0000000000
10
286.8004142935
20
167.3721639775
30
0.0000000000
10
286.9355015665
20
167.2156323574
30
0.0000000000
10
287.0015249270
20
167.1382394703
30
0.0000000000
11
286.3767362062
21
167.8483590174
31
0.0000000000
11
286.5941627045
21
167.6059873802
31
0.0000000000
11
286.8022258833
21
167.3693640667
31
0.0000000000
11
287.0015249270
21
167.1382394703
31
0.0000000000
0
SPLINE
5
2CC
100
AcDbEntity
8
0
100
AcDbSpline
62
7
6
CONTINUOUS
70
0
71
3
72
10
73
6
74
4
42
0.0000001000
43
0.0000001000
44
0.0000000001
40
0.0000000000
40
0.0000000000
40
0.0000000000
40
0.0000000000
40
0.3319092216
40
0.6652356868
40
1.0000000000
40
1.0000000000
40
1.0000000000
40
1.0000000000
10
293.7064928369
20
155.6721336217
30
0.0000000000
10
293.7499831252
20
155.6963888171
30
0.0000000000
10
293.8370326696
20
155.7452125228
30
0.0000000000
10
293.9675092583
20
155.8192762410
30
0.0000000000
10
294.0544372051
20
155.8691820654
30
0.0000000000
10
294.0979334496
20
155.8942946339
30
0.0000000000
11
293.7064928369
21
155.6721336217
31
0.0000000000
11
293.8367845186
21
155.7452195629
31
0.0000000000
11
293.9672613485
21
155.8192754266
31
0.0000000000
11
294.0979334496
21
155.8942946339
31
0.0000000000
0
SPLINE
5
2CD
100
AcDbEntity
8
0
100
AcDbSpline
62
7
6
CONTINUOUS
70
0
71
3
72
10
73
6
74
4
42
0.0000001000
43
0.0000001000
44
0.0000000001
40
0.0000000000
40
0.0000000000
40
0.0000000000
40
0.0000000000
40
0.3319092216
40
0.6652356868
40
1.0000000000
40
1.0000000000
40
1.0000000000
40
1.0000000000
10
293.7064928369
20
149.6212651178
30
0.0000000000
10
293.7499831252
20
149.5970099224
30
0.0000000000
10
293.8370326696
20
149.5481862167
30
0.0000000000
10
293.9675092583
20
149.4741224985
30
0.0000000000
10
294.0544372051
20
149.4242166741
30
0.0000000000
10
294.0979334496
20
149.3991041056
30
0.0000000000
11
293.7064928369
21
149.6212651178
31
0.0000000000
11
293.8367845186
21
149.5481791766
31
0.0000000000
11
293.9672613485
21
149.4741233129
31
0.0000000000
11
294.0979334496
21
149.3991041056
31
0.0000000000
0
SPLINE
5
2CE
100
AcDbEntity
8
0
100
AcDbSpline
62
7
6
CONTINUOUS
70
0
71
3
72
8
73
4
74
2
42
0.0000001000
43
0.0000001000
44
0.0000000001
40
0.0000000000
40
0.0000000000
40
0.0000000000
40
0.0000000000
40
1.0000000000
40
1.0000000000
40
1.0000000000
40
1.0000000000
10
293.7064928369
20
143.8118886723
30
0.0000000000
10
293.7499752610
20
143.8538924093
30
0.0000000000
10
293.7933332013
20
143.8960252272
30
0.0000000000
10
293.8365689011
20
143.9382830300
30
0.0000000000
11
293.7064928369
21
143.8118886723
31
0.0000000000
11
293.8365689011
21
143.9382830300
31
0.0000000000
0
SPLINE
5
2CF
100
AcDbEntity
8
0
100
AcDbSpline
62
7
6
CONTINUOUS
70
0
71
3
72
9
73
5
74
3
42
0.0000001000
43
0.0000001000
44
0.0000000001
40
0.0000000000
40
0.0000000000
40
0.0000000000
40
0.0000000000
40
0.4977977679
40
1.0000000000
40
1.0000000000
40
1.0000000000
40
1.0000000000
10
293.8365689011
20
143.9382830300
30
0.0000000000
10
293.8801845638
20
143.9809122018
30
0.0000000000
10
293.9675518985
20
144.0668032319
30
0.0000000000
10
294.0544267182
20
144.1531926383
30
0.0000000000
10
294.0979334496
20
144.1966993697
30
0.0000000000
11
293.8365689011
21
143.9382830300
31
0.0000000000
11
293.9670450457
21
144.0665484269
31
0.0000000000
11
294.0979334496
21
144.1966993697
31
0.0000000000
0
SPLINE
5
2D0
100
AcDbEntity
8
0
100
AcDbSpline
62
7
6
CONTINUOUS
70
0
71
3
72
28
73
24
74
22
42
0.0000001000
43
0.0000001000
44
0.0000000001
40
0.0000000000
40
0.0000000000
40
0.0000000000
40
0.0000000000
40
0.1013873814
40
0.2037963076
40
0.2946576359
40
0.3749146981
40
0.4464337866
40
0.5105880747
40
0.5684192060
40
0.6207420598
40
0.6682084181
40
0.7113512166
40
0.7506139658
40
0.7863551822
40
0.8189133645
40
0.8486103268
40
0.8755812794
40
0.9000307578
40
0.9223355022
40
0.9428560108
40
0.9624730882
40
0.9815040127
40
1.0000000000
40
1.0000000000
40
1.0000000000
40
1.0000000000
10
312.7767794942
20
212.5466993697
30
0.0000000000
10
312.6258144846
20
212.5466993697
30
0.0000000000
10
312.3221532547
20
212.5636003765
30
0.0000000000
10
311.8881758349
20
212.6324384802
30
0.0000000000
10
311.4926627015
20
212.7314224061
30
0.0000000000
10
311.1491772663
20
212.8442463930
30
0.0000000000
10
310.8501626337
20
212.9628657359
30
0.0000000000
10
310.5880987834
20
213.0828830337
30
0.0000000000
10
310.3572506969
20
213.2016877384
30
0.0000000000
10
310.1531970390
20
213.3177662647
30
0.0000000000
10
309.9724966540
20
213.4303051995
30
0.0000000000
10
309.8124627873
20
213.5389515522
30
0.0000000000
10
309.6710267734
20
213.6436504810
30
0.0000000000
10
309.5465938523
20
213.7445761810
30
0.0000000000
10
309.4379560631
20
213.8420942035
30
0.0000000000
10
309.3444213169
20
213.9365749445
30
0.0000000000
10
309.2657154216
20
214.0283588619
30
0.0000000000
10
309.2017877219
20
214.1178155837
30
0.0000000000
10
309.1527113314
20
214.2054257799
30
0.0000000000
10
309.1184798745
20
214.2922297378
30
0.0000000000
10
309.0996290885
20
214.3787446169
30
0.0000000000
10
309.0966952885
20
214.4642428394
30
0.0000000000
10
309.1047801496
20
214.5198445396
30
0.0000000000
10
309.1108868537
20
214.5466993461
30
0.0000000000
11
312.7767794942
21
212.5466993697
31
0.0000000000
11
312.3245431442
21
212.5711163876
31
0.0000000000
11
311.8726250850
21
212.6420960567
31
0.0000000000
11
311.4787930428
21
212.7402345412
31
0.0000000000
11
311.1381171393
21
212.8518891999
31
0.0000000000
11
310.8411127735
21
212.9695841004
31
0.0000000000
11
310.5805453736
21
213.0888747235
31
0.0000000000
11
310.3508597968
21
213.2071078643
31
0.0000000000
11
310.1477424970
21
213.3227396655
31
0.0000000000
11
309.9678262428
21
213.4349329253
31
0.0000000000
11
309.8084749365
21
213.5433180442
31
0.0000000000
11
309.6676388389
21
213.6478424997
31
0.0000000000
11
309.5438141367
21
213.7486255102
31
0.0000000000
11
309.4358109033
21
213.8460273293
31
0.0000000000
11
309.3427778405
21
213.9405914050
31
0.0000000000
11
309.2647283340
21
214.0323703186
31
0.0000000000
11
309.2016874970
21
214.1215545190
31
0.0000000000
11
309.1535157131
21
214.2087701454
31
0.0000000000
11
309.1203935333
21
214.2942413379
31
0.0000000000
11
309.1021034755
21
214.3799403395
31
0.0000000000
11
309.0992425667
21
214.4649028744
31
0.0000000000
11
309.1108868537
21
214.5466993461
31
0.0000000000
0
SPLINE
5
2D1
100
AcDbEntity
8
0
100
AcDbSpline
62
7
6
CONTINUOUS
70
0
71
3
72
28
73
24
74
22
42
0.0000001000
43
0.0000001000
44
0.0000000001
40
0.0000000000
40
0.0000000000
40
0.0000000000
40
0.0000000000
40
0.0184959934
40
0.0375269178
40
0.0571439951
40
0.0776645036
40
0.0999692478
40
0.1244187261
40
0.1513896785
40
0.1810866406
40
0.2136448227
40
0.2493860389
40
0.2886487878
40
0.3317915861
40
0.3792579441
40
0.4315807976
40
0.4894119285
40
0.5535662162
40
0.6250853043
40
0.7053423659
40
0.7962036937
40
0.8986126192
40
1.0000000000
40
1.0000000000
40
1.0000000000
40
1.0000000000
10
341.3020988162
20
214.5466993738
30
0.0000000000
10
341.3082055223
20
214.5198445582
30
0.0000000000
10
341.3162903853
20
214.4642428488
30
0.0000000000
10
341.3133565854
20
214.3787446169
30
0.0000000000
10
341.2945057993
20
214.2922297378
30
0.0000000000
10
341.2602743425
20
214.2054257799
30
0.0000000000
10
341.2111979520
20
214.1178155837
30
0.0000000000
10
341.1472702522
20
214.0283588619
30
0.0000000000
10
341.0685643570
20
213.9365749445
30
0.0000000000
10
340.9750296107
20
213.8420942035
30
0.0000000000
10
340.8663918216
20
213.7445761810
30
0.0000000000
10
340.7419589005
20
213.6436504810
30
0.0000000000
10
340.6005228866
20
213.5389515522
30
0.0000000000
10
340.4404890199
20
213.4303051995
30
0.0000000000
10
340.2597886349
20
213.3177662647
30
0.0000000000
10
340.0557349769
20
213.2016877384
30
0.0000000000
10
339.8248868904
20
213.0828830337
30
0.0000000000
10
339.5628230402
20
212.9628657359
30
0.0000000000
10
339.2638084075
20
212.8442463930
30
0.0000000000
10
338.9203229724
20
212.7314224061
30
0.0000000000
10
338.5248098390
20
212.6324384802
30
0.0000000000
10
338.0908324192
20
212.5636003765
30
0.0000000000
10
337.7871711892
20
212.5466993697
30
0.0000000000
10
337.6362061797
20
212.5466993697
30
0.0000000000
11
341.3020988162
21
214.5466993738
31
0.0000000000
11
341.3137431071
21
214.4649028744
31
0.0000000000
11
341.3108821984
21
214.3799403395
31
0.0000000000
11
341.2925921406
21
214.2942413379
31
0.0000000000
11
341.2594699608
21
214.2087701454
31
0.0000000000
11
341.2112981769
21
214.1215545190
31
0.0000000000
11
341.1482573398
21
214.0323703186
31
0.0000000000
11
341.0702078334
21
213.9405914050
31
0.0000000000
11
340.9771747705
21
213.8460273293
31
0.0000000000
11
340.8691715371
21
213.7486255102
31
0.0000000000
11
340.7453468349
21
213.6478424997
31
0.0000000000
11
340.6045107373
21
213.5433180442
31
0.0000000000
11
340.4451594311
21
213.4349329253
31
0.0000000000
11
340.2652431768
21
213.3227396655
31
0.0000000000
11
340.0621258770
21
213.2071078643
31
0.0000000000
11
339.8324403002
21
213.0888747235
31
0.0000000000
11
339.5718729004
21
212.9695841004
31
0.0000000000
11
339.2748685345
21
212.8518891999
31
0.0000000000
11
338.9341926310
21
212.7402345412
31
0.0000000000
11
338.5403605889
21
212.6420960567
31
0.0000000000
11
338.0884425297
21
212.5711163876
31
0.0000000000
11
337.6362061797
21
212.5466993697
31
0.0000000000
0
ENDSEC
0
SECTION
2
OBJECTS
0
DICTIONARY
5
2D2
100
AcDbDictionary
3
ACAD_GROUP
350
2D3
3
ACAD_MLINESTYLE
350
2D4
0
DICTIONARY
5
2D3
102
{ACAD_REACTORS
330
2D2
102
}
100
AcDbDictionary
0
DICTIONARY
5
2D4
102
{ACAD_REACTORS
330
2D2
102
}
100
AcDbDictionary
3
STANDARD
350
2D5
0
MLINESTYLE
5
2D5
102
{ACAD_REACTORS
330
2D4
102
}
100
AcDbMlineStyle
2
STANDARD
70
0
3

62
256
51
90.0
52
90.0
71
2
49
0.5
62
256
6
BYLAYER
49
-0.5
62
256
6
BYLAYER
0
ENDSEC
0
EOF
