999
DXF file: G:\01-G-2007\disegni_dxf_wnt\pag64\83710612.dxf
999
Pro/ENGINEER 2002180 by Parametric Technology Corporation
0
SECTION
2
HEADER
9
$ACADVER
1
AC1014
9
$EXTMAX
10
420.0000000000
20
297.0000000000
9
$EXTMIN
10
0.0000000000
20
0.0000000000
9
$LIMMIN
10
0.0000000000
20
0.0000000000
9
$LIMMAX
10
420.0000000000
20
297.0000000000
9
$VIEWCTR
10
210.0000000000
20
148.5000000000
9
$VIEWSIZE
40
297.0000000000
9
$CLAYER
8
0
9
$LTSCALE
40
23.1000000000
9
$CELTYPE
6
BYLAYER
9
$DIMSCALE
40
1
9
$DIMASZ
40
4.7600000000
9
$DIMEXO
40
2.6250000000
9
$DIMDLI
40
15.9600000000
9
$DIMEXE
40
7.5600000000
9
$DIMCEN
40
3.7800000000
9
$DIMLFAC
40
1.0000000000
9
$DIMTXT
40
3.0000000000
9
$DIMTOL
70
1
9
$DIMLIM
70
0
9
$DIMTFAC
40
1.0000000000
9
$DIMTP
40
0.0010000000
9
$DIMTM
40
0.0010000000
9
$HANDSEED
5
2DA
0
ENDSEC
0
SECTION
2
CLASSES
0
ENDSEC
0
SECTION
2
TABLES
0
TABLE
2
VPORT
5
8
100
AcDbSymbolTable
70
2
0
VPORT
5
1F4
100
AcDbSymbolTableRecord
100
AcDbViewportTableRecord
2
*ACTIVE
70
0
10
0.0
20
0.0
11
1.0
21
1.0
12
210.0000000000
22
148.5000000000
13
0.0
23
0.0
14
1.0
24
1.0
15
0.0
25
0.0
16
0.0
26
0.0
36
1.0
17
0.0
27
0.0
37
0.0
40
297.0000000000
41
1.4141414141
42
50.0
43
0.0
44
0.0
50
0.0
51
0.0
71
0
72
100
73
1
74
1
75
0
76
0
77
0
78
0
0
ENDTAB
0
TABLE
2
LTYPE
5
5
100
AcDbSymbolTable
70
6
0
LTYPE
5
14
100
AcDbSymbolTableRecord
100
AcDbLinetypeTableRecord
2
BYBLOCK
70
0
3

72
65
73
0
40
0.0
0
LTYPE
5
15
100
AcDbSymbolTableRecord
100
AcDbLinetypeTableRecord
2
BYLAYER
70
0
3

72
65
73
0
40
0.0
0
LTYPE
5
16
100
AcDbSymbolTableRecord
100
AcDbLinetypeTableRecord
2
CONTINUOUS
70
64
3
Solid line
72
65
73
0
40
0
0
LTYPE
5
1F5
100
AcDbSymbolTableRecord
100
AcDbLinetypeTableRecord
2
CENTER
70
64
3
____ _ ____ _ ____ _ ____ _ ____ _ ____ _ ____
72
65
73
4
40
0.6
49
0.375
74
0
49
-0.075
74
0
49
0.075
74
0
49
-0.075
74
0
0
LTYPE
5
1F6
100
AcDbSymbolTableRecord
100
AcDbLinetypeTableRecord
2
HIDDEN
70
64
3
- - - - - - - - - - - - - - - - - - - -
72
65
73
2
40
0.2
49
0.1
74
0
49
-0.1
74
0
0
LTYPE
5
1F7
100
AcDbSymbolTableRecord
100
AcDbLinetypeTableRecord
2
PHANTOM
70
64
3
_____ _ _ _____ _ _ _____ _ _ _____
72
65
73
6
40
0.8
49
0.45
74
0
49
-0.05
74
0
49
0.1
74
0
49
-0.05
74
0
49
0.1
74
0
49
-0.05
74
0
0
LTYPE
5
1F8
100
AcDbSymbolTableRecord
100
AcDbLinetypeTableRecord
2
DOT
70
64
3
. . . . . . . . . . . . . . . . . . . .
72
65
73
2
40
0.2
49
0.1
74
0
49
-0.1
74
0
0
LTYPE
5
1F9
100
AcDbSymbolTableRecord
100
AcDbLinetypeTableRecord
2
DASHED
70
64
3
- - - - - - - - - - - - - - - - - - - -
72
65
73
2
40
0.2
49
0.1
74
0
49
-0.1
74
0
0
ENDTAB
0
TABLE
2
LAYER
5
2
100
AcDbSymbolTable
70
36
0
LAYER
5
10
100
AcDbSymbolTableRecord
100
AcDbLayerTableRecord
2
0
70
0
62
7
6
CONTINUOUS
0
LAYER
5
1FA
100
AcDbSymbolTableRecord
100
AcDbLayerTableRecord
2
DEFAULT_1
70
0
62
7
6
CENTER
0
LAYER
5
1FB
100
AcDbSymbolTableRecord
100
AcDbLayerTableRecord
2
DEFAULT_2
70
0
62
8
6
HIDDEN
0
LAYER
5
1FC
100
AcDbSymbolTableRecord
100
AcDbLayerTableRecord
2
DEFAULT_3
70
0
62
7
6
PHANTOM
0
LAYER
5
1FD
100
AcDbSymbolTableRecord
100
AcDbLayerTableRecord
2
0_COMPONENTS
70
0
62
7
6
CONTINUOUS
0
LAYER
5
1FE
100
AcDbSymbolTableRecord
100
AcDbLayerTableRecord
2
1_ALL_PLANES
70
0
62
7
6
CONTINUOUS
0
LAYER
5
1FF
100
AcDbSymbolTableRecord
100
AcDbLayerTableRecord
2
1__DEF_ASM_PLN
70
0
62
7
6
CONTINUOUS
0
LAYER
5
200
100
AcDbSymbolTableRecord
100
AcDbLayerTableRecord
2
1__DEF_PLANES
70
0
62
7
6
CONTINUOUS
0
LAYER
5
201
100
AcDbSymbolTableRecord
100
AcDbLayerTableRecord
2
2_ALL_CSYS
70
0
62
7
6
CONTINUOUS
0
LAYER
5
202
100
AcDbSymbolTableRecord
100
AcDbLayerTableRecord
2
2_ALL_NOTES
70
0
62
7
6
CONTINUOUS
0
LAYER
5
203
100
AcDbSymbolTableRecord
100
AcDbLayerTableRecord
2
2__DEF_ASM_CSYS
70
0
62
7
6
CONTINUOUS
0
LAYER
5
204
100
AcDbSymbolTableRecord
100
AcDbLayerTableRecord
2
2__DEF_CSYS
70
0
62
7
6
CONTINUOUS
0
LAYER
5
205
100
AcDbSymbolTableRecord
100
AcDbLayerTableRecord
2
3_ALL_AXES
70
0
62
7
6
CONTINUOUS
0
LAYER
5
206
100
AcDbSymbolTableRecord
100
AcDbLayerTableRecord
2
4_ALL_POINTS
70
0
62
7
6
CONTINUOUS
0
LAYER
5
207
100
AcDbSymbolTableRecord
100
AcDbLayerTableRecord
2
5_ALL_CURVES
70
0
62
7
6
CONTINUOUS
0
LAYER
5
208
100
AcDbSymbolTableRecord
100
AcDbLayerTableRecord
2
5_ALL_GTOLS_FREE_
70
0
62
7
6
CONTINUOUS
0
LAYER
5
209
100
AcDbSymbolTableRecord
100
AcDbLayerTableRecord
2
6_ALL_SURFS
70
0
62
7
6
CONTINUOUS
0
LAYER
5
20A
100
AcDbSymbolTableRecord
100
AcDbLayerTableRecord
2
PIANI
70
0
62
7
6
CONTINUOUS
0
LAYER
5
20B
100
AcDbSymbolTableRecord
100
AcDbLayerTableRecord
2
PIANI_SCORD
70
0
62
7
6
CONTINUOUS
0
LAYER
5
20C
100
AcDbSymbolTableRecord
100
AcDbLayerTableRecord
2
XSEC_DATUMS
70
0
62
7
6
CONTINUOUS
0
ENDTAB
0
TABLE
2
STYLE
5
3
100
AcDbSymbolTable
70
1
0
STYLE
5
11
100
AcDbSymbolTableRecord
100
AcDbTextStyleTableRecord
2
STANDARD
70
0
40
0.0
41
1.2000000000
50
0.0
71
0
42
0.2
3
txt
4

0
ENDTAB
0
TABLE
2
VIEW
5
6
100
AcDbSymbolTable
70
0
0
ENDTAB
0
TABLE
2
UCS
5
7
100
AcDbSymbolTable
70
0
0
ENDTAB
0
TABLE
2
APPID
5
9
100
AcDbSymbolTable
70
1
0
APPID
5
20D
100
AcDbSymbolTableRecord
100
AcDbRegAppTableRecord
2
ACAD
70
0
0
ENDTAB
0
TABLE
2
DIMSTYLE
5
A
100
AcDbSymbolTable
70
1
0
DIMSTYLE
105
20E
100
AcDbSymbolTableRecord
100
AcDbDimStyleTableRecord
2
STANDARD
70
0
3

4

5

6

7

40
1.0
41
4.7600000000
42
0.0625
43
0.38
44
0.18
45
0.0
46
0.0
47
0.0010000000
48
0.0010000000
140
3.0000000000
141
0.09
142
0.0
143
25.4
144
1.0000000000
145
0.0
146
1.0000000000
147
0.09
71
1
72
0
73
0
74
0
75
0
76
0
77
1
78
8
170
0
171
2
172
0
173
0
174
0
175
0
176
0
177
0
178
5
270
2
271
3
272
3
273
2
274
2
340
11
275
0
280
0
281
0
282
0
283
1
284
8
285
0
286
0
287
3
288
0
0
DIMSTYLE
105
20F
100
AcDbSymbolTableRecord
100
AcDbDimStyleTableRecord
2
DIMSTYLE_1
70
0
3

4

5

6

7

40
1.0
41
4.7600000000
42
0.0625
43
0.38
44
0.18
45
0.0
46
0.0
47
0.0100000000
48
0.0100000000
140
3.0000000000
141
0.09
142
0.0
143
25.4
144
1.0000000000
145
0.0
146
1.0000000000
147
0.09
71
0
72
0
73
0
74
0
75
0
76
0
77
1
78
8
170
0
171
2
172
0
173
0
174
0
175
0
176
0
177
0
178
5
270
2
271
3
272
3
273
2
274
2
340
11
275
0
280
0
281
0
282
0
283
1
284
8
285
0
286
0
287
3
288
0
0
DIMSTYLE
105
210
100
AcDbSymbolTableRecord
100
AcDbDimStyleTableRecord
2
DIMSTYLE_2
70
0
3

4

5

6

7

40
1.0
41
4.7600000000
42
0.0625
43
0.38
44
0.18
45
0.0
46
0.0
47
0.0000000000
48
0.0000000000
140
3.0000000000
141
0.09
142
0.0
143
25.4
144
1.0000000000
145
0.0
146
1.0000000000
147
0.09
71
0
72
0
73
0
74
0
75
0
76
0
77
1
78
8
170
0
171
2
172
0
173
0
174
0
175
0
176
0
177
0
178
5
270
2
271
0
272
0
273
2
274
2
340
11
275
0
280
0
281
0
282
0
283
1
284
8
285
0
286
0
287
3
288
0
0
ENDTAB
0
TABLE
2
BLOCK_RECORD
5
1
100
AcDbSymbolTable
70
0
0
BLOCK_RECORD
5
1B
100
AcDbSymbolTableRecord
100
AcDbBlockTableRecord
2
*MODEL_SPACE
0
BLOCK_RECORD
5
1C
100
AcDbSymbolTableRecord
100
AcDbBlockTableRecord
2
*PAPER_SPACE
0
BLOCK_RECORD
5
211
100
AcDbSymbolTableRecord
100
AcDbBlockTableRecord
2
*D0
0
BLOCK_RECORD
5
212
100
AcDbSymbolTableRecord
100
AcDbBlockTableRecord
2
*D1
0
BLOCK_RECORD
5
213
100
AcDbSymbolTableRecord
100
AcDbBlockTableRecord
2
*D2
0
BLOCK_RECORD
5
214
100
AcDbSymbolTableRecord
100
AcDbBlockTableRecord
2
*D3
0
ENDTAB
0
ENDSEC
0
SECTION
2
BLOCKS
0
BLOCK
5
1E
100
AcDbEntity
8
0
100
AcDbBlockBegin
2
*MODEL_SPACE
70
0
10
0.0
20
0.0
30
0.0
3
*MODEL_SPACE
1

0
ENDBLK
5
1F
100
AcDbEntity
8
0
100
AcDbBlockEnd
0
BLOCK
5
20
100
AcDbEntity
8
0
100
AcDbBlockBegin
2
*PAPER_SPACE
70
0
10
0.0
20
0.0
30
0.0
3
*PAPER_SPACE
1

0
ENDBLK
5
21
100
AcDbEntity
8
0
100
AcDbBlockEnd
0
BLOCK
5
215
100
AcDbEntity
8
0
100
AcDbBlockBegin
62
2
6
CONTINUOUS
2
*D0
70
65
10
0.0000000000
20
0.0000000000
3
*D0
1

0
TEXT
5
216
100
AcDbEntity
8
0
100
AcDbText
62
5
6
CONTINUOUS
10
326.8506397655
20
130.4472791519
7
STANDARD
40
3.0000000000
1
%%c
41
1.3333333333
72
5
11
330.8506397655
21
130.4472791519
100
AcDbText
0
TEXT
5
217
100
AcDbEntity
8
0
100
AcDbText
62
5
6
CONTINUOUS
10
330.8506397655
20
130.4472791519
7
STANDARD
40
3.0000000000
1
19
41
0.6785714286
72
5
11
334.9220683369
21
130.4472791519
100
AcDbText
0
LINE
5
218
100
AcDbEntity
8
0
100
AcDbLine
62
2
6
CONTINUOUS
10
342.1675432599
20
140.5425295858
11
342.1675432599
21
128.6972791519
0
LINE
5
219
100
AcDbEntity
8
0
100
AcDbLine
62
2
6
CONTINUOUS
10
323.1675432599
20
140.5425295858
11
323.1675432599
21
128.6972791519
0
LINE
5
21A
100
AcDbEntity
8
0
100
AcDbLine
62
2
6
CONTINUOUS
10
342.1675432599
20
129.6972791519
11
332.6675432599
21
129.6972791519
0
LINE
5
21B
100
AcDbEntity
8
0
100
AcDbLine
62
2
6
CONTINUOUS
10
323.1675432599
20
129.6972791519
11
332.6675432599
21
129.6972791519
0
SOLID
5
21C
100
AcDbEntity
8
0
100
AcDbTrace
62
2
6
CONTINUOUS
10
337.4075432599
20
129.1972791519
11
342.1675432599
21
129.6972791519
12
337.4075432599
22
130.1972791519
13
337.4075432599
23
130.1972791519
0
SOLID
5
21D
100
AcDbEntity
8
0
100
AcDbTrace
62
2
6
CONTINUOUS
10
327.9275432599
20
130.1972791519
11
323.1675432599
21
129.6972791519
12
327.9275432599
22
129.1972791519
13
327.9275432599
23
129.1972791519
0
ENDBLK
5
21E
100
AcDbEntity
8
0
100
AcDbBlockEnd
0
BLOCK
5
21F
100
AcDbEntity
8
0
100
AcDbBlockBegin
62
2
6
CONTINUOUS
2
*D1
70
65
10
0.0000000000
20
0.0000000000
3
*D1
1

0
TEXT
5
220
100
AcDbEntity
8
0
100
AcDbText
62
5
6
CONTINUOUS
10
325.7969886506
20
122.2589679805
7
STANDARD
40
3.0000000000
1
%%c
41
1.3333333333
72
5
11
329.7969886506
21
122.2589679805
100
AcDbText
0
TEXT
5
221
100
AcDbEntity
8
0
100
AcDbText
62
5
6
CONTINUOUS
10
329.7969886506
20
122.2589679805
7
STANDARD
40
3.0000000000
1
33.3
41
0.6785714286
72
5
11
337.9398457935
21
122.2589679805
100
AcDbText
0
LINE
5
222
100
AcDbEntity
8
0
100
AcDbLine
62
2
6
CONTINUOUS
10
349.3175432599
20
149.9925295858
11
349.3175432599
21
120.5089679805
0
LINE
5
223
100
AcDbEntity
8
0
100
AcDbLine
62
2
6
CONTINUOUS
10
316.0175432599
20
149.9925295858
11
316.0175432599
21
120.5089679805
0
LINE
5
224
100
AcDbEntity
8
0
100
AcDbLine
62
2
6
CONTINUOUS
10
349.3175432599
20
121.5089679805
11
332.6675432599
21
121.5089679805
0
LINE
5
225
100
AcDbEntity
8
0
100
AcDbLine
62
2
6
CONTINUOUS
10
316.0175432599
20
121.5089679805
11
332.6675432599
21
121.5089679805
0
SOLID
5
226
100
AcDbEntity
8
0
100
AcDbTrace
62
2
6
CONTINUOUS
10
344.5575432599
20
121.0089679805
11
349.3175432599
21
121.5089679805
12
344.5575432599
22
122.0089679805
13
344.5575432599
23
122.0089679805
0
SOLID
5
227
100
AcDbEntity
8
0
100
AcDbTrace
62
2
6
CONTINUOUS
10
320.7775432599
20
122.0089679805
11
316.0175432599
21
121.5089679805
12
320.7775432599
22
121.0089679805
13
320.7775432599
23
121.0089679805
0
ENDBLK
5
228
100
AcDbEntity
8
0
100
AcDbBlockEnd
0
BLOCK
5
229
100
AcDbEntity
8
0
100
AcDbBlockBegin
62
2
6
CONTINUOUS
2
*D2
70
65
10
0.0000000000
20
0.0000000000
3
*D2
1

0
TEXT
5
22A
100
AcDbEntity
8
0
100
AcDbText
62
5
6
CONTINUOUS
10
373.6463293131
20
157.5665529175
7
STANDARD
40
3.0000000000
1
37
50
90.0000000000
41
0.7500000000
72
5
11
373.6463293131
21
162.0665529175
100
AcDbText
0
LINE
5
22B
100
AcDbEntity
8
0
100
AcDbLine
62
2
6
CONTINUOUS
10
346.7912117516
20
139.8425295858
11
375.3963293131
21
139.8425295858
0
LINE
5
22C
100
AcDbEntity
8
0
100
AcDbLine
62
2
6
CONTINUOUS
10
342.2675432599
20
176.8925295858
11
375.3963293131
21
176.8925295858
0
LINE
5
22D
100
AcDbEntity
8
0
100
AcDbLine
62
2
6
CONTINUOUS
10
374.3963293131
20
139.8425295858
11
374.3963293131
21
158.3675295858
0
LINE
5
22E
100
AcDbEntity
8
0
100
AcDbLine
62
2
6
CONTINUOUS
10
374.3963293131
20
176.8925295858
11
374.3963293131
21
158.3675295858
0
SOLID
5
22F
100
AcDbEntity
8
0
100
AcDbTrace
62
2
6
CONTINUOUS
10
373.8963293131
20
144.6025295858
11
374.3963293131
21
139.8425295858
12
374.8963293131
22
144.6025295858
13
374.8963293131
23
144.6025295858
0
SOLID
5
230
100
AcDbEntity
8
0
100
AcDbTrace
62
2
6
CONTINUOUS
10
374.8963293131
20
172.1325295858
11
374.3963293131
21
176.8925295858
12
373.8963293131
22
172.1325295858
13
373.8963293131
23
172.1325295858
0
ENDBLK
5
231
100
AcDbEntity
8
0
100
AcDbBlockEnd
0
BLOCK
5
232
100
AcDbEntity
8
0
100
AcDbBlockBegin
62
2
6
CONTINUOUS
2
*D3
70
65
10
0.0000000000
20
0.0000000000
3
*D3
1

0
TEXT
5
233
100
AcDbEntity
8
0
100
AcDbText
62
5
6
CONTINUOUS
10
381.9787701045
20
164.2757909573
7
STANDARD
40
3.0000000000
1
63
50
90.0000000000
41
0.7500000000
72
5
11
381.9787701045
21
168.7757909573
100
AcDbText
0
LINE
5
234
100
AcDbEntity
8
0
100
AcDbLine
62
2
6
CONTINUOUS
10
363.7675432599
20
202.8425295858
11
383.7287701045
21
202.8425295858
0
LINE
5
235
100
AcDbEntity
8
0
100
AcDbLine
62
2
6
CONTINUOUS
10
346.7912117516
20
139.8425295858
11
383.7287701045
21
139.8425295858
0
LINE
5
236
100
AcDbEntity
8
0
100
AcDbLine
62
2
6
CONTINUOUS
10
382.7287701045
20
202.8425295858
11
382.7287701045
21
171.3425295858
0
LINE
5
237
100
AcDbEntity
8
0
100
AcDbLine
62
2
6
CONTINUOUS
10
382.7287701045
20
139.8425295858
11
382.7287701045
21
171.3425295858
0
SOLID
5
238
100
AcDbEntity
8
0
100
AcDbTrace
62
2
6
CONTINUOUS
10
383.2287701045
20
198.0825295858
11
382.7287701045
21
202.8425295858
12
382.2287701045
22
198.0825295858
13
382.2287701045
23
198.0825295858
0
SOLID
5
239
100
AcDbEntity
8
0
100
AcDbTrace
62
2
6
CONTINUOUS
10
382.2287701045
20
144.6025295858
11
382.7287701045
21
139.8425295858
12
383.2287701045
22
144.6025295858
13
383.2287701045
23
144.6025295858
0
ENDBLK
5
23A
100
AcDbEntity
8
0
100
AcDbBlockEnd
0
ENDSEC
0
SECTION
2
ENTITIES
0
DIMENSION
5
23B
100
AcDbEntity
8
0
100
AcDbDimension
62
2
6
CONTINUOUS
2
*D0
10
323.1675432599
20
129.6972791519
11
330.8863540512
21
131.9472791519
70
160
1
%%c<>
3
DIMSTYLE_1
100
AcDbAlignedDimension
13
342.1675432599
23
140.5425295858
14
323.1675432599
24
140.5425295858
50
180.000000
100
AcDbRotatedDimension
0
DIMENSION
5
23C
100
AcDbEntity
8
0
100
AcDbDimension
62
2
6
CONTINUOUS
2
*D1
10
316.0175432599
20
121.5089679805
11
331.8684172221
21
123.7589679805
70
160
1
%%c<>
3
DIMSTYLE_1
100
AcDbAlignedDimension
13
349.3175432599
23
149.9925295858
14
316.0175432599
24
149.9925295858
50
180.000000
100
AcDbRotatedDimension
0
DIMENSION
5
23D
100
AcDbEntity
8
0
100
AcDbDimension
62
2
6
CONTINUOUS
2
*D2
10
374.3963293131
20
176.8925295858
11
372.1463293131
21
159.8165529175
70
160
3
DIMSTYLE_2
100
AcDbAlignedDimension
13
346.7912117516
23
139.8425295858
14
342.2675432599
24
176.8925295858
50
90.000000
100
AcDbRotatedDimension
0
DIMENSION
5
23E
100
AcDbEntity
8
0
100
AcDbDimension
62
2
6
CONTINUOUS
2
*D3
10
382.7287701045
20
139.8425295858
11
380.4787701045
21
166.5257909573
70
160
3
DIMSTYLE_1
100
AcDbAlignedDimension
13
363.7675432599
23
202.8425295858
14
346.7912117516
24
139.8425295858
50
270.000000
100
AcDbRotatedDimension
0
LINE
5
23F
100
AcDbEntity
8
0
100
AcDbLine
62
7
6
CONTINUOUS
10
432.5000000000
20
-3.0625000000
11
232.5000000000
21
-3.0625000000
0
LINE
5
240
100
AcDbEntity
8
0
100
AcDbLine
62
7
6
CONTINUOUS
10
232.5000000000
20
-3.0625000000
11
232.5000000000
21
283.9375000000
0
LINE
5
241
100
AcDbEntity
8
0
100
AcDbLine
62
7
6
CONTINUOUS
10
432.5000000000
20
283.9375000000
11
232.5000000000
21
283.9375000000
0
LINE
5
242
100
AcDbEntity
8
0
100
AcDbLine
62
7
6
CONTINUOUS
10
432.5000000000
20
-3.0625000000
11
432.5000000000
21
283.9375000000
0
LINE
5
243
100
AcDbEntity
8
0
100
AcDbLine
62
7
6
CONTINUOUS
10
347.6241675869
20
139.8425295858
11
317.7109189336
21
139.8425295858
0
LINE
5
244
100
AcDbEntity
8
0
100
AcDbLine
62
7
6
CONTINUOUS
10
317.2779062312
20
140.0925295855
11
348.0571802886
21
140.0925295855
0
LINE
5
245
100
AcDbEntity
8
0
100
AcDbLine
62
7
6
CONTINUOUS
10
316.2675432599
20
141.8425295858
11
349.0675432599
21
141.8425295858
0
LINE
5
246
100
AcDbEntity
8
0
100
AcDbLine
62
7
6
CONTINUOUS
10
316.0175432599
20
150.0925295858
11
316.2675432599
21
149.8425295858
0
LINE
5
247
100
AcDbEntity
8
0
100
AcDbLine
62
7
6
CONTINUOUS
10
316.2675432599
20
149.8425295858
11
349.0675432599
21
149.8425295858
0
LINE
5
248
100
AcDbEntity
8
0
100
AcDbLine
62
7
6
CONTINUOUS
10
316.0175432599
20
150.0925295858
11
349.3175432599
21
150.0925295858
0
LINE
5
249
100
AcDbEntity
8
0
100
AcDbLine
62
7
6
CONTINUOUS
10
316.2675432599
20
141.8425295858
11
317.2779062312
21
140.0925295855
0
LINE
5
24A
100
AcDbEntity
8
0
100
AcDbLine
62
7
6
CONTINUOUS
10
301.1675432599
20
202.3425295858
11
301.1675432599
21
188.2200286606
0
LINE
5
24B
100
AcDbEntity
8
0
100
AcDbLine
62
7
6
CONTINUOUS
10
301.1675432599
20
181.4650305110
11
301.1675432599
21
177.3925295858
0
LINE
5
24C
100
AcDbEntity
8
0
100
AcDbLine
62
7
6
CONTINUOUS
10
301.6675432599
20
202.8425295858
11
301.1675432599
21
202.3425295858
0
LINE
5
24D
100
AcDbEntity
8
0
100
AcDbLine
62
7
6
CONTINUOUS
10
305.1675432599
20
182.9675295858
11
305.1675432599
21
186.7175295858
0
LINE
5
24E
100
AcDbEntity
8
0
100
AcDbLine
62
7
6
CONTINUOUS
10
322.5533032425
20
234.4955925466
11
322.4517965306
21
234.2716873141
0
LINE
5
24F
100
AcDbEntity
8
0
100
AcDbLine
62
7
6
CONTINUOUS
10
339.9375432599
20
234.7425295858
11
338.9375432599
21
233.7425295858
0
LINE
5
250
100
AcDbEntity
8
0
100
AcDbLine
62
7
6
CONTINUOUS
10
301.1675432599
20
177.3925295858
11
301.6675432599
21
176.8925295858
0
LINE
5
251
100
AcDbEntity
8
0
100
AcDbLine
62
7
6
CONTINUOUS
10
308.3313562126
20
181.4650305110
11
308.3313562126
21
177.3925295858
0
LINE
5
252
100
AcDbEntity
8
0
100
AcDbLine
62
7
6
CONTINUOUS
10
308.3313562126
20
188.2200286606
11
308.3313562126
21
197.8925295858
0
LINE
5
253
100
AcDbEntity
8
0
100
AcDbLine
62
7
6
CONTINUOUS
10
308.7675432599
20
203.6466357949
11
308.7675432599
21
203.2425295858
0
LINE
5
254
100
AcDbEntity
8
0
100
AcDbLine
62
7
6
CONTINUOUS
10
309.8880415396
20
233.6025767164
11
308.4471044844
21
204.8425295858
0
LINE
5
255
100
AcDbEntity
8
0
100
AcDbLine
62
7
6
CONTINUOUS
10
316.0175432599
20
161.5925295858
11
349.3175432599
21
161.5925295858
0
LINE
5
256
100
AcDbEntity
8
0
100
AcDbLine
62
7
6
CONTINUOUS
10
316.2675432599
20
161.8425295858
11
349.0675432599
21
161.8425295858
0
LINE
5
257
100
AcDbEntity
8
0
100
AcDbLine
62
7
6
CONTINUOUS
10
312.6675432599
20
182.9675295858
11
312.6675432599
21
176.8925295858
0
LINE
5
258
100
AcDbEntity
8
0
100
AcDbLine
62
7
6
CONTINUOUS
10
312.6675432599
20
186.7175295858
11
312.6675432599
21
190.8903271466
0
LINE
5
259
100
AcDbEntity
8
0
100
AcDbLine
62
7
6
CONTINUOUS
10
308.4471044844
20
204.8425295858
11
308.7675432599
21
203.6466357949
0
LINE
5
25A
100
AcDbEntity
8
0
100
AcDbLine
62
7
6
CONTINUOUS
10
316.0175432599
20
161.5925295858
11
316.0175432599
21
150.0925295858
0
LINE
5
25B
100
AcDbEntity
8
0
100
AcDbLine
62
7
6
CONTINUOUS
10
316.2675432599
20
171.0425295858
11
316.2675432599
21
161.8425295858
0
LINE
5
25C
100
AcDbEntity
8
0
100
AcDbLine
62
7
6
CONTINUOUS
10
316.2675432599
20
149.8425295858
11
316.2675432599
21
141.8425295858
0
LINE
5
25D
100
AcDbEntity
8
0
100
AcDbLine
62
7
6
CONTINUOUS
10
316.2675432599
20
171.0425295858
11
349.0675432599
21
171.0425295858
0
LINE
5
25E
100
AcDbEntity
8
0
100
AcDbLine
62
7
6
CONTINUOUS
10
316.7675432599
20
171.5425295858
11
348.5675432599
21
171.5425295858
0
LINE
5
25F
100
AcDbEntity
8
0
100
AcDbLine
62
7
6
CONTINUOUS
10
303.7699479957
20
186.7175295858
11
301.1675432599
21
188.2200286606
0
LINE
5
260
100
AcDbEntity
8
0
100
AcDbLine
62
7
6
CONTINUOUS
10
318.4175432599
20
175.8925295858
11
318.4175432599
21
171.5425295858
0
LINE
5
261
100
AcDbEntity
8
0
100
AcDbLine
62
7
6
CONTINUOUS
10
318.4175508463
20
175.8925295858
11
346.9175356735
21
175.8925295858
0
LINE
5
262
100
AcDbEntity
8
DEFAULT_2
100
AcDbLine
62
8
6
HIDDEN
10
323.1675432599
20
140.6425295858
11
323.1675432599
21
160.3425295858
0
LINE
5
263
100
AcDbEntity
8
0
100
AcDbLine
62
7
6
CONTINUOUS
10
324.1860088085
20
177.3925295858
11
324.1860088085
21
181.4650305110
0
LINE
5
264
100
AcDbEntity
8
0
100
AcDbLine
62
7
6
CONTINUOUS
10
324.1860088085
20
188.2200286606
11
324.1860088085
21
189.8925295858
0
LINE
5
265
100
AcDbEntity
8
0
100
AcDbLine
62
7
6
CONTINUOUS
10
324.6675432599
20
177.3925295858
11
324.6675432599
21
182.9675295858
0
LINE
5
266
100
AcDbEntity
8
0
100
AcDbLine
62
7
6
CONTINUOUS
10
324.6675432599
20
186.7175295858
11
324.6675432599
21
189.8925295858
0
LINE
5
267
100
AcDbEntity
8
0
100
AcDbLine
62
7
6
CONTINUOUS
10
325.3190740315
20
186.7175295858
11
325.3190740315
21
182.9675295858
0
LINE
5
268
100
AcDbEntity
8
0
100
AcDbLine
62
7
6
CONTINUOUS
10
301.1675432599
20
181.4650305110
11
303.7699479957
21
182.9675295858
0
LINE
5
269
100
AcDbEntity
8
0
100
AcDbLine
62
7
6
CONTINUOUS
10
301.6675434429
20
176.8925295858
11
363.6672109947
21
176.8925295858
0
LINE
5
26A
100
AcDbEntity
8
0
100
AcDbLine
62
7
6
CONTINUOUS
10
364.1675432599
20
177.3925295858
11
341.1490777113
21
177.3925295858
0
LINE
5
26B
100
AcDbEntity
8
0
100
AcDbLine
62
7
6
CONTINUOUS
10
324.1860088085
20
177.3925295858
11
312.6675432599
21
177.3925295858
0
LINE
5
26C
100
AcDbEntity
8
0
100
AcDbLine
62
7
6
CONTINUOUS
10
308.3313562126
20
177.3925295858
11
301.1675432599
21
177.3925295858
0
LINE
5
26D
100
AcDbEntity
8
0
100
AcDbLine
62
7
6
CONTINUOUS
10
326.3975432599
20
233.7425295858
11
326.3975432599
21
229.9425295858
0
LINE
5
26E
100
AcDbEntity
8
0
100
AcDbLine
62
7
6
CONTINUOUS
10
364.1675432599
20
181.4650305110
11
341.1490777113
21
181.4650305110
0
LINE
5
26F
100
AcDbEntity
8
0
100
AcDbLine
62
7
6
CONTINUOUS
10
324.1860088085
20
181.4650305110
11
312.6675432599
21
181.4650305110
0
LINE
5
270
100
AcDbEntity
8
0
100
AcDbLine
62
7
6
CONTINUOUS
10
308.3313562126
20
181.4650305110
11
301.1675432599
21
181.4650305110
0
LINE
5
271
100
AcDbEntity
8
0
100
AcDbLine
62
7
6
CONTINUOUS
10
303.7701153981
20
182.9675295858
11
325.3190740315
21
182.9675295858
0
LINE
5
272
100
AcDbEntity
8
0
100
AcDbLine
62
7
6
CONTINUOUS
10
340.0160124882
20
182.9675295858
11
361.5650852740
21
182.9675295858
0
LINE
5
273
100
AcDbEntity
8
0
100
AcDbLine
62
7
6
CONTINUOUS
10
349.0675432599
20
161.8425295858
11
349.3175432599
21
161.5925295858
0
LINE
5
274
100
AcDbEntity
8
0
100
AcDbLine
62
7
6
CONTINUOUS
10
316.7675432599
20
171.5425295858
11
316.2675432599
21
171.0425295858
0
LINE
5
275
100
AcDbEntity
8
0
100
AcDbLine
62
7
6
CONTINUOUS
10
361.5650852740
20
186.7175295858
11
340.0160124882
21
186.7175295858
0
LINE
5
276
100
AcDbEntity
8
0
100
AcDbLine
62
7
6
CONTINUOUS
10
303.7701153981
20
186.7175295858
11
325.3190740315
21
186.7175295858
0
LINE
5
277
100
AcDbEntity
8
0
100
AcDbLine
62
7
6
CONTINUOUS
10
340.6675432599
20
177.3925295858
11
341.1675432599
21
176.8925295858
0
LINE
5
278
100
AcDbEntity
8
0
100
AcDbLine
62
7
6
CONTINUOUS
10
348.5675432599
20
171.5425295858
11
349.0675432599
21
171.0425295858
0
LINE
5
279
100
AcDbEntity
8
0
100
AcDbLine
62
7
6
CONTINUOUS
10
324.1675432599
20
176.8925295858
11
324.6675432599
21
177.3925295858
0
LINE
5
27A
100
AcDbEntity
8
0
100
AcDbLine
62
7
6
CONTINUOUS
10
301.1675432599
20
188.2200286606
11
308.3313562126
21
188.2200286606
0
LINE
5
27B
100
AcDbEntity
8
0
100
AcDbLine
62
7
6
CONTINUOUS
10
312.6675432599
20
188.2200286606
11
324.1860088085
21
188.2200286606
0
LINE
5
27C
100
AcDbEntity
8
0
100
AcDbLine
62
7
6
CONTINUOUS
10
341.1490777113
20
188.2200286606
11
364.1675432599
21
188.2200286606
0
LINE
5
27D
100
AcDbEntity
8
0
100
AcDbLine
62
7
6
CONTINUOUS
10
324.1860088085
20
189.8925295858
11
324.6675432599
21
189.8925295858
0
LINE
5
27E
100
AcDbEntity
8
0
100
AcDbLine
62
7
6
CONTINUOUS
10
340.6675432599
20
189.8925295858
11
341.1490777113
21
189.8925295858
0
LINE
5
27F
100
AcDbEntity
8
0
100
AcDbLine
62
7
6
CONTINUOUS
10
338.9375432599
20
233.7425295858
11
338.9375432599
21
229.9425295858
0
LINE
5
280
100
AcDbEntity
8
0
100
AcDbLine
62
7
6
CONTINUOUS
10
340.0160124882
20
186.7175295858
11
340.0160124882
21
182.9675295858
0
LINE
5
281
100
AcDbEntity
8
0
100
AcDbLine
62
7
6
CONTINUOUS
10
340.6675432599
20
177.3925295858
11
340.6675432599
21
182.9675295858
0
LINE
5
282
100
AcDbEntity
8
0
100
AcDbLine
62
7
6
CONTINUOUS
10
340.6675432599
20
186.7175295858
11
340.6675432599
21
189.8925295858
0
LINE
5
283
100
AcDbEntity
8
0
100
AcDbLine
62
7
6
CONTINUOUS
10
316.2675432599
20
161.8425295858
11
316.0175432599
21
161.5925295858
0
LINE
5
284
100
AcDbEntity
8
0
100
AcDbLine
62
7
6
CONTINUOUS
10
341.1490777113
20
177.3925295858
11
341.1490777113
21
181.4650305110
0
LINE
5
285
100
AcDbEntity
8
0
100
AcDbLine
62
7
6
CONTINUOUS
10
341.1490777113
20
188.2200286606
11
341.1490777113
21
189.8925295858
0
LINE
5
286
100
AcDbEntity
8
DEFAULT_2
100
AcDbLine
62
8
6
HIDDEN
10
342.1675432599
20
140.6425295858
11
342.1675432599
21
160.3425295858
0
LINE
5
287
100
AcDbEntity
8
0
100
AcDbLine
62
7
6
CONTINUOUS
10
308.5365432599
20
197.8925295858
11
308.3313562126
21
197.8925295858
0
LINE
5
288
100
AcDbEntity
8
0
100
AcDbLine
62
7
6
CONTINUOUS
10
364.1675432599
20
181.4650305110
11
361.5651385241
21
182.9675295858
0
LINE
5
289
100
AcDbEntity
8
0
100
AcDbLine
62
7
6
CONTINUOUS
10
346.9175432599
20
175.8925295858
11
346.9175432599
21
171.5425295858
0
LINE
5
28A
100
AcDbEntity
8
0
100
AcDbLine
62
7
6
CONTINUOUS
10
361.5651385241
20
186.7175295858
11
364.1675432599
21
188.2200286606
0
LINE
5
28B
100
AcDbEntity
8
0
100
AcDbLine
62
7
6
CONTINUOUS
10
364.1675432599
20
202.3425295858
11
301.1675432599
21
202.3425295858
0
LINE
5
28C
100
AcDbEntity
8
0
100
AcDbLine
62
7
6
CONTINUOUS
10
363.6671800269
20
202.8425295858
11
301.6679064929
21
202.8425295858
0
LINE
5
28D
100
AcDbEntity
8
0
100
AcDbLine
62
7
6
CONTINUOUS
10
349.0675432599
20
171.0425295858
11
349.0675432599
21
161.8425295858
0
LINE
5
28E
100
AcDbEntity
8
0
100
AcDbLine
62
7
6
CONTINUOUS
10
349.0675432599
20
149.8425295858
11
349.0675432599
21
141.8425295858
0
LINE
5
28F
100
AcDbEntity
8
0
100
AcDbLine
62
7
6
CONTINUOUS
10
349.3175432599
20
161.5925295858
11
349.3175432599
21
150.0925295858
0
LINE
5
290
100
AcDbEntity
8
0
100
AcDbLine
62
7
6
CONTINUOUS
10
356.8879820354
20
204.8425295858
11
356.5675432599
21
203.6466357949
0
LINE
5
291
100
AcDbEntity
8
0
100
AcDbLine
62
7
6
CONTINUOUS
10
308.7675432599
20
203.2425295858
11
356.5675432599
21
203.2425295858
0
LINE
5
292
100
AcDbEntity
8
0
100
AcDbLine
62
7
6
CONTINUOUS
10
308.7675432599
20
203.6466357949
11
356.5675432599
21
203.6466357949
0
LINE
5
293
100
AcDbEntity
8
0
100
AcDbLine
62
7
6
CONTINUOUS
10
356.8879820354
20
204.8425295858
11
308.4471044844
21
204.8425295858
0
LINE
5
294
100
AcDbEntity
8
0
100
AcDbLine
62
7
6
CONTINUOUS
10
355.4470449802
20
233.6025767164
11
356.8879820354
21
204.8425295858
0
LINE
5
295
100
AcDbEntity
8
0
100
AcDbLine
62
7
6
CONTINUOUS
10
356.5675432599
20
203.6466357949
11
356.5675432599
21
203.2425295858
0
LINE
5
296
100
AcDbEntity
8
0
100
AcDbLine
62
7
6
CONTINUOUS
10
329.3188567848
20
213.4975720930
11
336.0162263168
21
213.4975720930
0
LINE
5
297
100
AcDbEntity
8
0
100
AcDbLine
62
7
6
CONTINUOUS
10
329.8145871599
20
214.2740292130
11
335.5205381436
21
214.2740292117
0
LINE
5
298
100
AcDbEntity
8
0
100
AcDbLine
62
7
6
CONTINUOUS
10
360.1675432599
20
182.9675295858
11
360.1675432599
21
186.7175295858
0
LINE
5
299
100
AcDbEntity
8
0
100
AcDbLine
62
7
6
CONTINUOUS
10
364.1675432599
20
177.3925295858
11
363.6675432599
21
176.8925295858
0
LINE
5
29A
100
AcDbEntity
8
0
100
AcDbLine
62
7
6
CONTINUOUS
10
325.3975432599
20
234.7425295858
11
326.3975432599
21
233.7425295858
0
LINE
5
29B
100
AcDbEntity
8
0
100
AcDbLine
62
7
6
CONTINUOUS
10
342.7817832773
20
234.4955925466
11
342.8832899892
21
234.2716873141
0
LINE
5
29C
100
AcDbEntity
8
0
100
AcDbLine
62
7
6
CONTINUOUS
10
364.1675432599
20
202.3425295858
11
364.1675432599
21
201.3425512964
0
LINE
5
29D
100
AcDbEntity
8
0
100
AcDbLine
62
7
6
CONTINUOUS
10
364.1675432599
20
190.3425078748
11
364.1675432599
21
188.2200286606
0
LINE
5
29E
100
AcDbEntity
8
0
100
AcDbLine
62
7
6
CONTINUOUS
10
364.1675432599
20
181.4650305110
11
364.1675432599
21
177.3925295858
0
LINE
5
29F
100
AcDbEntity
8
0
100
AcDbLine
62
7
6
CONTINUOUS
10
363.6675432599
20
202.8425295858
11
364.1675432599
21
202.3425295858
0
LINE
5
2A0
100
AcDbEntity
8
0
100
AcDbLine
62
7
6
CONTINUOUS
10
349.0675432599
20
141.8425295858
11
348.0571802886
21
140.0925295855
0
LINE
5
2A1
100
AcDbEntity
8
0
100
AcDbLine
62
7
6
CONTINUOUS
10
349.3175432599
20
150.0925295858
11
349.0675432599
21
149.8425295858
0
LINE
5
2A2
100
AcDbEntity
8
0
100
AcDbLine
62
7
6
CONTINUOUS
10
340.2261745461
20
228.7425295858
11
325.1089119737
21
228.7425295858
0
LINE
5
2A3
100
AcDbEntity
8
0
100
AcDbLine
62
7
6
CONTINUOUS
10
322.9801522387
20
229.9425295858
11
326.3975432599
21
229.9425295858
0
LINE
5
2A4
100
AcDbEntity
8
0
100
AcDbLine
62
7
6
CONTINUOUS
10
338.9375432599
20
229.9425295858
11
342.3549342715
21
229.9425295858
0
LINE
5
2A5
100
AcDbEntity
8
0
100
AcDbLine
62
7
6
CONTINUOUS
10
309.8880415396
20
233.6025767164
11
323.5378237063
21
233.6025767164
0
LINE
5
2A6
100
AcDbEntity
8
0
100
AcDbLine
62
7
6
CONTINUOUS
10
341.7972628135
20
233.6025767164
11
355.4470449802
21
233.6025767164
0
LINE
5
2A7
100
AcDbEntity
8
0
100
AcDbLine
62
7
6
CONTINUOUS
10
323.5748717706
20
233.7425295858
11
326.3975432599
21
233.7425295858
0
LINE
5
2A8
100
AcDbEntity
8
0
100
AcDbLine
62
7
6
CONTINUOUS
10
338.9375432599
20
233.7425295858
11
341.7602147492
21
233.7425295858
0
LINE
5
2A9
100
AcDbEntity
8
0
100
AcDbLine
62
7
6
CONTINUOUS
10
311.0865384365
20
234.7425295858
11
325.3975432599
21
234.7425295858
0
LINE
5
2AA
100
AcDbEntity
8
0
100
AcDbLine
62
7
6
CONTINUOUS
10
339.9375432599
20
234.7425295858
11
354.2485139139
21
234.7425295858
0
ARC
5
2AB
100
AcDbEntity
8
0
100
AcDbCircle
62
7
6
CONTINUOUS
10
317.7109189329
20
140.3425295858
40
0.5000000000
100
AcDbArc
50
210.0000000444
51
270.0000000000
0
ARC
5
2AC
100
AcDbEntity
8
0
100
AcDbCircle
62
7
6
CONTINUOUS
10
347.6241675869
20
140.3425295858
40
0.5000000000
100
AcDbArc
50
270.0000000000
51
329.9999999556
0
ARC
5
2AD
100
AcDbEntity
8
0
100
AcDbCircle
62
7
6
CONTINUOUS
10
317.4175432599
20
175.8925295858
40
1.0000000000
100
AcDbArc
50
0.0000000000
51
89.9998200159
0
ARC
5
2AE
100
AcDbEntity
8
0
100
AcDbCircle
62
7
6
CONTINUOUS
10
347.9175432599
20
175.8925295858
40
1.0000000000
100
AcDbArc
50
90.0001799841
51
180.0000000000
0
ARC
5
2AF
100
AcDbEntity
8
0
100
AcDbCircle
62
7
6
CONTINUOUS
10
304.6675432599
20
190.8903271466
40
8.0000000000
100
AcDbArc
50
0.0000000000
51
61.0775746312
0
ARC
5
2B0
100
AcDbEntity
8
0
100
AcDbCircle
62
7
6
CONTINUOUS
10
357.1675432599
20
203.2425295858
40
0.6000000000
100
AcDbArc
50
180.0000000000
51
222.1953233946
0
ARC
5
2B1
100
AcDbEntity
8
0
100
AcDbCircle
62
7
6
CONTINUOUS
10
308.1675432599
20
203.2425295858
40
0.6000000000
100
AcDbArc
50
317.8046766054
51
360.0000000000
0
ARC
5
2B2
100
AcDbEntity
8
0
100
AcDbCircle
62
7
6
CONTINUOUS
10
337.7375432599
20
229.9425295858
40
1.2000000000
100
AcDbArc
50
270.0000000000
51
360.0000000000
0
ARC
5
2B3
100
AcDbEntity
8
0
100
AcDbCircle
62
7
6
CONTINUOUS
10
327.5975432599
20
229.9425295858
40
1.2000000000
100
AcDbArc
50
180.0000000000
51
270.0000000000
0
ARC
5
2B4
100
AcDbEntity
8
0
100
AcDbCircle
62
7
6
CONTINUOUS
10
354.2485482793
20
233.5425295858
40
1.2000000000
100
AcDbArc
50
2.8682371247
51
90.0000000000
0
ARC
5
2B5
100
AcDbEntity
8
0
100
AcDbCircle
62
7
6
CONTINUOUS
10
311.0865382405
20
233.5425295858
40
1.2000000000
100
AcDbArc
50
90.0000000000
51
177.1317628753
0
ARC
5
2B6
100
AcDbEntity
8
0
100
AcDbCircle
62
7
6
CONTINUOUS
10
332.6675432599
20
189.8925295858
40
8.0000000000
100
AcDbArc
50
0.0000000003
51
179.9999999996
0
CIRCLE
5
2B7
100
AcDbEntity
8
0
100
AcDbCircle
62
7
6
CONTINUOUS
10
332.6675432599
20
211.8425295858
40
3.7500000000
0
SPLINE
5
2B8
100
AcDbEntity
8
0
100
AcDbSpline
62
7
6
CONTINUOUS
70
0
71
3
72
8
73
4
74
2
42
0.0000001000
43
0.0000001000
44
0.0000000001
40
0.0000000000
40
0.0000000000
40
0.0000000000
40
0.0000000000
40
1.0000000000
40
1.0000000000
40
1.0000000000
40
1.0000000000
10
364.1675433054
20
190.3425045064
30
0.0000000000
10
364.1674059399
20
190.3434288594
30
0.0000000000
10
364.1672686064
20
190.3443532173
30
0.0000000000
10
364.1671313051
20
190.3452775799
30
0.0000000000
11
364.1675433054
21
190.3425045064
31
0.0000000000
11
364.1671313051
21
190.3452775799
31
0.0000000000
0
SPLINE
5
2B9
100
AcDbEntity
8
0
100
AcDbSpline
62
7
6
CONTINUOUS
70
0
71
3
72
21
73
17
74
15
42
0.0000001000
43
0.0000001000
44
0.0000000001
40
0.0000000000
40
0.0000000000
40
0.0000000000
40
0.0000000000
40
0.0110289441
40
0.0471523420
40
0.1070767674
40
0.1855725977
40
0.2810544264
40
0.3886705425
40
0.5002318846
40
0.6118388547
40
0.7195218800
40
0.8149338967
40
0.8933580192
40
0.9532043860
40
0.9890880832
40
1.0000000000
40
1.0000000000
40
1.0000000000
40
1.0000000000
10
364.1671313051
20
190.3452775799
30
0.0000000000
10
364.1611707577
20
190.3854061659
30
0.0000000000
10
364.1359462961
20
190.5570076166
30
0.0000000000
10
364.0811950686
20
190.9470614641
30
0.0000000000
10
364.0005360206
20
191.5840476226
30
0.0000000000
10
363.9093851679
20
192.4396654477
30
0.0000000000
10
363.8259363928
20
193.4722521382
30
0.0000000000
10
363.7677885321
20
194.6284388973
30
0.0000000000
10
363.7471471429
20
195.8452567876
30
0.0000000000
10
363.7679733808
20
197.0623179222
30
0.0000000000
10
363.8263187932
20
198.2186523851
30
0.0000000000
10
363.9099110089
20
199.2509518171
30
0.0000000000
10
364.0010928324
20
200.1057538426
30
0.0000000000
10
364.0816431498
20
200.7413095647
30
0.0000000000
10
364.1361976813
20
201.1297758982
30
0.0000000000
10
364.1612340066
20
201.3000787063
30
0.0000000000
10
364.1671312918
20
201.3397814938
30
0.0000000000
11
364.1671313051
21
190.3452775799
31
0.0000000000
11
364.1494316997
21
190.4656903095
31
0.0000000000
11
364.0940337777
21
190.8604511435
31
0.0000000000
11
364.0109967939
21
191.5164950152
31
0.0000000000
11
363.9193107133
21
192.3778462889
31
0.0000000000
11
363.8345395665
21
193.4280918447
31
0.0000000000
11
363.7749848827
21
194.6141630901
31
0.0000000000
11
363.7541405981
21
195.8450884545
31
0.0000000000
11
363.7751758761
21
197.0765141577
31
0.0000000000
11
363.8349617976
21
198.2633130640
31
0.0000000000
11
363.9198392526
21
199.3127771288
31
0.0000000000
11
364.0115589582
21
200.1733290363
31
0.0000000000
11
364.0945613433
21
200.8285090177
31
0.0000000000
11
364.1496176030
21
201.2206467329
31
0.0000000000
11
364.1671312918
21
201.3397814938
31
0.0000000000
0
SPLINE
5
2BA
100
AcDbEntity
8
0
100
AcDbSpline
62
7
6
CONTINUOUS
70
0
71
3
72
8
73
4
74
2
42
0.0000001000
43
0.0000001000
44
0.0000000001
40
0.0000000000
40
0.0000000000
40
0.0000000000
40
0.0000000000
40
1.0000000000
40
1.0000000000
40
1.0000000000
40
1.0000000000
10
364.1671312918
20
201.3397814938
30
0.0000000000
10
364.1672685824
20
201.3407057869
30
0.0000000000
10
364.1674059051
20
201.3416300751
30
0.0000000000
10
364.1675432599
20
201.3425543585
30
0.0000000000
11
364.1671312918
21
201.3397814938
31
0.0000000000
11
364.1675432599
21
201.3425543585
31
0.0000000000
0
SPLINE
5
2BB
100
AcDbEntity
8
0
100
AcDbSpline
62
7
6
CONTINUOUS
70
0
71
3
72
8
73
4
74
2
42
0.0000001000
43
0.0000001000
44
0.0000000001
40
0.0000000000
40
0.0000000000
40
0.0000000000
40
0.0000000000
40
1.0000000000
40
1.0000000000
40
1.0000000000
40
1.0000000000
10
364.1675433054
20
201.3425546649
30
0.0000000000
10
364.1674059350
20
201.3416302794
30
0.0000000000
10
364.1672685968
20
201.3407058891
30
0.0000000000
10
364.1671312907
20
201.3397814940
30
0.0000000000
11
364.1675433054
21
201.3425546649
31
0.0000000000
11
364.1671312907
21
201.3397814940
31
0.0000000000
0
SPLINE
5
2BC
100
AcDbEntity
8
0
100
AcDbSpline
62
7
6
CONTINUOUS
70
0
71
3
72
8
73
4
74
2
42
0.0000001000
43
0.0000001000
44
0.0000000001
40
0.0000000000
40
0.0000000000
40
0.0000000000
40
0.0000000000
40
1.0000000000
40
1.0000000000
40
1.0000000000
40
1.0000000000
10
364.1671313062
20
190.3452775801
30
0.0000000000
10
364.1672685920
20
190.3443533195
30
0.0000000000
10
364.1674059099
20
190.3434290638
30
0.0000000000
10
364.1675432599
20
190.3425048128
30
0.0000000000
11
364.1671313062
21
190.3452775801
31
0.0000000000
11
364.1675432599
21
190.3425048128
31
0.0000000000
0
SPLINE
5
2BD
100
AcDbEntity
8
0
100
AcDbSpline
62
7
6
CONTINUOUS
70
0
71
3
72
11
73
7
74
5
42
0.0000001000
43
0.0000001000
44
0.0000000001
40
0.0000000000
40
0.0000000000
40
0.0000000000
40
0.0000000000
40
0.2824585334
40
0.5480948636
40
0.7903424560
40
1.0000000000
40
1.0000000000
40
1.0000000000
40
1.0000000000
10
341.2752351042
20
234.7425295858
30
0.0000000000
10
341.4192480631
20
234.7425295858
30
0.0000000000
10
341.6987643748
20
234.7196515009
30
0.0000000000
10
342.0951146976
20
234.6424728184
30
0.0000000000
10
342.4481825158
20
234.5525036067
30
0.0000000000
10
342.6748882832
20
234.4955925466
30
0.0000000000
10
342.7817832773
20
234.4955925466
30
0.0000000000
11
341.2752351042
21
234.7425295858
31
0.0000000000
11
341.7061080579
21
234.7108106862
31
0.0000000000
11
342.1055324540
21
234.6363357579
31
0.0000000000
11
342.4654670568
21
234.5483458072
31
0.0000000000
11
342.7817832773
21
234.4955925466
31
0.0000000000
0
SPLINE
5
2BE
100
AcDbEntity
8
0
100
AcDbSpline
62
7
6
CONTINUOUS
70
0
71
3
72
10
73
6
74
4
42
0.0000001000
43
0.0000001000
44
0.0000000001
40
0.0000000000
40
0.0000000000
40
0.0000000000
40
0.0000000000
40
0.2938306912
40
0.6265708610
40
1.0000000000
40
1.0000000000
40
1.0000000000
40
1.0000000000
10
322.9801522387
20
229.9425295858
30
0.0000000000
10
323.0515104643
20
230.2981253397
30
0.0000000000
10
323.1863945243
20
231.0598659083
30
0.0000000000
10
323.3691173428
20
232.2806680809
30
0.0000000000
10
323.4815396757
20
233.1450901062
30
0.0000000000
10
323.5378237063
20
233.6025767164
30
0.0000000000
11
322.9801522387
21
229.9425295858
31
0.0000000000
11
323.1735331319
21
231.0132615126
31
0.0000000000
11
323.3579945788
21
232.2315119839
31
0.0000000000
11
323.5378237063
21
233.6025767164
31
0.0000000000
0
SPLINE
5
2BF
100
AcDbEntity
8
0
100
AcDbSpline
62
7
6
CONTINUOUS
70
0
71
3
72
10
73
6
74
4
42
0.0000001000
43
0.0000001000
44
0.0000000001
40
0.0000000000
40
0.0000000000
40
0.0000000000
40
0.0000000000
40
0.3310690286
40
0.6643981397
40
1.0000000000
40
1.0000000000
40
1.0000000000
40
1.0000000000
10
324.6675432599
20
187.9432550661
30
0.0000000000
10
324.6143426368
20
187.9736938072
30
0.0000000000
10
324.5076200062
20
188.0348521616
30
0.0000000000
10
324.3471078542
20
188.1271091647
30
0.0000000000
10
324.2398168046
20
188.1889625995
30
0.0000000000
10
324.1860088085
20
188.2200286606
30
0.0000000000
11
324.6675432599
21
187.9432550661
31
0.0000000000
11
324.5080025747
21
188.0346781433
31
0.0000000000
11
324.3474926466
21
188.1269342175
31
0.0000000000
11
324.1860088085
21
188.2200286606
31
0.0000000000
0
SPLINE
5
2C0
100
AcDbEntity
8
0
100
AcDbSpline
62
7
6
CONTINUOUS
70
0
71
3
72
24
73
20
74
18
42
0.0000001000
43
0.0000001000
44
0.0000000001
40
0.0000000000
40
0.0000000000
40
0.0000000000
40
0.0000000000
40
0.0410118033
40
0.0820010935
40
0.1233242902
40
0.1863694520
40
0.2501116543
40
0.3137820318
40
0.3768495384
40
0.4389969223
40
0.5007105455
40
0.5625924273
40
0.6250001416
40
0.6881331315
40
0.7516644700
40
0.8151087528
40
0.8777488817
40
0.9593830711
40
1.0000000000
40
1.0000000000
40
1.0000000000
40
1.0000000000
10
324.1860088085
20
189.8925295858
30
0.0000000000
10
324.1861549224
20
190.0748509364
30
0.0000000000
10
324.1977077040
20
190.4394466671
30
0.0000000000
10
324.2497881744
20
190.9855614017
30
0.0000000000
10
324.3532339922
20
191.6238210353
30
0.0000000000
10
324.5329290310
20
192.3504676614
30
0.0000000000
10
324.8152549475
20
193.1501232480
30
0.0000000000
10
325.1775349117
20
193.9170442987
30
0.0000000000
10
325.6096032390
20
194.6385470883
30
0.0000000000
10
326.1052781338
20
195.3071681417
30
0.0000000000
10
326.6610513981
20
195.9195626886
30
0.0000000000
10
327.2740637593
20
196.4763543347
30
0.0000000000
10
327.9439234433
20
196.9740609119
30
0.0000000000
10
328.6661433808
20
197.4066156997
30
0.0000000000
10
329.4317387379
20
197.7678064304
30
0.0000000000
10
330.2279893698
20
198.0486259408
30
0.0000000000
10
331.1257151148
20
198.2704188710
30
0.0000000000
10
331.9434558929
20
198.3752019015
30
0.0000000000
10
332.4870392059
20
198.3925169421
30
0.0000000000
10
332.6675432599
20
198.3925295858
30
0.0000000000
11
324.1860088085
21
189.8925295858
31
0.0000000000
11
324.2034832176
21
190.4391786225
31
0.0000000000
11
324.2555534180
21
190.9833209730
31
0.0000000000
11
324.3436202710
21
191.5273195572
31
0.0000000000
11
324.5451451527
21
192.3435726300
31
0.0000000000
11
324.8287413133
21
193.1449288796
31
0.0000000000
11
325.1910134451
21
193.9128676737
31
0.0000000000
11
325.6232775181
21
194.6343455256
31
0.0000000000
11
326.1170454396
21
195.2999922993
31
0.0000000000
11
326.6699015871
21
195.9096541171
31
0.0000000000
11
327.2809068132
21
196.4643689464
31
0.0000000000
11
327.9489553995
21
196.9607258764
31
0.0000000000
11
328.6711459784
21
197.3934994952
31
0.0000000000
11
329.4375611555
21
197.7546552645
31
0.0000000000
11
330.2352786094
21
198.0366245554
31
0.0000000000
11
331.0463723391
21
198.2365115042
31
0.0000000000
11
332.1261558873
21
198.3752749066
31
0.0000000000
11
332.6675432599
21
198.3925295858
31
0.0000000000
0
SPLINE
5
2C1
100
AcDbEntity
8
0
100
AcDbSpline
62
7
6
CONTINUOUS
70
0
71
3
72
25
73
21
74
19
42
0.0000001000
43
0.0000001000
44
0.0000000001
40
0.0000000000
40
0.0000000000
40
0.0000000000
40
0.0000000000
40
0.0406928732
40
0.0814258312
40
0.1224884120
40
0.1851883552
40
0.2486741606
40
0.3122082063
40
0.3752983053
40
0.4376250731
40
0.4994555342
40
0.5612048668
40
0.6234230796
40
0.6865319319
40
0.7501970492
40
0.8138848433
40
0.8768504723
40
0.9181193657
40
0.9590519266
40
1.0000000000
40
1.0000000000
40
1.0000000000
40
1.0000000000
10
332.6675432599
20
198.3925295858
30
0.0000000000
10
332.8484584366
20
198.3924201959
30
0.0000000000
10
333.2105085562
20
198.3809329088
30
0.0000000000
10
333.7529385950
20
198.3291418953
30
0.0000000000
10
334.3874604014
20
198.2264474250
30
0.0000000000
10
335.1104165794
20
198.0476574293
30
0.0000000000
10
335.9069751148
20
197.7663293890
30
0.0000000000
10
336.6724346447
20
197.4047226472
30
0.0000000000
10
337.3940157177
20
196.9720979115
30
0.0000000000
10
338.0631611196
20
196.4746801556
30
0.0000000000
10
338.6756720343
20
195.9179187668
30
0.0000000000
10
339.2314099694
20
195.3051186248
30
0.0000000000
10
339.7273531119
20
194.6358299848
30
0.0000000000
10
340.1593630170
20
193.9136885753
30
0.0000000000
10
340.5212451731
20
193.1466323451
30
0.0000000000
10
340.8030665682
20
192.3474195340
30
0.0000000000
10
340.9823079417
20
191.6214933014
30
0.0000000000
10
341.0854726914
20
190.9840206108
30
0.0000000000
10
341.1374140081
20
190.4386509587
30
0.0000000000
10
341.1489348918
20
190.0745756240
30
0.0000000000
10
341.1490777113
20
189.8925295858
30
0.0000000000
11
332.6675432599
21
198.3925295858
31
0.0000000000
11
333.2099650832
21
198.3752088366
31
0.0000000000
11
333.7507257772
21
198.3234416547
31
0.0000000000
11
334.2913290263
21
198.2360029951
31
0.0000000000
11
335.1031549576
21
198.0356040881
31
0.0000000000
11
335.9013084904
21
197.7530983395
31
0.0000000000
11
336.6676066454
21
197.3915246462
31
0.0000000000
11
337.3891460120
21
196.9587071223
31
0.0000000000
11
338.0562095496
21
196.4627748000
31
0.0000000000
11
338.6665461316
21
195.9082911690
31
0.0000000000
11
339.2195477547
21
195.2980708482
31
0.0000000000
11
339.7137129965
21
194.6314985177
31
0.0000000000
11
340.1459700596
21
193.9093317568
31
0.0000000000
11
340.5078590667
21
193.1412496808
31
0.0000000000
11
340.7908972086
21
192.3404271087
31
0.0000000000
11
340.9918980285
21
191.5251001369
31
0.0000000000
11
341.0797262814
21
190.9817726672
31
0.0000000000
11
341.1316560775
21
190.4383533860
31
0.0000000000
11
341.1490777113
21
189.8925295858
31
0.0000000000
0
SPLINE
5
2C2
100
AcDbEntity
8
0
100
AcDbSpline
62
7
6
CONTINUOUS
70
0
71
3
72
10
73
6
74
4
42
0.0000001000
43
0.0000001000
44
0.0000000001
40
0.0000000000
40
0.0000000000
40
0.0000000000
40
0.0000000000
40
0.3310690370
40
0.6643981439
40
1.0000000000
40
1.0000000000
40
1.0000000000
40
1.0000000000
10
340.6675432599
20
187.9432550192
30
0.0000000000
10
340.7207438867
20
187.9736937620
30
0.0000000000
10
340.8274664926
20
188.0348521718
30
0.0000000000
10
340.9879786636
20
188.1271091571
30
0.0000000000
10
341.0952697137
20
188.1889625986
30
0.0000000000
10
341.1490777113
20
188.2200286606
30
0.0000000000
11
340.6675432599
21
187.9432550192
31
0.0000000000
11
340.8270839356
21
188.0346781379
31
0.0000000000
11
340.9875938685
21
188.1269342147
31
0.0000000000
11
341.1490777113
21
188.2200286606
31
0.0000000000
0
SPLINE
5
2C3
100
AcDbEntity
8
0
100
AcDbSpline
62
7
6
CONTINUOUS
70
0
71
3
72
10
73
6
74
4
42
0.0000001000
43
0.0000001000
44
0.0000000001
40
0.0000000000
40
0.0000000000
40
0.0000000000
40
0.0000000000
40
0.3310690286
40
0.6643981397
40
1.0000000000
40
1.0000000000
40
1.0000000000
40
1.0000000000
10
324.6675432599
20
181.7418041055
30
0.0000000000
10
324.6143426368
20
181.7113653644
30
0.0000000000
10
324.5076200062
20
181.6502070100
30
0.0000000000
10
324.3471078542
20
181.5579500069
30
0.0000000000
10
324.2398168046
20
181.4960965721
30
0.0000000000
10
324.1860088085
20
181.4650305110
30
0.0000000000
11
324.6675432599
21
181.7418041055
31
0.0000000000
11
324.5080025747
21
181.6503810283
31
0.0000000000
11
324.3474926466
21
181.5581249541
31
0.0000000000
11
324.1860088085
21
181.4650305110
31
0.0000000000
0
SPLINE
5
2C4
100
AcDbEntity
8
0
100
AcDbSpline
62
7
6
CONTINUOUS
70
0
71
3
72
10
73
6
74
4
42
0.0000001000
43
0.0000001000
44
0.0000000001
40
0.0000000000
40
0.0000000000
40
0.0000000000
40
0.0000000000
40
0.3310690370
40
0.6643981439
40
1.0000000000
40
1.0000000000
40
1.0000000000
40
1.0000000000
10
340.6675432599
20
181.7418041524
30
0.0000000000
10
340.7207438867
20
181.7113654096
30
0.0000000000
10
340.8274664926
20
181.6502069998
30
0.0000000000
10
340.9879786636
20
181.5579500145
30
0.0000000000
10
341.0952697137
20
181.4960965730
30
0.0000000000
10
341.1490777113
20
181.4650305110
30
0.0000000000
11
340.6675432599
21
181.7418041524
31
0.0000000000
11
340.8270839356
21
181.6503810337
31
0.0000000000
11
340.9875938685
21
181.5581249569
31
0.0000000000
11
341.1490777113
21
181.4650305110
31
0.0000000000
0
SPLINE
5
2C5
100
AcDbEntity
8
0
100
AcDbSpline
62
7
6
CONTINUOUS
70
0
71
3
72
19
73
15
74
13
42
0.0000001000
43
0.0000001000
44
0.0000000001
40
0.0000000000
40
0.0000000000
40
0.0000000000
40
0.0000000000
40
0.1327089070
40
0.2515249612
40
0.3586143032
40
0.4557773385
40
0.5442627942
40
0.6252071067
40
0.6994647865
40
0.7678317623
40
0.8307768118
40
0.8929441425
40
0.9500745282
40
1.0000000000
40
1.0000000000
40
1.0000000000
40
1.0000000000
10
325.1089119737
20
228.7425295858
30
0.0000000000
10
324.9929326363
20
228.7425295858
30
0.0000000000
10
324.7728539836
20
228.7586228172
30
0.0000000000
10
324.4648903420
20
228.8197785811
30
0.0000000000
10
324.1944541516
20
228.9022887201
30
0.0000000000
10
323.9566553073
20
228.9973335417
30
0.0000000000
10
323.7470578189
20
229.0995038370
30
0.0000000000
10
323.5622122728
20
229.2055869487
30
0.0000000000
10
323.3995173599
20
229.3140584396
30
0.0000000000
10
323.2576417912
20
229.4245876550
30
0.0000000000
10
323.1342955631
20
229.5407328872
30
0.0000000000
10
323.0340463261
20
229.6654397241
30
0.0000000000
10
322.9718924848
20
229.8030134775
30
0.0000000000
10
322.9715676591
20
229.8997504873
30
0.0000000000
10
322.9801522048
20
229.9425294077
30
0.0000000000
11
325.1089119737
21
228.7425295858
31
0.0000000000
11
324.7618335804
21
228.7669723595
31
0.0000000000
11
324.4561743380
21
228.8270815469
31
0.0000000000
11
324.1875351379
21
228.9087137236
31
0.0000000000
11
323.9509344686
21
229.0031293190
31
0.0000000000
11
323.7424077314
21
229.1048006447
31
0.0000000000
11
323.5584412531
21
229.2106025525
31
0.0000000000
11
323.3966827110
21
229.3189459376
31
0.0000000000
11
323.2557735851
21
229.4297320138
31
0.0000000000
11
323.1365685017
21
229.5438596175
31
0.0000000000
11
323.0371974789
21
229.6730552634
31
0.0000000000
11
322.9803514746
21
229.8116342803
31
0.0000000000
11
322.9801522048
21
229.9425294077
31
0.0000000000
0
SPLINE
5
2C6
100
AcDbEntity
8
0
100
AcDbSpline
62
7
6
CONTINUOUS
70
0
71
3
72
19
73
15
74
13
42
0.0000001000
43
0.0000001000
44
0.0000000001
40
0.0000000000
40
0.0000000000
40
0.0000000000
40
0.0000000000
40
0.0499879863
40
0.1072057546
40
0.1694605392
40
0.2325060147
40
0.3009944209
40
0.3753837899
40
0.4564533497
40
0.5450181490
40
0.6421689299
40
0.7491105333
40
0.8676540475
40
1.0000000000
40
1.0000000000
40
1.0000000000
40
1.0000000000
10
342.3549343149
20
229.9425293578
30
0.0000000000
10
342.3635296018
20
229.8996969110
30
0.0000000000
10
342.3631754227
20
229.8028170010
30
0.0000000000
10
342.3008334598
20
229.6650922918
30
0.0000000000
10
342.2003586278
20
229.5402605235
30
0.0000000000
10
342.0767553695
20
229.4239932626
30
0.0000000000
10
341.9345828481
20
229.3133424923
30
0.0000000000
10
341.7715591622
20
229.2047675976
30
0.0000000000
10
341.5864015180
20
229.0986373593
30
0.0000000000
10
341.3765919518
20
228.9965180592
30
0.0000000000
10
341.1387984836
20
228.9016502540
30
0.0000000000
10
340.8686752858
20
228.8194149715
30
0.0000000000
10
340.5613577576
20
228.7585380982
30
0.0000000000
10
340.3418365770
20
228.7425295858
30
0.0000000000
10
340.2261745461
20
228.7425295858
30
0.0000000000
11
342.3549343149
21
229.9425293578
31
0.0000000000
11
342.3547014916
21
229.8114705051
31
0.0000000000
11
342.2976825510
21
229.6727149815
31
0.0000000000
11
342.1980926228
21
229.5433986694
31
0.0000000000
11
342.0786378230
21
229.4291514118
31
0.0000000000
11
341.9374245159
21
229.3182374264
31
0.0000000000
11
341.7753251920
21
229.2097827712
31
0.0000000000
11
341.5910167318
21
229.1039172862
31
0.0000000000
11
341.3822421125
21
229.0022802812
31
0.0000000000
11
341.1456113123
21
228.9080276538
31
0.0000000000
11
340.8772935327
21
228.8266710371
31
0.0000000000
11
340.5723078806
21
228.7668413797
31
0.0000000000
11
340.2261745461
21
228.7425295858
31
0.0000000000
0
SPLINE
5
2C7
100
AcDbEntity
8
0
100
AcDbSpline
62
7
6
CONTINUOUS
70
0
71
3
72
25
73
21
74
19
42
0.0000001000
43
0.0000001000
44
0.0000000001
40
0.0000000000
40
0.0000000000
40
0.0000000000
40
0.0000000000
40
0.0554944111
40
0.1117479692
40
0.1680143994
40
0.2234216028
40
0.2781150582
40
0.3334233535
40
0.3895364426
40
0.4453067075
40
0.5000109990
40
0.5547465443
40
0.6106008410
40
0.6667052631
40
0.7219601780
40
0.7766150246
40
0.8321209876
40
0.8884387069
40
0.9446565317
40
1.0000000000
40
1.0000000000
40
1.0000000000
40
1.0000000000
10
328.4254830705
20
211.8634402325
30
0.0000000000
10
328.4269131048
20
212.1090866085
30
0.0000000000
10
328.4721342537
20
212.6047476960
30
0.0000000000
10
328.6721186154
20
213.3247884861
30
0.0000000000
10
328.9886238807
20
214.0013868372
30
0.0000000000
10
329.4148551615
20
214.6066788568
30
0.0000000000
10
329.9370630979
20
215.1251691156
30
0.0000000000
10
330.5440575193
20
215.5468344467
30
0.0000000000
10
331.2194652454
20
215.8584939749
30
0.0000000000
10
331.9356225915
20
216.0489680710
30
0.0000000000
10
332.6678195433
20
216.1132647933
30
0.0000000000
10
333.4003477760
20
216.0485388204
30
0.0000000000
10
334.1168946573
20
215.8577168444
30
0.0000000000
10
334.7923762415
20
215.5460199285
30
0.0000000000
10
335.3990711184
20
215.1247039392
30
0.0000000000
10
335.9212381731
20
214.6061061857
30
0.0000000000
10
336.3473138854
20
214.0000532502
30
0.0000000000
10
336.6633154927
20
213.3226900237
30
0.0000000000
10
336.8632105467
20
212.6032773899
30
0.0000000000
10
336.9082867304
20
212.1084190719
30
0.0000000000
10
336.9096034493
20
211.8634402325
30
0.0000000000
11
328.4254830705
21
211.8634402325
31
0.0000000000
11
328.4934774513
21
212.5972484141
31
0.0000000000
11
328.6916349853
21
213.3175204024
31
0.0000000000
11
329.0094421857
21
213.9937689882
31
0.0000000000
11
329.4332764820
21
214.5952310334
31
0.0000000000
11
329.9486371770
21
215.1070288632
31
0.0000000000
11
330.5517047237
21
215.5262787547
31
0.0000000000
11
331.2281464071
21
215.8388507528
31
0.0000000000
11
331.9439477747
21
216.0289528504
31
0.0000000000
11
332.6676742233
21
216.0919032092
31
0.0000000000
11
333.3917841648
21
216.0285730621
31
0.0000000000
11
334.1086042517
21
215.8379594493
31
0.0000000000
11
334.7849210363
21
215.5253915468
31
0.0000000000
11
335.3874365538
21
215.1065894714
31
0.0000000000
11
335.9023534870
21
214.5950724208
31
0.0000000000
11
336.3265330865
21
213.9922494944
31
0.0000000000
11
336.6440624497
21
213.3151180564
31
0.0000000000
11
336.8419661788
21
212.5952684152
31
0.0000000000
11
336.9096034493
21
211.8634402325
31
0.0000000000
0
SPLINE
5
2C8
100
AcDbEntity
8
0
100
AcDbSpline
62
7
6
CONTINUOUS
70
0
71
3
72
25
73
21
74
19
42
0.0000001000
43
0.0000001000
44
0.0000000001
40
0.0000000000
40
0.0000000000
40
0.0000000000
40
0.0000000000
40
0.0556392352
40
0.1117837440
40
0.1678887153
40
0.2230838095
40
0.2776242999
40
0.3328339599
40
0.3890500075
40
0.4450396647
40
0.5000146335
40
0.5550185531
40
0.6110824593
40
0.6672743306
40
0.7224132330
40
0.7769061726
40
0.8321910687
40
0.8883474770
40
0.9444720577
40
1.0000000000
40
1.0000000000
40
1.0000000000
40
1.0000000000
10
336.9096034493
20
211.8634402325
30
0.0000000000
10
336.9109361811
20
211.6154821449
30
0.0000000000
10
336.8712848438
20
211.1158011164
30
0.0000000000
10
336.6777899319
20
210.3892011166
30
0.0000000000
10
336.3649214837
20
209.7076142238
30
0.0000000000
10
335.9412508573
20
209.0972758735
30
0.0000000000
10
335.4199168262
20
208.5736995670
30
0.0000000000
10
334.8111029783
20
208.1469362256
30
0.0000000000
10
334.1310212921
20
207.8308519004
30
0.0000000000
10
333.4077792858
20
207.6370146625
30
0.0000000000
10
332.6672241893
20
207.5713249709
30
0.0000000000
10
331.9263793424
20
207.6374451845
30
0.0000000000
10
331.2028671667
20
207.8316081609
30
0.0000000000
10
330.5228811176
20
208.1476354160
30
0.0000000000
10
329.9144808452
20
208.5738754487
30
0.0000000000
10
329.3932306701
20
209.0973788570
30
0.0000000000
10
328.9696778060
20
209.7083521594
30
0.0000000000
10
328.6571749931
20
210.3906729069
30
0.0000000000
10
328.4636108652
20
211.1168585377
30
0.0000000000
10
328.4240424695
20
211.6159787443
30
0.0000000000
10
328.4254830705
20
211.8634402325
30
0.0000000000
11
336.9096034493
21
211.8634402325
31
0.0000000000
11
336.8493697867
21
211.1219978476
31
0.0000000000
11
336.6576383719
21
210.3962567860
31
0.0000000000
11
336.3438144952
21
209.7149475389
31
0.0000000000
11
335.9227557116
21
209.1089152152
31
0.0000000000
11
335.4082724715
21
208.5921634665
31
0.0000000000
11
334.8040182416
21
208.1682177649
31
0.0000000000
11
334.1226698569
21
207.8509446469
31
0.0000000000
11
333.3995500449
21
207.6574119689
31
0.0000000000
11
332.6673602450
21
207.5931559643
31
0.0000000000
11
331.9348157559
21
207.6577968881
31
0.0000000000
11
331.2107989568
21
207.8518175608
31
0.0000000000
11
330.5297559868
21
208.1689808473
31
0.0000000000
11
329.9262061598
21
208.5922833978
31
0.0000000000
11
329.4121842668
21
209.1085973598
31
0.0000000000
11
328.9907601153
21
209.7158376818
31
0.0000000000
11
328.6770982551
21
210.3979785270
31
0.0000000000
11
328.4854667957
21
211.1234704196
31
0.0000000000
11
328.4254830705
21
211.8634402325
31
0.0000000000
0
SPLINE
5
2C9
100
AcDbEntity
8
0
100
AcDbSpline
62
7
6
CONTINUOUS
70
0
71
3
72
10
73
6
74
4
42
0.0000001000
43
0.0000001000
44
0.0000000001
40
0.0000000000
40
0.0000000000
40
0.0000000000
40
0.0000000000
40
0.3344448048
40
0.6677774197
40
1.0000000000
40
1.0000000000
40
1.0000000000
40
1.0000000000
10
324.1860088085
20
177.3925295858
30
0.0000000000
10
324.2128499459
20
177.3656884483
30
0.0000000000
10
324.2664626818
20
177.3121151493
30
0.0000000000
10
324.3468075185
20
177.2319484590
30
0.0000000000
10
324.4003212755
20
177.1786330506
30
0.0000000000
10
324.4270435429
20
177.1520298688
30
0.0000000000
11
324.1860088085
21
177.3925295858
31
0.0000000000
11
324.2665619404
21
177.3120359040
31
0.0000000000
11
324.3469066957
21
177.2318694917
31
0.0000000000
11
324.4270435429
21
177.1520298688
31
0.0000000000
0
SPLINE
5
2CA
100
AcDbEntity
8
0
100
AcDbSpline
62
7
6
CONTINUOUS
70
0
71
3
72
11
73
7
74
5
42
0.0000001000
43
0.0000001000
44
0.0000000001
40
0.0000000000
40
0.0000000000
40
0.0000000000
40
0.0000000000
40
0.2103496697
40
0.4528728961
40
0.7180363192
40
1.0000000000
40
1.0000000000
40
1.0000000000
40
1.0000000000
10
322.5533032425
20
234.4955925466
30
0.0000000000
10
322.6605510251
20
234.4955925466
30
0.0000000000
10
322.8877225470
20
234.5527487812
30
0.0000000000
10
323.2410466797
20
234.6427165217
30
0.0000000000
10
323.6370680800
20
234.7197335318
30
0.0000000000
10
323.9160908878
20
234.7425295858
30
0.0000000000
10
324.0598514156
20
234.7425295858
30
0.0000000000
11
322.5533032425
21
234.4955925466
31
0.0000000000
11
322.8706501780
21
234.5485991910
31
0.0000000000
11
323.2310003462
21
234.6366632206
31
0.0000000000
11
323.6297301049
21
234.7109153138
31
0.0000000000
11
324.0598514156
21
234.7425295858
31
0.0000000000
0
SPLINE
5
2CB
100
AcDbEntity
8
0
100
AcDbSpline
62
7
6
CONTINUOUS
70
0
71
3
72
42
73
38
74
36
42
0.0000001000
43
0.0000001000
44
0.0000000001
40
0.0000000000
40
0.0000000000
40
0.0000000000
40
0.0000000000
40
0.0512008423
40
0.0979349116
40
0.1405589738
40
0.1794253524
40
0.2148757211
40
0.2473359662
40
0.2772803297
40
0.3047897278
40
0.3299125027
40
0.3528083841
40
0.3736986779
40
0.3928301429
40
0.4104392850
40
0.4267142518
40
0.4417244544
40
0.4550430093
40
0.4661834718
40
0.4792544350
40
0.4969921978
40
0.5171210261
40
0.5388483408
40
0.5619741993
40
0.5861846315
40
0.6109870202
40
0.6362514307
40
0.6623543078
40
0.6897153932
40
0.7187374396
40
0.7498154902
40
0.7833367718
40
0.8196782785
40
0.8592012868
40
0.9022419363
40
0.9490953684
40
1.0000000000
40
1.0000000000
40
1.0000000000
40
1.0000000000
10
322.4517965306
20
234.2716873141
30
0.0000000000
10
322.4262219566
20
234.2716873141
30
0.0000000000
10
322.3773026192
20
234.2721323240
30
0.0000000000
10
322.3071165693
20
234.2740421498
30
0.0000000000
10
322.2431300633
20
234.2769122176
30
0.0000000000
10
322.1848291254
20
234.2805506046
30
0.0000000000
10
322.1316624639
20
234.2848155988
30
0.0000000000
10
322.0830177879
20
234.2896158376
30
0.0000000000
10
322.0384141828
20
234.2948925363
30
0.0000000000
10
321.9975608238
20
234.3005984894
30
0.0000000000
10
321.9603249832
20
234.3066829366
30
0.0000000000
10
321.9265080827
20
234.3131201462
30
0.0000000000
10
321.8958225723
20
234.3199337715
30
0.0000000000
10
321.8679593855
20
234.3271940754
30
0.0000000000
10
321.8426634762
20
234.3350789101
30
0.0000000000
10
321.8198256415
20
234.3437619257
30
0.0000000000
10
321.7998536304
20
234.3538827801
30
0.0000000000
10
321.7837749001
20
234.3651499273
30
0.0000000000
10
321.7734870591
20
234.3833887232
30
0.0000000000
10
321.7861908320
20
234.4036559332
30
0.0000000000
10
321.8082471197
20
234.4160358242
30
0.0000000000
10
321.8358359422
20
234.4275656603
30
0.0000000000
10
321.8669129268
20
234.4369722360
30
0.0000000000
10
321.9004191676
20
234.4452399827
30
0.0000000000
10
321.9357311552
20
234.4524446453
30
0.0000000000
10
321.9722899008
20
234.4587898521
30
0.0000000000
10
322.0099210526
20
234.4644144944
30
0.0000000000
10
322.0489204884
20
234.4694759224
30
0.0000000000
10
322.0898637796
20
234.4740952990
30
0.0000000000
10
322.1333447026
20
234.4783431099
30
0.0000000000
10
322.1799462546
20
234.4822473781
30
0.0000000000
10
322.2302416592
20
234.4858015537
30
0.0000000000
10
322.2847889654
20
234.4889671855
30
0.0000000000
10
322.3441213198
20
234.4916739035
30
0.0000000000
10
322.4087307275
20
234.4938168432
30
0.0000000000
10
322.4790462375
20
234.4952514711
30
0.0000000000
10
322.5278766242
20
234.4955925466
30
0.0000000000
10
322.5533032425
20
234.4955925466
30
0.0000000000
11
322.4517965306
21
234.2716873141
31
0.0000000000
11
322.3750760696
21
234.2723946956
31
0.0000000000
11
322.3050720200
21
234.2743129787
31
0.0000000000
11
322.2412653512
21
234.2771909579
31
0.0000000000
11
322.1831388437
21
234.2808363685
31
0.0000000000
11
322.1301886513
21
234.2851036495
31
0.0000000000
11
322.0817846830
21
234.2899018747
31
0.0000000000
11
322.0372271263
21
234.2951979461
31
0.0000000000
11
321.9964049064
21
234.3009281764
31
0.0000000000
11
321.9592568041
21
234.3070313290
31
0.0000000000
11
321.9255602222
21
234.3134856268
31
0.0000000000
11
321.8950109291
21
234.3203170832
31
0.0000000000
11
321.8672864920
21
234.3276124682
31
0.0000000000
11
321.8421189056
21
234.3355414489
31
0.0000000000
11
321.8193984616
21
234.3444040857
31
0.0000000000
11
321.7994174144
21
234.3547323736
31
0.0000000000
11
321.7838539745
21
234.3672258763
31
0.0000000000
11
321.7769738043
21
234.3824359701
31
0.0000000000
11
321.7854994065
21
234.4000697713
31
0.0000000000
11
321.8074605455
21
234.4150428519
31
0.0000000000
11
321.8352439632
21
234.4267848147
31
0.0000000000
11
321.8663168209
21
234.4365061954
31
0.0000000000
11
321.8999421434
21
234.4448859976
31
0.0000000000
11
321.9354735820
21
234.4522127605
31
0.0000000000
11
321.9720852344
21
234.4586080732
31
0.0000000000
11
322.0095232560
21
234.4642338630
31
0.0000000000
11
322.0483099517
21
234.4692894102
31
0.0000000000
11
322.0890496759
21
234.4739035770
31
0.0000000000
11
322.1323312692
21
234.4781470407
31
0.0000000000
11
322.1787375730
21
234.4820484208
31
0.0000000000
11
322.2288429158
21
234.4856013985
31
0.0000000000
11
322.2832080177
21
234.4887675895
31
0.0000000000
11
322.3423706931
21
234.4914764280
31
0.0000000000
11
322.4068307710
21
234.4936224562
31
0.0000000000
11
322.4770252486
21
234.4950597328
31
0.0000000000
11
322.5533032425
21
234.4955925466
31
0.0000000000
0
SPLINE
5
2CC
100
AcDbEntity
8
0
100
AcDbSpline
62
7
6
CONTINUOUS
70
0
71
3
72
10
73
6
74
4
42
0.0000001000
43
0.0000001000
44
0.0000000001
40
0.0000000000
40
0.0000000000
40
0.0000000000
40
0.0000000000
40
0.3344448048
40
0.6677774197
40
1.0000000000
40
1.0000000000
40
1.0000000000
40
1.0000000000
10
341.1490777113
20
177.3925295858
30
0.0000000000
10
341.1222365739
20
177.3656884483
30
0.0000000000
10
341.0686238380
20
177.3121151493
30
0.0000000000
10
340.9882790012
20
177.2319484590
30
0.0000000000
10
340.9347652442
20
177.1786330506
30
0.0000000000
10
340.9080429769
20
177.1520298688
30
0.0000000000
11
341.1490777113
21
177.3925295858
31
0.0000000000
11
341.0685245793
21
177.3120359040
31
0.0000000000
11
340.9881798241
21
177.2318694917
31
0.0000000000
11
340.9080429769
21
177.1520298688
31
0.0000000000
0
SPLINE
5
2CD
100
AcDbEntity
8
0
100
AcDbSpline
62
7
6
CONTINUOUS
70
0
71
3
72
10
73
6
74
4
42
0.0000001000
43
0.0000001000
44
0.0000000001
40
0.0000000000
40
0.0000000000
40
0.0000000000
40
0.0000000000
40
0.3309731504
40
0.6643025440
40
1.0000000000
40
1.0000000000
40
1.0000000000
40
1.0000000000
10
308.9821046952
20
176.8925295858
30
0.0000000000
10
308.9101620133
20
176.9474971333
30
0.0000000000
10
308.7658653758
20
177.0579556762
30
0.0000000000
10
308.5489497661
20
177.2246237540
30
0.0000000000
10
308.4040256795
20
177.3363868004
30
0.0000000000
10
308.3313562126
20
177.3925295858
30
0.0000000000
11
308.9821046952
21
176.8925295858
31
0.0000000000
11
308.7664265969
21
177.0576282980
31
0.0000000000
11
308.5495126556
21
177.2242930253
31
0.0000000000
11
308.3313562126
21
177.3925295858
31
0.0000000000
0
SPLINE
5
2CE
100
AcDbEntity
8
0
100
AcDbSpline
62
7
6
CONTINUOUS
70
0
71
3
72
10
73
6
74
4
42
0.0000001000
43
0.0000001000
44
0.0000000001
40
0.0000000000
40
0.0000000000
40
0.0000000000
40
0.0000000000
40
0.3466607978
40
0.6798362029
40
1.0000000000
40
1.0000000000
40
1.0000000000
40
1.0000000000
10
308.3313562126
20
181.4650305110
30
0.0000000000
10
308.7311717798
20
181.6433673454
30
0.0000000000
10
309.5165451300
20
181.9902104361
30
0.0000000000
10
310.6758241563
20
182.4911430084
30
0.0000000000
10
311.4359741532
20
182.8119993922
30
0.0000000000
10
311.8091873311
20
182.9675295858
30
0.0000000000
11
308.3313562126
21
181.4650305110
31
0.0000000000
11
309.5328381183
21
181.9954547363
31
0.0000000000
11
310.6916227632
21
182.4959907301
31
0.0000000000
11
311.8091873311
21
182.9675295858
31
0.0000000000
0
SPLINE
5
2CF
100
AcDbEntity
8
0
100
AcDbSpline
62
7
6
CONTINUOUS
70
0
71
3
72
10
73
6
74
4
42
0.0000001000
43
0.0000001000
44
0.0000000001
40
0.0000000000
40
0.0000000000
40
0.0000000000
40
0.0000000000
40
0.3466607978
40
0.6798362029
40
1.0000000000
40
1.0000000000
40
1.0000000000
40
1.0000000000
10
308.3313562126
20
188.2200286606
30
0.0000000000
10
308.7311717798
20
188.0416918262
30
0.0000000000
10
309.5165451300
20
187.6948487355
30
0.0000000000
10
310.6758241563
20
187.1939161632
30
0.0000000000
10
311.4359741532
20
186.8730597794
30
0.0000000000
10
311.8091873311
20
186.7175295858
30
0.0000000000
11
308.3313562126
21
188.2200286606
31
0.0000000000
11
309.5328381183
21
187.6896044353
31
0.0000000000
11
310.6916227632
21
187.1890684414
31
0.0000000000
11
311.8091873311
21
186.7175295858
31
0.0000000000
0
SPLINE
5
2D0
100
AcDbEntity
8
0
100
AcDbSpline
62
7
6
CONTINUOUS
70
0
71
3
72
12
73
8
74
6
42
0.0000001000
43
0.0000001000
44
0.0000000001
40
0.0000000000
40
0.0000000000
40
0.0000000000
40
0.0000000000
40
0.2406431073
40
0.4549823775
40
0.6477483295
40
0.8260406743
40
1.0000000000
40
1.0000000000
40
1.0000000000
40
1.0000000000
10
323.5748717706
20
233.7425295858
30
0.0000000000
10
323.4873959737
20
233.7913813056
30
0.0000000000
10
323.3221830062
20
233.8840883304
30
0.0000000000
10
323.0869991922
20
234.0159747615
30
0.0000000000
10
322.8723930515
20
234.1319120823
30
0.0000000000
10
322.6697830321
20
234.2329811352
30
0.0000000000
10
322.5242249188
20
234.2716873141
30
0.0000000000
10
322.4517965306
20
234.2716873141
30
0.0000000000
11
323.5748717706
21
233.7425295858
31
0.0000000000
11
323.3126367238
21
233.8894286339
31
0.0000000000
11
323.0787691497
21
234.0197399634
31
0.0000000000
11
322.8665712560
21
234.1335160617
31
0.0000000000
11
322.6644296472
21
234.2269659487
31
0.0000000000
11
322.4517965306
21
234.2716873141
31
0.0000000000
0
SPLINE
5
2D1
100
AcDbEntity
8
0
100
AcDbSpline
62
7
6
CONTINUOUS
70
0
71
3
72
9
73
5
74
3
42
0.0000001000
43
0.0000001000
44
0.0000000001
40
0.0000000000
40
0.0000000000
40
0.0000000000
40
0.0000000000
40
0.4986953575
40
1.0000000000
40
1.0000000000
40
1.0000000000
40
1.0000000000
10
323.5378237063
20
233.6025767164
30
0.0000000000
10
323.5407687161
20
233.6265142801
30
0.0000000000
10
323.5501779487
20
233.6741373454
30
0.0000000000
10
323.5657769135
20
233.7200559013
30
0.0000000000
10
323.5748717706
20
233.7425295858
30
0.0000000000
11
323.5378237063
21
233.6025767164
31
0.0000000000
11
323.5516927655
21
233.6735891768
31
0.0000000000
11
323.5748717706
21
233.7425295858
31
0.0000000000
0
SPLINE
5
2D2
100
AcDbEntity
8
0
100
AcDbSpline
62
7
6
CONTINUOUS
70
0
71
3
72
9
73
5
74
3
42
0.0000001000
43
0.0000001000
44
0.0000000001
40
0.0000000000
40
0.0000000000
40
0.0000000000
40
0.0000000000
40
0.5017840826
40
1.0000000000
40
1.0000000000
40
1.0000000000
40
1.0000000000
10
341.7602147492
20
233.7425295858
30
0.0000000000
10
341.7693183059
20
233.7200344043
30
0.0000000000
10
341.7849148526
20
233.6741146063
30
0.0000000000
10
341.7943206345
20
233.6264912705
30
0.0000000000
10
341.7972628135
20
233.6025767164
30
0.0000000000
11
341.7602147492
21
233.7425295858
31
0.0000000000
11
341.7834117479
21
233.6735218278
31
0.0000000000
11
341.7972628135
21
233.6025767164
31
0.0000000000
0
SPLINE
5
2D3
100
AcDbEntity
8
0
100
AcDbSpline
62
7
6
CONTINUOUS
70
0
71
3
72
12
73
8
74
6
42
0.0000001000
43
0.0000001000
44
0.0000000001
40
0.0000000000
40
0.0000000000
40
0.0000000000
40
0.0000000000
40
0.1781044073
40
0.3536410299
40
0.5419001839
40
0.7538684878
40
1.0000000000
40
1.0000000000
40
1.0000000000
40
1.0000000000
10
342.8832899892
20
234.2716873141
30
0.0000000000
10
342.8091391335
20
234.2716873141
30
0.0000000000
10
342.6631234677
20
234.2319174778
30
0.0000000000
10
342.4618002755
20
234.1314080375
30
0.0000000000
10
342.2506967399
20
234.0174006185
30
0.0000000000
10
342.0160145198
20
233.8858444600
30
0.0000000000
10
341.8496815888
20
233.7924932230
30
0.0000000000
10
341.7602147492
20
233.7425295858
30
0.0000000000
11
342.8832899892
21
234.2716873141
31
0.0000000000
11
342.6657748871
21
234.2250791065
31
0.0000000000
11
342.4669388469
21
234.1327060838
31
0.0000000000
11
342.2597054622
21
234.0216061529
31
0.0000000000
11
342.0284176534
21
233.8927738072
31
0.0000000000
11
341.7602147492
21
233.7425295858
31
0.0000000000
0
SPLINE
5
2D4
100
AcDbEntity
8
0
100
AcDbSpline
62
7
6
CONTINUOUS
70
0
71
3
72
39
73
35
74
33
42
0.0000001000
43
0.0000001000
44
0.0000000001
40
0.0000000000
40
0.0000000000
40
0.0000000000
40
0.0000000000
40
0.0527943041
40
0.1016475155
40
0.1469033210
40
0.1889341118
40
0.2281372096
40
0.2648861680
40
0.2993892592
40
0.3317176929
40
0.3619787502
40
0.3903095233
40
0.4169062275
40
0.4418867354
40
0.4652848994
40
0.4873116105
40
0.5077550797
40
0.5252817742
40
0.5385782725
40
0.5526454619
40
0.5692155122
40
0.5874730706
40
0.6073705285
40
0.6290996050
40
0.6529302450
40
0.6791369473
40
0.7079394259
40
0.7394457579
40
0.7736208532
40
0.8109006089
40
0.8517850343
40
0.8966734857
40
0.9459487960
40
1.0000000000
40
1.0000000000
40
1.0000000000
40
1.0000000000
10
342.7817832773
20
234.4955925466
30
0.0000000000
10
342.8081471909
20
234.4955925466
30
0.0000000000
10
342.8589077390
20
234.4952250044
30
0.0000000000
10
342.9322525605
20
234.4936704075
30
0.0000000000
10
343.0001981004
20
234.4913188970
30
0.0000000000
10
343.0632928098
20
234.4882961495
30
0.0000000000
10
343.1221007869
20
234.4846808097
30
0.0000000000
10
343.1771033863
20
234.4805166510
30
0.0000000000
10
343.2286175604
20
234.4758273826
30
0.0000000000
10
343.2768255097
20
234.4706254187
30
0.0000000000
10
343.3218694257
20
234.4649066491
30
0.0000000000
10
343.3639506532
20
234.4586352445
30
0.0000000000
10
343.4032526134
20
234.4517282457
30
0.0000000000
10
343.4399260981
20
234.4440690661
30
0.0000000000
10
343.4739523513
20
234.4353709322
30
0.0000000000
10
343.5055106656
20
234.4254164290
30
0.0000000000
10
343.5323606081
20
234.4130559090
30
0.0000000000
10
343.5555690298
20
234.3991203215
30
0.0000000000
10
343.5598480480
20
234.3733374021
30
0.0000000000
10
343.5415633936
20
234.3577550206
30
0.0000000000
10
343.5207031301
20
234.3460503895
30
0.0000000000
10
343.4950739353
20
234.3359116210
30
0.0000000000
10
343.4665794247
20
234.3269798540
30
0.0000000000
10
343.4348895460
20
234.3188467631
30
0.0000000000
10
343.3998485210
20
234.3113226966
30
0.0000000000
10
343.3611009272
20
234.3043060026
30
0.0000000000
10
343.3183891019
20
234.2977802070
30
0.0000000000
10
343.2715847774
20
234.2917847826
30
0.0000000000
10
343.2204517542
20
234.2863652110
30
0.0000000000
10
343.1645538470
20
234.2815782116
30
0.0000000000
10
343.1032360882
20
234.2775112811
30
0.0000000000
10
343.0358690498
20
234.2743103420
30
0.0000000000
10
342.9618813263
20
234.2721825629
30
0.0000000000
10
342.9102815614
20
234.2716873141
30
0.0000000000
10
342.8832899892
20
234.2716873141
30
0.0000000000
11
342.7817832773
21
234.4955925466
31
0.0000000000
11
342.8608729438
21
234.4950197255
31
0.0000000000
11
342.9340439244
21
234.4934626695
31
0.0000000000
11
343.0018012453
21
234.4911077570
31
0.0000000000
11
343.0646952993
21
234.4880818764
31
0.0000000000
11
343.1233142888
21
234.4844628085
31
0.0000000000
11
343.1782098340
21
234.4802884697
31
0.0000000000
11
343.2296844956
21
234.4755809849
31
0.0000000000
11
343.2778337413
21
234.4703590045
31
0.0000000000
11
343.3228031539
21
234.4646177062
31
0.0000000000
11
343.3647760117
21
234.4583202677
31
0.0000000000
11
343.4040104955
21
234.4513729592
31
0.0000000000
11
343.4406246301
21
234.4436315456
31
0.0000000000
11
343.4745648009
21
234.4348690513
31
0.0000000000
11
343.5059083380
21
234.4245500747
31
0.0000000000
11
343.5337229209
21
234.4117306724
31
0.0000000000
11
343.5539223924
21
234.3949554482
31
0.0000000000
11
343.5564697261
21
234.3751993632
31
0.0000000000
11
343.5425375648
21
234.3593874244
31
0.0000000000
11
343.5210944081
21
234.3468809850
31
0.0000000000
11
343.4957764091
21
234.3365309694
31
0.0000000000
11
343.4673719827
21
234.3274898681
31
0.0000000000
11
343.4358641426
21
234.3193090318
31
0.0000000000
11
343.4009722659
21
234.3117516008
31
0.0000000000
11
343.3623489950
21
234.3047064490
31
0.0000000000
11
343.3197008789
21
234.2981488761
31
0.0000000000
11
343.2728878150
21
234.2921176120
31
0.0000000000
11
343.2219779637
21
234.2866924917
31
0.0000000000
11
343.1663345902
21
234.2819018224
31
0.0000000000
11
343.1052209491
21
234.2778257913
31
0.0000000000
11
343.0380497822
21
234.2746143151
31
0.0000000000
11
342.9642608664
21
234.2724758452
31
0.0000000000
11
342.8832899892
21
234.2716873141
31
0.0000000000
0
SPLINE
5
2D5
100
AcDbEntity
8
0
100
AcDbSpline
62
7
6
CONTINUOUS
70
0
71
3
72
10
73
6
74
4
42
0.0000001000
43
0.0000001000
44
0.0000000001
40
0.0000000000
40
0.0000000000
40
0.0000000000
40
0.0000000000
40
0.3699231998
40
0.7021214030
40
1.0000000000
40
1.0000000000
40
1.0000000000
40
1.0000000000
10
341.7972628135
20
233.6025767164
30
0.0000000000
10
341.8530184075
20
233.1493853332
30
0.0000000000
10
341.9647420047
20
232.2899122220
30
0.0000000000
10
342.1471731945
20
231.0690698422
30
0.0000000000
10
342.2825930112
20
230.3030240501
30
0.0000000000
10
342.3549342715
20
229.9425295858
30
0.0000000000
11
341.7972628135
21
233.6025767164
31
0.0000000000
11
341.9752876909
21
232.2443693730
31
0.0000000000
11
342.1591254888
21
231.0280546067
31
0.0000000000
11
342.3549342715
21
229.9425295858
31
0.0000000000
0
ENDSEC
0
SECTION
2
OBJECTS
0
DICTIONARY
5
2D6
100
AcDbDictionary
3
ACAD_GROUP
350
2D7
3
ACAD_MLINESTYLE
350
2D8
0
DICTIONARY
5
2D7
102
{ACAD_REACTORS
330
2D6
102
}
100
AcDbDictionary
0
DICTIONARY
5
2D8
102
{ACAD_REACTORS
330
2D6
102
}
100
AcDbDictionary
3
STANDARD
350
2D9
0
MLINESTYLE
5
2D9
102
{ACAD_REACTORS
330
2D8
102
}
100
AcDbMlineStyle
2
STANDARD
70
0
3

62
256
51
90.0
52
90.0
71
2
49
0.5
62
256
6
BYLAYER
49
-0.5
62
256
6
BYLAYER
0
ENDSEC
0
EOF
