  0
SECTION
  2
HEADER
  9
$ACADVER
  1
AC1027
  9
$ACADMAINTVER
 70
   125
  9
$DWGCODEPAGE
  3
ANSI_1252
  9
$LASTSAVEDBY
  1
046
  9
$REQUIREDVERSIONS
160
                 0
  9
$INSBASE
 10
0.0
 20
0.0
 30
0.0
  9
$EXTMIN
 10
-0.0064082024693448
 20
-0.0090630292066862
 30
-0.0015258207003583
  9
$EXTMAX
 10
210.0064091803581
 20
297.0090644122207
 30
0.0000000349246037
  9
$LIMMIN
 10
0.0
 20
0.0
  9
$LIMMAX
 10
210.0
 20
297.0
  9
$ORTHOMODE
 70
     0
  9
$REGENMODE
 70
     1
  9
$FILLMODE
 70
     1
  9
$QTEXTMODE
 70
     0
  9
$MIRRTEXT
 70
     0
  9
$LTSCALE
 40
19.36
  9
$ATTMODE
 70
     1
  9
$TEXTSIZE
 40
0.2
  9
$TRACEWID
 40
0.05
  9
$TEXTSTYLE
  7
STANDARD
  9
$CLAYER
  8
0
  9
$CELTYPE
  6
BYLAYER
  9
$CECOLOR
 62
   256
  9
$CELTSCALE
 40
1.0
  9
$DISPSILH
 70
     0
  9
$DIMSCALE
 40
1.0
  9
$DIMASZ
 40
4.759999999999999
  9
$DIMEXO
 40
0.1
  9
$DIMDLI
 40
13.376
  9
$DIMRND
 40
0.0
  9
$DIMDLE
 40
0.0
  9
$DIMEXE
 40
1.0
  9
$DIMTP
 40
0.01
  9
$DIMTM
 40
0.01
  9
$DIMTXT
 40
3.0
  9
$DIMCEN
 40
3.168
  9
$DIMTSZ
 40
0.0
  9
$DIMTOL
 70
     1
  9
$DIMLIM
 70
     0
  9
$DIMTIH
 70
     1
  9
$DIMTOH
 70
     1
  9
$DIMSE1
 70
     0
  9
$DIMSE2
 70
     0
  9
$DIMTAD
 70
     0
  9
$DIMZIN
 70
     0
  9
$DIMBLK
  1
_FILLED
  9
$DIMASO
 70
     1
  9
$DIMSHO
 70
     1
  9
$DIMPOST
  1

  9
$DIMAPOST
  1

  9
$DIMALT
 70
     0
  9
$DIMALTD
 70
     2
  9
$DIMALTF
 40
0.0393700787
  9
$DIMLFAC
 40
1.0
  9
$DIMTOFL
 70
     0
  9
$DIMTVP
 40
0.0
  9
$DIMTIX
 70
     0
  9
$DIMSOXD
 70
     0
  9
$DIMSAH
 70
     0
  9
$DIMBLK1
  1

  9
$DIMBLK2
  1

  9
$DIMSTYLE
  2
STANDARD
  9
$DIMCLRD
 70
     0
  9
$DIMCLRE
 70
     0
  9
$DIMCLRT
 70
     0
  9
$DIMTFAC
 40
1.0
  9
$DIMGAP
 40
0.625
  9
$DIMJUST
 70
     0
  9
$DIMSD1
 70
     0
  9
$DIMSD2
 70
     0
  9
$DIMTOLJ
 70
     1
  9
$DIMTZIN
 70
     0
  9
$DIMALTZ
 70
     0
  9
$DIMALTTZ
 70
     0
  9
$DIMUPT
 70
     0
  9
$DIMDEC
 70
     4
  9
$DIMTDEC
 70
     4
  9
$DIMALTU
 70
     2
  9
$DIMALTTD
 70
     2
  9
$DIMTXSTY
  7
STANDARD
  9
$DIMAUNIT
 70
     0
  9
$DIMADEC
 70
     0
  9
$DIMALTRND
 40
0.0
  9
$DIMAZIN
 70
     0
  9
$DIMDSEP
 70
    46
  9
$DIMATFIT
 70
     3
  9
$DIMFRAC
 70
     0
  9
$DIMLDRBLK
  1

  9
$DIMLUNIT
 70
     2
  9
$DIMLWD
 70
    -2
  9
$DIMLWE
 70
    -2
  9
$DIMTMOVE
 70
     0
  9
$DIMFXL
 40
1.0
  9
$DIMFXLON
 70
     0
  9
$DIMJOGANG
 40
0.7853981633974483
  9
$DIMTFILL
 70
     0
  9
$DIMTFILLCLR
 70
     0
  9
$DIMARCSYM
 70
     0
  9
$DIMLTYPE
  6

  9
$DIMLTEX1
  6

  9
$DIMLTEX2
  6

  9
$DIMTXTDIRECTION
 70
     0
  9
$LUNITS
 70
     2
  9
$LUPREC
 70
     4
  9
$SKETCHINC
 40
0.1
  9
$FILLETRAD
 40
0.0
  9
$AUNITS
 70
     0
  9
$AUPREC
 70
     0
  9
$MENU
  1
.
  9
$ELEVATION
 40
0.0
  9
$PELEVATION
 40
0.0
  9
$THICKNESS
 40
0.0
  9
$LIMCHECK
 70
     0
  9
$CHAMFERA
 40
0.0
  9
$CHAMFERB
 40
0.0
  9
$CHAMFERC
 40
0.0
  9
$CHAMFERD
 40
0.0
  9
$SKPOLY
 70
     0
  9
$TDCREATE
 40
2459376.364201389
  9
$TDUCREATE
 40
2459376.280868056
  9
$TDUPDATE
 40
2459376.365208334
  9
$TDUUPDATE
 40
2459376.281875000
  9
$TDINDWG
 40
0.0010069444
  9
$TDUSRTIMER
 40
0.0010069444
  9
$USRTIMER
 70
     1
  9
$ANGBASE
 50
0.0
  9
$ANGDIR
 70
     0
  9
$PDMODE
 70
     3
  9
$PDSIZE
 40
0.3125
  9
$PLINEWID
 40
0.0
  9
$SPLFRAME
 70
     0
  9
$SPLINETYPE
 70
     6
  9
$SPLINESEGS
 70
     8
  9
$HANDSEED
  5
3CF
  9
$SURFTAB1
 70
     6
  9
$SURFTAB2
 70
     6
  9
$SURFTYPE
 70
     6
  9
$SURFU
 70
     6
  9
$SURFV
 70
     6
  9
$UCSBASE
  2

  9
$UCSNAME
  2

  9
$UCSORG
 10
0.0
 20
0.0
 30
0.0
  9
$UCSXDIR
 10
1.0
 20
0.0
 30
0.0
  9
$UCSYDIR
 10
0.0
 20
1.0
 30
0.0
  9
$UCSORTHOREF
  2

  9
$UCSORTHOVIEW
 70
     0
  9
$UCSORGTOP
 10
0.0
 20
0.0
 30
0.0
  9
$UCSORGBOTTOM
 10
0.0
 20
0.0
 30
0.0
  9
$UCSORGLEFT
 10
0.0
 20
0.0
 30
0.0
  9
$UCSORGRIGHT
 10
0.0
 20
0.0
 30
0.0
  9
$UCSORGFRONT
 10
0.0
 20
0.0
 30
0.0
  9
$UCSORGBACK
 10
0.0
 20
0.0
 30
0.0
  9
$PUCSBASE
  2

  9
$PUCSNAME
  2

  9
$PUCSORG
 10
0.0
 20
0.0
 30
0.0
  9
$PUCSXDIR
 10
1.0
 20
0.0
 30
0.0
  9
$PUCSYDIR
 10
0.0
 20
1.0
 30
0.0
  9
$PUCSORTHOREF
  2

  9
$PUCSORTHOVIEW
 70
     0
  9
$PUCSORGTOP
 10
0.0
 20
0.0
 30
0.0
  9
$PUCSORGBOTTOM
 10
0.0
 20
0.0
 30
0.0
  9
$PUCSORGLEFT
 10
0.0
 20
0.0
 30
0.0
  9
$PUCSORGRIGHT
 10
0.0
 20
0.0
 30
0.0
  9
$PUCSORGFRONT
 10
0.0
 20
0.0
 30
0.0
  9
$PUCSORGBACK
 10
0.0
 20
0.0
 30
0.0
  9
$USERI1
 70
     0
  9
$USERI2
 70
     0
  9
$USERI3
 70
     0
  9
$USERI4
 70
     0
  9
$USERI5
 70
     0
  9
$USERR1
 40
0.0
  9
$USERR2
 40
0.0
  9
$USERR3
 40
0.0
  9
$USERR4
 40
0.0
  9
$USERR5
 40
0.0
  9
$WORLDVIEW
 70
     1
  9
$SHADEDGE
 70
     3
  9
$SHADEDIF
 70
    70
  9
$TILEMODE
 70
     1
  9
$MAXACTVP
 70
    64
  9
$PINSBASE
 10
0.0
 20
0.0
 30
0.0
  9
$PLIMCHECK
 70
     0
  9
$PEXTMIN
 10
1.000000000000000E+20
 20
1.000000000000000E+20
 30
1.000000000000000E+20
  9
$PEXTMAX
 10
-1.000000000000000E+20
 20
-1.000000000000000E+20
 30
-1.000000000000000E+20
  9
$PLIMMIN
 10
0.0
 20
0.0
  9
$PLIMMAX
 10
12.0
 20
9.0
  9
$UNITMODE
 70
     0
  9
$VISRETAIN
 70
     1
  9
$PLINEGEN
 70
     0
  9
$PSLTSCALE
 70
     1
  9
$TREEDEPTH
 70
  3020
  9
$CMLSTYLE
  2
Standard
  9
$CMLJUST
 70
     0
  9
$CMLSCALE
 40
1.0
  9
$PROXYGRAPHICS
 70
     1
  9
$MEASUREMENT
 70
     1
  9
$CELWEIGHT
370
    -1
  9
$ENDCAPS
280
     0
  9
$JOINSTYLE
280
     0
  9
$LWDISPLAY
290
     0
  9
$INSUNITS
 70
     4
  9
$HYPERLINKBASE
  1

  9
$STYLESHEET
  1

  9
$XEDIT
290
     1
  9
$CEPSNTYPE
380
     0
  9
$PSTYLEMODE
290
     1
  9
$FINGERPRINTGUID
  2
{B974C2E8-4FFF-C341-969B-23242BD272C7}
  9
$VERSIONGUID
  2
{0F815A19-0FB8-814D-8BE8-29B61487CB22}
  9
$EXTNAMES
290
     1
  9
$PSVPSCALE
 40
0.0
  9
$OLESTARTUP
290
     0
  9
$SORTENTS
280
   127
  9
$INDEXCTL
280
     0
  9
$HIDETEXT
280
     1
  9
$XCLIPFRAME
280
     2
  9
$HALOGAP
280
     0
  9
$OBSCOLOR
 70
   257
  9
$OBSLTYPE
280
     0
  9
$INTERSECTIONDISPLAY
280
     0
  9
$INTERSECTIONCOLOR
 70
   257
  9
$DIMASSOC
280
     2
  9
$PROJECTNAME
  1

  9
$CAMERADISPLAY
290
     0
  9
$LENSLENGTH
 40
50.0
  9
$CAMERAHEIGHT
 40
0.0
  9
$STEPSPERSEC
 40
2.0
  9
$STEPSIZE
 40
6.0
  9
$3DDWFPREC
 40
2.0
  9
$PSOLWIDTH
 40
0.25
  9
$PSOLHEIGHT
 40
4.0
  9
$LOFTANG1
 40
1.570796326794896
  9
$LOFTANG2
 40
1.570796326794896
  9
$LOFTMAG1
 40
0.0
  9
$LOFTMAG2
 40
0.0
  9
$LOFTPARAM
 70
     7
  9
$LOFTNORMALS
280
     1
  9
$LATITUDE
 40
37.795
  9
$LONGITUDE
 40
-122.394
  9
$NORTHDIRECTION
 40
0.0
  9
$TIMEZONE
 70
 -8000
  9
$LIGHTGLYPHDISPLAY
280
     1
  9
$TILEMODELIGHTSYNCH
280
     1
  9
$CMATERIAL
347
34A
  9
$SOLIDHIST
280
     0
  9
$SHOWHIST
280
     1
  9
$DWFFRAME
280
     2
  9
$DGNFRAME
280
     0
  9
$REALWORLDSCALE
290
     1
  9
$INTERFERECOLOR
 62
     1
  9
$INTERFEREOBJVS
345
36C
  9
$INTERFEREVPVS
346
369
  9
$CSHADOW
280
     0
  9
$SHADOWPLANELOCATION
 40
0.0
  0
ENDSEC
  0
SECTION
  2
CLASSES
  0
CLASS
  1
ACDBDICTIONARYWDFLT
  2
AcDbDictionaryWithDefault
  3
ObjectDBX Classes
 90
        0
 91
        1
280
     0
281
     0
  0
CLASS
  1
TABLESTYLE
  2
AcDbTableStyle
  3
ObjectDBX Classes
 90
     4095
 91
        2
280
     0
281
     0
  0
CLASS
  1
ACAD_TABLE
  2
AcDbTable
  3
ObjectDBX Classes
 90
     1025
 91
        1
280
     0
281
     1
  0
CLASS
  1
MATERIAL
  2
AcDbMaterial
  3
ObjectDBX Classes
 90
     1153
 91
        3
280
     0
281
     0
  0
CLASS
  1
VISUALSTYLE
  2
AcDbVisualStyle
  3
ObjectDBX Classes
 90
     4095
 91
       24
280
     0
281
     0
  0
CLASS
  1
SCALE
  2
AcDbScale
  3
ObjectDBX Classes
 90
     1153
 91
       17
280
     0
281
     0
  0
CLASS
  1
MLEADERSTYLE
  2
AcDbMLeaderStyle
  3
ACDB_MLEADERSTYLE_CLASS
 90
     4095
 91
        1
280
     0
281
     0
  0
CLASS
  1
ACDBSECTIONVIEWSTYLE
  2
AcDbSectionViewStyle
  3
ObjectDBX Classes
 90
     1025
 91
        1
280
     0
281
     0
  0
CLASS
  1
ACDBDETAILVIEWSTYLE
  2
AcDbDetailViewStyle
  3
ObjectDBX Classes
 90
     1025
 91
        1
280
     0
281
     0
  0
CLASS
  1
DICTIONARYVAR
  2
AcDbDictionaryVar
  3
ObjectDBX Classes
 90
        0
 91
        5
280
     0
281
     0
  0
CLASS
  1
CELLSTYLEMAP
  2
AcDbCellStyleMap
  3
ObjectDBX Classes
 90
     1152
 91
        2
280
     0
281
     0
  0
ENDSEC
  0
SECTION
  2
TABLES
  0
TABLE
  2
VPORT
  5
8
330
0
100
AcDbSymbolTable
 70
     1
1001
ACAD
1000
DbSaveVer
1071
      224
  0
VPORT
  5
1F4
330
8
100
AcDbSymbolTableRecord
100
AcDbViewportTableRecord
  2
*ACTIVE
 70
     0
 10
0.0
 20
0.0
 11
1.0
 21
1.0
 12
105.0000004889444
 22
148.500000691507
 13
0.0
 23
0.0
 14
1.0
 24
1.0
 15
0.0
 25
0.0
 16
0.0
 26
0.0
 36
1.0
 17
0.0
 27
0.0
 37
0.0
 40
299.2182617187713
 41
2.362175525339925
 42
50.0
 43
0.0
 44
0.0
 50
0.0
 51
0.0
 71
     0
 72
   100
 73
     1
 74
     1
 75
     0
 76
     0
 77
     0
 78
     0
281
     0
 65
     1
110
0.0
120
0.0
130
0.0
111
1.0
121
0.0
131
0.0
112
0.0
122
1.0
132
0.0
 79
     0
146
0.0
348
368
 60
     3
 61
     5
292
     1
282
     1
141
0.0
142
0.0
 63
   250
421
  3355443
1001
ACAD_NAV_VCDISPLAY
1070
     3
  0
ENDTAB
  0
TABLE
  2
LTYPE
  5
5
330
0
100
AcDbSymbolTable
 70
     7
  0
LTYPE
  5
14
330
5
100
AcDbSymbolTableRecord
100
AcDbLinetypeTableRecord
  2
BYBLOCK
 70
     0
  3

 72
    65
 73
     0
 40
0.0
  0
LTYPE
  5
15
330
5
100
AcDbSymbolTableRecord
100
AcDbLinetypeTableRecord
  2
BYLAYER
 70
     0
  3

 72
    65
 73
     0
 40
0.0
  0
LTYPE
  5
16
330
5
100
AcDbSymbolTableRecord
100
AcDbLinetypeTableRecord
  2
CONTINUOUS
 70
     0
  3
Solid line
 72
    65
 73
     0
 40
0.0
  0
LTYPE
  5
1F5
330
5
100
AcDbSymbolTableRecord
100
AcDbLinetypeTableRecord
  2
CENTER
 70
     0
  3
____ _ ____ _ ____ _ ____ _ ____ _ ____ _ ____
 72
    65
 73
     4
 40
0.6
 49
0.375
 74
     0
 49
-0.075
 74
     0
 49
0.075
 74
     0
 49
-0.075
 74
     0
  0
LTYPE
  5
1F6
330
5
100
AcDbSymbolTableRecord
100
AcDbLinetypeTableRecord
  2
HIDDEN
 70
     0
  3
- - - - - - - - - - - - - - - - - - - -
 72
    65
 73
     2
 40
0.2
 49
0.1
 74
     0
 49
-0.1
 74
     0
  0
LTYPE
  5
1F7
330
5
100
AcDbSymbolTableRecord
100
AcDbLinetypeTableRecord
  2
PHANTOM
 70
     0
  3
_____ _ _ _____ _ _ _____ _ _ _____
 72
    65
 73
     6
 40
0.8
 49
0.45
 74
     0
 49
-0.05
 74
     0
 49
0.1
 74
     0
 49
-0.05
 74
     0
 49
0.1
 74
     0
 49
-0.05
 74
     0
  0
LTYPE
  5
1F8
330
5
100
AcDbSymbolTableRecord
100
AcDbLinetypeTableRecord
  2
DOT
 70
     0
  3
. . . . . . . . . . . . . . . . . . . .
 72
    65
 73
     2
 40
0.2
 49
0.1
 74
     0
 49
-0.1
 74
     0
  0
LTYPE
  5
1F9
330
5
100
AcDbSymbolTableRecord
100
AcDbLinetypeTableRecord
  2
DASHED
 70
     0
  3
- - - - - - - - - - - - - - - - - - - -
 72
    65
 73
     2
 40
0.2
 49
0.1
 74
     0
 49
-0.1
 74
     0
  0
ENDTAB
  0
TABLE
  2
LAYER
  5
2
330
0
100
AcDbSymbolTable
 70
    23
  0
LAYER
  5
10
330
2
100
AcDbSymbolTableRecord
100
AcDbLayerTableRecord
  2
0
 70
     0
 62
     7
  6
CONTINUOUS
370
    -3
390
F
347
35A
348
0
  0
LAYER
  5
1FA
330
2
100
AcDbSymbolTableRecord
100
AcDbLayerTableRecord
  2
DEFAULT_1
 70
     0
 62
     7
  6
CENTER
370
    -3
390
F
347
35A
348
0
  0
LAYER
  5
1FB
330
2
100
AcDbSymbolTableRecord
100
AcDbLayerTableRecord
  2
DEFAULT_2
 70
     0
 62
     8
  6
HIDDEN
370
    -3
390
F
347
35A
348
0
  0
LAYER
  5
1FC
330
2
100
AcDbSymbolTableRecord
100
AcDbLayerTableRecord
  2
DEFAULT_3
 70
     0
 62
     7
  6
PHANTOM
370
    -3
390
F
347
35A
348
0
  0
LAYER
  5
1FD
330
2
100
AcDbSymbolTableRecord
100
AcDbLayerTableRecord
  2
0_COMPONENTS
 70
     0
 62
     7
  6
CONTINUOUS
370
    -3
390
F
347
35A
348
0
  0
LAYER
  5
1FE
330
2
100
AcDbSymbolTableRecord
100
AcDbLayerTableRecord
  2
1_ALL_PLANES
 70
     0
 62
     7
  6
CONTINUOUS
370
    -3
390
F
347
35A
348
0
  0
LAYER
  5
1FF
330
2
100
AcDbSymbolTableRecord
100
AcDbLayerTableRecord
  2
1__DEF_ASM_PLN
 70
     0
 62
     7
  6
CONTINUOUS
370
    -3
390
F
347
35A
348
0
  0
LAYER
  5
200
330
2
100
AcDbSymbolTableRecord
100
AcDbLayerTableRecord
  2
1__DEF_PLANES
 70
     0
 62
     7
  6
CONTINUOUS
370
    -3
390
F
347
35A
348
0
  0
LAYER
  5
201
330
2
100
AcDbSymbolTableRecord
100
AcDbLayerTableRecord
  2
1__DRAFT_DIMS
 70
     0
 62
     7
  6
CONTINUOUS
370
    -3
390
F
347
35A
348
0
  0
LAYER
  5
202
330
2
100
AcDbSymbolTableRecord
100
AcDbLayerTableRecord
  2
2_ALL_CSYS
 70
     0
 62
     7
  6
CONTINUOUS
370
    -3
390
F
347
35A
348
0
  0
LAYER
  5
203
330
2
100
AcDbSymbolTableRecord
100
AcDbLayerTableRecord
  2
2_ALL_NOTES
 70
     0
 62
     7
  6
CONTINUOUS
370
    -3
390
F
347
35A
348
0
  0
LAYER
  5
204
330
2
100
AcDbSymbolTableRecord
100
AcDbLayerTableRecord
  2
2__DEF_ASM_CSYS
 70
     0
 62
     7
  6
CONTINUOUS
370
    -3
390
F
347
35A
348
0
  0
LAYER
  5
205
330
2
100
AcDbSymbolTableRecord
100
AcDbLayerTableRecord
  2
2__DEF_CSYS
 70
     0
 62
     7
  6
CONTINUOUS
370
    -3
390
F
347
35A
348
0
  0
LAYER
  5
206
330
2
100
AcDbSymbolTableRecord
100
AcDbLayerTableRecord
  2
3_ALL_AXES
 70
     0
 62
     7
  6
CONTINUOUS
370
    -3
390
F
347
35A
348
0
  0
LAYER
  5
207
330
2
100
AcDbSymbolTableRecord
100
AcDbLayerTableRecord
  2
4_ALL_POINTS
 70
     0
 62
     7
  6
CONTINUOUS
370
    -3
390
F
347
35A
348
0
  0
LAYER
  5
208
330
2
100
AcDbSymbolTableRecord
100
AcDbLayerTableRecord
  2
5_ALL_CURVES
 70
     0
 62
     7
  6
CONTINUOUS
370
    -3
390
F
347
35A
348
0
  0
LAYER
  5
209
330
2
100
AcDbSymbolTableRecord
100
AcDbLayerTableRecord
  2
5_ALL_GTOLS(FREE)
 70
     0
 62
     7
  6
CONTINUOUS
370
    -3
390
F
347
35A
348
0
  0
LAYER
  5
20A
330
2
100
AcDbSymbolTableRecord
100
AcDbLayerTableRecord
  2
6_ALL_SURFS
 70
     0
 62
     7
  6
CONTINUOUS
370
    -3
390
F
347
35A
348
0
  0
LAYER
  5
20B
330
2
100
AcDbSymbolTableRecord
100
AcDbLayerTableRecord
  2
CURVE
 70
     0
 62
     7
  6
CONTINUOUS
370
    -3
390
F
347
35A
348
0
  0
LAYER
  5
20C
330
2
100
AcDbSymbolTableRecord
100
AcDbLayerTableRecord
  2
GIANNI_ASSI
 70
     0
 62
     7
  6
CONTINUOUS
370
    -3
390
F
347
35A
348
0
  0
LAYER
  5
20D
330
2
100
AcDbSymbolTableRecord
100
AcDbLayerTableRecord
  2
PIANI_SCORD
 70
     0
 62
     7
  6
CONTINUOUS
370
    -3
390
F
347
35A
348
0
  0
LAYER
  5
20E
330
2
100
AcDbSymbolTableRecord
100
AcDbLayerTableRecord
  2
XSEC_DATUMS
 70
     0
 62
     7
  6
CONTINUOUS
370
    -3
390
F
347
35A
348
0
  0
LAYER
  5
39C
330
2
100
AcDbSymbolTableRecord
100
AcDbLayerTableRecord
  2
Defpoints
 70
     0
 62
     7
  6
CONTINUOUS
290
     0
370
    -3
390
F
347
35A
348
0
  0
ENDTAB
  0
TABLE
  2
STYLE
  5
3
330
0
100
AcDbSymbolTable
 70
     9
  0
STYLE
  5
11
330
3
100
AcDbSymbolTableRecord
100
AcDbTextStyleTableRecord
  2
STANDARD
 70
     0
 40
0.0
 41
1.199999999999999
 50
0.0
 71
     0
 42
0.2
  3
txt
  4

  0
STYLE
  5
20F
330
3
100
AcDbSymbolTableRecord
100
AcDbTextStyleTableRecord
  2
TEXTSTYLE_1
 70
     0
 40
0.0
 41
0.8
 50
0.0
 71
     0
 42
0.2
  3
gdt
  4

  0
STYLE
  5
210
330
3
100
AcDbSymbolTableRecord
100
AcDbTextStyleTableRecord
  2
TEXTSTYLE_2
 70
     0
 40
0.0
 41
1.199999999999999
 50
0.0
 71
     0
 42
0.2
  3
gdt
  4

  0
STYLE
  5
211
330
3
100
AcDbSymbolTableRecord
100
AcDbTextStyleTableRecord
  2
TEXTSTYLE_3
 70
     0
 40
0.0
 41
1.0
 50
0.0
 71
     0
 42
0.2
  3
txt
  4

  0
STYLE
  5
212
330
3
100
AcDbSymbolTableRecord
100
AcDbTextStyleTableRecord
  2
TEXTSTYLE_4
 70
     0
 40
0.0
 41
1.0
 50
0.0
 71
     0
 42
0.2
  3
txt
  4

  0
STYLE
  5
213
330
3
100
AcDbSymbolTableRecord
100
AcDbTextStyleTableRecord
  2
TEXTSTYLE_5
 70
     0
 40
0.0
 41
1.0
 50
0.0
 71
     0
 42
0.2
  3
txt
  4

  0
STYLE
  5
214
330
3
100
AcDbSymbolTableRecord
100
AcDbTextStyleTableRecord
  2
TEXTSTYLE_6
 70
     0
 40
0.0
 41
1.0
 50
0.0
 71
     0
 42
0.2
  3
bluprnt.ttf
  4

  0
STYLE
  5
215
330
3
100
AcDbSymbolTableRecord
100
AcDbTextStyleTableRecord
  2
TEXTSTYLE_7
 70
     0
 40
0.0
 41
1.0
 50
0.0
 71
     0
 42
0.2
  3
bluprntb.ttf
  4

  0
STYLE
  5
216
330
3
100
AcDbSymbolTableRecord
100
AcDbTextStyleTableRecord
  2
TEXTSTYLE_8
 70
     0
 40
0.0
 41
1.0
 50
0.0
 71
     0
 42
0.2
  3
gdt
  4

  0
ENDTAB
  0
TABLE
  2
VIEW
  5
6
330
0
100
AcDbSymbolTable
 70
     0
  0
ENDTAB
  0
TABLE
  2
UCS
  5
7
330
0
100
AcDbSymbolTable
 70
     0
  0
ENDTAB
  0
TABLE
  2
APPID
  5
9
330
0
100
AcDbSymbolTable
 70
     3
  0
APPID
  5
217
330
9
100
AcDbSymbolTableRecord
100
AcDbRegAppTableRecord
  2
ACAD
 70
     0
  0
APPID
  5
39A
330
9
100
AcDbSymbolTableRecord
100
AcDbRegAppTableRecord
  2
ACAD_EXEMPT_FROM_CAD_STANDARDS
 70
     0
  0
APPID
  5
3C5
330
9
100
AcDbSymbolTableRecord
100
AcDbRegAppTableRecord
  2
ACAD_NAV_VCDISPLAY
 70
     0
  0
ENDTAB
  0
TABLE
  2
DIMSTYLE
  5
A
330
0
100
AcDbSymbolTable
 70
     3
100
AcDbDimStyleTable
 71
     0
  0
DIMSTYLE
105
220
330
A
100
AcDbSymbolTableRecord
100
AcDbDimStyleTableRecord
  2
STANDARD
 70
     0
 41
4.759999999999999
 42
0.1
 44
1.0
 47
0.01
 48
0.01
 71
     1
 73
     0
 74
     0
 77
     1
 78
     8
 79
     2
140
3.0
147
0.625
178
     5
179
     3
271
     3
272
     3
284
     8
340
11
341
21A
342
21A
343
21A
344
21A
  0
DIMSTYLE
105
221
102
{ACAD_REACTORS
330
281
330
283
330
284
102
}
330
A
100
AcDbSymbolTableRecord
100
AcDbDimStyleTableRecord
  2
DIMSTYLE_1
 70
     0
 41
4.759999999999999
 42
0.1
 44
1.0
 47
0.01
 48
0.01
 73
     0
 74
     0
 77
     1
 78
     8
 79
     2
140
3.0
147
0.75
178
     5
179
     3
271
     3
272
     3
284
     8
340
11
341
21A
342
21A
343
21A
344
21A
  0
DIMSTYLE
105
222
102
{ACAD_REACTORS
330
282
102
}
330
A
100
AcDbSymbolTableRecord
100
AcDbDimStyleTableRecord
  2
DIMSTYLE_2
 70
     0
 41
4.759999999999999
 42
0.1
 44
1.0
 47
0.01
 48
0.01
 73
     0
 74
     0
 77
     1
 78
     8
 79
     2
140
3.0
147
0.75
178
     5
179
     3
271
     0
272
     0
284
     8
340
11
341
21A
342
21A
343
21A
344
21A
  0
ENDTAB
  0
TABLE
  2
BLOCK_RECORD
  5
1
330
0
100
AcDbSymbolTable
 70
     6
  0
BLOCK_RECORD
  5
218
330
1
100
AcDbSymbolTableRecord
100
AcDbBlockTableRecord
  2
*Model_Space
340
343
 70
     0
280
     1
281
     0
  0
BLOCK_RECORD
  5
219
330
1
100
AcDbSymbolTableRecord
100
AcDbBlockTableRecord
  2
*Paper_Space
340
344
 70
     0
280
     1
281
     0
  0
BLOCK_RECORD
  5
21A
330
1
100
AcDbSymbolTableRecord
100
AcDbBlockTableRecord
  2
_FILLED
340
0
102
{BLKREFS
331
235
331
236
331
23E
331
23F
331
247
331
248
331
22C
331
22D
102
}
 70
     0
280
     1
281
     0
  0
BLOCK_RECORD
  5
21B
330
1
100
AcDbSymbolTableRecord
100
AcDbBlockTableRecord
  2
*D1
340
0
 70
     0
280
     1
281
     0
  0
BLOCK_RECORD
  5
21C
330
1
100
AcDbSymbolTableRecord
100
AcDbBlockTableRecord
  2
*D2
340
0
 70
     0
280
     1
281
     0
  0
BLOCK_RECORD
  5
21D
330
1
100
AcDbSymbolTableRecord
100
AcDbBlockTableRecord
  2
*D3
340
0
 70
     0
280
     1
281
     0
  0
BLOCK_RECORD
  5
21E
330
1
100
AcDbSymbolTableRecord
100
AcDbBlockTableRecord
  2
*D4
340
0
 70
     0
280
     1
281
     0
  0
BLOCK_RECORD
  5
21F
330
1
100
AcDbSymbolTableRecord
100
AcDbBlockTableRecord
  2
*T5
340
0
102
{BLKREFS
331
285
102
}
 70
     0
280
     1
281
     0
  0
ENDTAB
  0
ENDSEC
  0
SECTION
  2
BLOCKS
  0
BLOCK
  5
20
330
218
100
AcDbEntity
  8
0
100
AcDbBlockBegin
  2
*Model_Space
 70
     0
 10
0.0
 20
0.0
 30
0.0
  3
*Model_Space
  1

  0
ENDBLK
  5
21
330
218
100
AcDbEntity
  8
0
100
AcDbBlockEnd
  0
BLOCK
  5
1C
330
219
100
AcDbEntity
 67
     1
  8
0
100
AcDbBlockBegin
  2
*Paper_Space
 70
     0
 10
0.0
 20
0.0
 30
0.0
  3
*Paper_Space
  1

  0
ENDBLK
  5
1D
330
219
100
AcDbEntity
 67
     1
  8
0
100
AcDbBlockEnd
  0
BLOCK
  5
223
330
21A
100
AcDbEntity
  8
0
100
AcDbBlockBegin
  2
_FILLED
 70
     0
 10
0.0
 20
0.0
 30
0.0
  3
_FILLED
  1

  0
SOLID
  5
224
330
21A
100
AcDbEntity
  8
0
  6
ByBlock
 62
     0
100
AcDbTrace
 10
0.0
 20
0.0
 30
0.0
 11
-1.0
 21
0.1050420168
 31
0.0
 12
-1.0
 22
-0.1050420168
 32
0.0
 13
-1.0
 23
-0.1050420168
 33
0.0
  0
ENDBLK
  5
225
330
21A
100
AcDbEntity
  8
0
  6
ByBlock
 62
     0
100
AcDbBlockEnd
  0
BLOCK
  5
226
330
21B
100
AcDbEntity
  8
0
  6
Continuous
 62
     2
100
AcDbBlockBegin
  2
*D1
 70
     1
 10
0.0
 20
0.0
 30
0.0
  3
*D1
  1

  0
MTEXT
  5
227
330
21B
100
AcDbEntity
  8
0
  6
Continuous
 62
     5
440
 16777216
100
AcDbMText
 10
104.0422083118
 20
114.5600632792
 30
0.0
 40
3.0
 41
11.5071428571
 46
0.0
 71
     2
 72
     1
  1
Ø19
 73
     2
 44
0.9
  0
LINE
  5
228
330
21B
100
AcDbEntity
  8
0
  6
Continuous
 62
     2
440
 16777216
100
AcDbLine
 10
94.4573738409
 20
128.2307665361
 30
0.0
 11
94.4573738409
 21
109.8100632792
 31
0.0
  0
LINE
  5
229
330
21B
100
AcDbEntity
  8
0
  6
Continuous
 62
     2
440
 16777216
100
AcDbLine
 10
113.4573738409
 20
128.2307665361
 30
0.0
 11
113.4573738409
 21
109.8100632792
 31
0.0
  0
LINE
  5
22A
330
21B
100
AcDbEntity
  8
0
  6
Continuous
 62
     2
440
 16777216
100
AcDbLine
 10
94.4573738409
 20
110.8100632792
 30
0.0
 11
103.9573738409
 21
110.8100632792
 31
0.0
  0
LINE
  5
22B
330
21B
100
AcDbEntity
  8
0
  6
Continuous
 62
     2
440
 16777216
100
AcDbLine
 10
113.4573738409
 20
110.8100632792
 30
0.0
 11
103.9573738409
 21
110.8100632792
 31
0.0
  0
INSERT
  5
22C
330
21B
100
AcDbEntity
  8
0
  6
Continuous
 62
     2
440
 16777216
100
AcDbBlockReference
  2
_FILLED
 10
94.4573738409
 20
110.8100632792
 30
0.0
 41
4.759999999999999
 42
4.759999999999999
 43
4.759999999999999
 50
180.0
  0
INSERT
  5
22D
330
21B
100
AcDbEntity
  8
0
  6
Continuous
 62
     2
440
 16777216
100
AcDbBlockReference
  2
_FILLED
 10
113.4573738409
 20
110.8100632792
 30
0.0
 41
4.759999999999999
 42
4.759999999999999
 43
4.759999999999999
  0
ENDBLK
  5
22E
330
21B
100
AcDbEntity
  8
0
  6
ByBlock
 62
     0
100
AcDbBlockEnd
  0
BLOCK
  5
22F
330
21C
100
AcDbEntity
  8
0
  6
Continuous
 62
     2
100
AcDbBlockBegin
  2
*D2
 70
     1
 10
0.0
 20
0.0
 30
0.0
  3
*D2
  1

  0
MTEXT
  5
230
330
21C
100
AcDbEntity
  8
0
  6
Continuous
 62
     5
440
 16777216
100
AcDbMText
 10
103.9573738409
 20
105.7213573401
 30
0.0
 40
3.0
 41
12.4285714286
 46
0.0
 71
     2
 72
     1
  1
{\fgdt;n}\ftxt;{\W1.2;33}
  7
TEXTSTYLE_2
 73
     2
 44
0.9
  0
LINE
  5
231
330
21C
100
AcDbEntity
  8
0
  6
Continuous
 62
     2
440
 16777216
100
AcDbLine
 10
120.3573738409
 20
129.4307665361
 30
0.0
 11
120.3573738409
 21
100.9713573401
 31
0.0
  0
LINE
  5
232
330
21C
100
AcDbEntity
  8
0
  6
Continuous
 62
     2
440
 16777216
100
AcDbLine
 10
87.5573738409
 20
129.4307665361
 30
0.0
 11
87.5573738409
 21
100.9713573401
 31
0.0
  0
LINE
  5
233
330
21C
100
AcDbEntity
  8
0
  6
Continuous
 62
     2
440
 16777216
100
AcDbLine
 10
120.3573738409
 20
101.9713573401
 30
0.0
 11
103.9573738409
 21
101.9713573401
 31
0.0
  0
LINE
  5
234
330
21C
100
AcDbEntity
  8
0
  6
Continuous
 62
     2
440
 16777216
100
AcDbLine
 10
87.5573738409
 20
101.9713573401
 30
0.0
 11
103.9573738409
 21
101.9713573401
 31
0.0
  0
INSERT
  5
235
330
21C
100
AcDbEntity
  8
0
  6
Continuous
 62
     2
440
 16777216
100
AcDbBlockReference
  2
_FILLED
 10
120.3573738409
 20
101.9713573401
 30
0.0
 41
4.759999999999999
 42
4.759999999999999
 43
4.759999999999999
  0
INSERT
  5
236
330
21C
100
AcDbEntity
  8
0
  6
Continuous
 62
     2
440
 16777216
100
AcDbBlockReference
  2
_FILLED
 10
87.5573738409
 20
101.9713573401
 30
0.0
 41
4.759999999999999
 42
4.759999999999999
 43
4.759999999999999
 50
180.0
  0
ENDBLK
  5
237
330
21C
100
AcDbEntity
  8
0
  6
ByBlock
 62
     0
100
AcDbBlockEnd
  0
BLOCK
  5
238
330
21D
100
AcDbEntity
  8
0
  6
Continuous
 62
     2
100
AcDbBlockBegin
  2
*D3
 70
     1
 10
0.0
 20
0.0
 30
0.0
  3
*D3
  1

  0
MTEXT
  5
239
330
21D
100
AcDbEntity
  8
0
  6
Continuous
 62
     5
440
 16777216
100
AcDbMText
 10
103.5443412681
 20
233.0777251539
 30
0.0
 40
3.0
 41
12.75
 46
0.0
 71
     2
 72
     1
  1
{\fgdt;n}\ftxt;{\W1.2;50}
  7
TEXTSTYLE_2
 73
     2
 44
0.9
  0
LINE
  5
23A
330
21D
100
AcDbEntity
  8
0
  6
Continuous
 62
     2
440
 16777216
100
AcDbLine
 10
78.95737384090001
 20
190.1307665361
 30
0.0
 11
78.95737384090001
 21
230.3277251539
 31
0.0
  0
LINE
  5
23B
330
21D
100
AcDbEntity
  8
0
  6
Continuous
 62
     2
440
 16777216
100
AcDbLine
 10
128.9573738409
 20
190.1307665361
 30
0.0
 11
128.9573738409
 21
230.3277251539
 31
0.0
  0
LINE
  5
23C
330
21D
100
AcDbEntity
  8
0
  6
Continuous
 62
     2
440
 16777216
100
AcDbLine
 10
78.95737384090001
 20
229.3277251539
 30
0.0
 11
103.9573738409
 21
229.3277251539
 31
0.0
  0
LINE
  5
23D
330
21D
100
AcDbEntity
  8
0
  6
Continuous
 62
     2
440
 16777216
100
AcDbLine
 10
128.9573738409
 20
229.3277251539
 30
0.0
 11
103.9573738409
 21
229.3277251539
 31
0.0
  0
INSERT
  5
23E
330
21D
100
AcDbEntity
  8
0
  6
Continuous
 62
     2
440
 16777216
100
AcDbBlockReference
  2
_FILLED
 10
78.95737384090001
 20
229.3277251539
 30
0.0
 41
4.759999999999999
 42
4.759999999999999
 43
4.759999999999999
 50
180.0
  0
INSERT
  5
23F
330
21D
100
AcDbEntity
  8
0
  6
Continuous
 62
     2
440
 16777216
100
AcDbBlockReference
  2
_FILLED
 10
128.9573738409
 20
229.3277251539
 30
0.0
 41
4.759999999999999
 42
4.759999999999999
 43
4.759999999999999
  0
ENDBLK
  5
240
330
21D
100
AcDbEntity
  8
0
  6
ByBlock
 62
     0
100
AcDbBlockEnd
  0
BLOCK
  5
241
330
21E
100
AcDbEntity
  8
0
  6
Continuous
 62
     2
100
AcDbBlockBegin
  2
*D4
 70
     1
 10
0.0
 20
0.0
 30
0.0
  3
*D4
  1

  0
MTEXT
  5
242
330
21E
100
AcDbEntity
  8
0
  6
Continuous
 62
     5
440
 16777216
100
AcDbMText
 10
147.1786970313
 20
159.0307665361
 30
0.0
 40
3.0
 41
6.75
 46
0.0
 71
     2
 72
     1
  1
63
 11
0.0
 21
1.0
 31
0.0
 73
     2
 44
0.9
  0
LINE
  5
243
330
21E
100
AcDbEntity
  8
0
  6
Continuous
 62
     2
440
 16777216
100
AcDbLine
 10
128.5573738409
 20
190.5307665361
 30
0.0
 11
151.9286970313
 21
190.5307665361
 31
0.0
  0
LINE
  5
244
330
21E
100
AcDbEntity
  8
0
  6
Continuous
 62
     2
440
 16777216
100
AcDbLine
 10
115.5573738409
 20
127.5307665361
 30
0.0
 11
151.9286970313
 21
127.5307665361
 31
0.0
  0
LINE
  5
245
330
21E
100
AcDbEntity
  8
0
  6
Continuous
 62
     2
440
 16777216
100
AcDbLine
 10
150.9286970313
 20
190.5307665361
 30
0.0
 11
150.9286970313
 21
159.0307665361
 31
0.0
  0
LINE
  5
246
330
21E
100
AcDbEntity
  8
0
  6
Continuous
 62
     2
440
 16777216
100
AcDbLine
 10
150.9286970313
 20
127.5307665361
 30
0.0
 11
150.9286970313
 21
159.0307665361
 31
0.0
  0
INSERT
  5
247
330
21E
100
AcDbEntity
  8
0
  6
Continuous
 62
     2
440
 16777216
100
AcDbBlockReference
  2
_FILLED
 10
150.9286970313
 20
190.5307665361
 30
0.0
 41
4.759999999999999
 42
4.759999999999999
 43
4.759999999999999
 50
90.0
  0
INSERT
  5
248
330
21E
100
AcDbEntity
  8
0
  6
Continuous
 62
     2
440
 16777216
100
AcDbBlockReference
  2
_FILLED
 10
150.9286970313
 20
127.5307665361
 30
0.0
 41
4.759999999999999
 42
4.759999999999999
 43
4.759999999999999
 50
270.0
  0
ENDBLK
  5
249
330
21E
100
AcDbEntity
  8
0
  6
ByBlock
 62
     0
100
AcDbBlockEnd
  0
BLOCK
  5
24A
330
21F
100
AcDbEntity
  8
0
100
AcDbBlockBegin
  2
*T5
 70
     1
 10
0.0
 20
0.0
 30
0.0
  3
*T5
  1

  0
MTEXT
  5
264
330
21F
100
AcDbEntity
  8
0
  6
Continuous
 62
     0
440
 16777216
100
AcDbMText
 10
14.25
 20
2.5
 30
0.0
 40
2.0
 41
28.38
 46
0.0
 71
     5
 72
     1
  1
Modifica
  7
TEXTSTYLE_4
 73
     2
 44
0.9
  0
MTEXT
  5
265
330
21F
100
AcDbEntity
  8
0
  6
Continuous
 62
     0
440
 16777216
100
AcDbMText
 10
28.56
 20
4.939999999999999
 30
0.0
 40
1.199999999999999
 41
83.0
 46
0.0
 71
     1
 72
     1
  1
La ditta tutela i propri disegni a norma di legge
  7
TEXTSTYLE_4
 73
     2
 44
0.9
  0
MTEXT
  5
266
330
21F
100
AcDbEntity
  8
0
  6
Continuous
 62
     5
440
 16777216
100
AcDbMText
 10
120.62
 20
5.0
 30
0.0
 40
3.0
 41
17.88
 46
0.0
 71
     5
 72
     1
  1
A4 V
  7
TEXTSTYLE_5
 73
     2
 44
0.9
  0
MTEXT
  5
267
330
21F
100
AcDbEntity
  8
0
  6
Continuous
 62
     0
440
 16777216
100
AcDbMText
 10
129.68
 20
5.0
 30
0.0
 40
1.3
 41
16.88
 46
0.0
 71
     4
 72
     1
  1
Peso finito \P0.521
  7
TEXTSTYLE_4
 73
     2
 44
0.9
  0
MTEXT
  5
268
330
21F
100
AcDbEntity
  8
0
  6
Continuous
 62
     0
440
 16777216
100
AcDbMText
 10
192.56
 20
0.0599999999999996
 30
0.0
 40
3.0
 41
45.88
 46
0.0
 71
     9
 72
     1
  1
21480/H50A
  7
TEXTSTYLE_3
 73
     2
 44
0.9
  0
MTEXT
  5
269
330
21F
100
AcDbEntity
  8
0
  6
Continuous
 62
     0
440
 16777216
100
AcDbMText
 10
192.68
 20
4.939999999999999
 30
0.0
 40
3.0
 41
8.38
 46
0.0
 71
     1
 72
     1
  1
 
 73
     2
 44
0.9
  0
MTEXT
  5
26A
330
21F
100
AcDbEntity
  8
0
  6
Continuous
 62
     5
440
 16777216
100
AcDbMText
 10
4.25
 20
9.940000000000001
 30
0.0
 40
1.3
 41
8.38
 46
0.0
 71
     2
 72
     1
  1
N°
  7
TEXTSTYLE_4
 73
     2
 44
0.9
  0
MTEXT
  5
26B
330
21F
100
AcDbEntity
  8
0
  6
Continuous
 62
     5
440
 16777216
100
AcDbMText
 10
16.0
 20
9.940000000000001
 30
0.0
 40
1.3
 41
14.88
 46
0.0
 71
     2
 72
     1
  1
DATA
  7
TEXTSTYLE_4
 73
     2
 44
0.9
  0
MTEXT
  5
26C
330
21F
100
AcDbEntity
  8
0
  6
Continuous
 62
     5
440
 16777216
100
AcDbMText
 10
26.0
 20
9.940000000000001
 30
0.0
 40
1.3
 41
4.879999999999999
 46
0.0
 71
     2
 72
     1
  1
Esp
  7
TEXTSTYLE_4
 73
     2
 44
0.9
  0
MTEXT
  5
26D
330
21F
100
AcDbEntity
  8
0
  6
Continuous
 62
     0
440
 16777216
100
AcDbMText
 10
28.56
 20
9.940000000000001
 30
0.0
 40
1.6
 41
83.0
 46
0.0
 71
     1
 72
     1
  1
Cod.Cad 21480-H50A
  7
TEXTSTYLE_4
 73
     2
 44
0.9
  0
MTEXT
  5
26E
330
21F
100
AcDbEntity
  8
0
  6
Continuous
 62
     0
440
 16777216
100
AcDbMText
 10
169.62
 20
9.940000000000001
 30
0.0
 40
1.3
 41
45.88
 46
0.0
 71
     2
 72
     1
  1
cod.disegno
  7
TEXTSTYLE_4
 73
     2
 44
0.9
  0
MTEXT
  5
26F
330
21F
100
AcDbEntity
  8
0
  6
Continuous
 62
     5
440
 16777216
100
AcDbMText
 10
196.87
 20
9.940000000000001
 30
0.0
 40
1.3
 41
8.38
 46
0.0
 71
     2
 72
     1
  1
esp.
  7
TEXTSTYLE_4
 73
     2
 44
1.199999999999999
  0
MTEXT
  5
270
330
21F
100
AcDbEntity
  8
0
  6
Continuous
 62
     0
440
 16777216
100
AcDbMText
 10
0.0599999999999996
 20
14.94
 30
0.0
 40
3.0
 41
8.38
 46
0.0
 71
     1
 72
     1
  1
 
 73
     2
 44
0.9
  0
MTEXT
  5
271
330
21F
100
AcDbEntity
  8
0
  6
Continuous
 62
     0
440
 16777216
100
AcDbMText
 10
8.56
 20
14.94
 30
0.0
 40
3.0
 41
14.88
 46
0.0
 71
     1
 72
     1
  1
 
 73
     2
 44
0.9
  0
MTEXT
  5
272
330
21F
100
AcDbEntity
  8
0
  6
Continuous
 62
     0
440
 16777216
100
AcDbMText
 10
23.56
 20
14.94
 30
0.0
 40
3.0
 41
4.879999999999999
 46
0.0
 71
     1
 72
     1
  1
 
 73
     2
 44
0.9
  0
MTEXT
  5
273
330
21F
100
AcDbEntity
  8
0
  6
Continuous
 62
     5
440
 16777216
100
AcDbMText
 10
28.56
 20
12.5
 30
0.0
 40
1.6
 41
27.88
 46
0.0
 71
     4
 72
     1
  1
--
  7
TEXTSTYLE_4
 73
     2
 44
0.9
  0
MTEXT
  5
274
330
21F
100
AcDbEntity
  8
0
  6
Continuous
 62
     5
440
 16777216
100
AcDbMText
 10
56.56
 20
12.5
 30
0.0
 40
1.3
 41
43.88
 46
0.0
 71
     4
 72
     1
  1
---
  7
TEXTSTYLE_4
 73
     2
 44
0.9
  0
MTEXT
  5
275
330
21F
100
AcDbEntity
  8
0
  6
Continuous
 62
     5
440
 16777216
100
AcDbMText
 10
104.5
 20
15.0
 30
0.0
 40
3.0
 41
7.879999999999999
 46
0.0
 71
     5
 72
     1
  1
 
 73
     2
 44
0.9
  0
MTEXT
  5
276
330
21F
100
AcDbEntity
  8
0
  6
Continuous
 62
     0
440
 16777216
100
AcDbMText
 10
108.56
 20
12.5
 30
0.0
 40
3.0
 41
38.00000000000001
 46
0.0
 71
     4
 72
     1
  1
 
 73
     2
 44
1.199999999999999
  0
MTEXT
  5
277
330
21F
100
AcDbEntity
  8
0
  6
Continuous
 62
     5
440
 16777216
100
AcDbMText
 10
146.68
 20
12.5
 30
0.0
 40
3.0
 41
16.88
 46
0.0
 71
     4
 72
     1
  1
 
 73
     2
 44
1.199999999999999
  0
MTEXT
  5
278
330
21F
100
AcDbEntity
  8
0
  6
Continuous
 62
     0
440
 16777216
100
AcDbMText
 10
163.68
 20
35.26
 30
0.0
 40
3.0
 41
17.88
 46
0.0
 71
     1
 72
     1
  1
 
 73
     2
 44
0.9
  0
MTEXT
  5
279
330
21F
100
AcDbEntity
  8
0
  6
Continuous
 62
     0
440
 16777216
100
AcDbMText
 10
0.0599999999999996
 20
19.94
 30
0.0
 40
3.0
 41
8.38
 46
0.0
 71
     1
 72
     1
  1
 
 73
     2
 44
0.9
  0
MTEXT
  5
27A
330
21F
100
AcDbEntity
  8
0
  6
Continuous
 62
     0
440
 16777216
100
AcDbMText
 10
8.56
 20
19.94
 30
0.0
 40
3.0
 41
14.88
 46
0.0
 71
     1
 72
     1
  1
 
 73
     2
 44
0.9
  0
MTEXT
  5
27B
330
21F
100
AcDbEntity
  8
0
  6
Continuous
 62
     0
440
 16777216
100
AcDbMText
 10
23.56
 20
19.94
 30
0.0
 40
3.0
 41
4.879999999999999
 46
0.0
 71
     1
 72
     1
  1
 
 73
     2
 44
1.199999999999999
  0
MTEXT
  5
27C
330
21F
100
AcDbEntity
  8
0
  6
Continuous
 62
     5
440
 16777216
100
AcDbMText
 10
28.56
 20
17.5
 30
0.0
 40
1.3
 41
27.88
 46
0.0
 71
     4
 72
     1
  1
Materiale 
  7
TEXTSTYLE_4
 73
     2
 44
1.199999999999999
  0
MTEXT
  5
27D
330
21F
100
AcDbEntity
  8
0
  6
Continuous
 62
     5
440
 16777216
100
AcDbMText
 10
56.56
 20
17.5
 30
0.0
 40
1.5
 41
43.88
 46
0.0
 71
     4
 72
     1
  1
Tratt.termici
  7
TEXTSTYLE_4
 73
     2
 44
0.9
  0
MTEXT
  5
27E
330
21F
100
AcDbEntity
  8
0
  6
Continuous
 62
     0
440
 16777216
100
AcDbMText
 10
108.56
 20
17.5
 30
0.0
 40
1.3
 41
38.00000000000001
 46
0.0
 71
     4
 72
     1
  1
Dimens.grezze 
  7
TEXTSTYLE_4
 73
     2
 44
0.9
  0
MTEXT
  5
27F
330
21F
100
AcDbEntity
  8
0
  6
Continuous
 62
     5
440
 16777216
100
AcDbMText
 10
146.68
 20
17.5
 30
0.0
 40
1.0
 41
16.88
 46
0.0
 71
     4
 72
     1
  1
Peso grezzo Kg. 
  7
TEXTSTYLE_4
 73
     2
 44
0.9
  0
MTEXT
  5
39D
330
21F
100
AcDbEntity
  8
0
  6
Continuous
 62
     0
440
 16777216
100
AcDbMText
 10
0.0599999999999996
 20
25.26
 30
0.0
 40
3.0
 41
8.38
 46
0.0
 71
     1
 72
     5
  1
 
 73
     1
 44
1.0
  0
MTEXT
  5
39E
330
21F
100
AcDbEntity
  8
0
  6
Continuous
 62
     0
440
 16777216
100
AcDbMText
 10
8.56
 20
25.26
 30
0.0
 40
3.0
 41
14.88
 46
0.0
 71
     1
 72
     5
  1
 
 73
     1
 44
1.0
  0
MTEXT
  5
39F
330
21F
100
AcDbEntity
  8
0
  6
Continuous
 62
     0
440
 16777216
100
AcDbMText
 10
23.56
 20
25.26
 30
0.0
 40
3.0
 41
4.879999999999999
 46
0.0
 71
     1
 72
     5
  1
 
 73
     1
 44
1.0
  0
MTEXT
  5
3A0
330
21F
100
AcDbEntity
  8
0
  6
Continuous
 62
     5
440
 16777216
100
AcDbMText
 10
28.56
 20
20.06
 30
0.0
 40
1.199999999999999
 41
27.88
 46
0.0
 71
     7
 72
     5
  1
MANDRINO SENZA COMPENSAZ ASSIALE DA M3 A M12 PER 19/11
  7
TEXTSTYLE_4
 73
     1
 44
1.0
  0
MTEXT
  5
3A1
330
21F
100
AcDbEntity
  8
0
  6
Continuous
 62
     0
440
 16777216
100
AcDbMText
 10
56.56
 20
25.26
 30
0.0
 40
3.0
 41
73.0
 46
0.0
 71
     1
 72
     5
  1
 
 73
     1
 44
1.0
  0
MTEXT
  5
3A2
330
21F
100
AcDbEntity
  8
0
  6
Continuous
 62
     0
440
 16777216
100
AcDbMText
 10
129.68
 20
30.26
 30
0.0
 40
1.3
 41
16.88
 46
0.0
 71
     1
 72
     5
  1
Visto
  7
TEXTSTYLE_4
 73
     1
 44
1.0
  0
MTEXT
  5
3A3
330
21F
100
AcDbEntity
  8
0
  6
Continuous
 62
     5
440
 16777216
100
AcDbMText
 10
146.68
 20
30.26
 30
0.0
 40
1.3
 41
16.88
 46
0.0
 71
     1
 72
     5
  1
Scala\P1:1
  7
TEXTSTYLE_4
 73
     1
 44
1.0
  0
MTEXT
  5
3A4
330
21F
100
AcDbEntity
  8
0
  6
Continuous
 62
     0
440
 16777216
100
AcDbMText
 10
0.0599999999999996
 20
30.26
 30
0.0
 40
3.0
 41
8.38
 46
0.0
 71
     1
 72
     5
  1
 
 73
     1
 44
1.0
  0
MTEXT
  5
3A5
330
21F
100
AcDbEntity
  8
0
  6
Continuous
 62
     0
440
 16777216
100
AcDbMText
 10
8.56
 20
30.26
 30
0.0
 40
3.0
 41
14.88
 46
0.0
 71
     1
 72
     5
  1
 
 73
     1
 44
1.0
  0
MTEXT
  5
3A6
330
21F
100
AcDbEntity
  8
0
  6
Continuous
 62
     0
440
 16777216
100
AcDbMText
 10
23.56
 20
30.26
 30
0.0
 40
3.0
 41
4.879999999999999
 46
0.0
 71
     1
 72
     5
  1
 
 73
     1
 44
1.0
  0
MTEXT
  5
3A7
330
21F
100
AcDbEntity
  8
0
  6
Continuous
 62
     5
440
 16777216
100
AcDbMText
 10
28.56
 20
30.26
 30
0.0
 40
1.199999999999999
 41
27.88
 46
0.0
 71
     1
 72
     5
  1
Descrizione
  7
TEXTSTYLE_4
 73
     1
 44
1.0
  0
MTEXT
  5
3A8
330
21F
100
AcDbEntity
  8
0
  6
Continuous
 62
     0
440
 16777216
100
AcDbMText
 10
56.56
 20
30.26
 30
0.0
 40
3.0
 41
43.88
 46
0.0
 71
     1
 72
     5
  1
 
 73
     1
 44
1.0
  0
MTEXT
  5
3A9
330
21F
100
AcDbEntity
  8
0
  6
Continuous
 62
     0
440
 16777216
100
AcDbMText
 10
100.56
 20
30.26
 30
0.0
 40
3.0
 41
7.879999999999999
 46
0.0
 71
     1
 72
     5
  1
 
 73
     1
 44
1.0
  0
MTEXT
  5
3AA
330
21F
100
AcDbEntity
  8
0
  6
Continuous
 62
     0
440
 16777216
100
AcDbMText
 10
108.56
 20
30.26
 30
0.0
 40
3.0
 41
3.0
 46
0.0
 71
     1
 72
     5
  1
 
 73
     1
 44
1.0
  0
MTEXT
  5
3AB
330
21F
100
AcDbEntity
  8
0
  6
Continuous
 62
     0
440
 16777216
100
AcDbMText
 10
111.68
 20
30.26
 30
0.0
 40
3.0
 41
17.88
 46
0.0
 71
     1
 72
     5
  1
 
 73
     1
 44
1.0
  0
MTEXT
  5
3AC
330
21F
100
AcDbEntity
  8
0
  6
Continuous
 62
     0
440
 16777216
100
AcDbMText
 10
0.0599999999999996
 20
35.26
 30
0.0
 40
3.0
 41
8.38
 46
0.0
 71
     1
 72
     5
  1
 
 73
     1
 44
1.0
  0
MTEXT
  5
3AD
330
21F
100
AcDbEntity
  8
0
  6
Continuous
 62
     0
440
 16777216
100
AcDbMText
 10
8.56
 20
35.26
 30
0.0
 40
3.0
 41
14.88
 46
0.0
 71
     1
 72
     5
  1
 
 73
     1
 44
1.0
  0
MTEXT
  5
3AE
330
21F
100
AcDbEntity
  8
0
  6
Continuous
 62
     0
440
 16777216
100
AcDbMText
 10
23.56
 20
35.26
 30
0.0
 40
3.0
 41
4.879999999999999
 46
0.0
 71
     1
 72
     5
  1
 
 73
     1
 44
1.0
  0
MTEXT
  5
3AF
330
21F
100
AcDbEntity
  8
0
  6
Continuous
 62
     0
440
 16777216
100
AcDbMText
 10
28.56
 20
32.82
 30
0.0
 40
1.3
 41
101.0
 46
0.0
 71
     4
 72
     5
  1
Macchina o codice prenotante:   21480
  7
TEXTSTYLE_4
 73
     1
 44
1.0
  0
MTEXT
  5
3B0
330
21F
100
AcDbEntity
  8
0
  6
Continuous
 62
     0
440
 16777216
100
AcDbMText
 10
129.68
 20
40.25999999999999
 30
0.0
 40
1.3
 41
16.88
 46
0.0
 71
     1
 72
     5
  1
Firma\P--
  7
TEXTSTYLE_4
 73
     1
 44
1.0
  0
MTEXT
  5
3B1
330
21F
100
AcDbEntity
  8
0
  6
Continuous
 62
     5
440
 16777216
100
AcDbMText
 10
146.68
 20
40.25999999999999
 30
0.0
 40
1.3
 41
16.88
 46
0.0
 71
     1
 72
     5
  1
Data\P25-Jul-16
  7
TEXTSTYLE_4
 73
     1
 44
1.0
  0
MTEXT
  5
3B2
330
21F
100
AcDbEntity
  8
0
  6
Continuous
 62
     0
440
 16777216
100
AcDbMText
 10
0.0599999999999996
 20
40.25999999999999
 30
0.0
 40
3.0
 41
8.38
 46
0.0
 71
     1
 72
     5
  1
 
 73
     1
 44
1.0
  0
MTEXT
  5
3B3
330
21F
100
AcDbEntity
  8
0
  6
Continuous
 62
     0
440
 16777216
100
AcDbMText
 10
8.56
 20
40.25999999999999
 30
0.0
 40
3.0
 41
14.88
 46
0.0
 71
     1
 72
     5
  1
 
 73
     1
 44
1.0
  0
MTEXT
  5
3B4
330
21F
100
AcDbEntity
  8
0
  6
Continuous
 62
     0
440
 16777216
100
AcDbMText
 10
23.56
 20
40.25999999999999
 30
0.0
 40
3.0
 41
4.879999999999999
 46
0.0
 71
     1
 72
     5
  1
 
 73
     1
 44
1.0
  0
MTEXT
  5
3B5
330
21F
100
AcDbEntity
  8
0
  6
Continuous
 62
     0
440
 16777216
100
AcDbMText
 10
28.56
 20
40.25999999999999
 30
0.0
 40
1.3
 41
101.0
 46
0.0
 71
     1
 72
     5
  1
Tolleranze generali per quote senza valori:\fgdt;{\fgdt;n}\ftxt;=H11-h11 - lineari\fgdt;{\fgdt;`}\ftxt;0.2
  7
TEXTSTYLE_4
 73
     1
 44
1.0
  0
MTEXT
  5
3B6
330
21F
100
AcDbEntity
  8
0
  6
Continuous
 62
     0
440
 16777216
100
AcDbMText
 10
163.68
 20
40.25999999999999
 30
0.0
 40
1.3
 41
37.38
 46
0.0
 71
     1
 72
     5
  1
Rugosita' \fgdt;{\fgdt;a}\ftxt;0.8=rettifica
  7
TEXTSTYLE_4
 73
     1
 44
1.0
  0
LINE
  5
24B
330
21F
100
AcDbEntity
  8
0
  6
ByBlock
 62
     0
440
 16777216
370
    -2
100
AcDbLine
 10
0.0
 20
0.0
 30
0.0
 11
201.12
 21
0.0
 31
0.0
  0
LINE
  5
24C
330
21F
100
AcDbEntity
  8
0
  6
ByBlock
 62
     0
440
 16777216
370
    -2
100
AcDbLine
 10
0.0
 20
5.0
 30
0.0
 11
111.62
 21
5.0
 31
0.0
  0
LINE
  5
24D
330
21F
100
AcDbEntity
  8
0
  6
ByBlock
 62
     0
440
 16777216
370
    -2
100
AcDbLine
 10
146.62
 20
5.0
 30
0.0
 11
201.12
 21
5.0
 31
0.0
  0
LINE
  5
24E
330
21F
100
AcDbEntity
  8
0
  6
ByBlock
 62
     0
440
 16777216
370
    -2
100
AcDbLine
 10
0.0
 20
10.0
 30
0.0
 11
201.12
 21
10.0
 31
0.0
  0
LINE
  5
24F
330
21F
100
AcDbEntity
  8
0
  6
ByBlock
 62
     0
440
 16777216
370
    -2
100
AcDbLine
 10
0.0
 20
15.0
 30
0.0
 11
100.5
 21
15.0
 31
0.0
  0
LINE
  5
250
330
21F
100
AcDbEntity
  8
0
  6
ByBlock
 62
     0
440
 16777216
370
    -2
100
AcDbLine
 10
108.5
 20
15.0
 30
0.0
 11
163.62
 21
15.0
 31
0.0
  0
LINE
  5
251
330
21F
100
AcDbEntity
  8
0
  6
ByBlock
 62
     0
440
 16777216
370
    -2
100
AcDbLine
 10
0.0
 20
20.0
 30
0.0
 11
163.62
 21
20.0
 31
0.0
  0
LINE
  5
252
330
21F
100
AcDbEntity
  8
0
  6
ByBlock
 62
     0
440
 16777216
370
    -2
100
AcDbLine
 10
0.0
 20
25.32
 30
0.0
 11
129.62
 21
25.32
 31
0.0
  0
LINE
  5
253
330
21F
100
AcDbEntity
  8
0
  6
ByBlock
 62
     0
440
 16777216
370
    -2
100
AcDbLine
 10
181.62
 20
25.32
 30
0.0
 11
201.12
 21
25.32
 31
0.0
  0
LINE
  5
254
330
21F
100
AcDbEntity
  8
0
  6
ByBlock
 62
     0
440
 16777216
370
    -2
100
AcDbLine
 10
0.0
 20
30.32
 30
0.0
 11
163.62
 21
30.32
 31
0.0
  0
LINE
  5
255
330
21F
100
AcDbEntity
  8
0
  6
ByBlock
 62
     0
440
 16777216
370
    -2
100
AcDbLine
 10
0.0
 20
35.32
 30
0.0
 11
129.62
 21
35.32
 31
0.0
  0
LINE
  5
256
330
21F
100
AcDbEntity
  8
0
  6
ByBlock
 62
     0
440
 16777216
370
    -2
100
AcDbLine
 10
163.62
 20
35.32
 30
0.0
 11
201.12
 21
35.32
 31
0.0
  0
LINE
  5
257
330
21F
100
AcDbEntity
  8
0
  6
ByBlock
 62
     0
440
 16777216
370
    -2
100
AcDbLine
 10
0.0
 20
40.32
 30
0.0
 11
201.12
 21
40.32
 31
0.0
  0
LINE
  5
258
330
21F
100
AcDbEntity
  8
0
  6
ByBlock
 62
     0
440
 16777216
370
    -2
100
AcDbLine
 10
0.0
 20
0.0
 30
0.0
 11
0.0
 21
40.32
 31
0.0
  0
LINE
  5
259
330
21F
100
AcDbEntity
  8
0
  6
ByBlock
 62
     0
440
 16777216
370
    -2
100
AcDbLine
 10
8.5
 20
5.0
 30
0.0
 11
8.5
 21
40.32
 31
0.0
  0
LINE
  5
25A
330
21F
100
AcDbEntity
  8
0
  6
ByBlock
 62
     0
440
 16777216
370
    -2
100
AcDbLine
 10
23.5
 20
5.0
 30
0.0
 11
23.5
 21
40.32
 31
0.0
  0
LINE
  5
25B
330
21F
100
AcDbEntity
  8
0
  6
ByBlock
 62
     0
440
 16777216
370
    -2
100
AcDbLine
 10
28.5
 20
0.0
 30
0.0
 11
28.5
 21
40.32
 31
0.0
  0
LINE
  5
25C
330
21F
100
AcDbEntity
  8
0
  6
ByBlock
 62
     0
440
 16777216
370
    -2
100
AcDbLine
 10
56.5
 20
10.0
 30
0.0
 11
56.5
 21
30.32
 31
0.0
  0
LINE
  5
25D
330
21F
100
AcDbEntity
  8
0
  6
ByBlock
 62
     0
440
 16777216
370
    -2
100
AcDbLine
 10
100.5
 20
10.0
 30
0.0
 11
100.5
 21
20.0
 31
0.0
  0
LINE
  5
25E
330
21F
100
AcDbEntity
  8
0
  6
ByBlock
 62
     0
440
 16777216
370
    -2
100
AcDbLine
 10
100.5
 20
25.32
 30
0.0
 11
100.5
 21
30.32
 31
0.0
  0
LINE
  5
25F
330
21F
100
AcDbEntity
  8
0
  6
ByBlock
 62
     0
440
 16777216
370
    -2
100
AcDbLine
 10
108.5
 20
10.0
 30
0.0
 11
108.5
 21
20.0
 31
0.0
  0
LINE
  5
260
330
21F
100
AcDbEntity
  8
0
  6
ByBlock
 62
     0
440
 16777216
370
    -2
100
AcDbLine
 10
108.5
 20
25.32
 30
0.0
 11
108.5
 21
30.32
 31
0.0
  0
LINE
  5
261
330
21F
100
AcDbEntity
  8
0
  6
ByBlock
 62
     0
440
 16777216
370
    -2
100
AcDbLine
 10
111.62
 20
0.0
 30
0.0
 11
111.62
 21
10.0
 31
0.0
  0
LINE
  5
262
330
21F
100
AcDbEntity
  8
0
  6
ByBlock
 62
     0
440
 16777216
370
    -2
100
AcDbLine
 10
111.62
 20
25.32
 30
0.0
 11
111.62
 21
30.32
 31
0.0
  0
LINE
  5
263
330
21F
100
AcDbEntity
  8
0
  6
ByBlock
 62
     0
440
 16777216
370
    -2
100
AcDbLine
 10
129.62
 20
0.0
 30
0.0
 11
129.62
 21
10.0
 31
0.0
  0
LINE
  5
3B8
330
21F
100
AcDbEntity
  8
0
  6
ByBlock
 62
     0
440
 16777216
370
    -2
100
AcDbLine
 10
129.62
 20
20.0
 30
0.0
 11
129.62
 21
40.32
 31
0.0
  0
LINE
  5
3B9
330
21F
100
AcDbEntity
  8
0
  6
ByBlock
 62
     0
440
 16777216
370
    -2
100
AcDbLine
 10
146.62
 20
0.0
 30
0.0
 11
146.62
 21
40.32
 31
0.0
  0
LINE
  5
3BA
330
21F
100
AcDbEntity
  8
0
  6
ByBlock
 62
     0
440
 16777216
370
    -2
100
AcDbLine
 10
163.62
 20
10.0
 30
0.0
 11
163.62
 21
40.32
 31
0.0
  0
LINE
  5
3BB
330
21F
100
AcDbEntity
  8
0
  6
ByBlock
 62
     0
440
 16777216
370
    -2
100
AcDbLine
 10
181.62
 20
10.0
 30
0.0
 11
181.62
 21
35.32
 31
0.0
  0
LINE
  5
3BC
330
21F
100
AcDbEntity
  8
0
  6
ByBlock
 62
     0
440
 16777216
370
    -2
100
AcDbLine
 10
192.62
 20
0.0
 30
0.0
 11
192.62
 21
10.0
 31
0.0
  0
LINE
  5
3BD
330
21F
100
AcDbEntity
  8
0
  6
ByBlock
 62
     0
440
 16777216
370
    -2
100
AcDbLine
 10
201.12
 20
0.0
 30
0.0
 11
201.12
 21
40.32
 31
0.0
  0
LINE
  5
3BE
330
21F
100
AcDbEntity
  8
Defpoints
 62
     8
440
 16777216
 60
     1
370
     0
100
AcDbLine
 10
0.0
 20
0.0
 30
0.0
 11
0.0
 21
0.0
 31
0.0
  0
ENDBLK
  5
280
330
21F
100
AcDbEntity
  8
0
  6
ByBlock
 62
     0
100
AcDbBlockEnd
  0
ENDSEC
  0
SECTION
  2
ENTITIES
  0
DIMENSION
  5
281
330
218
100
AcDbEntity
  8
0
  6
Continuous
 62
     2
100
AcDbDimension
280
     0
  2
*D1
 10
113.4573738409
 20
110.8100632792
 30
0.0
 11
104.0422083118
 21
110.8100632792
 31
0.0
 70
   160
  1
Ø<>
 71
     2
 72
     2
 41
0.9
 42
19.0
 73
     0
 74
     0
 75
     0
  3
DIMSTYLE_1
100
AcDbAlignedDimension
 13
94.4573738409
 23
128.3307665361
 33
0.0
 14
113.4573738409
 24
128.3307665361
 34
0.0
100
AcDbRotatedDimension
  0
DIMENSION
  5
282
330
218
100
AcDbEntity
  8
0
  6
Continuous
 62
     2
100
AcDbDimension
280
     0
  2
*D2
 10
87.5573738409
 20
101.9713573401
 30
0.0
 11
103.9573738409
 21
101.9713573401
 31
0.0
 70
   160
  1
%%c<>
 71
     2
 72
     2
 41
0.9
 42
32.8
 73
     0
 74
     0
 75
     0
  3
DIMSTYLE_2
100
AcDbAlignedDimension
 13
120.3573738409
 23
129.5307665361
 33
0.0
 14
87.5573738409
 24
129.5307665361
 34
0.0
 50
180.0
100
AcDbRotatedDimension
  0
DIMENSION
  5
283
330
218
100
AcDbEntity
  8
0
  6
Continuous
 62
     2
100
AcDbDimension
280
     0
  2
*D3
 10
128.9573738409
 20
229.3277251539
 30
0.0
 11
103.5443412681
 21
229.3277251539
 31
0.0
 70
   160
  1
%%c<>
 71
     2
 72
     2
 41
0.9
 42
50.0
 73
     0
 74
     0
 75
     0
  3
DIMSTYLE_1
100
AcDbAlignedDimension
 13
78.95737384090001
 23
190.0307665361
 33
0.0
 14
128.9573738409
 24
190.0307665361
 34
0.0
100
AcDbRotatedDimension
  0
DIMENSION
  5
284
330
218
100
AcDbEntity
  8
0
  6
Continuous
 62
     2
100
AcDbDimension
280
     0
  2
*D4
 10
150.9286970313
 20
127.5307665361
 30
0.0
 11
150.9286970313
 21
158.6021905985
 31
0.0
 70
   160
 71
     2
 72
     2
 41
0.9
 42
63.0
 73
     0
 74
     0
 75
     0
  3
DIMSTYLE_1
100
AcDbAlignedDimension
 13
128.4573738409
 23
190.5307665361
 33
0.0
 14
115.4573738409
 24
127.5307665361
 34
0.0
 50
270.0
100
AcDbRotatedDimension
  0
ACAD_TABLE
  5
285
330
218
100
AcDbEntity
  8
0
  6
Continuous
 62
     2
160
             13860
310
243600005C010000880000001D000000000000000000F03F0000000000000000000000000000000010CC4FF59D1916400000000000000000000000000000F03F0000000000000000D0DDF3D9C8081A4000000000000000000000000000000000000000000000F03F0000000000000000000000000000000000000000000000
310
000000000000000000000000000000F03F0C00000016000000020000C30C00000017000000FDFFFFFF0C0000001200000000000000C800000026000000AAAAAAAAAAAA1F40545555555555FD3F000000000000000000000000000000000000000000000000000000000000F03F000000000000F03F00000000000000000000
310
0000000000004D006F006400690066006900630061000000320008000000010000000000000000000040000000000000F03F0000000000000000000000000000F03F000000000000000000000000000000000000000000000000000000000100000000000000000000007400780074002E0073006800780000000000D7D70C
310
00000016000000020000C30C00000017000000FDFFFFFF0C0000001200000000000000180100002600000090C2F5285C8F3C40EA51B81E85EB0D40000000000000000000000000000000000000000000000000000000000000F03F000000000000F03F000000000000000000000000000000004C0061002000640069007400
310
74006100200074007500740065006C006100200069002000700072006F007000720069002000640069007300650067006E0069002000610020006E006F0072006D00610020006400690020006C00650067006700650000003100000001000000333333333333F33F000000000000F03F0000000000000000000000000000F0
310
3F000000000000000000000000000000000000000000000000000000000100000000000000000065007400780074002E0073006800780000000000FFFF0C00000016000000050000C30C00000017000000FDFFFFFF0C00000012000000000000000C00000016000000050000C3C00000002600000049E17A14AEA75C400000
310
000000001040000000000000000000000000000000000000000000000000000000000000F03F000000000000F03F0000000000000000000000000000000041003400200056000000000004000000010000000000000000000840000000000000F03F0000000000000000000000000000F03F00000000000000000000000000
310
0000000000000000000000000000000100000000000000000000007400780074002E007300680078000000000000000C00000016000000020000C30C00000017000000FDFFFFFF0C0000001200000000000000CC00000026000000F6285C8FC2356040ABAAAAAAAA2A16400000000000000000000000000000000000000000
310
00000000000000000000F03F000000000000F03F000000000000000000000000000000005000650073006F002000660069006E00690074006F0000000B00000001000000CDCCCCCCCCCCF43F000000000000F03F0000000000000000000000000000F03F000000000000000000000000000000000000000000000000000000
310
000100000000000000000067007400780074002E00730068007800000000007400C000000026000000F6285C8FC2356040BABBBBBBBBBB0C40000000000000000000000000000000000000000000000000000000000000F03F000000000000F03F0000000000000000000000000000000030002E0035003200310000000500
310
000001000000CDCCCCCCCCCCF43F000000000000F03F0000000000000000000000000000F03F000000000000000000000000000000000000000000000000000000000100000000000000000000007400780074002E007300680078000000000000000C00000016000000020000C30C00000017000000FDFFFFFF0C00000012
310
00000000000000CC0000002600000052B81E85EBB16440F4285C8FC2F5F03F000000000000000000000000000000000000000000000000000000000000F03F000000000000F03F00000000000000000000000000000000320031003400380030002F004800350030004100000000000A000000010000000000000000000840
310
000000000000F03F0000000000000000000000000000F03F000000000000000000000000000000000000000000000000000000000100000000000000000000007400780074002E007300680078000000000000000C00000016000000020000C30C00000017000000FDFFFFFF0C00000012000000000000000C000000160000
310
00050000C30C00000017000000FDFFFFFF0C00000012000000000000000C00000016000000050000C3BC000000260000001111111111110B4048E17A14AE472140000000000000000000000000000000000000000000000000000000000000F03F000000000000F03F000000000000000000000000000000004E00B0000000
310
FF3F0200000001000000CDCCCCCCCCCCF43F000000000000F03F0000000000000000000000000000F03F000000000000000000000000000000000000000000000000000000000100000000000000000000007400780074002E007300680078000000000000000C00000016000000050000C30C00000017000000FDFFFFFF0C
310
00000012000000000000000C00000016000000050000C3C000000026000000BBBBBBBBBB3B2B4048E17A14AE472140000000000000000000000000000000000000000000000000000000000000F03F000000000000F03F000000000000000000000000000000004400410054004100000000000400000001000000CDCCCCCC
310
CCCCF43F000000000000F03F0000000000000000000000000000F03F000000000000000000000000000000000000000000000000000000000100000000000000000000007400780074002E007300680078000000000000000C00000016000000050000C30C00000017000000FDFFFFFF0C00000012000000000000000C0000
310
0016000000050000C3BC00000026000000444444444444384048E17A14AE472140000000000000000000000000000000000000000000000000000000000000F03F000000000000F03F0000000000000000000000000000000045007300700000000300000001000000CDCCCCCCCCCCF43F000000000000F03F000000000000
310
0000000000000000F03F000000000000000000000000000000000000000000000000000000000100000000000000000000007400780074002E007300680078000000000000000C00000016000000020000C30C00000017000000FDFFFFFF0C0000001200000000000000DC0000002600000090C2F5285C8F3C40AF47E17A14
310
AE2040000000000000000000000000000000000000000000000000000000000000F03F000000000000F03F0000000000000000000000000000000043006F0064002E004300610064002000320031003400380030002D00480035003000410000003B0012000000010000009A9999999999F93F000000000000F03F00000000
310
00000000000000000000F03F000000000000000000000000000000000000000000000000000000000100000000000000000060007400780074002E007300680078000000000032000C00000016000000020000C30C00000017000000FDFFFFFF0C0000001200000000000000CC00000026000000824E1BE8B471644048E17A
310
14AE472140000000000000000000000000000000000000000000000000000000000000F03F000000000000F03F0000000000000000000000000000000063006F0064002E00640069007300650067006E006F0000000B00000001000000CDCCCCCCCCCCF43F000000000000F03F0000000000000000000000000000F03F0000
310
000000000000000000000000000000000000000000000000000001000000000000000000FFFF7400780074002E0073006800780000000000FFFF0C00000016000000050000C30C00000017000000FDFFFFFF0C00000012000000000000000C00000016000000050000C3C0000000260000003E0AD7A3705D684048E17A14AE
310
472140000000000000000000000000000000000000000000000000000000000000F03F000000000000F03F000000000000000000000000000000006500730070002E00000000000400000001000000CDCCCCCCCCCCF43F000000000000F03F0000000000000000000000000000F03F00000000000000000000000000000000
310
0000000000000000000000000100000000000000000000007400780074002E007300680078000000000000000C00000016000000020000C30C00000017000000FDFFFFFF0C00000012000000000000000C00000016000000020000C30C00000017000000FDFFFFFF0C00000012000000000000000C00000016000000020000
310
C30C00000017000000FDFFFFFF0C00000012000000000000000C00000016000000050000C30C00000017000000FDFFFFFF0C00000012000000000000000C00000016000000050000C3BC0000002600000090C2F5285C8F3C40EFEEEEEEEEEE2740000000000000000000000000000000000000000000000000000000000000
310
F03F000000000000F03F000000000000000000000000000000002D002D000000274002000000010000009A9999999999F93F000000000000F03F0000000000000000000000000000F03F000000000000000000000000000000000000000000000000000000000100000000000000000000007400780074002E007300680078
310
000000000000000C00000016000000050000C30C00000017000000FDFFFFFF0C00000012000000000000000C00000016000000050000C3BC0000002600000048E17A14AE474C402222222222222840000000000000000000000000000000000000000000000000000000000000F03F000000000000F03F0000000000000000
310
00000000000000002D002D002D0000000300000001000000CDCCCCCCCCCCF43F000000000000F03F0000000000000000000000000000F03F000000000000000000000000000000000000000000000000000000000100000000000000000000007400780074002E007300680078000000000000000C00000016000000050000
310
C30C00000017000000FDFFFFFF0C00000012000000000000000C00000016000000020000C30C00000017000000FDFFFFFF0C00000012000000000000000C00000016000000050000C30C00000017000000FDFFFFFF0C00000012000000000000000C00000016000000020000C30C00000017000000FDFFFFFF0C0000001200
310
0000000000000C00000016000000020000C30C00000017000000FDFFFFFF0C00000012000000000000000C00000016000000020000C30C00000017000000FDFFFFFF0C00000012000000000000000C00000016000000020000C30C00000017000000FDFFFFFF0C00000012000000000000000C00000016000000050000C30C
310
00000017000000FDFFFFFF0C00000012000000000000000C00000016000000050000C3C80000002600000090C2F5285C8F3C401111111111113140000000000000000000000000000000000000000000000000000000000000F03F000000000000F03F000000000000000000000000000000004D0061007400650072006900
310
61006C00650000000900000001000000CDCCCCCCCCCCF43F000000000000F03F0000000000000000000000000000F03F000000000000000000000000000000000000000000000000000000000100000000000000000000007400780074002E007300680078000000000000000C00000016000000050000C30C000000170000
310
00FDFFFFFF0C00000012000000000000000C00000016000000050000C3D00000002600000048E17A14AE474C400000000000003140000000000000000000000000000000000000000000000000000000000000F03F000000000000F03F00000000000000000000000000000000540072006100740074002E00740065007200
310
6D0069006300690000000D00000001000000000000000000F83F000000000000F03F0000000000000000000000000000F03F000000000000000000000000000000000000000000000000000000000100000000000000000000007400780074002E007300680078000000000000000C00000016000000020000C30C00000017
310
000000FDFFFFFF0C0000001200000000000000D000000026000000A5703D0AD7235B401111111111113140000000000000000000000000000000000000000000000000000000000000F03F000000000000F03F00000000000000000000000000000000440069006D0065006E0073002E006700720065007A007A0065000000
310
0D00000001000000CDCCCCCCCCCCF43F000000000000F03F0000000000000000000000000000F03F000000000000000000000000000000000000000000000000000000000100000000000000000000007400780074002E007300680078000000000000000C00000016000000050000C30C00000017000000FDFFFFFF0C0000
310
0012000000000000000C00000016000000050000C3D400000026000000F6285C8FC2556240ABAAAAAAAA2A3140000000000000000000000000000000000000000000000000000000000000F03F000000000000F03F000000000000000000000000000000005000650073006F0020006700720065007A007A006F0020004B00
310
67002E0000000F00000001000000000000000000F03F000000000000F03F0000000000000000000000000000F03F000000000000000000000000000000000000000000000000000000000100000000000000000000007400780074002E007300680078000000000000000C00000016000000020000C30C00000017000000FD
310
FFFFFF0C00000012000000000000000C00000016000000020000C30C00000017000000FDFFFFFF0C00000012000000000000000C00000016000000020000C30C00000017000000FDFFFFFF0C00000012000000000000000C00000016000000050000C30C00000017000000FDFFFFFF0C00000012000000000000000C000000
310
16000000050000C3D40000002600000090C2F5285C8F3C4090C2F5285C0F3840000000000000000000000000000000000000000000000000000000000000F03F000000000000F03F000000000000000000000000000000004D0041004E004400520049004E004F002000530045004E005A004100000000000E000000010000
310
00333333333333F33F000000000000F03F0000000000000000000000000000F03F000000000000000000000000000000000000000000000000000000000100000000000000000000007400780074002E007300680078000000000000000C00000016000000050000C3E40000002600000090C2F5285C8F3C4090C2F5285C0F
310
3640000000000000000000000000000000000000000000000000000000000000F03F000000000000F03F0000000000000000000000000000000043004F004D00500045004E00530041005A002000410053005300490041004C00450020004400410020004D00330000001700000001000000333333333333F33F0000000000
310
00F03F0000000000000000000000000000F03F000000000000000000000000000000000000000000000000000000000100000000000000000070007400780074002E007300680078000000000000000C00000016000000050000C3D40000002600000090C2F5285C8F3C4090C2F5285C0F3440000000000000000000000000
310
000000000000000000000000000000000000F03F000000000000F03F00000000000000000000000000000000410020004D003100320020005000450052002000310039002F003100310000000F00000001000000333333333333F33F000000000000F03F0000000000000000000000000000F03F0000000000000000000000
310
00000000000000000000000000000000000100000000000000000000007400780074002E007300680078000000000000000C00000016000000020000C30C00000017000000FDFFFFFF0C00000012000000000000000C00000016000000020000C30C00000017000000FDFFFFFF0C0000001200000000000000C00000002600
310
0000F6285C8FC2356040F5285C8FC2F53C40000000000000000000000000000000000000000000000000000000000000F03F000000000000F03F0000000000000000000000000000000056006900730074006F0000000500000001000000CDCCCCCCCCCCF43F000000000000F03F0000000000000000000000000000F03F00
310
0000000000000000000000000000000000000000000000000000000100000000000000000000007400780074002E007300680078000000000000000C00000016000000050000C30C00000017000000FDFFFFFF0C00000012000000000000000C00000016000000050000C3C000000026000000F6285C8FC2556240F5285C8F
310
C2F53C40000000000000000000000000000000000000000000000000000000000000F03F000000000000F03F000000000000000000000000000000005300630061006C00610000000500000001000000CDCCCCCCCCCCF43F000000000000F03F0000000000000000000000000000F03F000000000000000000000000000000
310
000000000000000000000000000100000000000000000000007400780074002E007300680078000000000000000C00000016000000050000C3BC00000026000000F6285C8FC25562404A7EB1E417CB3A40000000000000000000000000000000000000000000000000000000000000F03F000000000000F03F000000000000
310
0000000000000000000031003A00310000000300000001000000CDCCCCCCCCCCF43F000000000000F03F0000000000000000000000000000F03F000000000000000000000000000000000000000000000000000000000100000000000000000000007400780074002E007300680078000000000000000C0000001600000002
310
0000C30C00000017000000FDFFFFFF0C00000012000000000000000C00000016000000020000C30C00000017000000FDFFFFFF0C00000012000000000000000C00000016000000020000C30C00000017000000FDFFFFFF0C00000012000000000000000C00000016000000050000C30C00000017000000FDFFFFFF0C000000
310
12000000000000000C00000016000000050000C3CC0000002600000090C2F5285C8F3C408FC2F5285C0F3D40000000000000000000000000000000000000000000000000000000000000F03F000000000000F03F000000000000000000000000000000004400650073006300720069007A0069006F006E00650000000B0000
310
0001000000333333333333F33F000000000000F03F0000000000000000000000000000F03F000000000000000000000000000000000000000000000000000000000100000000000000000000007400780074002E007300680078000000000000000C00000016000000020000C30C00000017000000FDFFFFFF0C0000001200
310
0000000000000C00000016000000020000C30C00000017000000FDFFFFFF0C00000012000000000000000C00000016000000020000C30C00000017000000FDFFFFFF0C00000012000000000000000C00000016000000020000C30C00000017000000FDFFFFFF0C00000012000000000000000C00000016000000020000C30C
310
00000017000000FDFFFFFF0C00000012000000000000000C00000016000000020000C30C00000017000000FDFFFFFF0C00000012000000000000000C00000016000000020000C30C00000017000000FDFFFFFF0C00000012000000000000000C00000016000000020000C30C00000017000000FDFFFFFF0C00000012000000
310
0000000000010000260000008EC2F5285C8F3C40B2E4174B7E314040000000000000000000000000000000000000000000000000000000000000F03F000000000000F03F000000000000000000000000000000004D00610063006300680069006E00610020006F00200063006F00640069006300650020007000720065006E
310
006F00740061006E00740065003A002000200020003200310034003800300000002500000001000000CDCCCCCCCCCCF43F000000000000F03F0000000000000000000000000000F03F0000000000000000000000000000000000000000000000000000000001000000000000000000F7087400780074002E00730068007800
310
0000000000000C00000016000000020000C30C00000017000000FDFFFFFF0C0000001200000000000000C000000026000000F6285C8FC23560407B14AE47E17A4340000000000000000000000000000000000000000000000000000000000000F03F000000000000F03F000000000000000000000000000000004600690072
310
006D00610000000500000001000000CDCCCCCCCCCCF43F000000000000F03F0000000000000000000000000000F03F000000000000000000000000000000000000000000000000000000000100000000000000000000007400780074002E00730068007800000000000000BC00000026000000F6285C8FC235604026BF58F2
310
8B654240000000000000000000000000000000000000000000000000000000000000F03F000000000000F03F000000000000000000000000000000002D002D00000000000200000001000000CDCCCCCCCCCCF43F000000000000F03F0000000000000000000000000000F03F00000000000000000000000000000000000000
310
0000000000000000000100000000000000000000007400780074002E007300680078000000000000000C00000016000000050000C30C00000017000000FDFFFFFF0C00000012000000000000000C00000016000000050000C3C000000026000000F6285C8FC25562407B14AE47E17A43400000000000000000000000000000
310
00000000000000000000000000000000F03F000000000000F03F000000000000000000000000000000004400610074006100000000000400000001000000CDCCCCCCCCCCF43F000000000000F03F0000000000000000000000000000F03F000000000000000000000000000000000000000000000000000000000100000000
310
000000000000007400780074002E007300680078000000000000000C00000016000000050000C3C800000026000000F6285C8FC255624026BF58F28B654240000000000000000000000000000000000000000000000000000000000000F03F000000000000F03F00000000000000000000000000000000320035002D004A00
310
75006C002D003100360000000900000001000000CDCCCCCCCCCCF43F000000000000F03F0000000000000000000000000000F03F000000000000000000000000000000000000000000000000000000000100000000000000000000007400780074002E007300680078000000000000000C00000016000000020000C30C0000
310
0017000000FDFFFFFF0C00000012000000000000000C00000016000000020000C30C00000017000000FDFFFFFF0C00000012000000000000000C00000016000000020000C30C00000017000000FDFFFFFF0C00000012000000000000000C00000016000000020000C30C00000017000000FDFFFFFF0C000000120000000000
310
00000C0100002600000090C2F5285C8F3C406A56CA539D544340000000000000000000000000000000000000000000000000000000000000F03F000000000000F03F0000000000000000000000000000000054006F006C006C006500720061006E007A0065002000670065006E006500720061006C00690020007000650072
310
002000710075006F00740065002000730065006E007A0061002000760061006C006F00720069003A0000002B00000001000000CDCCCCCCCCCCF43F000000000000F03F0000000000000000000000000000F03F0000000000000000000000000000000000000000000000000000000001000000000000000000FFFF74007800
310
74002E0073006800780000000000FFFFB0000000260000006C3D0AD7A3D053406A56CA539D544340000000000000000000000000000000000000000000000000000000000000F03F000000000000F03F000000000000000000000000000000006E0000000100000001000000CDCCCCCCCCCCF43F000000000000F03F000000
310
0000000000000000000000F03F00000000000000000000000000000000000000000000000000000000010000000200000047004400540000000000440E00000000D400000026000000BED552B4773054406A56CA539D544340000000000000000000000000000000000000000000000000000000000000F03F000000000000
310
F03F000000000000000000000000000000003D004800310031002D0068003100310020002D0020006C0069006E006500610072006900000000001200000001000000CDCCCCCCCCCCF43F000000000000F03F0000000000000000000000000000F03F0000000000000000000000000000000000000000000000000000000001
310
0000000200000054007800740000000000000000000000B000000026000000E4150B31D10259406A56CA539D544340000000000000000000000000000000000000000000000000000000000000F03F000000000000F03F00000000000000000000000000000000600000000100000001000000CDCCCCCCCCCCF43F00000000
310
0000F03F0000000000000000000000000000F03F00000000000000000000000000000000000000000000000000000000010000000200000047004400540000000000690000006500B4000000260000006211AA3A766A59406A56CA539D544340000000000000000000000000000000000000000000000000000000000000F0
310
3F000000000000F03F0000000000000000000000000000000030002E00320000000300000001000000CDCCCCCCCCCCF43F000000000000F03F0000000000000000000000000000F03F00000000000000000000000000000000000000000000000000000000010000000200000054007800740000000000FDD70000A6E70C00
310
000016000000020000C30C00000017000000FDFFFFFF0C0000001200000000000000CC00000026000000F6285C8FC275644025D7163213794340000000000000000000000000000000000000000000000000000000000000F03F000000000000F03F000000000000000000000000000000005200750067006F007300690074
310
00610027002000000000010A00000001000000CDCCCCCCCCCCF43F000000000000F03F0000000000000000000000000000F03F0000000000000000000000000000000000000000000000000000000001000000000000000000F5FF7400780074002E0073006800780000000000F5FFB0000000260000006EA0D3063AE56540
310
25D7163213794340000000000000000000000000000000000000000000000000000000000000F03F000000000000F03F00000000000000000000000000000000610000000100000001000000CDCCCCCCCCCCF43F000000000000F03F0000000000000000000000000000F03F00000000000000000000000000000000000000
310
000000000000000000010000000200000047004400540000000000000000000000C8000000260000007D2A0079A52C664025D7163213794340000000000000000000000000000000000000000000000000000000000000F03F000000000000F03F0000000000000000000000000000000030002E0038003D00720065007400
310
74006900660069006300610000000D00000001000000CDCCCCCCCCCCF43F000000000000F03F0000000000000000000000000000F03F000000000000000000000000000000000000000000000000000000000100000002000000540078007400000000000000000000000C00000016000000020000C30C00000017000000FD
310
FFFFFF0C0000001200000000000000540000002000000002000000000000000000000000000000000000000000000000000000A4703D0AD72369400000000000000000000000000000000000000000000000000000000000000000000000000000F03F0C00000016000000020000C30C00000017000000FDFFFFFF0C000000
310
120000000000000054000000200000000200000000000000000000000000000000001440000000000000000048E17A14AEE75B400000000000001440000000000000000000000000000000000000000000000000000000000000F03F0C00000016000000020000C30C00000017000000FDFFFFFF0C00000012000000000000
310
00540000002000000002000000A4703D0AD753624000000000000014400000000000000000A4703D0AD72369400000000000001440000000000000000000000000000000000000000000000000000000000000F03F0C00000016000000020000C30C00000017000000FDFFFFFF0C0000001200000000000000540000002000
310
000002000000000000000000000000000000000024400000000000000000A4703D0AD72369400000000000002440000000000000000000000000000000000000000000000000000000000000F03F0C00000016000000020000C30C00000017000000FDFFFFFF0C000000120000000000000054000000200000000200000000
310
000000000000000000000000002E40000000000000000000000000002059400000000000002E40000000000000000000000000000000000000000000000000000000000000F03F0C00000016000000020000C30C00000017000000FDFFFFFF0C00000012000000000000005400000020000000020000000000000000205B40
310
0000000000002E400000000000000000A4703D0AD77364400000000000002E40000000000000000000000000000000000000000000000000000000000000F03F0C00000016000000020000C30C00000017000000FDFFFFFF0C0000001200000000000000540000002000000002000000000000000000000000000000000034
310
400000000000000000A4703D0AD77364400000000000003440000000000000000000000000000000000000000000000000000000000000F03F0C00000016000000020000C30C00000017000000FDFFFFFF0C0000001200000000000000540000002000000002000000000000000000000052B81E85EB513940000000000000
310
0000A4703D0AD733604052B81E85EB513940000000000000000000000000000000000000000000000000000000000000F03F0C00000016000000020000C30C00000017000000FDFFFFFF0C0000001200000000000000540000002000000002000000A4703D0AD7B3664052B81E85EB5139400000000000000000A4703D0AD7
310
23694052B81E85EB513940000000000000000000000000000000000000000000000000000000000000F03F0C00000016000000020000C30C00000017000000FDFFFFFF0C0000001200000000000000540000002000000002000000000000000000000052B81E85EB513E400000000000000000A4703D0AD773644052B81E85
310
EB513E40000000000000000000000000000000000000000000000000000000000000F03F0C00000016000000020000C30C00000017000000FDFFFFFF0C00000012000000000000005400000020000000020000000000000000000000295C8FC2F5A841400000000000000000A4703D0AD7336040295C8FC2F5A84140000000
310
000000000000000000000000000000000000000000000000000000F03F0C00000016000000020000C30C00000017000000FDFFFFFF0C0000001200000000000000540000002000000002000000A4703D0AD7736440295C8FC2F5A841400000000000000000A4703D0AD7236940295C8FC2F5A8414000000000000000000000
310
0000000000000000000000000000000000000000F03F0C00000016000000020000C30C00000017000000FDFFFFFF0C00000012000000000000005400000020000000020000000000000000000000295C8FC2F52844400000000000000000A4703D0AD7236940295C8FC2F52844400000000000000000000000000000000000
310
00000000000000000000000000F03F0C00000016000000020000C30C00000017000000FDFFFFFF0C00000012000000000000005400000020000000020000000000000000000000000000000000000000000000000000000000000000000000295C8FC2F5284440000000000000000000000000000000000000000000000000
310
000000000000F03F0C00000016000000020000C30C00000017000000FDFFFFFF0C00000012000000000000005400000020000000020000000000000000002140000000000000144000000000000000000000000000002140295C8FC2F5284440000000000000000000000000000000000000000000000000000000000000F0
310
3F0C00000016000000020000C30C00000017000000FDFFFFFF0C00000012000000000000005400000020000000020000000000000000803740000000000000144000000000000000000000000000803740295C8FC2F5284440000000000000000000000000000000000000000000000000000000000000F03F0C0000001600
310
0000020000C30C00000017000000FDFFFFFF0C00000012000000000000005400000020000000020000000000000000803C40000000000000000000000000000000000000000000803C40295C8FC2F5284440000000000000000000000000000000000000000000000000000000000000F03F0C00000016000000020000C30C
310
00000017000000FDFFFFFF0C00000012000000000000005400000020000000020000000000000000404C40000000000000244000000000000000000000000000404C4052B81E85EB513E40000000000000000000000000000000000000000000000000000000000000F03F0C00000016000000020000C30C00000017000000
310
FDFFFFFF0C000000120000000000000054000000200000000200000000000000002059400000000000002440000000000000000000000000002059400000000000003440000000000000000000000000000000000000000000000000000000000000F03F0C00000016000000020000C30C00000017000000FDFFFFFF0C0000
310
001200000000000000540000002000000002000000000000000020594052B81E85EB5139400000000000000000000000000020594052B81E85EB513E40000000000000000000000000000000000000000000000000000000000000F03F0C00000016000000020000C30C00000017000000FDFFFFFF0C000000120000000000
310
00005400000020000000020000000000000000205B40000000000000244000000000000000000000000000205B400000000000003440000000000000000000000000000000000000000000000000000000000000F03F0C00000016000000020000C30C00000017000000FDFFFFFF0C00000012000000000000005400000020
310
000000020000000000000000205B4052B81E85EB51394000000000000000000000000000205B4052B81E85EB513E40000000000000000000000000000000000000000000000000000000000000F03F0C00000016000000020000C30C00000017000000FDFFFFFF0C0000001200000000000000540000002000000002000000
310
48E17A14AEE75B400000000000000000000000000000000048E17A14AEE75B400000000000002440000000000000000000000000000000000000000000000000000000000000F03F0C00000016000000020000C30C00000017000000FDFFFFFF0C000000120000000000000054000000200000000200000048E17A14AEE75B
310
4052B81E85EB513940000000000000000048E17A14AEE75B4052B81E85EB513E40000000000000000000000000000000000000000000000000000000000000F03F0C00000016000000020000C30C00000017000000FDFFFFFF0C0000001200000000000000540000002000000002000000A4703D0AD7336040000000000000
310
00000000000000000000A4703D0AD73360400000000000002440000000000000000000000000000000000000000000000000000000000000F03F0C00000016000000020000C30C00000017000000FDFFFFFF0C0000001200000000000000540000002000000002000000A4703D0AD733604000000000000034400000000000
310
000000A4703D0AD7336040295C8FC2F5284440000000000000000000000000000000000000000000000000000000000000F03F0C00000016000000020000C30C00000017000000FDFFFFFF0C0000001200000000000000540000002000000002000000A4703D0AD753624000000000000000000000000000000000A4703D0A
310
D7536240295C8FC2F5284440000000000000000000000000000000000000000000000000000000000000F03F0C00000016000000020000C30C00000017000000FDFFFFFF0C0000001200000000000000540000002000000002000000A4703D0AD773644000000000000024400000000000000000A4703D0AD7736440295C8F
310
C2F5284440000000000000000000000000000000000000000000000000000000000000F03F0C00000016000000020000C30C00000017000000FDFFFFFF0C0000001200000000000000540000002000000002000000A4703D0AD7B3664000000000000024400000000000000000A4703D0AD7B36640295C8FC2F5A841400000
310
00000000000000000000000000000000000000000000000000000000F03F0C00000016000000020000C30C00000017000000FDFFFFFF0C0000001200000000000000540000002000000002000000A4703D0AD713684000000000000000000000000000000000A4703D0AD71368400000000000002440000000000000000000
310
000000000000000000000000000000000000000000F03F0C00000016000000020000C30C00000017000000FDFFFFFF0C0000001200000000000000540000002000000002000000A4703D0AD723694000000000000000000000000000000000A4703D0AD7236940295C8FC2F528444000000000000000000000000000000000
310
0000000000000000000000000000F03F0C00000016000000080000C30C00000017000000000000000C0000001200000000000000540000002000000002000000000000000000000000000000000000000000000000000000000000000000000000000000000000000000000000000000000000000000000000000000000000
310
00000000000000F03F080000001F000000
100
AcDbBlockReference
  2
*T5
 10
5.525016625399999
 20
6.508578687199999
 30
0.0
100
AcDbTable
280
     0
342
346
343
21F
 11
1.0
 21
0.0
 31
0.0
 90
        6
 91
        8
 92
       15
 93
        4
 94
        0
 95
        0
 96
        0
 70
     1
141
5.0
141
5.0
141
5.0
141
5.0
141
5.32
141
5.0
141
5.0
141
5.0
142
8.5
142
15.0
142
5.0
142
28.0
142
44.0
142
8.0
142
3.12
142
18.0
142
8.5
142
8.5
142
17.0
142
9.0
142
9.0
142
11.0
142
8.5
171
     1
172
     0
173
     0
174
     0
175
     3
176
     1
 91
   262193
178
     0
145
0.0
170
     5
  7
TEXTSTYLE_4
140
2.0
 92
        0
301
CELL_VALUE
 93
        4
 90
        4
  1
Modifica
 94
        0
300

302
Modifica
304
ACVALUE_END
171
     1
172
     0
173
     1
174
     0
175
     1
176
     1
 91
        1
178
     0
145
0.0
170
     1
 92
        0
301
CELL_VALUE
 93
        7
 90
        0
 94
        0
300

302

304
ACVALUE_END
171
     1
172
     0
173
     1
174
     0
175
     1
176
     1
 91
        1
178
     0
145
0.0
170
     5
 92
        0
301
CELL_VALUE
 93
        7
 90
        0
 94
        0
300

302

304
ACVALUE_END
171
     1
172
     0
173
     0
174
     0
175
     4
176
     1
 91
   262193
178
     0
145
0.0
170
     1
  7
TEXTSTYLE_4
140
1.199999999999999
 92
        0
301
CELL_VALUE
 93
        4
 90
        4
  1
La ditta tutela i propri disegni a norma di legge
 94
        0
300

302
La ditta tutela i propri disegni a norma di legge
304
ACVALUE_END
171
     1
172
     0
173
     1
174
     0
175
     1
176
     1
 91
        1
178
     0
145
0.0
170
     1
 92
        0
301
CELL_VALUE
 93
        7
 90
        0
 94
        0
300

302

304
ACVALUE_END
171
     1
172
     0
173
     1
174
     0
175
     1
176
     1
 91
        1
178
     0
145
0.0
170
     1
 92
        0
301
CELL_VALUE
 93
        7
 90
        0
 94
        0
300

302

304
ACVALUE_END
171
     1
172
     0
173
     1
174
     0
175
     1
176
     1
 91
        1
178
     0
145
0.0
170
     1
 92
        0
301
CELL_VALUE
 93
        7
 90
        0
 94
        0
300

302

304
ACVALUE_END
171
     1
172
     0
173
     0
174
     0
175
     1
176
     2
 91
   262201
178
     0
145
0.0
170
     5
  7
TEXTSTYLE_5
 64
     5
140
3.0
 92
        0
301
CELL_VALUE
 93
        4
 90
        4
  1
A4 V
 94
        0
300

302
A4 V
304
ACVALUE_END
171
     1
172
     0
173
     0
174
     0
175
     2
176
     2
 91
   262193
178
     0
145
0.0
170
     4
  7
TEXTSTYLE_4
140
1.3
 92
        0
301
CELL_VALUE
 93
        4
 90
        4
  1
Peso finito \P0.521
 94
        0
300

302
Peso finito \P0.521
304
ACVALUE_END
171
     1
172
     0
173
     1
174
     0
175
     1
176
     1
 91
        1
178
     0
145
0.0
170
     4
 92
        0
301
CELL_VALUE
 93
        7
 90
        0
 94
        0
300

302

304
ACVALUE_END
171
     1
172
     0
173
     0
174
     0
175
     4
176
     1
 91
   262193
178
     0
145
0.0
170
     9
  7
TEXTSTYLE_3
140
3.0
 92
        0
301
CELL_VALUE
 93
        4
 90
        4
  1
21480/H50A
 94
        0
300

302
21480/H50A
304
ACVALUE_END
171
     1
172
     0
173
     1
174
     0
175
     1
176
     1
 91
        1
178
     0
145
0.0
170
     1
 92
        0
301
CELL_VALUE
 93
        7
 90
        0
 94
        0
300

302

304
ACVALUE_END
171
     1
172
     0
173
     1
174
     0
175
     1
176
     1
 91
        1
178
     0
145
0.0
170
     1
 92
        0
301
CELL_VALUE
 93
        7
 90
        0
 94
        0
300

302

304
ACVALUE_END
171
     1
172
     0
173
     1
174
     0
175
     1
176
     1
 91
        1
178
     0
145
0.0
170
     9
 92
        0
301
CELL_VALUE
 93
        7
 90
        0
 94
        0
300

302

304
ACVALUE_END
171
     1
172
     0
173
     0
174
     0
175
     1
176
     1
 91
   262177
178
     0
145
0.0
170
     1
140
3.0
 92
        0
301
CELL_VALUE
 93
        4
 90
        4
  1
 
 94
        0
300

302
 
304
ACVALUE_END
171
     1
172
     0
173
     0
174
     0
175
     1
176
     1
 91
   262201
178
     0
145
0.0
170
     2
  7
TEXTSTYLE_4
 64
     5
140
1.3
 92
        0
301
CELL_VALUE
 93
        4
 90
        4
  1
N°
 94
        0
300

302
N°
304
ACVALUE_END
171
     1
172
     0
173
     0
174
     0
175
     1
176
     1
 91
   262201
178
     0
145
0.0
170
     2
  7
TEXTSTYLE_4
 64
     5
140
1.3
 92
        0
301
CELL_VALUE
 93
        4
 90
        4
  1
DATA
 94
        0
300

302
DATA
304
ACVALUE_END
171
     1
172
     0
173
     0
174
     0
175
     1
176
     1
 91
   262201
178
     0
145
0.0
170
     2
  7
TEXTSTYLE_4
 64
     5
140
1.3
 92
        0
301
CELL_VALUE
 93
        4
 90
        4
  1
Esp
 94
        0
300

302
Esp
304
ACVALUE_END
171
     1
172
     0
173
     0
174
     0
175
     4
176
     1
 91
   262193
178
     0
145
0.0
170
     1
  7
TEXTSTYLE_4
140
1.6
 92
        0
301
CELL_VALUE
 93
        4
 90
        4
  1
Cod.Cad 21480-H50A
 94
        0
300

302
Cod.Cad 21480-H50A
304
ACVALUE_END
171
     1
172
     0
173
     1
174
     0
175
     1
176
     1
 91
        1
178
     0
145
0.0
170
     1
 92
        0
301
CELL_VALUE
 93
        7
 90
        0
 94
        0
300

302

304
ACVALUE_END
171
     1
172
     0
173
     1
174
     0
175
     1
176
     1
 91
        1
178
     0
145
0.0
170
     1
 92
        0
301
CELL_VALUE
 93
        7
 90
        0
 94
        0
300

302

304
ACVALUE_END
171
     1
172
     0
173
     1
174
     0
175
     1
176
     1
 91
        1
178
     0
145
0.0
170
     1
 92
        0
301
CELL_VALUE
 93
        7
 90
        0
 94
        0
300

302

304
ACVALUE_END
171
     1
172
     0
173
     1
174
     0
175
     1
176
     1
 91
        1
178
     0
145
0.0
170
     1
 92
        0
301
CELL_VALUE
 93
        7
 90
        0
 94
        0
300

302

304
ACVALUE_END
171
     1
172
     0
173
     1
174
     0
175
     1
176
     1
 91
        1
178
     0
145
0.0
170
     1
 92
        0
301
CELL_VALUE
 93
        7
 90
        0
 94
        0
300

302

304
ACVALUE_END
171
     1
172
     0
173
     1
174
     0
175
     1
176
     1
 91
        1
178
     0
145
0.0
170
     1
 92
        0
301
CELL_VALUE
 93
        7
 90
        0
 94
        0
300

302

304
ACVALUE_END
171
     1
172
     0
173
     0
174
     0
175
     4
176
     1
 91
   262193
178
     0
145
0.0
170
     2
  7
TEXTSTYLE_4
140
1.3
 92
        0
301
CELL_VALUE
 93
        4
 90
        4
  1
cod.disegno
 94
        0
300

302
cod.disegno
304
ACVALUE_END
171
     1
172
     0
173
     1
174
     0
175
     1
176
     1
 91
        1
178
     0
145
0.0
170
     1
 92
        0
301
CELL_VALUE
 93
        7
 90
        0
 94
        0
300

302

304
ACVALUE_END
171
     1
172
     0
173
     1
174
     0
175
     1
176
     1
 91
        1
178
     0
145
0.0
170
     1
 92
        0
301
CELL_VALUE
 93
        7
 90
        0
 94
        0
300

302

304
ACVALUE_END
171
     1
172
     0
173
     1
174
     0
175
     1
176
     1
 91
        1
178
     0
145
0.0
170
     2
 92
        0
301
CELL_VALUE
 93
        7
 90
        0
 94
        0
300

302

304
ACVALUE_END
171
     1
172
     0
173
     0
174
     0
175
     1
176
     1
 91
   262201
178
     0
145
0.0
170
     2
  7
TEXTSTYLE_4
 64
     5
140
1.3
 92
        0
301
CELL_VALUE
 93
        4
 90
        4
  1
esp.
 94
        0
300

302
esp.
304
ACVALUE_END
171
     1
172
     0
173
     0
174
     0
175
     1
176
     1
 91
   262177
178
     0
145
0.0
170
     1
140
3.0
 92
        0
301
CELL_VALUE
 93
        4
 90
        4
  1
 
 94
        0
300

302
 
304
ACVALUE_END
171
     1
172
     0
173
     0
174
     0
175
     1
176
     1
 91
   262177
178
     0
145
0.0
170
     1
140
3.0
 92
        0
301
CELL_VALUE
 93
        4
 90
        4
  1
 
 94
        0
300

302
 
304
ACVALUE_END
171
     1
172
     0
173
     0
174
     0
175
     1
176
     1
 91
   262177
178
     0
145
0.0
170
     1
140
3.0
 92
        0
301
CELL_VALUE
 93
        4
 90
        4
  1
 
 94
        0
300

302
 
304
ACVALUE_END
171
     1
172
     0
173
     0
174
     0
175
     1
176
     1
 91
   262201
178
     0
145
0.0
170
     4
  7
TEXTSTYLE_4
 64
     5
140
1.6
 92
        0
301
CELL_VALUE
 93
        4
 90
        4
  1
--
 94
        0
300

302
--
304
ACVALUE_END
171
     1
172
     0
173
     0
174
     0
175
     1
176
     1
 91
   262201
178
     0
145
0.0
170
     4
  7
TEXTSTYLE_4
 64
     5
140
1.3
 92
        0
301
CELL_VALUE
 93
        4
 90
        4
  1
---
 94
        0
300

302
---
304
ACVALUE_END
171
     1
172
     0
173
     0
174
     0
175
     1
176
     2
 91
   262185
178
     0
145
0.0
170
     5
 64
     5
140
3.0
 92
        0
301
CELL_VALUE
 93
        4
 90
        4
  1
 
 94
        0
300

302
 
304
ACVALUE_END
171
     1
172
     0
173
     0
174
     0
175
     4
176
     1
 91
   262177
178
     0
145
0.0
170
     4
140
3.0
 92
        0
301
CELL_VALUE
 93
        4
 90
        4
  1
 
 94
        0
300

302
 
304
ACVALUE_END
171
     1
172
     0
173
     1
174
     0
175
     1
176
     1
 91
        1
178
     0
145
0.0
170
     1
 92
        0
301
CELL_VALUE
 93
        7
 90
        0
 94
        0
300

302

304
ACVALUE_END
171
     1
172
     0
173
     1
174
     0
175
     1
176
     1
 91
        1
178
     0
145
0.0
170
     1
 92
        0
301
CELL_VALUE
 93
        7
 90
        0
 94
        0
300

302

304
ACVALUE_END
171
     1
172
     0
173
     1
174
     0
175
     1
176
     1
 91
        1
178
     0
145
0.0
170
     4
 92
        0
301
CELL_VALUE
 93
        7
 90
        0
 94
        0
300

302

304
ACVALUE_END
171
     1
172
     0
173
     0
174
     0
175
     1
176
     1
 91
   262185
178
     0
145
0.0
170
     4
 64
     5
140
3.0
 92
        0
301
CELL_VALUE
 93
        4
 90
        4
  1
 
 94
        0
300

302
 
304
ACVALUE_END
171
     1
172
     0
173
     0
174
     0
175
     2
176
     5
 91
   262177
178
     0
145
0.0
170
     1
140
3.0
 92
        0
301
CELL_VALUE
 93
        4
 90
        4
  1
 
 94
        0
300

302
 
304
ACVALUE_END
171
     1
172
     0
173
     1
174
     0
175
     1
176
     1
 91
        1
178
     0
145
0.0
170
     1
 92
        0
301
CELL_VALUE
 93
        7
 90
        0
 94
        0
300

302

304
ACVALUE_END
171
     1
172
     0
173
     0
174
     0
175
     2
176
     3
 91
        1
178
     0
145
0.0
170
     2
 92
        0
301
CELL_VALUE
 93
        3
 90
        0
 94
        0
300

302

304
ACVALUE_END
171
     1
172
     0
173
     1
174
     0
175
     1
176
     1
 91
        1
178
     0
145
0.0
170
     2
 92
        0
301
CELL_VALUE
 93
        7
 90
        0
 94
        0
300

302

304
ACVALUE_END
171
     1
172
     0
173
     0
174
     0
175
     1
176
     1
 91
   262177
178
     0
145
0.0
170
     1
140
3.0
 92
        0
301
CELL_VALUE
 93
        4
 90
        4
  1
 
 94
        0
300

302
 
304
ACVALUE_END
171
     1
172
     0
173
     0
174
     0
175
     1
176
     1
 91
   262177
178
     0
145
0.0
170
     1
140
3.0
 92
        0
301
CELL_VALUE
 93
        4
 90
        4
  1
 
 94
        0
300

302
 
304
ACVALUE_END
171
     1
172
     0
173
     0
174
     0
175
     1
176
     1
 91
   262177
178
     0
145
0.0
170
     1
140
3.0
 92
        0
301
CELL_VALUE
 93
        4
 90
        4
  1
 
 94
        0
300

302
 
304
ACVALUE_END
171
     1
172
     0
173
     0
174
     0
175
     1
176
     1
 91
   262201
178
     0
145
0.0
170
     4
  7
TEXTSTYLE_4
 64
     5
140
1.3
 92
        0
301
CELL_VALUE
 93
        4
 90
        4
  1
Materiale 
 94
        0
300

302
Materiale 
304
ACVALUE_END
171
     1
172
     0
173
     0
174
     0
175
     1
176
     1
 91
   262201
178
     0
145
0.0
170
     4
  7
TEXTSTYLE_4
 64
     5
140
1.5
 92
        0
301
CELL_VALUE
 93
        4
 90
        4
  1
Tratt.termici
 94
        0
300

302
Tratt.termici
304
ACVALUE_END
171
     1
172
     0
173
     1
174
     0
175
     1
176
     1
 91
        1
178
     0
145
0.0
170
     1
 92
        0
301
CELL_VALUE
 93
        7
 90
        0
 94
        0
300

302

304
ACVALUE_END
171
     1
172
     0
173
     0
174
     0
175
     4
176
     1
 91
   262193
178
     0
145
0.0
170
     4
  7
TEXTSTYLE_4
140
1.3
 92
        0
301
CELL_VALUE
 93
        4
 90
        4
  1
Dimens.grezze 
 94
        0
300

302
Dimens.grezze 
304
ACVALUE_END
171
     1
172
     0
173
     1
174
     0
175
     1
176
     1
 91
        1
178
     0
145
0.0
170
     1
 92
        0
301
CELL_VALUE
 93
        7
 90
        0
 94
        0
300

302

304
ACVALUE_END
171
     1
172
     0
173
     1
174
     0
175
     1
176
     1
 91
        1
178
     0
145
0.0
170
     1
 92
        0
301
CELL_VALUE
 93
        7
 90
        0
 94
        0
300

302

304
ACVALUE_END
171
     1
172
     0
173
     1
174
     0
175
     1
176
     1
 91
        1
178
     0
145
0.0
170
     4
 92
        0
301
CELL_VALUE
 93
        7
 90
        0
 94
        0
300

302

304
ACVALUE_END
171
     1
172
     0
173
     0
174
     0
175
     1
176
     1
 91
   262201
178
     0
145
0.0
170
     4
  7
TEXTSTYLE_4
 64
     5
140
1.0
 92
        0
301
CELL_VALUE
 93
        4
 90
        4
  1
Peso grezzo Kg. 
 94
        0
300

302
Peso grezzo Kg. 
304
ACVALUE_END
171
     1
172
     0
173
     1
174
     0
175
     1
176
     1
 91
        1
178
     0
145
0.0
170
     1
 92
        0
301
CELL_VALUE
 93
        7
 90
        0
 94
        0
300

302

304
ACVALUE_END
171
     1
172
     0
173
     1
174
     0
175
     1
176
     1
 91
        1
178
     0
145
0.0
170
     1
 92
        0
301
CELL_VALUE
 93
        7
 90
        0
 94
        0
300

302

304
ACVALUE_END
171
     1
172
     0
173
     1
174
     0
175
     1
176
     1
 91
        1
178
     0
145
0.0
170
     1
 92
        0
301
CELL_VALUE
 93
        7
 90
        0
 94
        0
300

302

304
ACVALUE_END
171
     1
172
     0
173
     1
174
     0
175
     1
176
     1
 91
        1
178
     0
145
0.0
170
     1
 92
        0
301
CELL_VALUE
 93
        7
 90
        0
 94
        0
300

302

304
ACVALUE_END
171
     1
172
     0
173
     0
174
     0
175
     1
176
     1
 91
   262177
178
     0
145
0.0
170
     1
140
3.0
 92
        0
301
CELL_VALUE
 93
        4
 90
        4
  1
 
 94
        0
300

302
 
304
ACVALUE_END
171
     1
172
     0
173
     0
174
     0
175
     1
176
     1
 91
   262177
178
     0
145
0.0
170
     1
140
3.0
 92
        0
301
CELL_VALUE
 93
        4
 90
        4
  1
 
 94
        0
300

302
 
304
ACVALUE_END
171
     1
172
     0
173
     0
174
     0
175
     1
176
     1
 91
   262177
178
     0
145
0.0
170
     1
140
3.0
 92
        0
301
CELL_VALUE
 93
        4
 90
        4
  1
 
 94
        0
300

302
 
304
ACVALUE_END
171
     1
172
     0
173
     0
174
     0
175
     1
176
     1
 91
   262201
178
     0
145
0.0
170
     7
  7
TEXTSTYLE_4
 64
     5
140
1.199999999999999
 92
        0
301
CELL_VALUE
 93
        4
 90
        4
  1
MANDRINO SENZA COMPENSAZ ASSIALE DA M3 A M12 PER 19/11
 94
        0
300

302
MANDRINO SENZA COMPENSAZ ASSIALE DA M3 A M12 PER 19/11
304
ACVALUE_END
171
     1
172
     0
173
     0
174
     0
175
     4
176
     1
 91
   262177
178
     0
145
0.0
170
     1
140
3.0
 92
        0
301
CELL_VALUE
 93
        4
 90
        4
  1
 
 94
        0
300

302
 
304
ACVALUE_END
171
     1
172
     0
173
     1
174
     0
175
     1
176
     1
 91
        1
178
     0
145
0.0
170
     1
 92
        0
301
CELL_VALUE
 93
        7
 90
        0
 94
        0
300

302

304
ACVALUE_END
171
     1
172
     0
173
     1
174
     0
175
     1
176
     1
 91
        1
178
     0
145
0.0
170
     1
 92
        0
301
CELL_VALUE
 93
        7
 90
        0
 94
        0
300

302

304
ACVALUE_END
171
     1
172
     0
173
     1
174
     0
175
     1
176
     1
 91
        1
178
     0
145
0.0
170
     1
 92
        0
301
CELL_VALUE
 93
        7
 90
        0
 94
        0
300

302

304
ACVALUE_END
171
     1
172
     0
173
     0
174
     0
175
     2
176
     2
 91
   262193
178
     0
145
0.0
170
     1
  7
TEXTSTYLE_4
140
1.3
 92
        0
301
CELL_VALUE
 93
        4
 90
        4
  1
Visto
 94
        0
300

302
Visto
304
ACVALUE_END
171
     1
172
     0
173
     1
174
     0
175
     1
176
     1
 91
        1
178
     0
145
0.0
170
     1
 92
        0
301
CELL_VALUE
 93
        7
 90
        0
 94
        0
300

302

304
ACVALUE_END
171
     1
172
     0
173
     0
174
     0
175
     1
176
     2
 91
   262201
178
     0
145
0.0
170
     1
  7
TEXTSTYLE_4
 64
     5
140
1.3
 92
        0
301
CELL_VALUE
 93
        4
 90
        4
  1
Scala\P1:1
 94
        0
300

302
Scala\P1:1
304
ACVALUE_END
171
     1
172
     0
173
     1
174
     0
175
     1
176
     1
 91
        1
178
     0
145
0.0
170
     1
 92
        0
301
CELL_VALUE
 93
        7
 90
        0
 94
        0
300

302

304
ACVALUE_END
171
     1
172
     0
173
     1
174
     0
175
     1
176
     1
 91
        1
178
     0
145
0.0
170
     1
 92
        0
301
CELL_VALUE
 93
        7
 90
        0
 94
        0
300

302

304
ACVALUE_END
171
     1
172
     0
173
     1
174
     0
175
     1
176
     1
 91
        1
178
     0
145
0.0
170
     1
 92
        0
301
CELL_VALUE
 93
        7
 90
        0
 94
        0
300

302

304
ACVALUE_END
171
     1
172
     0
173
     1
174
     0
175
     1
176
     1
 91
        1
178
     0
145
0.0
170
     1
 92
        0
301
CELL_VALUE
 93
        7
 90
        0
 94
        0
300

302

304
ACVALUE_END
171
     1
172
     0
173
     0
174
     0
175
     1
176
     1
 91
   262177
178
     0
145
0.0
170
     1
140
3.0
 92
        0
301
CELL_VALUE
 93
        4
 90
        4
  1
 
 94
        0
300

302
 
304
ACVALUE_END
171
     1
172
     0
173
     0
174
     0
175
     1
176
     1
 91
   262177
178
     0
145
0.0
170
     1
140
3.0
 92
        0
301
CELL_VALUE
 93
        4
 90
        4
  1
 
 94
        0
300

302
 
304
ACVALUE_END
171
     1
172
     0
173
     0
174
     0
175
     1
176
     1
 91
   262177
178
     0
145
0.0
170
     1
140
3.0
 92
        0
301
CELL_VALUE
 93
        4
 90
        4
  1
 
 94
        0
300

302
 
304
ACVALUE_END
171
     1
172
     0
173
     0
174
     0
175
     1
176
     1
 91
   262201
178
     0
145
0.0
170
     1
  7
TEXTSTYLE_4
 64
     5
140
1.199999999999999
 92
        0
301
CELL_VALUE
 93
        4
 90
        4
  1
Descrizione
 94
        0
300

302
Descrizione
304
ACVALUE_END
171
     1
172
     0
173
     0
174
     0
175
     1
176
     1
 91
   262177
178
     0
145
0.0
170
     1
140
3.0
 92
        0
301
CELL_VALUE
 93
        4
 90
        4
  1
 
 94
        0
300

302
 
304
ACVALUE_END
171
     1
172
     0
173
     0
174
     0
175
     1
176
     1
 91
   262177
178
     0
145
0.0
170
     1
140
3.0
 92
        0
301
CELL_VALUE
 93
        4
 90
        4
  1
 
 94
        0
300

302
 
304
ACVALUE_END
171
     1
172
     0
173
     0
174
     0
175
     1
176
     1
 91
   262177
178
     0
145
0.0
170
     1
140
3.0
 92
        0
301
CELL_VALUE
 93
        4
 90
        4
  1
 
 94
        0
300

302
 
304
ACVALUE_END
171
     1
172
     0
173
     0
174
     0
175
     1
176
     1
 91
   262177
178
     0
145
0.0
170
     1
140
3.0
 92
        0
301
CELL_VALUE
 93
        4
 90
        4
  1
 
 94
        0
300

302
 
304
ACVALUE_END
171
     1
172
     0
173
     1
174
     0
175
     1
176
     1
 91
        1
178
     0
145
0.0
170
     1
 92
        0
301
CELL_VALUE
 93
        7
 90
        0
 94
        0
300

302

304
ACVALUE_END
171
     1
172
     0
173
     1
174
     0
175
     1
176
     1
 91
        1
178
     0
145
0.0
170
     1
 92
        0
301
CELL_VALUE
 93
        7
 90
        0
 94
        0
300

302

304
ACVALUE_END
171
     1
172
     0
173
     1
174
     0
175
     1
176
     1
 91
        1
178
     0
145
0.0
170
     1
 92
        0
301
CELL_VALUE
 93
        7
 90
        0
 94
        0
300

302

304
ACVALUE_END
171
     1
172
     0
173
     1
174
     0
175
     1
176
     1
 91
        1
178
     0
145
0.0
170
     1
 92
        0
301
CELL_VALUE
 93
        7
 90
        0
 94
        0
300

302

304
ACVALUE_END
171
     1
172
     0
173
     1
174
     0
175
     1
176
     1
 91
        1
178
     0
145
0.0
170
     1
 92
        0
301
CELL_VALUE
 93
        7
 90
        0
 94
        0
300

302

304
ACVALUE_END
171
     1
172
     0
173
     0
174
     0
175
     2
176
     2
 91
        1
178
     0
145
0.0
170
     5
 92
        0
301
CELL_VALUE
 93
        3
 90
        0
 94
        0
300

302

304
ACVALUE_END
171
     1
172
     0
173
     1
174
     0
175
     1
176
     1
 91
        1
178
     0
145
0.0
170
     5
 92
        0
301
CELL_VALUE
 93
        7
 90
        0
 94
        0
300

302

304
ACVALUE_END
171
     1
172
     0
173
     0
174
     0
175
     1
176
     1
 91
   262177
178
     0
145
0.0
170
     1
140
3.0
 92
        0
301
CELL_VALUE
 93
        4
 90
        4
  1
 
 94
        0
300

302
 
304
ACVALUE_END
171
     1
172
     0
173
     0
174
     0
175
     1
176
     1
 91
   262177
178
     0
145
0.0
170
     1
140
3.0
 92
        0
301
CELL_VALUE
 93
        4
 90
        4
  1
 
 94
        0
300

302
 
304
ACVALUE_END
171
     1
172
     0
173
     0
174
     0
175
     1
176
     1
 91
   262177
178
     0
145
0.0
170
     1
140
3.0
 92
        0
301
CELL_VALUE
 93
        4
 90
        4
  1
 
 94
        0
300

302
 
304
ACVALUE_END
171
     1
172
     0
173
     0
174
     0
175
     5
176
     1
 91
   262193
178
     0
145
0.0
170
     4
  7
TEXTSTYLE_4
140
1.3
 92
        0
301
CELL_VALUE
 93
        4
 90
        4
  1
Macchina o codice prenotante:   21480
 94
        0
300

302
Macchina o codice prenotante:   21480
304
ACVALUE_END
171
     1
172
     0
173
     1
174
     0
175
     1
176
     1
 91
        1
178
     0
145
0.0
170
     1
 92
        0
301
CELL_VALUE
 93
        7
 90
        0
 94
        0
300

302

304
ACVALUE_END
171
     1
172
     0
173
     1
174
     0
175
     1
176
     1
 91
        1
178
     0
145
0.0
170
     1
 92
        0
301
CELL_VALUE
 93
        7
 90
        0
 94
        0
300

302

304
ACVALUE_END
171
     1
172
     0
173
     1
174
     0
175
     1
176
     1
 91
        1
178
     0
145
0.0
170
     1
 92
        0
301
CELL_VALUE
 93
        7
 90
        0
 94
        0
300

302

304
ACVALUE_END
171
     1
172
     0
173
     1
174
     0
175
     1
176
     1
 91
        1
178
     0
145
0.0
170
     4
 92
        0
301
CELL_VALUE
 93
        7
 90
        0
 94
        0
300

302

304
ACVALUE_END
171
     1
172
     0
173
     0
174
     0
175
     2
176
     2
 91
   262193
178
     0
145
0.0
170
     1
  7
TEXTSTYLE_4
140
1.3
 92
        0
301
CELL_VALUE
 93
        4
 90
        4
  1
Firma\P--
 94
        0
300

302
Firma\P--
304
ACVALUE_END
171
     1
172
     0
173
     1
174
     0
175
     1
176
     1
 91
        1
178
     0
145
0.0
170
     1
 92
        0
301
CELL_VALUE
 93
        7
 90
        0
 94
        0
300

302

304
ACVALUE_END
171
     1
172
     0
173
     0
174
     0
175
     1
176
     2
 91
   262201
178
     0
145
0.0
170
     1
  7
TEXTSTYLE_4
 64
     5
140
1.3
 92
        0
301
CELL_VALUE
 93
        4
 90
        4
  1
Data\P25-Jul-16
 94
        0
300

302
Data\P25-Jul-16
304
ACVALUE_END
171
     1
172
     0
173
     1
174
     0
175
     1
176
     1
 91
        1
178
     0
145
0.0
170
     1
 92
        0
301
CELL_VALUE
 93
        7
 90
        0
 94
        0
300

302

304
ACVALUE_END
171
     1
172
     0
173
     1
174
     0
175
     1
176
     1
 91
        1
178
     0
145
0.0
170
     1
 92
        0
301
CELL_VALUE
 93
        7
 90
        0
 94
        0
300

302

304
ACVALUE_END
171
     1
172
     0
173
     1
174
     0
175
     1
176
     1
 91
        1
178
     0
145
0.0
170
     1
 92
        0
301
CELL_VALUE
 93
        7
 90
        0
 94
        0
300

302

304
ACVALUE_END
171
     1
172
     0
173
     1
174
     0
175
     1
176
     1
 91
        1
178
     0
145
0.0
170
     1
 92
        0
301
CELL_VALUE
 93
        7
 90
        0
 94
        0
300

302

304
ACVALUE_END
171
     1
172
     0
173
     0
174
     0
175
     1
176
     1
 91
   262177
178
     0
145
0.0
170
     1
140
3.0
 92
        0
301
CELL_VALUE
 93
        4
 90
        4
  1
 
 94
        0
300

302
 
304
ACVALUE_END
171
     1
172
     0
173
     0
174
     0
175
     1
176
     1
 91
   262177
178
     0
145
0.0
170
     1
140
3.0
 92
        0
301
CELL_VALUE
 93
        4
 90
        4
  1
 
 94
        0
300

302
 
304
ACVALUE_END
171
     1
172
     0
173
     0
174
     0
175
     1
176
     1
 91
   262177
178
     0
145
0.0
170
     1
140
3.0
 92
        0
301
CELL_VALUE
 93
        4
 90
        4
  1
 
 94
        0
300

302
 
304
ACVALUE_END
171
     1
172
     0
173
     0
174
     0
175
     5
176
     1
 91
   262193
178
     0
145
0.0
170
     1
  7
TEXTSTYLE_4
140
1.3
 92
        0
301
CELL_VALUE
 93
        4
 90
        4
  1
Tolleranze generali per quote senza valori:\fgdt;{\fgdt;n}\ftxt;=H11-h11 - lineari\fgdt;{\fgdt;`}\ftxt;0.2
 94
        0
300

302
Tolleranze generali per quote senza valori:\fgdt;{\fgdt;n}\ftxt;=H11-h11 - lineari\fgdt;{\fgdt;`}\ftxt;0.2
304
ACVALUE_END
171
     1
172
     0
173
     1
174
     0
175
     1
176
     1
 91
        1
178
     0
145
0.0
170
     1
 92
        0
301
CELL_VALUE
 93
        7
 90
        0
 94
        0
300

302

304
ACVALUE_END
171
     1
172
     0
173
     1
174
     0
175
     1
176
     1
 91
        1
178
     0
145
0.0
170
     1
 92
        0
301
CELL_VALUE
 93
        7
 90
        0
 94
        0
300

302

304
ACVALUE_END
171
     1
172
     0
173
     1
174
     0
175
     1
176
     1
 91
        1
178
     0
145
0.0
170
     1
 92
        0
301
CELL_VALUE
 93
        7
 90
        0
 94
        0
300

302

304
ACVALUE_END
171
     1
172
     0
173
     1
174
     0
175
     1
176
     1
 91
        1
178
     0
145
0.0
170
     1
 92
        0
301
CELL_VALUE
 93
        7
 90
        0
 94
        0
300

302

304
ACVALUE_END
171
     1
172
     0
173
     1
174
     0
175
     1
176
     1
 91
        1
178
     0
145
0.0
170
     1
 92
        0
301
CELL_VALUE
 93
        7
 90
        0
 94
        0
300

302

304
ACVALUE_END
171
     1
172
     0
173
     1
174
     0
175
     1
176
     1
 91
        1
178
     0
145
0.0
170
     1
 92
        0
301
CELL_VALUE
 93
        7
 90
        0
 94
        0
300

302

304
ACVALUE_END
171
     1
172
     0
173
     1
174
     0
175
     1
176
     1
 91
        1
178
     0
145
0.0
170
     1
 92
        0
301
CELL_VALUE
 93
        7
 90
        0
 94
        0
300

302

304
ACVALUE_END
171
     1
172
     0
173
     0
174
     0
175
     4
176
     1
 91
   262193
178
     0
145
0.0
170
     1
  7
TEXTSTYLE_4
140
1.3
 92
        0
301
CELL_VALUE
 93
        4
 90
        4
  1
Rugosita' \fgdt;{\fgdt;a}\ftxt;0.8=rettifica
 94
        0
300

302
Rugosita' \fgdt;{\fgdt;a}\ftxt;0.8=rettifica
304
ACVALUE_END
171
     1
172
     0
173
     1
174
     0
175
     1
176
     1
 91
        1
178
     0
145
0.0
170
     1
 92
        0
301
CELL_VALUE
 93
        7
 90
        0
 94
        0
300

302

304
ACVALUE_END
171
     1
172
     0
173
     1
174
     0
175
     1
176
     1
 91
        1
178
     0
145
0.0
170
     1
 92
        0
301
CELL_VALUE
 93
        7
 90
        0
 94
        0
300

302

304
ACVALUE_END
171
     1
172
     0
173
     1
174
     0
175
     1
176
     1
 91
        1
178
     0
145
0.0
170
     1
 92
        0
301
CELL_VALUE
 93
        7
 90
        0
 94
        0
300

302

304
ACVALUE_END
  0
LINE
  5
286
330
218
100
AcDbEntity
  8
0
  6
Continuous
 62
     7
100
AcDbLine
 10
0.0
 20
0.0
 30
0.0
 11
210.0
 21
0.0
 31
0.0
  0
LINE
  5
287
330
218
100
AcDbEntity
  8
0
  6
Continuous
 62
     7
100
AcDbLine
 10
0.0
 20
0.0
 30
0.0
 11
0.0
 21
297.0
 31
0.0
  0
LINE
  5
288
330
218
100
AcDbEntity
  8
0
  6
Continuous
 62
     7
100
AcDbLine
 10
210.0
 20
0.0
 30
0.0
 11
210.0
 21
297.0
 31
0.0
  0
LINE
  5
289
330
218
100
AcDbEntity
  8
0
  6
Continuous
 62
     7
100
AcDbLine
 10
0.0
 20
297.0
 30
0.0
 11
210.0
 21
297.0
 31
0.0
  0
LINE
  5
28A
330
218
100
AcDbEntity
  8
0_COMPONENTS
  6
Continuous
 62
     7
100
AcDbLine
 10
118.9139981672
 20
127.5307665361
 30
0.0
 11
89.00074951459998
 21
127.5307665361
 31
0.0
  0
LINE
  5
28B
330
218
100
AcDbEntity
  8
0_COMPONENTS
  6
Continuous
 62
     7
100
AcDbLine
 10
88.56773681219999
 20
127.7807665358
 30
0.0
 11
119.3470108696
 21
127.7807665358
 31
0.0
  0
LINE
  5
28C
330
218
100
AcDbEntity
  8
0_COMPONENTS
  6
Continuous
 62
     7
100
AcDbLine
 10
87.5573738409
 20
129.5307665361
 30
0.0
 11
120.3573738409
 21
129.5307665361
 31
0.0
  0
LINE
  5
28D
330
218
100
AcDbEntity
  8
0_COMPONENTS
  6
Continuous
 62
     7
100
AcDbLine
 10
87.5573738409
 20
137.5307665361
 30
0.0
 11
120.3573738409
 21
137.5307665361
 31
0.0
  0
LINE
  5
28E
330
218
100
AcDbEntity
  8
0_COMPONENTS
  6
Continuous
 62
     7
100
AcDbLine
 10
87.3073738409
 20
137.7807665361
 30
0.0
 11
120.6073738409
 21
137.7807665361
 31
0.0
  0
LINE
  5
28F
330
218
100
AcDbEntity
  8
0_COMPONENTS
  6
Continuous
 62
     7
100
AcDbLine
 10
87.3073738409
 20
137.7807665361
 30
0.0
 11
87.5573738409
 21
137.5307665361
 31
0.0
  0
LINE
  5
290
330
218
100
AcDbEntity
  8
0_COMPONENTS
  6
Continuous
 62
     7
100
AcDbLine
 10
87.5573738409
 20
129.5307665361
 30
0.0
 11
88.56773681219999
 21
127.7807665358
 31
0.0
  0
LINE
  5
291
330
218
100
AcDbEntity
  8
0_COMPONENTS
  6
Continuous
 62
     7
100
AcDbLine
 10
79.4573738409
 20
190.5307665361
 30
0.0
 11
78.95737384090001
 21
190.0307665361
 31
0.0
  0
LINE
  5
292
330
218
100
AcDbEntity
  8
0_COMPONENTS
  6
Continuous
 62
     7
100
AcDbLine
 10
93.0889593861
 20
215.2392269704
 30
0.0
 11
92.97784464260001
 21
215.0090297365
 31
0.0
  0
LINE
  5
293
330
218
100
AcDbEntity
  8
0_COMPONENTS
  6
Continuous
 62
     7
100
AcDbLine
 10
95.63243499069999
 20
215.4124907397
 30
0.0
 11
95.25042398809999
 21
214.6210757269
 31
0.0
  0
LINE
  5
294
330
218
100
AcDbEntity
  8
0_COMPONENTS
  6
Continuous
 62
     7
100
AcDbLine
 10
110.2273738409
 20
215.4307665361
 30
0.0
 11
109.2273738409
 21
214.4307665361
 31
0.0
  0
LINE
  5
295
330
218
100
AcDbEntity
  8
0_COMPONENTS
  6
Continuous
 62
     7
100
AcDbLine
 10
78.95737384090001
 20
190.0307665361
 30
0.0
 11
78.95737384090001
 21
175.9082656109
 31
0.0
  0
LINE
  5
296
330
218
100
AcDbEntity
  8
0_COMPONENTS
  6
Continuous
 62
     7
100
AcDbLine
 10
78.95737384090001
 20
169.1532674613
 30
0.0
 11
78.95737384090001
 21
165.0807665361
 31
0.0
  0
LINE
  5
297
330
218
100
AcDbEntity
  8
0_COMPONENTS
  6
Continuous
 62
     7
100
AcDbLine
 10
82.4573738409
 20
170.6557665361
 30
0.0
 11
82.4573738409
 21
174.4057665361
 31
0.0
  0
LINE
  5
298
330
218
100
AcDbEntity
  8
0_COMPONENTS
  6
Continuous
 62
     7
100
AcDbLine
 10
85.90209798
 20
214.4807947217
 30
0.0
 11
84.80260111369998
 21
192.5307665361
 31
0.0
  0
LINE
  5
299
330
218
100
AcDbEntity
  8
0_COMPONENTS
  6
Continuous
 62
     7
100
AcDbLine
 10
87.3073738409
 20
149.2807665361
 30
0.0
 11
120.6073738409
 21
149.2807665361
 31
0.0
  0
LINE
  5
29A
330
218
100
AcDbEntity
  8
0_COMPONENTS
  6
Continuous
 62
     7
100
AcDbLine
 10
87.5573738409
 20
149.5307665361
 30
0.0
 11
120.3573738409
 21
149.5307665361
 31
0.0
  0
LINE
  5
29B
330
218
100
AcDbEntity
  8
0_COMPONENTS
  6
Continuous
 62
     7
100
AcDbLine
 10
78.95737384090001
 20
165.0807665361
 30
0.0
 11
79.4573738409
 21
164.5807665361
 31
0.0
  0
LINE
  5
29C
330
218
100
AcDbEntity
  8
0_COMPONENTS
  6
Continuous
 62
     7
100
AcDbLine
 10
84.34232859499999
 20
169.1532674613
 30
0.0
 11
84.34232859499999
 21
165.0807665361
 31
0.0
  0
LINE
  5
29D
330
218
100
AcDbEntity
  8
0_COMPONENTS
  6
Continuous
 62
     7
100
AcDbLine
 10
84.34232859499999
 20
175.9082656109
 30
0.0
 11
84.34232859499999
 21
183.0461983281
 31
0.0
  0
LINE
  5
29E
330
218
100
AcDbEntity
  8
0_COMPONENTS
  6
Continuous
 62
     7
100
AcDbLine
 10
85.10737384089999
 20
191.3933392332
 30
0.0
 11
85.10737384089999
 21
190.9307665361
 31
0.0
  0
LINE
  5
29F
330
218
100
AcDbEntity
  8
0_COMPONENTS
  6
Continuous
 62
     7
100
AcDbLine
 10
87.3073738409
 20
149.2807665361
 30
0.0
 11
87.3073738409
 21
137.7807665361
 31
0.0
  0
LINE
  5
2A0
330
218
100
AcDbEntity
  8
0_COMPONENTS
  6
Continuous
 62
     7
100
AcDbLine
 10
87.5573738409
 20
158.7307665361
 30
0.0
 11
87.5573738409
 21
149.5307665361
 31
0.0
  0
LINE
  5
2A1
330
218
100
AcDbEntity
  8
0_COMPONENTS
  6
Continuous
 62
     7
100
AcDbLine
 10
87.5573738409
 20
137.5307665361
 30
0.0
 11
87.5573738409
 21
129.5307665361
 31
0.0
  0
LINE
  5
2A2
330
218
100
AcDbEntity
  8
0_COMPONENTS
  6
Continuous
 62
     7
100
AcDbLine
 10
87.95737384090001
 20
177.8792896222
 30
0.0
 11
87.95737384090001
 21
174.4057665361
 31
0.0
  0
LINE
  5
2A3
330
218
100
AcDbEntity
  8
0_COMPONENTS
  6
Continuous
 62
     7
100
AcDbLine
 10
87.95737384090001
 20
164.5807665361
 30
0.0
 11
87.95737384090001
 21
170.6557665361
 31
0.0
  0
LINE
  5
2A4
330
218
100
AcDbEntity
  8
0_COMPONENTS
  6
Continuous
 62
     7
100
AcDbLine
 10
88.4573738409
 20
170.6557665361
 30
0.0
 11
88.4573738409
 21
165.0807665361
 31
0.0
  0
LINE
  5
2A5
330
218
100
AcDbEntity
  8
0_COMPONENTS
  6
Continuous
 62
     7
100
AcDbLine
 10
88.4573738409
 20
174.4057665361
 30
0.0
 11
88.4573738409
 21
177.8792896222
 31
0.0
  0
LINE
  5
2A6
330
218
100
AcDbEntity
  8
0_COMPONENTS
  6
Continuous
 62
     7
100
AcDbLine
 10
89.7073738409
 20
163.5807665361
 30
0.0
 11
89.7073738409
 21
159.2307665361
 31
0.0
  0
LINE
  5
2A7
330
218
100
AcDbEntity
  8
0_COMPONENTS
  6
Continuous
 62
     7
100
AcDbLine
 10
88.4573738409
 20
165.0807665361
 30
0.0
 11
88.95737384090001
 21
164.5807665361
 31
0.0
  0
LINE
  5
2A8
330
218
100
AcDbEntity
  8
0_COMPONENTS
  6
Continuous
 62
     7
100
AcDbLine
 10
84.80260111369998
 20
192.5307665361
 30
0.0
 11
85.10737384089999
 21
191.3933392332
 31
0.0
  0
LINE
  5
2A9
330
218
100
AcDbEntity
  8
0_COMPONENTS
  6
Continuous
 62
     7
100
AcDbLine
 10
78.95737384090001
 20
169.1532674613
 30
0.0
 11
81.5597785767
 21
170.6557665361
 31
0.0
  0
LINE
  5
2AA
330
218
100
AcDbEntity
  8
0_COMPONENTS
  6
Continuous
 62
     7
100
AcDbLine
 10
87.5573738409
 20
158.7307665361
 30
0.0
 11
120.3573738409
 21
158.7307665361
 31
0.0
  0
LINE
  5
2AB
330
218
100
AcDbEntity
  8
0_COMPONENTS
  6
Continuous
 62
     7
100
AcDbLine
 10
88.05737384089999
 20
159.2307665361
 30
0.0
 11
119.8573738409
 21
159.2307665361
 31
0.0
  0
LINE
  5
2AC
330
218
100
AcDbEntity
  8
0_COMPONENTS
  6
HIDDEN
 62
     8
100
AcDbLine
 10
94.4573738409
 20
128.3307665361
 30
0.0
 11
94.4573738409
 21
148.0307665361
 31
0.0
  0
LINE
  5
2AD
330
218
100
AcDbEntity
  8
0_COMPONENTS
  6
Continuous
 62
     7
100
AcDbLine
 10
97.4744775557
 20
165.0807665361
 30
0.0
 11
97.4744775557
 21
169.1532674613
 31
0.0
  0
LINE
  5
2AE
330
218
100
AcDbEntity
  8
0_COMPONENTS
  6
Continuous
 62
     7
100
AcDbLine
 10
97.4744775557
 20
175.9082656109
 30
0.0
 11
97.4744775557
 21
177.5807665362
 31
0.0
  0
LINE
  5
2AF
330
218
100
AcDbEntity
  8
0_COMPONENTS
  6
Continuous
 62
     7
100
AcDbLine
 10
118.2073638753
 20
163.5807665361
 30
0.0
 11
89.7073838066
 21
163.5807665361
 31
0.0
  0
LINE
  5
2B0
330
218
100
AcDbEntity
  8
0_COMPONENTS
  6
Continuous
 62
     7
100
AcDbLine
 10
128.4573377713
 20
164.5807665361
 30
0.0
 11
110.5402165534
 21
164.5807665361
 31
0.0
  0
LINE
  5
2B1
330
218
100
AcDbEntity
  8
0_COMPONENTS
  6
Continuous
 62
     7
100
AcDbLine
 10
79.4574980933
 20
164.5807665361
 30
0.0
 11
110.5137793315
 21
164.5807665361
 31
0.0
  0
LINE
  5
2B2
330
218
100
AcDbEntity
  8
0_COMPONENTS
  6
Continuous
 62
     7
100
AcDbLine
 10
98.36448062209999
 20
164.7807665361
 30
0.0
 11
109.5502670597
 21
164.7807665361
 31
0.0
  0
LINE
  5
2B3
330
218
100
AcDbEntity
  8
0_COMPONENTS
  6
Continuous
 62
     7
100
AcDbLine
 10
128.9573738409
 20
165.0807665361
 30
0.0
 11
110.789306803
 21
165.0807665361
 31
0.0
  0
LINE
  5
2B4
330
218
100
AcDbEntity
  8
0_COMPONENTS
  6
Continuous
 62
     7
100
AcDbLine
 10
97.4744775557
 20
165.0807665361
 30
0.0
 11
78.95737384090001
 21
165.0807665361
 31
0.0
  0
LINE
  5
2B5
330
218
100
AcDbEntity
  8
0_COMPONENTS
  6
Continuous
 62
     7
100
AcDbLine
 10
81.5597785767
 20
174.4057665361
 30
0.0
 11
78.95737384090001
 21
175.9082656109
 31
0.0
  0
LINE
  5
2B6
330
218
100
AcDbEntity
  8
0_COMPONENTS
  6
Continuous
 62
     7
100
AcDbLine
 10
97.95737384090001
 20
165.0807665361
 30
0.0
 11
97.95737384090001
 21
170.6557665361
 31
0.0
  0
LINE
  5
2B7
330
218
100
AcDbEntity
  8
0_COMPONENTS
  6
Continuous
 62
     7
100
AcDbLine
 10
97.95737384090001
 20
174.4057665361
 30
0.0
 11
97.95737384090001
 21
177.5807665363
 31
0.0
  0
LINE
  5
2B8
330
218
100
AcDbEntity
  8
0_COMPONENTS
  6
Continuous
 62
     7
100
AcDbLine
 10
98.36448062209999
 20
164.7807665361
 30
0.0
 11
98.36448062209999
 21
164.5807665361
 31
0.0
  0
LINE
  5
2B9
330
218
100
AcDbEntity
  8
0_COMPONENTS
  6
Continuous
 62
     7
100
AcDbLine
 10
98.4573738409
 20
164.8736597549
 30
0.0
 11
98.4573738409
 21
170.6557665361
 31
0.0
  0
LINE
  5
2BA
330
218
100
AcDbEntity
  8
0_COMPONENTS
  6
Continuous
 62
     7
100
AcDbLine
 10
98.4573738409
 20
174.4057665361
 30
0.0
 11
98.4573738409
 21
177.5807665361
 31
0.0
  0
LINE
  5
2BB
330
218
100
AcDbEntity
  8
0_COMPONENTS
  6
Continuous
 62
     7
100
AcDbLine
 10
98.68737384090001
 20
214.4307665361
 30
0.0
 11
98.68737384090001
 21
212.4307665361
 31
0.0
  0
LINE
  5
2BC
330
218
100
AcDbEntity
  8
0_COMPONENTS
  6
Continuous
 62
     7
100
AcDbLine
 10
99.3476016123
 20
174.4057665361
 30
0.0
 11
99.3476016123
 21
170.6557665361
 31
0.0
  0
LINE
  5
2BD
330
218
100
AcDbEntity
  8
0_COMPONENTS
  6
Continuous
 62
     7
100
AcDbLine
 10
110.3987951972
 20
164.6393451799
 30
0.0
 11
110.5402165534
 21
164.5807665361
 31
0.0
  0
LINE
  5
2BE
330
218
100
AcDbEntity
  8
0_COMPONENTS
  6
Continuous
 62
     7
100
AcDbLine
 10
120.3573738409
 20
149.5307665361
 30
0.0
 11
120.6073738409
 21
149.2807665361
 31
0.0
  0
LINE
  5
2BF
330
218
100
AcDbEntity
  8
DEFAULT_1
  6
CENTER
 62
     7
100
AcDbLine
 10
103.9573738409
 20
221.4307665361
 30
0.0
 11
103.9573738409
 21
121.5307665361
 31
0.0
  0
LINE
  5
2C0
330
218
100
AcDbEntity
  8
0_COMPONENTS
  6
Continuous
 62
     7
100
AcDbLine
 10
88.05737384089999
 20
159.2307665361
 30
0.0
 11
87.5573738409
 21
158.7307665361
 31
0.0
  0
LINE
  5
2C1
330
218
100
AcDbEntity
  8
0_COMPONENTS
  6
Continuous
 62
     7
100
AcDbLine
 10
97.95737384090001
 20
165.4835946316
 30
0.0
 11
97.51452109680002
 21
165.0407418875
 31
0.0
  0
LINE
  5
2C2
330
218
100
AcDbEntity
  8
0_COMPONENTS
  6
Continuous
 62
     7
100
AcDbLine
 10
97.95737384090001
 20
165.0807665361
 30
0.0
 11
97.5159524847
 21
164.6393451799
 31
0.0
  0
LINE
  5
2C3
330
218
100
AcDbEntity
  8
0_COMPONENTS
  6
Continuous
 62
     7
100
AcDbLine
 10
128.9573738409
 20
169.1532674613
 30
0.0
 11
110.4402701262
 21
169.1532674613
 31
0.0
  0
LINE
  5
2C4
330
218
100
AcDbEntity
  8
0_COMPONENTS
  6
Continuous
 62
     7
100
AcDbLine
 10
97.4744775557
 20
169.1532674613
 30
0.0
 11
88.4573738409
 21
169.1532674613
 31
0.0
  0
LINE
  5
2C5
330
218
100
AcDbEntity
  8
0_COMPONENTS
  6
Continuous
 62
     7
100
AcDbLine
 10
84.34232859499999
 20
169.1532674613
 30
0.0
 11
78.95737384090001
 21
169.1532674613
 31
0.0
  0
LINE
  5
2C6
330
218
100
AcDbEntity
  8
0_COMPONENTS
  6
Continuous
 62
     7
100
AcDbLine
 10
81.5598794433
 20
170.6557665361
 30
0.0
 11
99.3476016123
 21
170.6557665361
 31
0.0
  0
LINE
  5
2C7
330
218
100
AcDbEntity
  8
0_COMPONENTS
  6
Continuous
 62
     7
100
AcDbLine
 10
108.5671460696
 20
170.6557665361
 30
0.0
 11
126.3548838681
 21
170.6557665361
 31
0.0
  0
LINE
  5
2C8
330
218
100
AcDbEntity
  8
0_COMPONENTS
  6
Continuous
 62
     7
100
AcDbLine
 10
109.5502670597
 20
164.7807665361
 30
0.0
 11
109.4573738409
 21
164.8736597549
 31
0.0
  0
LINE
  5
2C9
330
218
100
AcDbEntity
  8
0_COMPONENTS
  6
Continuous
 62
     7
100
AcDbLine
 10
109.9573738409
 20
165.0807665361
 30
0.0
 11
110.3987951972
 21
164.6393451799
 31
0.0
  0
LINE
  5
2CA
330
218
100
AcDbEntity
  8
0_COMPONENTS
  6
Continuous
 62
     7
100
AcDbLine
 10
98.4573738409
 20
164.8736597549
 30
0.0
 11
98.36448062209999
 21
164.7807665361
 31
0.0
  0
LINE
  5
2CB
330
218
100
AcDbEntity
  8
0_COMPONENTS
  6
Continuous
 62
     7
100
AcDbLine
 10
126.3548838681
 20
174.4057665361
 30
0.0
 11
108.5671460696
 21
174.4057665361
 31
0.0
  0
LINE
  5
2CC
330
218
100
AcDbEntity
  8
0_COMPONENTS
  6
Continuous
 62
     7
100
AcDbLine
 10
81.5598794433
 20
174.4057665361
 30
0.0
 11
99.3476016123
 21
174.4057665361
 31
0.0
  0
LINE
  5
2CD
330
218
100
AcDbEntity
  8
0_COMPONENTS
  6
Continuous
 62
     7
100
AcDbLine
 10
119.8573738409
 20
159.2307665361
 30
0.0
 11
120.3573738409
 21
158.7307665361
 31
0.0
  0
LINE
  5
2CE
330
218
100
AcDbEntity
  8
0_COMPONENTS
  6
Continuous
 62
     7
100
AcDbLine
 10
108.5671460696
 20
174.4057665361
 30
0.0
 11
108.5671460696
 21
170.6557665361
 31
0.0
  0
LINE
  5
2CF
330
218
100
AcDbEntity
  8
0_COMPONENTS
  6
Continuous
 62
     7
100
AcDbLine
 10
109.2273738409
 20
214.4307665361
 30
0.0
 11
109.2273738409
 21
212.4307665361
 31
0.0
  0
LINE
  5
2D0
330
218
100
AcDbEntity
  8
0_COMPONENTS
  6
Continuous
 62
     7
100
AcDbLine
 10
109.4573738409
 20
177.5807665361
 30
0.0
 11
109.4573738409
 21
174.4057665361
 31
0.0
  0
LINE
  5
2D1
330
218
100
AcDbEntity
  8
0_COMPONENTS
  6
Continuous
 62
     7
100
AcDbLine
 10
109.4573738409
 20
170.6557665361
 30
0.0
 11
109.4573738409
 21
164.8736597549
 31
0.0
  0
LINE
  5
2D2
330
218
100
AcDbEntity
  8
0_COMPONENTS
  6
Continuous
 62
     7
100
AcDbLine
 10
109.5502670597
 20
164.7807665361
 30
0.0
 11
109.5502670597
 21
164.5807665361
 31
0.0
  0
LINE
  5
2D3
330
218
100
AcDbEntity
  8
0_COMPONENTS
  6
Continuous
 62
     7
100
AcDbLine
 10
109.9573738409
 20
165.0807665361
 30
0.0
 11
109.9573738409
 21
170.6557665361
 31
0.0
  0
LINE
  5
2D4
330
218
100
AcDbEntity
  8
0_COMPONENTS
  6
Continuous
 62
     7
100
AcDbLine
 10
109.9573738409
 20
174.4057665361
 30
0.0
 11
109.9573738409
 21
177.5807665363
 31
0.0
  0
LINE
  5
2D5
330
218
100
AcDbEntity
  8
0_COMPONENTS
  6
Continuous
 62
     7
100
AcDbLine
 10
110.4402701262
 20
165.486781506
 30
0.0
 11
110.4402701262
 21
169.1532674613
 31
0.0
  0
LINE
  5
2D6
330
218
100
AcDbEntity
  8
0_COMPONENTS
  6
Continuous
 62
     7
100
AcDbLine
 10
110.4402701262
 20
175.9082656109
 30
0.0
 11
110.4402701262
 21
177.5807665363
 31
0.0
  0
LINE
  5
2D7
330
218
100
AcDbEntity
  8
0_COMPONENTS
  6
Continuous
 62
     7
100
AcDbLine
 10
87.5573738409
 20
149.5307665361
 30
0.0
 11
87.3073738409
 21
149.2807665361
 31
0.0
  0
LINE
  5
2D8
330
218
100
AcDbEntity
  8
0_COMPONENTS
  6
Continuous
 62
     7
100
AcDbLine
 10
97.3745311284
 20
164.5807665361
 30
0.0
 11
97.5159524847
 21
164.6393451799
 31
0.0
  0
LINE
  5
2D9
330
218
100
AcDbEntity
  8
0_COMPONENTS
  6
Continuous
 62
     7
100
AcDbLine
 10
78.95737384090001
 20
175.9082656109
 30
0.0
 11
84.34232859499999
 21
175.9082656109
 31
0.0
  0
LINE
  5
2DA
330
218
100
AcDbEntity
  8
0_COMPONENTS
  6
Continuous
 62
     7
100
AcDbLine
 10
88.4573738409
 20
175.9082656109
 30
0.0
 11
97.4744775557
 21
175.9082656109
 31
0.0
  0
LINE
  5
2DB
330
218
100
AcDbEntity
  8
0_COMPONENTS
  6
Continuous
 62
     7
100
AcDbLine
 10
110.4402701262
 20
175.9082656109
 30
0.0
 11
128.9573738409
 21
175.9082656109
 31
0.0
  0
LINE
  5
2DC
330
218
100
AcDbEntity
  8
0_COMPONENTS
  6
Continuous
 62
     7
100
AcDbLine
 10
97.4744775557
 20
177.5807665362
 30
0.0
 11
98.4573738409
 21
177.5807665361
 31
0.0
  0
LINE
  5
2DD
330
218
100
AcDbEntity
  8
0_COMPONENTS
  6
Continuous
 62
     7
100
AcDbLine
 10
109.4573738409
 20
177.5807665361
 30
0.0
 11
110.4402701262
 21
177.5807665363
 31
0.0
  0
LINE
  5
2DE
330
218
100
AcDbEntity
  8
0_COMPONENTS
  6
Continuous
 62
     7
100
AcDbLine
 10
87.95737384090001
 20
177.8792896222
 30
0.0
 11
88.4573738409
 21
177.8792896195
 31
0.0
  0
LINE
  5
2DF
330
218
100
AcDbEntity
  8
0_COMPONENTS
  6
HIDDEN
 62
     8
100
AcDbLine
 10
113.4573738409
 20
128.3307665361
 30
0.0
 11
113.4573738409
 21
148.0307665361
 31
0.0
  0
LINE
  5
2E0
330
218
100
AcDbEntity
  8
0_COMPONENTS
  6
Continuous
 62
     7
100
AcDbLine
 10
126.3549691051
 20
174.4057665361
 30
0.0
 11
128.9573738409
 21
175.9082656109
 31
0.0
  0
LINE
  5
2E1
330
218
100
AcDbEntity
  8
0_COMPONENTS
  6
Continuous
 62
     7
100
AcDbLine
 10
128.9573738409
 20
169.1532674613
 30
0.0
 11
126.3549691051
 21
170.6557665361
 31
0.0
  0
LINE
  5
2E2
330
218
100
AcDbEntity
  8
0_COMPONENTS
  6
Continuous
 62
     7
100
AcDbLine
 10
123.1121465682
 20
192.5307665361
 30
0.0
 11
122.8073738409
 21
191.3933392332
 31
0.0
  0
LINE
  5
2E3
330
218
100
AcDbEntity
  8
0_COMPONENTS
  6
Continuous
 62
     7
100
AcDbLine
 10
118.2073738409
 20
163.5807665361
 30
0.0
 11
118.2073738409
 21
159.2307665361
 31
0.0
  0
LINE
  5
2E4
330
218
100
AcDbEntity
  8
0_COMPONENTS
  6
Continuous
 62
     7
100
AcDbLine
 10
120.3573738409
 20
158.7307665361
 30
0.0
 11
120.3573738409
 21
149.5307665361
 31
0.0
  0
LINE
  5
2E5
330
218
100
AcDbEntity
  8
0_COMPONENTS
  6
Continuous
 62
     7
100
AcDbLine
 10
120.3573738409
 20
137.5307665361
 30
0.0
 11
120.3573738409
 21
129.5307665361
 31
0.0
  0
LINE
  5
2E6
330
218
100
AcDbEntity
  8
0_COMPONENTS
  6
Continuous
 62
     7
100
AcDbLine
 10
120.6073738409
 20
149.2807665361
 30
0.0
 11
120.6073738409
 21
137.7807665361
 31
0.0
  0
LINE
  5
2E7
330
218
100
AcDbEntity
  8
0_COMPONENTS
  6
Continuous
 62
     7
100
AcDbLine
 10
122.0126497018
 20
214.4807947217
 30
0.0
 11
123.1121465682
 21
192.5307665361
 31
0.0
  0
LINE
  5
2E8
330
218
100
AcDbEntity
  8
0_COMPONENTS
  6
Continuous
 62
     7
100
AcDbLine
 10
122.8073738409
 20
191.3933392332
 30
0.0
 11
122.8073738409
 21
190.9307665361
 31
0.0
  0
LINE
  5
2E9
330
218
100
AcDbEntity
  8
0_COMPONENTS
  6
Continuous
 62
     7
100
AcDbLine
 10
128.9573738409
 20
190.0307665361
 30
0.0
 11
78.95737384090001
 21
190.0307665361
 31
0.0
  0
LINE
  5
2EA
330
218
100
AcDbEntity
  8
0_COMPONENTS
  6
Continuous
 62
     7
100
AcDbLine
 10
128.4572570281
 20
190.5307665361
 30
0.0
 11
79.45749065380001
 21
190.5307665361
 31
0.0
  0
LINE
  5
2EB
330
218
100
AcDbEntity
  8
0_COMPONENTS
  6
Continuous
 62
     7
100
AcDbLine
 10
85.10737384089999
 20
190.9307665361
 30
0.0
 11
122.8073738409
 21
190.9307665361
 31
0.0
  0
LINE
  5
2EC
330
218
100
AcDbEntity
  8
0_COMPONENTS
  6
Continuous
 62
     7
100
AcDbLine
 10
85.10737384089999
 20
191.3933392332
 30
0.0
 11
122.8073738409
 21
191.3933392332
 31
0.0
  0
LINE
  5
2ED
330
218
100
AcDbEntity
  8
0_COMPONENTS
  6
Continuous
 62
     7
100
AcDbLine
 10
125.4573738409
 20
170.6557665361
 30
0.0
 11
125.4573738409
 21
174.4057665361
 31
0.0
  0
LINE
  5
2EE
330
218
100
AcDbEntity
  8
0_COMPONENTS
  6
Continuous
 62
     7
100
AcDbLine
 10
128.9573738409
 20
165.0807665361
 30
0.0
 11
128.4573738409
 21
164.5807665361
 31
0.0
  0
LINE
  5
2EF
330
218
100
AcDbEntity
  8
0_COMPONENTS
  6
Continuous
 62
     7
100
AcDbLine
 10
123.1121465682
 20
192.5307665361
 30
0.0
 11
84.80260111369998
 21
192.5307665361
 31
0.0
  0
LINE
  5
2F0
330
218
100
AcDbEntity
  8
0_COMPONENTS
  6
Continuous
 62
     7
100
AcDbLine
 10
128.9573738409
 20
190.0307665361
 30
0.0
 11
128.9573738409
 21
189.0308213464
 31
0.0
  0
LINE
  5
2F1
330
218
100
AcDbEntity
  8
0_COMPONENTS
  6
Continuous
 62
     7
100
AcDbLine
 10
128.9573738409
 20
178.0307117258
 30
0.0
 11
128.9573738409
 21
175.9082656109
 31
0.0
  0
LINE
  5
2F2
330
218
100
AcDbEntity
  8
0_COMPONENTS
  6
Continuous
 62
     7
100
AcDbLine
 10
128.9573738409
 20
169.1532674613
 30
0.0
 11
128.9573738409
 21
165.0807665361
 31
0.0
  0
LINE
  5
2F3
330
218
100
AcDbEntity
  8
0_COMPONENTS
  6
Continuous
 62
     7
100
AcDbLine
 10
97.68737384090002
 20
215.4307665361
 30
0.0
 11
98.68737384090001
 21
214.4307665361
 31
0.0
  0
LINE
  5
2F4
330
218
100
AcDbEntity
  8
0_COMPONENTS
  6
Continuous
 62
     7
100
AcDbLine
 10
112.2823126912
 20
215.4124907397
 30
0.0
 11
112.6643236937
 21
214.6210757269
 31
0.0
  0
LINE
  5
2F5
330
218
100
AcDbEntity
  8
0_COMPONENTS
  6
Continuous
 62
     7
100
AcDbLine
 10
114.8257882958
 20
215.2392269704
 30
0.0
 11
114.9369030392
 21
215.0090297365
 31
0.0
  0
LINE
  5
2F6
330
218
100
AcDbEntity
  8
0_COMPONENTS
  6
Continuous
 62
     7
100
AcDbLine
 10
128.4573738409
 20
190.5307665361
 30
0.0
 11
128.9573738409
 21
190.0307665361
 31
0.0
  0
LINE
  5
2F7
330
218
100
AcDbEntity
  8
0_COMPONENTS
  6
Continuous
 62
     7
100
AcDbLine
 10
120.3573738409
 20
129.5307665361
 30
0.0
 11
119.3470108696
 21
127.7807665358
 31
0.0
  0
LINE
  5
2F8
330
218
100
AcDbEntity
  8
0_COMPONENTS
  6
Continuous
 62
     7
100
AcDbLine
 10
120.6073738409
 20
137.7807665361
 30
0.0
 11
120.3573738409
 21
137.5307665361
 31
0.0
  0
LINE
  5
2F9
330
218
100
AcDbEntity
  8
0_COMPONENTS
  6
Continuous
 62
     7
100
AcDbLine
 10
109.7533222179
 20
210.9307665361
 30
0.0
 11
98.16267114129999
 21
210.9307665361
 31
0.0
  0
LINE
  5
2FA
330
218
100
AcDbEntity
  8
0_COMPONENTS
  6
Continuous
 62
     7
100
AcDbLine
 10
95.7369812598
 20
212.4307665361
 30
0.0
 11
98.68737384090001
 21
212.4307665361
 31
0.0
  0
LINE
  5
2FB
330
218
100
AcDbEntity
  8
0_COMPONENTS
  6
Continuous
 62
     7
100
AcDbLine
 10
109.2273738409
 20
212.4307665361
 30
0.0
 11
112.177766422
 21
212.4307665361
 31
0.0
  0
LINE
  5
2FC
330
218
100
AcDbEntity
  8
0_COMPONENTS
  6
Continuous
 62
     7
100
AcDbLine
 10
96.08025639739999
 20
214.4307665361
 30
0.0
 11
98.68737384090001
 21
214.4307665361
 31
0.0
  0
LINE
  5
2FD
330
218
100
AcDbEntity
  8
0_COMPONENTS
  6
Continuous
 62
     7
100
AcDbLine
 10
109.2273738409
 20
214.4307665361
 30
0.0
 11
111.8344912845
 21
214.4307665361
 31
0.0
  0
LINE
  5
2FE
330
218
100
AcDbEntity
  8
0_COMPONENTS
  6
Continuous
 62
     7
100
AcDbLine
 10
85.90209798
 20
214.4807947217
 30
0.0
 11
95.9495601929
 21
214.4807947217
 31
0.0
  0
LINE
  5
2FF
330
218
100
AcDbEntity
  8
0_COMPONENTS
  6
Continuous
 62
     7
100
AcDbLine
 10
111.965187489
 20
214.4807947217
 30
0.0
 11
122.0126497018
 21
214.4807947217
 31
0.0
  0
LINE
  5
300
330
218
100
AcDbEntity
  8
0_COMPONENTS
  6
Continuous
 62
     7
100
AcDbLine
 10
86.90096138760001
 20
215.4307665361
 30
0.0
 11
97.68737384090002
 21
215.4307665361
 31
0.0
  0
LINE
  5
301
330
218
100
AcDbEntity
  8
0_COMPONENTS
  6
Continuous
 62
     7
100
AcDbLine
 10
110.2273738409
 20
215.4307665361
 30
0.0
 11
121.0137862894
 21
215.4307665361
 31
0.0
  0
ARC
  5
302
330
218
100
AcDbEntity
  8
0_COMPONENTS
  6
Continuous
 62
     7
100
AcDbCircle
 10
55.6394149884
 20
74.242721921
 30
0.0
 40
109.595371155
100
AcDbArc
 50
59.99808661220001
 51
60.28917666969999
  0
ARC
  5
303
330
218
100
AcDbEntity
  8
0_COMPONENTS
  6
Continuous
 62
     7
100
AcDbCircle
 10
84.11654975519999
 20
142.5041775356
 30
0.0
 40
34.9447898753
100
AcDbArc
 50
40.2455367398
 51
41.1234248643
  0
ARC
  5
304
330
218
100
AcDbEntity
  8
0_COMPONENTS
  6
Continuous
 62
     7
100
AcDbCircle
 10
82.4573738409
 20
177.8792896222
 30
0.0
 40
6.0
100
AcDbArc
 50
0.0
 51
67.5565610017
  0
ARC
  5
305
330
218
100
AcDbEntity
  8
0_COMPONENTS
  6
Continuous
 62
     7
100
AcDbCircle
 10
103.9573738409
 20
177.5807665361
 30
0.0
 40
6.0
100
AcDbArc
 50
0.0000000014
 51
179.9999999985
  0
ARC
  5
306
330
218
100
AcDbEntity
  8
0_COMPONENTS
  6
Continuous
 62
     7
100
AcDbCircle
 10
103.9573738409
 20
177.5807665361
 30
0.0
 40
5.5
100
AcDbArc
 50
0.0
 51
180.0
  0
ARC
  5
307
330
218
100
AcDbEntity
  8
0_COMPONENTS
  6
Continuous
 62
     7
100
AcDbCircle
 10
82.4573738409
 20
177.8792896222
 30
0.0
 40
5.5
100
AcDbArc
 50
0.0
 51
69.9573800954
  0
CIRCLE
  5
308
330
218
100
AcDbEntity
  8
0_COMPONENTS
  6
Continuous
 62
     7
100
AcDbCircle
 10
103.9573738409
 20
198.0307665361
 30
0.0
 40
3.0
  0
ARC
  5
309
330
218
100
AcDbEntity
  8
0_COMPONENTS
  6
Continuous
 62
     7
100
AcDbCircle
 10
94.9689184102
 20
211.723182868
 30
0.0
 40
2.926786880099999
100
AcDbArc
 50
67.6841156425
 51
70.42396780899998
  0
ARC
  5
30A
330
218
100
AcDbEntity
  8
0_COMPONENTS
  6
Continuous
 62
     7
100
AcDbCircle
 10
100.1873738409
 20
212.4307665361
 30
0.0
 40
1.5
100
AcDbArc
 50
180.0
 51
270.0
  0
ARC
  5
30B
330
218
100
AcDbEntity
  8
0_COMPONENTS
  6
Continuous
 62
     7
100
AcDbCircle
 10
88.7073738409
 20
163.5807665361
 30
0.0
 40
1.0
100
AcDbArc
 50
0.0
 51
72.0000084522
  0
ARC
  5
30C
330
218
100
AcDbEntity
  8
0_COMPONENTS
  6
Continuous
 62
     7
100
AcDbCircle
 10
86.9008457864
 20
214.4307665361
 30
0.0
 40
1.0
100
AcDbArc
 50
90.0
 51
177.1323990795
  0
ARC
  5
30D
330
218
100
AcDbEntity
  8
0_COMPONENTS
  6
HIDDEN
 62
     8
100
AcDbCircle
 10
93.65737384090001
 20
128.3307665361
 30
0.0
 40
0.8
100
AcDbArc
 50
270.0
 51
360.0
  0
ARC
  5
30E
330
218
100
AcDbEntity
  8
0_COMPONENTS
  6
Continuous
 62
     7
100
AcDbCircle
 10
84.5073738409
 20
190.9307665361
 30
0.0
 40
0.6
100
AcDbArc
 50
317.8046766054
 51
360.0
  0
ARC
  5
30F
330
218
100
AcDbEntity
  8
0_COMPONENTS
  6
Continuous
 62
     7
100
AcDbCircle
 10
89.00074951389999
 20
128.0307665361
 30
0.0
 40
0.5
100
AcDbArc
 50
210.0000000444
 51
270.0000000824
  0
ARC
  5
310
330
218
100
AcDbEntity
  8
0_COMPONENTS
  6
Continuous
 62
     7
100
AcDbCircle
 10
23.192137211
 20
251.6817377488
 30
0.0
 40
122.6450410625
100
AcDbArc
 50
315.0542634693
 51
315.3479061547
  0
ARC
  5
311
330
218
100
AcDbEntity
  8
0_COMPONENTS
  6
Continuous
 62
     7
100
AcDbCircle
 10
27.2826236386
 20
248.5344999635
 30
0.0
 40
118.0588436117
100
AcDbArc
 50
314.7614373744
 51
315.0181711015
  0
ARC
  5
312
330
218
100
AcDbEntity
  8
0_COMPONENTS
  6
Continuous
 62
     7
100
AcDbCircle
 10
55.6394149898
 20
270.8188111489
 30
0.0
 40
109.5953711523
100
AcDbArc
 50
299.7108233303
 51
300.0019133878
  0
ARC
  5
313
330
218
100
AcDbEntity
  8
0_COMPONENTS
  6
Continuous
 62
     7
100
AcDbCircle
 10
135.3892856864
 20
56.7443931768
 30
0.0
 40
123.4566597888
100
AcDbArc
 50
112.6784607421
 51
114.4236809037
  0
ARC
  5
314
330
218
100
AcDbEntity
  8
0_COMPONENTS
  6
Continuous
 62
     7
100
AcDbCircle
 10
186.0283955781
 20
214.3280162976
 30
0.0
 40
112.9838387893
100
AcDbArc
 50
205.8412206678
 51
206.1232868243
  0
ARC
  5
315
330
218
100
AcDbEntity
  8
0_COMPONENTS
  6
Continuous
 62
     7
100
AcDbCircle
 10
152.2754855771
 20
74.2424272507
 30
0.0
 40
109.5957027883
100
AcDbArc
 50
119.7108164194
 51
120.0019055746
  0
ARC
  5
316
330
218
100
AcDbEntity
  8
0_COMPONENTS
  6
Continuous
 62
     7
100
AcDbCircle
 10
152.9599248612
 20
183.5307665361
 30
0.0
 40
24.507651999
100
AcDbArc
 50
178.8309823603
 51
181.1690176397
  0
ARC
  5
317
330
218
100
AcDbEntity
  8
0_COMPONENTS
  6
Continuous
 62
     7
100
AcDbCircle
 10
112.9458292716
 20
211.7231828681
 30
0.0
 40
2.926786879999999
100
AcDbArc
 50
109.576032191
 51
112.3158843575
  0
ARC
  5
318
330
218
100
AcDbEntity
  8
0_COMPONENTS
  6
Continuous
 62
     7
100
AcDbCircle
 10
107.7273738409
 20
212.4307665361
 30
0.0
 40
1.5
100
AcDbArc
 50
270.0
 51
360.0
  0
ARC
  5
319
330
218
100
AcDbEntity
  8
0_COMPONENTS
  6
Continuous
 62
     7
100
AcDbCircle
 10
119.2073738409
 20
163.5807665361
 30
0.0
 40
1.0
100
AcDbArc
 50
90.0000659298
 51
180.0
  0
ARC
  5
31A
330
218
100
AcDbEntity
  8
0_COMPONENTS
  6
Continuous
 62
     7
100
AcDbCircle
 10
121.0139018955
 20
214.4307665361
 30
0.0
 40
1.0
100
AcDbArc
 50
2.8676009205
 51
90.0
  0
ARC
  5
31B
330
218
100
AcDbEntity
  8
0_COMPONENTS
  6
HIDDEN
 62
     8
100
AcDbCircle
 10
114.2573738409
 20
128.3307665361
 30
0.0
 40
0.8
100
AcDbArc
 50
180.0
 51
270.0
  0
ARC
  5
31C
330
218
100
AcDbEntity
  8
0_COMPONENTS
  6
Continuous
 62
     7
100
AcDbCircle
 10
123.4073738409
 20
190.9307665361
 30
0.0
 40
0.6
100
AcDbArc
 50
180.0
 51
222.1953233946
  0
ARC
  5
31D
330
218
100
AcDbEntity
  8
0_COMPONENTS
  6
Continuous
 62
     7
100
AcDbCircle
 10
118.9139981679
 20
128.0307665361
 30
0.0
 40
0.5
100
AcDbArc
 50
269.9999999176
 51
329.9999999556
  0
ARC
  5
31E
330
218
100
AcDbEntity
  8
0_COMPONENTS
  6
Continuous
 62
     7
100
AcDbCircle
 10
153.2121266533
 20
425.0385215975
 30
0.0
 40
263.8947840575
100
AcDbArc
 50
260.4765201908
 51
260.5971279781
  0
ARC
  5
31F
330
218
100
AcDbEntity
  8
0_COMPONENTS
  6
Continuous
 62
     7
100
AcDbCircle
 10
135.3892856864
 20
288.3171398955
 30
0.0
 40
123.4566597889
100
AcDbArc
 50
245.5763190963001
 51
247.3215392579
  0
ARC
  5
320
330
218
100
AcDbEntity
  8
0_COMPONENTS
  6
Continuous
 62
     7
100
AcDbCircle
 10
152.2754855771
 20
270.8191058215
 30
0.0
 40
109.5957027883
100
AcDbArc
 50
239.9980944254
 51
240.2891835806001
  0
SPLINE
  5
321
330
218
100
AcDbEntity
  8
0_COMPONENTS
  6
Continuous
 62
     7
100
AcDbSpline
210
0.0
220
0.0
230
1.0
 70
     8
 71
     3
 72
    16
 73
    12
 74
     0
 42
0.0000001
 43
0.0000000001
 40
0.0
 40
0.0
 40
0.0
 40
0.0
 40
0.0209546974
 40
0.0821712507
 40
0.1265889514
 40
0.1792968479
 40
0.3065575331
 40
0.4578880539
 40
0.6274857516
 40
0.8099197184999999
 40
1.0
 40
1.0
 40
1.0
 40
1.0
 10
128.957364216
 20
178.0307896675999
 30
0.0
 10
128.9637830199
 20
177.9962449498
 30
0.0
 10
128.9089641198
 20
178.2989174558
 30
0.0
 10
128.8954754301
 20
178.3847025945
 30
0.0
 10
128.8464831538
 20
178.6791296661
 30
0.0
 10
128.790444887
 20
179.0386231494
 30
0.0
 10
128.7106085321999
 20
179.5960926402
 30
0.0
 10
128.621357687
 20
180.339312169
 30
0.0
 10
128.5421293736
 20
181.1806837146
 30
0.0
 10
128.4834954799
 20
182.087621583
 30
0.0
 10
128.4627750827
 20
182.7120932685
 30
0.0
 10
128.4573738409
 20
183.0307665361
 30
0.0
  0
LINE
  5
322
330
218
100
AcDbEntity
  8
0_COMPONENTS
  6
Continuous
 62
     7
100
AcDbLine
 10
128.957364216
 20
189.0307434046
 30
0.0
 11
128.9540690455
 21
189.0124113005
 31
0.0
  0
SPLINE
  5
323
330
218
100
AcDbEntity
  8
0_COMPONENTS
  6
Continuous
 62
     7
100
AcDbSpline
210
0.0
220
0.0
230
1.0
 70
     8
 71
     3
 72
     9
 73
     5
 74
     0
 42
0.0000001
 43
0.0000000001
 40
0.0
 40
0.0
 40
0.0
 40
0.0
 40
0.6666855990000001
 40
1.0
 40
1.0
 40
1.0
 40
1.0
 10
128.4573738409
 20
184.0307665361
 30
0.0
 10
128.4762457081
 20
185.1442066989
 30
0.0
 10
128.6002018081999
 20
186.8144127341
 30
0.0
 10
128.8557743603
 20
188.4655660227999
 30
0.0
 10
128.9542713261
 20
189.0135366531
 30
0.0
  0
LINE
  5
324
330
218
100
AcDbEntity
  8
0_COMPONENTS
  6
Continuous
 62
     7
100
AcDbLine
 10
128.9542713261
 20
178.0479964191
 30
0.0
 11
128.957364216
 21
178.0307896675999
 31
0.0
  0
LINE
  5
325
330
218
100
AcDbEntity
  8
0_COMPONENTS
  6
Continuous
 62
     7
100
AcDbLine
 10
97.5159524847
 20
164.6393451799
 30
0.0
 11
97.59350637620002
 21
164.6522649075
 31
0.0
  0
LINE
  5
326
330
218
100
AcDbEntity
  8
0_COMPONENTS
  6
Continuous
 62
     7
100
AcDbLine
 10
97.59350637620002
 20
164.6522649075
 30
0.0
 11
97.8165409396
 21
164.6894348646
 31
0.0
  0
SPLINE
  5
327
330
218
100
AcDbEntity
  8
0_COMPONENTS
  6
Continuous
 62
     7
100
AcDbSpline
210
0.0
220
0.0
230
1.0
 70
     8
 71
     3
 72
     9
 73
     5
 74
     0
 42
0.0000001
 43
0.0000000001
 40
0.0
 40
0.0
 40
0.0
 40
0.0
 40
0.2387931209
 40
1.0
 40
1.0
 40
1.0
 40
1.0
 10
97.8165409396
 20
164.6894348646
 30
0.0
 10
97.86015608479999
 20
164.6967022402
 30
0.0
 10
98.0427806493
 20
164.7272777025
 30
0.0
 10
98.2255026916
 20
164.7572714187
 30
0.0
 10
98.36448062209999
 20
164.7807665361
 30
0.0
  0
LINE
  5
328
330
218
100
AcDbEntity
  8
0_COMPONENTS
  6
Continuous
 62
     7
100
AcDbLine
 10
97.95737384090001
 20
165.0807665361
 30
0.0
 11
98.4573738409
 21
164.8736597549
 31
0.0
  0
LINE
  5
329
330
218
100
AcDbEntity
  8
0_COMPONENTS
  6
Continuous
 62
     7
100
AcDbLine
 10
109.9347293003
 20
165.0713868603
 30
0.0
 11
109.8676906618
 21
165.043618547
 31
0.0
  0
LINE
  5
32A
330
218
100
AcDbEntity
  8
0_COMPONENTS
  6
Continuous
 62
     7
100
AcDbLine
 10
109.8676906618
 20
165.043618547
 30
0.0
 11
109.4573738409
 21
164.8736597549
 31
0.0
  0
SPLINE
  5
32B
330
218
100
AcDbEntity
  8
0_COMPONENTS
  6
Continuous
 62
     7
100
AcDbSpline
210
0.0
220
0.0
230
1.0
 70
     8
 71
     3
 72
     9
 73
     5
 74
     0
 42
0.0000001
 43
0.0000000001
 40
0.0
 40
0.0
 40
0.0
 40
0.0
 40
0.5001411393000001
 40
1.0
 40
1.0
 40
1.0
 40
1.0
 10
111.8344912845
 20
214.4307665361
 30
0.0
 10
111.8824325517
 20
214.0958306934
 30
0.0
 10
111.9846514719
 20
213.4270691136
 30
0.0
 10
112.1065771405
 20
212.7613467555
 30
0.0
 10
112.177766422
 20
212.4307665361
 30
0.0
  0
SPLINE
  5
32C
330
218
100
AcDbEntity
  8
0_COMPONENTS
  6
Continuous
 62
     7
100
AcDbSpline
210
0.0
220
0.0
230
1.0
 70
     8
 71
     3
 72
     9
 73
     5
 74
     0
 42
0.0000001
 43
0.0000000001
 40
0.0
 40
0.0
 40
0.0
 40
0.0
 40
0.4998588606000001
 40
1.0
 40
1.0
 40
1.0
 40
1.0
 10
95.7369812598
 20
212.4307665361
 30
0.0
 10
95.80817054129999
 20
212.7613467555
 30
0.0
 10
95.93009621049999
 20
213.4270691134
 30
0.0
 10
96.03231513010001
 20
214.0958306934
 30
0.0
 10
96.08025639739999
 20
214.4307665361
 30
0.0
  0
SPLINE
  5
32D
330
218
100
AcDbEntity
  8
0_COMPONENTS
  6
Continuous
 62
     7
100
AcDbSpline
210
0.0
220
0.0
230
1.0
 70
     8
 71
     3
 72
     9
 73
     5
 74
     0
 42
0.0000001
 43
0.0000000001
 40
0.0
 40
0.0
 40
0.0
 40
0.0
 40
0.4961822062
 40
1.0
 40
1.0
 40
1.0
 40
1.0
 10
112.6643236937
 20
214.6210757269
 30
0.0
 10
112.5459420851
 20
214.6210757269
 30
0.0
 10
112.3069346465
 20
214.5918581655
 30
0.0
 10
112.0784641594
 20
214.5210096451
 30
0.0
 10
111.965187489
 20
214.4807947217
 30
0.0
  0
SPLINE
  5
32E
330
218
100
AcDbEntity
  8
0_COMPONENTS
  6
Continuous
 62
     7
100
AcDbSpline
210
0.0
220
0.0
230
1.0
 70
     8
 71
     3
 72
    15
 73
    11
 74
     0
 42
0.0000001
 43
0.0000000001
 40
0.0
 40
0.0
 40
0.0
 40
0.0
 40
0.0522183099
 40
0.1077741058
 40
0.2247694295
 40
0.3469014715999999
 40
0.4726080035000001
 40
0.6011270954
 40
0.7320279836
 40
1.0
 40
1.0
 40
1.0
 40
1.0
 10
114.9369030392
 20
215.0090297365
 30
0.0
 10
114.907238709
 20
214.9813304032
 30
0.0
 10
114.835207203
 20
214.9363416173
 30
0.0
 10
114.6755423611
 20
214.8655984239
 30
0.0
 10
114.455437414
 20
214.7993085562
 30
0.0
 10
114.1782114121
 20
214.7395030352
 30
0.0
 10
113.8890651347
 20
214.6941641001
 30
0.0
 10
113.5915462649
 20
214.6606404195
 30
0.0
 10
113.1827478389
 20
214.6296173073
 30
0.0
 10
112.8726015834
 20
214.6210757269
 30
0.0
 10
112.6643236937
 20
214.6210757269
 30
0.0
  0
SPLINE
  5
32F
330
218
100
AcDbEntity
  8
0_COMPONENTS
  6
Continuous
 62
     7
100
AcDbSpline
210
0.0
220
0.0
230
1.0
 70
     8
 71
     3
 72
    11
 73
     7
 74
     0
 42
0.0000001
 43
0.0000000001
 40
0.0
 40
0.0
 40
0.0
 40
0.0
 40
0.3129645735
 40
0.5851338449
 40
0.8009792732999999
 40
1.0
 40
1.0
 40
1.0
 40
1.0
 10
114.8257882958
 20
215.2392269704
 30
0.0
 10
114.8557537727
 20
215.227739889
 30
0.0
 10
114.9098005601
 20
215.2002624923
 30
0.0
 10
114.9676588802
 20
215.1367082206
 30
0.0
 10
114.9762086605
 20
215.0615003811
 30
0.0
 10
114.9518191312
 20
215.0229577706
 30
0.0
 10
114.9369030392
 20
215.0090297365
 30
0.0
  0
SPLINE
  5
330
330
218
100
AcDbEntity
  8
0_COMPONENTS
  6
Continuous
 62
     7
100
AcDbSpline
210
0.0
220
0.0
230
1.0
 70
     8
 71
     3
 72
    14
 73
    10
 74
     0
 42
0.0000001
 43
0.0000000001
 40
0.0
 40
0.0
 40
0.0
 40
0.0
 40
0.2434528774
 40
0.4888253663000001
 40
0.6127884582
 40
0.7382684707
 40
0.866392321
 40
0.9321916273999999
 40
1.0
 40
1.0
 40
1.0
 40
1.0
 10
112.2823126912
 20
215.4124907397
 30
0.0
 10
112.4898106844
 20
215.4124907397
 30
0.0
 10
112.9064443128
 20
215.4102479433
 30
0.0
 10
113.4286697943
 20
215.3999314847
 30
0.0
 10
113.8500647119
 20
215.381901945
 30
0.0
 10
114.1711205469
 20
215.3599452095
 30
0.0
 10
114.4419887927
 20
215.32992301
 30
0.0
 10
114.6614132752
 20
215.2897095174
 30
0.0
 10
114.7718236175
 20
215.259913998
 30
0.0
 10
114.8257882958
 20
215.2392269704
 30
0.0
  0
SPLINE
  5
331
330
218
100
AcDbEntity
  8
0_COMPONENTS
  6
Continuous
 62
     7
100
AcDbSpline
210
0.0
220
0.0
230
1.0
 70
     8
 71
     3
 72
     9
 73
     5
 74
     0
 42
0.0000001
 43
0.0000000001
 40
0.0
 40
0.0
 40
0.0
 40
0.0
 40
0.2586990196999999
 40
1.0
 40
1.0
 40
1.0
 40
1.0
 10
111.5775689476
 20
215.4307665361
 30
0.0
 10
111.6383624685
 20
215.4307665361
 30
0.0
 10
111.8733370675
 20
215.4260508336
 30
0.0
 10
112.1081091062
 20
215.4124907397
 30
0.0
 10
112.2823126912
 20
215.4124907397
 30
0.0
  0
SPLINE
  5
332
330
218
100
AcDbEntity
  8
0_COMPONENTS
  6
Continuous
 62
     7
100
AcDbSpline
210
0.0
220
0.0
230
1.0
 70
     8
 71
     3
 72
     9
 73
     5
 74
     0
 42
0.0000001
 43
0.0000000001
 40
0.0
 40
0.0
 40
0.0
 40
0.0
 40
0.2358074871
 40
1.0
 40
1.0
 40
1.0
 40
1.0
 10
95.63243499069999
 20
215.4124907397
 30
0.0
 10
95.68784922170001
 20
215.4124907397
 30
0.0
 10
95.9228324621
 20
215.416664474
 30
0.0
 10
96.1575952063
 20
215.4307665361
 30
0.0
 10
96.3371787342
 20
215.4307665361
 30
0.0
  0
SPLINE
  5
333
330
218
100
AcDbEntity
  8
0_COMPONENTS
  6
Continuous
 62
     7
100
AcDbSpline
210
0.0
220
0.0
230
1.0
 70
     8
 71
     3
 72
    14
 73
    10
 74
     0
 42
0.0000001
 43
0.0000000001
 40
0.0
 40
0.0
 40
0.0
 40
0.0
 40
0.0678083203
 40
0.1336076074
 40
0.261731476
 40
0.3872115006000001
 40
0.5111746018
 40
0.7565471068000001
 40
1.0
 40
1.0
 40
1.0
 40
1.0
 10
93.0889593861
 20
215.2392269704
 30
0.0
 10
93.14292402280001
 20
215.2599139821
 30
0.0
 10
93.2533342982
 20
215.2897095109
 30
0.0
 10
93.4727587373
 20
215.3299229965
 30
0.0
 10
93.7436269926
 20
215.3599451922
 30
0.0
 10
94.064682861
 20
215.3819019421
 30
0.0
 10
94.48607781079999
 20
215.3999314842
 30
0.0
 10
95.00830332780001
 20
215.4102479414
 30
0.0
 10
95.42493698379999
 20
215.4124907397
 30
0.0
 10
95.63243499069999
 20
215.4124907397
 30
0.0
  0
SPLINE
  5
334
330
218
100
AcDbEntity
  8
0_COMPONENTS
  6
Continuous
 62
     7
100
AcDbSpline
210
0.0
220
0.0
230
1.0
 70
     8
 71
     3
 72
    11
 73
     7
 74
     0
 42
0.0000001
 43
0.0000000001
 40
0.0
 40
0.0
 40
0.0
 40
0.0
 40
0.1990188718
 40
0.4148342234000001
 40
0.6870082776000001
 40
1.0
 40
1.0
 40
1.0
 40
1.0
 10
92.97784464260001
 20
215.0090297365
 30
0.0
 10
92.9629287082
 20
215.0229576235
 30
0.0
 10
92.93854185689999
 20
215.0614972276
 30
0.0
 10
92.94708476690001
 20
215.1367016899
 30
0.0
 10
93.00494332339999
 20
215.2002574875
 30
0.0
 10
93.05899134689999
 20
215.2277389068
 30
0.0
 10
93.0889593861
 20
215.2392269704
 30
0.0
  0
SPLINE
  5
335
330
218
100
AcDbEntity
  8
0_COMPONENTS
  6
Continuous
 62
     7
100
AcDbSpline
210
0.0
220
0.0
230
1.0
 70
     8
 71
     3
 72
    15
 73
    11
 74
     0
 42
0.0000001
 43
0.0000000001
 40
0.0
 40
0.0
 40
0.0
 40
0.0
 40
0.2679720176
 40
0.3988729059
 40
0.5273919979999999
 40
0.6530985294000001
 40
0.7752305715000001
 40
0.8922258938999998
 40
0.9477816898
 40
1.0
 40
1.0
 40
1.0
 40
1.0
 10
95.25042398809999
 20
214.6210757269
 30
0.0
 10
95.04214609759999
 20
214.6210757269
 30
0.0
 10
94.73199984089999
 20
214.629617307
 30
0.0
 10
94.32320141379999
 20
214.6606404196
 30
0.0
 10
94.02568254389999
 20
214.6941640999
 30
0.0
 10
93.7365362675
 20
214.7395030375
 30
0.0
 10
93.4593102656
 20
214.7993085543
 30
0.0
 10
93.2392053226
 20
214.8655984292
 30
0.0
 10
93.07954047690001
 20
214.9363416132
 30
0.0
 10
93.00750897299998
 20
214.981330403
 30
0.0
 10
92.97784464260001
 20
215.0090297365
 30
0.0
  0
SPLINE
  5
336
330
218
100
AcDbEntity
  8
0_COMPONENTS
  6
Continuous
 62
     7
100
AcDbSpline
210
0.0
220
0.0
230
1.0
 70
     8
 71
     3
 72
     9
 73
     5
 74
     0
 42
0.0000001
 43
0.0000000001
 40
0.0
 40
0.0
 40
0.0
 40
0.0
 40
0.5038184007000001
 40
1.0
 40
1.0
 40
1.0
 40
1.0
 10
95.9495601929
 20
214.4807947217
 30
0.0
 10
95.83628338530001
 20
214.5210096938
 30
0.0
 10
95.60781289879999
 20
214.5918582437
 30
0.0
 10
95.36880545269999
 20
214.6210757269
 30
0.0
 10
95.25042398809999
 20
214.6210757269
 30
0.0
  0
SPLINE
  5
337
330
218
100
AcDbEntity
  8
0_COMPONENTS
  6
Continuous
 62
     7
100
AcDbSpline
210
0.0
220
0.0
230
1.0
 70
     8
 71
     3
 72
    18
 73
    14
 74
     0
 42
0.0000001
 43
0.0000000001
 40
0.0
 40
0.0
 40
0.0
 40
0.0
 40
0.0333576731
 40
0.066338409
 40
0.1303997861
 40
0.1931610821
 40
0.2553487001
 40
0.3172695672
 40
0.3790639782
 40
0.5025073467
 40
0.6260958313
 40
0.7501146209999999
 40
1.0
 40
1.0
 40
1.0
 40
1.0
 10
112.177766422
 20
212.4307665361
 30
0.0
 10
112.1849318268
 20
212.3974926917
 30
0.0
 10
112.1908036898
 20
212.3290545721
 30
0.0
 10
112.1650466735
 20
212.1970667284
 30
0.0
 10
112.0840562815
 20
212.0522340211
 30
0.0
 10
111.9602169871
 20
211.9042007154
 30
0.0
 10
111.823454083
 20
211.7709087029
 30
0.0
 10
111.6784717554
 20
211.6484326167
 30
0.0
 10
111.4765702259
 20
211.497124755
 30
0.0
 10
111.2096744508
 20
211.3284863794
 30
0.0
 10
110.8692766247
 20
211.1608034609
 30
0.0
 10
110.3907319875
 20
210.9896745055
 30
0.0
 10
110.0071641513
 20
210.9307665361
 30
0.0
 10
109.7521926919
 20
210.9307665361
 30
0.0
  0
SPLINE
  5
338
330
218
100
AcDbEntity
  8
0_COMPONENTS
  6
Continuous
 62
     7
100
AcDbSpline
210
0.0
220
0.0
230
1.0
 70
     8
 71
     3
 72
    18
 73
    14
 74
     0
 42
0.0000001
 43
0.0000000001
 40
0.0
 40
0.0
 40
0.0
 40
0.0
 40
0.2498865841
 40
0.3739057894
 40
0.4974946456
 40
0.620938384
 40
0.6827329784
 40
0.7446540286
 40
0.8068419168
 40
0.8696032851
 40
0.9336629206999999
 40
0.9666429181999999
 40
1.0
 40
1.0
 40
1.0
 40
1.0
 10
98.16255499
 20
210.9307665361
 30
0.0
 10
97.90758224920001
 20
210.9307665361
 30
0.0
 10
97.52401265000001
 20
210.9896750471
 30
0.0
 10
97.0454662626
 20
211.160805466
 30
0.0
 10
96.7050675755
 20
211.3284894769
 30
0.0
 10
96.43817122459999
 20
211.4971288753
 30
0.0
 10
96.23626954309999
 20
211.6484378435
 30
0.0
 10
96.0912868219
 20
211.770914598
 30
0.0
 10
95.9545244549
 20
211.9042078238
 30
0.0
 10
95.8306852121
 20
212.0522397466
 30
0.0
 10
95.7496996198
 20
212.1970719319
 30
0.0
 10
95.72394244979999
 20
212.3290566353
 30
0.0
 10
95.7298159806
 20
212.3974932748
 30
0.0
 10
95.7369812598
 20
212.4307665361
 30
0.0
  0
SPLINE
  5
339
330
218
100
AcDbEntity
  8
0_COMPONENTS
  6
Continuous
 62
     7
100
AcDbSpline
210
0.0
220
0.0
230
1.0
 70
     8
 71
     3
 72
    18
 73
    14
 74
     0
 42
0.0000001
 43
0.0000000001
 40
0.0
 40
0.0
 40
0.0
 40
0.0
 40
0.0616877427
 40
0.123689142
 40
0.1868740105
 40
0.2507144645
 40
0.3773729353
 40
0.5010696306
 40
0.6252009731000001
 40
0.7516801904000002
 40
0.8151218035999999
 40
0.8777764430999999
 40
1.0
 40
1.0
 40
1.0
 40
1.0
 10
97.4744775557
 20
177.5807665362
 30
0.0
 10
97.4747224284
 20
177.7902703142
 30
0.0
 10
97.4943378264
 20
178.2106295975
 30
0.0
 10
97.58589106169999
 20
178.8396377794
 30
0.0
 10
97.74038340030001
 20
179.4638461768
 30
0.0
 10
98.027849249
 20
180.2772646308
 30
0.0
 10
98.53399141860002
 20
181.2254864349
 30
0.0
 10
99.34587127330001
 20
182.2147185987
 30
0.0
 10
100.3343749221
 20
183.0266988678
 30
0.0
 10
101.2823207045
 20
183.5322926199
 30
0.0
 10
102.0924792665
 20
183.81797886
 30
0.0
 10
102.9121645846
 20
184.0204607066
 30
0.0
 10
103.5422781785
 20
184.0807849925999
 30
0.0
 10
103.9573738409
 20
184.0807665361
 30
0.0
  0
SPLINE
  5
33A
330
218
100
AcDbEntity
  8
0_COMPONENTS
  6
Continuous
 62
     7
100
AcDbSpline
210
0.0
220
0.0
230
1.0
 70
     8
 71
     3
 72
    18
 73
    14
 74
     0
 42
0.0000001
 43
0.0000000001
 40
0.0
 40
0.0
 40
0.0
 40
0.0
 40
0.1224337004
 40
0.1851538635
 40
0.2486410227
 40
0.3750774471
 40
0.4990673507000001
 40
0.6228832034
 40
0.7495928203
 40
0.8133822708
 40
0.8764885306
 40
0.9384072974999998
 40
1.0
 40
1.0
 40
1.0
 40
1.0
 10
103.9573738409
 20
184.0807665361
 30
0.0
 10
104.3731828879
 20
184.0807480479
 30
0.0
 10
105.0042473463
 20
184.0202877169
 30
0.0
 10
105.8249056675
 20
183.8171799917
 30
0.0
 10
106.6351629535
 20
183.5310756716
 30
0.0
 10
107.5824397786
 20
183.0252377916
 30
0.0
 10
108.570488032
 20
182.2130955656
 30
0.0
 10
109.3821394476
 20
181.223521493
 30
0.0
 10
109.888041506
 20
180.2747069081
 30
0.0
 10
110.1750867547
 20
179.4614254823
 30
0.0
 10
110.3291727605
 20
178.8378627704999
 30
0.0
 10
110.4204639295
 20
178.2097016688
 30
0.0
 10
110.4400301654
 20
177.7899473911
 30
0.0
 10
110.4402701262
 20
177.5807665363
 30
0.0
  0
SPLINE
  5
33B
330
218
100
AcDbEntity
  8
0_COMPONENTS
  6
Continuous
 62
     7
100
AcDbSpline
210
0.0
220
0.0
230
1.0
 70
     8
 71
     3
 72
    23
 73
    19
 74
     0
 42
0.0000001
 43
0.0000000001
 40
0.0
 40
0.0
 40
0.0
 40
0.0
 40
0.0626510353
 40
0.125139345
 40
0.1874805656
 40
0.2497558665
 40
0.3120828422
 40
0.3745643676
 40
0.4372267415
 40
0.4999997378
 40
0.5627729673
 40
0.625435702
 40
0.6879174721
 40
0.7502439168000001
 40
0.8125190244
 40
0.8748605787999998
 40
0.9373492696999999
 40
1.0
 40
1.0
 40
1.0
 40
1.0
 10
107.4487702457
 20
198.0515173037
 30
0.0
 10
107.4502942256
 20
197.8215480885
 30
0.0
 10
107.4091920763
 20
197.3604388502
 30
0.0
 10
107.2109830958
 20
196.6970588332
 30
0.0
 10
106.8920048127
 20
196.0839275344
 30
0.0
 10
106.457465354
 20
195.5467800571
 30
0.0
 10
105.9241849997
 20
195.1068152813
 30
0.0
 10
105.3131906792
 20
194.7806479006
 30
0.0
 10
104.6493419545
 20
194.577966645
 30
0.0
 10
103.9573806379
 20
194.5081885557
 30
0.0
 10
103.2654586181
 20
194.5782466766
 30
0.0
 10
102.6016205928
 20
194.7808840955
 30
0.0
 10
101.9904628373
 20
195.1067275945
 30
0.0
 10
101.4570129131
 20
195.5465169008
 30
0.0
 10
101.0226110382
 20
196.0838233553
 30
0.0
 10
100.7040949463
 20
196.6971684866
 30
0.0
 10
100.5055652807
 20
197.3604131332
 30
0.0
 10
100.4643472979
 20
197.8215499358
 30
0.0
 10
100.4659774361
 20
198.0515173037
 30
0.0
  0
SPLINE
  5
33C
330
218
100
AcDbEntity
  8
0_COMPONENTS
  6
Continuous
 62
     7
100
AcDbSpline
210
0.0
220
0.0
230
1.0
 70
     8
 71
     3
 72
    21
 73
    17
 74
     0
 42
0.0000001
 43
0.0000000001
 40
0.0
 40
0.0
 40
0.0
 40
0.0
 40
0.0625932716
 40
0.125219661
 40
0.1878087989
 40
0.2503468005
 40
0.3128587958
 40
0.3753944224
 40
0.4999985360000001
 40
0.6246058188000001
 40
0.6871415441
 40
0.7496529672
 40
0.8121907659000001
 40
0.8747799626
 40
0.9374069470999998
 40
1.0
 40
1.0
 40
1.0
 40
1.0
 10
100.4659774361
 20
198.0515173037
 30
0.0
 10
100.4675908816
 20
198.279129788
 30
0.0
 10
100.5150573231
 20
198.7355704444
 30
0.0
 10
100.719702718
 20
199.391281354
 30
0.0
 10
101.0415824343
 20
199.998179721
 30
0.0
 10
101.477403859
 20
200.529139155
 30
0.0
 10
102.0094616091
 20
200.963447605
 30
0.0
 10
102.8154867381
 20
201.3912775877
 30
0.0
 10
103.9574117888
 20
201.6225525083001
 30
0.0
 10
105.0991264324
 20
201.3909089567
 30
0.0
 10
105.9053877036
 20
200.9635434015
 30
0.0
 10
106.4376058889
 20
200.5293989624
 30
0.0
 10
106.8733004268
 20
199.9982905928
 30
0.0
 10
107.1947092077
 20
199.3911675415
 30
0.0
 10
107.3996751013
 20
198.7355968818
 30
0.0
 10
107.4472618841
 20
198.2791297132
 30
0.0
 10
107.4487702457
 20
198.0515173037
 30
0.0
  0
SPLINE
  5
33D
330
218
100
AcDbEntity
  8
0_COMPONENTS
  6
Continuous
 62
     7
100
AcDbSpline
210
0.0
220
0.0
230
1.0
 70
     8
 71
     3
 72
    12
 73
     8
 74
     0
 42
0.0000001
 43
0.0000000001
 40
0.0
 40
0.0
 40
0.0
 40
0.0
 40
0.314880237
 40
0.5764264737
 40
0.6873169025000001
 40
0.7915538808
 40
1.0
 40
1.0
 40
1.0
 40
1.0
 10
84.34232859499999
 20
183.0461983281
 30
0.0
 10
84.34232859499999
 20
183.1163923844
 30
0.0
 10
84.35996094489999
 20
183.2464233447
 30
0.0
 10
84.44650967680001
 20
183.3826261976
 30
0.0
 10
84.5399759941
 20
183.4368715163
 30
0.0
 10
84.6334156093
 20
183.4574993355
 30
0.0
 10
84.70505327819999
 20
183.4425707018
 30
0.0
 10
84.7480011286
 20
183.4248307706
 30
0.0
  0
LINE
  5
33E
330
218
100
AcDbEntity
  8
0_COMPONENTS
  6
Continuous
 62
     7
100
AcDbLine
 10
110.0982067422
 20
164.6894348646
 30
0.0
 11
110.3798113956
 21
164.642475782
 31
0.0
  0
LINE
  5
33F
330
218
100
AcDbEntity
  8
0_COMPONENTS
  6
Continuous
 62
     7
100
AcDbLine
 10
97.4744775557
 20
165.0807665361
 30
0.0
 11
97.51452109680002
 21
165.0407418875
 31
0.0
  0
LINE
  5
340
330
218
100
AcDbEntity
  8
0_COMPONENTS
  6
Continuous
 62
     7
100
AcDbLine
 10
97.54259967020001
 20
164.6659923653
 30
0.0
 11
97.51452109680002
 21
165.0407418875
 31
0.0
  0
LINE
  5
341
330
218
100
AcDbEntity
  8
0_COMPONENTS
  6
Continuous
 62
     7
100
AcDbLine
 10
110.4145230963
 20
164.7074288737
 30
0.0
 11
110.3724309903
 21
164.6657102838999
 31
0.0
  0
ENDSEC
  0
SECTION
  2
OBJECTS
  0
DICTIONARY
  5
C
330
0
100
AcDbDictionary
281
     1
  3
ACAD_CIP_PREVIOUS_PRODUCT_INFO
350
399
  3
ACAD_COLOR
350
37B
  3
ACAD_DETAILVIEWSTYLE
350
392
  3
ACAD_GROUP
350
D
  3
ACAD_LAYOUT
350
1A
  3
ACAD_MATERIAL
350
349
  3
ACAD_MLEADERSTYLE
350
38E
  3
ACAD_MLINESTYLE
350
17
  3
ACAD_PLOTSETTINGS
350
19
  3
ACAD_PLOTSTYLENAME
350
E
  3
ACAD_SCALELIST
350
37C
  3
ACAD_SECTIONVIEWSTYLE
350
390
  3
ACAD_TABLESTYLE
350
342
  3
ACAD_VISUALSTYLE
350
362
  3
ACDB_RECOMPOSE_DATA
350
3CA
  3
AcDbVariableDictionary
350
3BF
  0
XRECORD
  5
399
102
{ACAD_REACTORS
330
C
102
}
330
C
100
AcDbXrecord
280
     1
300
ACDLT
300
2021
300

  0
DICTIONARY
  5
37B
102
{ACAD_REACTORS
330
C
102
}
330
C
100
AcDbDictionary
281
     1
  0
DICTIONARY
  5
392
102
{ACAD_REACTORS
330
C
102
}
330
C
100
AcDbDictionary
281
     1
  3
Metric50
350
393
  0
DICTIONARY
  5
D
102
{ACAD_REACTORS
330
C
102
}
330
C
100
AcDbDictionary
281
     1
  0
DICTIONARY
  5
1A
102
{ACAD_REACTORS
330
C
102
}
330
C
100
AcDbDictionary
281
     1
  3
Layout1
350
344
  3
Model
350
343
  0
DICTIONARY
  5
349
102
{ACAD_REACTORS
330
C
102
}
330
C
100
AcDbDictionary
281
     1
  3
ByBlock
350
352
  3
ByLayer
350
34A
  3
Global
350
35A
  0
DICTIONARY
  5
38E
102
{ACAD_REACTORS
330
C
102
}
330
C
100
AcDbDictionary
281
     1
  3
Standard
350
38F
  0
DICTIONARY
  5
17
102
{ACAD_REACTORS
330
C
102
}
330
C
100
AcDbDictionary
281
     1
  3
Standard
350
18
  0
DICTIONARY
  5
19
102
{ACAD_REACTORS
330
C
102
}
330
C
100
AcDbDictionary
281
     1
  0
ACDBDICTIONARYWDFLT
  5
E
102
{ACAD_REACTORS
330
C
102
}
330
C
100
AcDbDictionary
281
     1
  3
Normal
350
F
100
AcDbDictionaryWithDefault
340
F
  0
DICTIONARY
  5
37C
102
{ACAD_REACTORS
330
C
102
}
330
C
100
AcDbDictionary
281
     1
  3
A0
350
37D
  3
A1
350
37E
  3
A2
350
37F
  3
A3
350
380
  3
A4
350
381
  3
A5
350
382
  3
A6
350
383
  3
A7
350
384
  3
A8
350
385
  3
A9
350
386
  3
B0
350
387
  3
B1
350
388
  3
B2
350
389
  3
B3
350
38A
  3
B4
350
38B
  3
B5
350
38C
  3
B6
350
38D
  0
DICTIONARY
  5
390
102
{ACAD_REACTORS
330
C
102
}
330
C
100
AcDbDictionary
281
     1
  3
Metric50
350
391
  0
DICTIONARY
  5
342
330
C
100
AcDbDictionary
281
     1
  3
Standard
350
345
  3
Standard1
350
346
  0
DICTIONARY
  5
362
102
{ACAD_REACTORS
330
C
102
}
330
C
100
AcDbDictionary
281
     1
  3
2dWireframe
350
368
  3
Basic
350
367
  3
Brighten
350
36E
  3
ColorChange
350
372
  3
Conceptual
350
36B
  3
Dim
350
36D
  3
EdgeColorOff
350
37A
  3
Facepattern
350
371
  3
Flat
350
363
  3
FlatWithEdges
350
364
  3
Gouraud
350
365
  3
GouraudWithEdges
350
366
  3
Hidden
350
36A
  3
JitterOff
350
378
  3
Linepattern
350
370
  3
OverhangOff
350
379
  3
Realistic
350
36C
  3
Shaded
350
377
  3
Shaded with edges
350
376
  3
Shades of Gray
350
373
  3
Sketchy
350
374
  3
Thicken
350
36F
  3
Wireframe
350
369
  3
X-Ray
350
375
  0
XRECORD
  5
3CA
102
{ACAD_REACTORS
330
C
102
}
330
C
100
AcDbXrecord
280
     1
 90
        1
330
345
330
346
  0
DICTIONARY
  5
3BF
102
{ACAD_REACTORS
330
C
102
}
330
C
100
AcDbDictionary
281
     1
  3
CANNOSCALE
350
3C4
  3
CMLEADERSTYLE
350
3C1
  3
CTABLESTYLE
350
3C0
  3
CVIEWDETAILSTYLE
350
3C2
  3
CVIEWSECTIONSTYLE
350
3C3
  0
ACDBDETAILVIEWSTYLE
  5
393
102
{ACAD_XDICTIONARY
360
3CD
102
}
102
{ACAD_REACTORS
330
392
102
}
330
392
100
AcDbModelDocViewStyle
 70
     0
  3
Metric50
290
     0
100
AcDbDetailViewStyle
 70
     0
 71
     0
 90
        3
 71
     1
340
11
 62
   256
 40
5.0
340
0
 62
   256
 40
5.0
300

 40
0.0
280
     1
 71
     2
340
16
 90
       25
 62
   256
 71
     3
340
11
 62
   256
 40
5.0
 90
        0
 40
15.0
 90
        1
300
%<\AcVar ViewDetailId>% (%<\AcVar ViewScale \f "%sn">%)
 71
     4
340
16
 90
       25
 62
   256
340
16
 90
       25
 62
   256
280
     0
  0
LAYOUT
  5
344
102
{ACAD_REACTORS
330
1A
102
}
330
1A
100
AcDbPlotSettings
  1

  2
none_device
  4

  6

 40
0.0
 41
0.0
 42
0.0
 43
0.0
 44
210.0
 45
297.0
 46
0.0
 47
0.0
 48
0.0
 49
0.0
140
0.0
141
0.0
142
1.0
143
1.0
 70
     0
 72
     1
 73
     0
 74
     0
  7

 75
     0
147
1.0
 76
     0
 77
     2
 78
   300
148
0.0
149
0.0
100
AcDbLayout
  1
Layout1
 70
     1
 71
     1
 10
0.0
 20
0.0
 11
12.0
 21
9.0
 12
0.0
 22
0.0
 32
0.0
 14
1.000000000000000E+20
 24
1.000000000000000E+20
 34
1.000000000000000E+20
 15
-1.000000000000000E+20
 25
-1.000000000000000E+20
 35
-1.000000000000000E+20
146
0.0
 13
0.0
 23
0.0
 33
0.0
 16
1.0
 26
0.0
 36
0.0
 17
0.0
 27
1.0
 37
0.0
 76
     0
330
219
  0
LAYOUT
  5
343
102
{ACAD_REACTORS
330
1A
102
}
330
1A
100
AcDbPlotSettings
  1

  2
none_device
  4

  6

 40
0.0
 41
0.0
 42
0.0
 43
0.0
 44
210.0
 45
297.0
 46
0.0
 47
0.0
 48
0.0
 49
0.0
140
0.0
141
0.0
142
1.0
143
1.0
 70
  1024
 72
     1
 73
     0
 74
     0
  7

 75
     0
147
1.0
 76
     0
 77
     2
 78
   300
148
0.0
149
0.0
100
AcDbLayout
  1
Model
 70
     0
 71
     0
 10
0.0
 20
0.0
 11
210.0
 21
297.0
 12
0.0
 22
0.0
 32
0.0
 14
0.0
 24
0.0
 34
0.0
 15
0.0
 25
0.0
 35
0.0
146
0.0
 13
0.0
 23
0.0
 33
0.0
 16
1.0
 26
0.0
 36
0.0
 17
0.0
 27
1.0
 37
0.0
 76
     0
330
218
331
1F4
  0
MATERIAL
  5
352
102
{ACAD_XDICTIONARY
360
353
102
}
102
{ACAD_REACTORS
330
349
102
}
330
349
100
AcDbMaterial
  1
ByBlock
 72
     0
 43
0.0008202099737533
 43
0.0
 43
0.0
 43
0.0
 43
0.0
 43
0.0008202099737533
 43
0.0
 43
0.0
 43
0.0
 43
0.0
 43
1.0
 43
0.0
 43
0.0
 43
0.0
 43
0.0
 43
1.0
 77
     0
 47
0.0008202099737533
 47
0.0
 47
0.0
 47
0.0
 47
0.0
 47
0.0008202099737533
 47
0.0
 47
0.0
 47
0.0
 47
0.0
 47
1.0
 47
0.0
 47
0.0
 47
0.0
 47
0.0
 47
1.0
171
     0
 49
0.0008202099737533
 49
0.0
 49
0.0
 49
0.0
 49
0.0
 49
0.0008202099737533
 49
0.0
 49
0.0
 49
0.0
 49
0.0
 49
1.0
 49
0.0
 49
0.0
 49
0.0
 49
0.0
 49
1.0
175
     0
142
0.0008202099737533
142
0.0
142
0.0
142
0.0
142
0.0
142
0.0008202099737533
142
0.0
142
0.0
142
0.0
142
0.0
142
1.0
142
0.0
142
0.0
142
0.0
142
0.0
142
1.0
179
     0
144
0.0008202099737533
144
0.0
144
0.0
144
0.0
144
0.0
144
0.0008202099737533
144
0.0
144
0.0
144
0.0
144
0.0
144
1.0
144
0.0
144
0.0
144
0.0
144
0.0
144
1.0
147
0.0008202099737533
147
0.0
147
0.0
147
0.0
147
0.0
147
0.0008202099737533
147
0.0
147
0.0
147
0.0
147
0.0
147
1.0
147
0.0
147
0.0
147
0.0
147
0.0
147
1.0
  0
MATERIAL
  5
34A
102
{ACAD_XDICTIONARY
360
34B
102
}
102
{ACAD_REACTORS
330
349
102
}
330
349
100
AcDbMaterial
  1
ByLayer
 72
     0
 43
0.0008202099737533
 43
0.0
 43
0.0
 43
0.0
 43
0.0
 43
0.0008202099737533
 43
0.0
 43
0.0
 43
0.0
 43
0.0
 43
1.0
 43
0.0
 43
0.0
 43
0.0
 43
0.0
 43
1.0
 77
     0
 47
0.0008202099737533
 47
0.0
 47
0.0
 47
0.0
 47
0.0
 47
0.0008202099737533
 47
0.0
 47
0.0
 47
0.0
 47
0.0
 47
1.0
 47
0.0
 47
0.0
 47
0.0
 47
0.0
 47
1.0
171
     0
 49
0.0008202099737533
 49
0.0
 49
0.0
 49
0.0
 49
0.0
 49
0.0008202099737533
 49
0.0
 49
0.0
 49
0.0
 49
0.0
 49
1.0
 49
0.0
 49
0.0
 49
0.0
 49
0.0
 49
1.0
175
     0
142
0.0008202099737533
142
0.0
142
0.0
142
0.0
142
0.0
142
0.0008202099737533
142
0.0
142
0.0
142
0.0
142
0.0
142
1.0
142
0.0
142
0.0
142
0.0
142
0.0
142
1.0
179
     0
144
0.0008202099737533
144
0.0
144
0.0
144
0.0
144
0.0
144
0.0008202099737533
144
0.0
144
0.0
144
0.0
144
0.0
144
1.0
144
0.0
144
0.0
144
0.0
144
0.0
144
1.0
147
0.0008202099737533
147
0.0
147
0.0
147
0.0
147
0.0
147
0.0008202099737533
147
0.0
147
0.0
147
0.0
147
0.0
147
1.0
147
0.0
147
0.0
147
0.0
147
0.0
147
1.0
  0
MATERIAL
  5
35A
102
{ACAD_XDICTIONARY
360
35B
102
}
102
{ACAD_REACTORS
330
349
102
}
330
349
100
AcDbMaterial
  1
Global
 72
     0
 43
0.0008202099737533
 43
0.0
 43
0.0
 43
0.0
 43
0.0
 43
0.0008202099737533
 43
0.0
 43
0.0
 43
0.0
 43
0.0
 43
1.0
 43
0.0
 43
0.0
 43
0.0
 43
0.0
 43
1.0
 77
     0
 47
0.0008202099737533
 47
0.0
 47
0.0
 47
0.0
 47
0.0
 47
0.0008202099737533
 47
0.0
 47
0.0
 47
0.0
 47
0.0
 47
1.0
 47
0.0
 47
0.0
 47
0.0
 47
0.0
 47
1.0
171
     0
 49
0.0008202099737533
 49
0.0
 49
0.0
 49
0.0
 49
0.0
 49
0.0008202099737533
 49
0.0
 49
0.0
 49
0.0
 49
0.0
 49
1.0
 49
0.0
 49
0.0
 49
0.0
 49
0.0
 49
1.0
175
     0
142
0.0008202099737533
142
0.0
142
0.0
142
0.0
142
0.0
142
0.0008202099737533
142
0.0
142
0.0
142
0.0
142
0.0
142
1.0
142
0.0
142
0.0
142
0.0
142
0.0
142
1.0
179
     0
144
0.0008202099737533
144
0.0
144
0.0
144
0.0
144
0.0
144
0.0008202099737533
144
0.0
144
0.0
144
0.0
144
0.0
144
1.0
144
0.0
144
0.0
144
0.0
144
0.0
144
1.0
147
0.0008202099737533
147
0.0
147
0.0
147
0.0
147
0.0
147
0.0008202099737533
147
0.0
147
0.0
147
0.0
147
0.0
147
1.0
147
0.0
147
0.0
147
0.0
147
0.0
147
1.0
  0
MLEADERSTYLE
  5
38F
102
{ACAD_REACTORS
330
38E
102
}
330
38E
100
AcDbMLeaderStyle
179
     2
170
     2
171
     1
172
     0
 90
        2
 40
0.0
 41
0.0
173
     1
 91
-1056964608
340
14
 92
       -2
290
     1
 42
2.0
291
     1
 43
0.36
  3
Standard
 44
4.0
300

342
11
174
     1
178
     6
175
     1
176
     0
 93
-1056964608
 45
4.0
292
     0
297
     0
 46
4.0
 94
-1056964608
 47
1.0
 49
1.0
140
1.0
293
     1
141
0.0
294
     1
177
     0
142
1.0
295
     0
296
     0
143
0.125
271
     0
272
     9
273
     9
298
     1
  0
MLINESTYLE
  5
18
102
{ACAD_REACTORS
330
17
102
}
330
17
100
AcDbMlineStyle
  2
STANDARD
 70
     0
  3

 62
   256
 51
90.0
 52
90.0
 71
     2
 49
0.5
 62
   256
  6
BYLAYER
 49
-0.5
 62
   256
  6
BYLAYER
  0
ACDBPLACEHOLDER
  5
F
102
{ACAD_REACTORS
330
E
102
}
330
E
  0
SCALE
  5
37D
102
{ACAD_REACTORS
330
37C
102
}
330
37C
100
AcDbScale
 70
     0
300
1:1
140
1.0
141
1.0
290
     1
  0
SCALE
  5
37E
102
{ACAD_REACTORS
330
37C
102
}
330
37C
100
AcDbScale
 70
     0
300
1:2
140
1.0
141
2.0
290
     0
  0
SCALE
  5
37F
102
{ACAD_REACTORS
330
37C
102
}
330
37C
100
AcDbScale
 70
     0
300
1:4
140
1.0
141
4.0
290
     0
  0
SCALE
  5
380
102
{ACAD_REACTORS
330
37C
102
}
330
37C
100
AcDbScale
 70
     0
300
1:5
140
1.0
141
5.0
290
     0
  0
SCALE
  5
381
102
{ACAD_REACTORS
330
37C
102
}
330
37C
100
AcDbScale
 70
     0
300
1:8
140
1.0
141
8.0
290
     0
  0
SCALE
  5
382
102
{ACAD_REACTORS
330
37C
102
}
330
37C
100
AcDbScale
 70
     0
300
1:10
140
1.0
141
10.0
290
     0
  0
SCALE
  5
383
102
{ACAD_REACTORS
330
37C
102
}
330
37C
100
AcDbScale
 70
     0
300
1:16
140
1.0
141
16.0
290
     0
  0
SCALE
  5
384
102
{ACAD_REACTORS
330
37C
102
}
330
37C
100
AcDbScale
 70
     0
300
1:20
140
1.0
141
20.0
290
     0
  0
SCALE
  5
385
102
{ACAD_REACTORS
330
37C
102
}
330
37C
100
AcDbScale
 70
     0
300
1:30
140
1.0
141
30.0
290
     0
  0
SCALE
  5
386
102
{ACAD_REACTORS
330
37C
102
}
330
37C
100
AcDbScale
 70
     0
300
1:40
140
1.0
141
40.0
290
     0
  0
SCALE
  5
387
102
{ACAD_REACTORS
330
37C
102
}
330
37C
100
AcDbScale
 70
     0
300
1:50
140
1.0
141
50.0
290
     0
  0
SCALE
  5
388
102
{ACAD_REACTORS
330
37C
102
}
330
37C
100
AcDbScale
 70
     0
300
1:100
140
1.0
141
100.0
290
     0
  0
SCALE
  5
389
102
{ACAD_REACTORS
330
37C
102
}
330
37C
100
AcDbScale
 70
     0
300
2:1
140
2.0
141
1.0
290
     0
  0
SCALE
  5
38A
102
{ACAD_REACTORS
330
37C
102
}
330
37C
100
AcDbScale
 70
     0
300
4:1
140
4.0
141
1.0
290
     0
  0
SCALE
  5
38B
102
{ACAD_REACTORS
330
37C
102
}
330
37C
100
AcDbScale
 70
     0
300
8:1
140
8.0
141
1.0
290
     0
  0
SCALE
  5
38C
102
{ACAD_REACTORS
330
37C
102
}
330
37C
100
AcDbScale
 70
     0
300
10:1
140
10.0
141
1.0
290
     0
  0
SCALE
  5
38D
102
{ACAD_REACTORS
330
37C
102
}
330
37C
100
AcDbScale
 70
     0
300
100:1
140
100.0
141
1.0
290
     0
  0
ACDBSECTIONVIEWSTYLE
  5
391
102
{ACAD_XDICTIONARY
360
3CB
102
}
102
{ACAD_REACTORS
330
390
102
}
330
390
100
AcDbModelDocViewStyle
 70
     0
  3
Metric50
290
     0
100
AcDbSectionViewStyle
 70
     0
 71
     0
 90
      102
 71
     1
340
11
 62
   256
 40
5.0
340
0
340
0
 62
   256
 40
5.0
300
I, O, Q, S, X, Z
 40
10.0
 90
        0
 40
2.5
 90
        0
 71
     2
340
16
 90
       25
 62
   256
340
16
 90
       50
 62
   256
 40
5.0
 40
2.5
 40
5.0
 71
     3
340
11
 62
   256
 40
5.0
 90
        0
 40
15.0
 90
        1
300
%<\AcVar ViewSectionStartId>%-%<\AcVar ViewSectionEndId>% (%<\AcVar ViewScale \f "%sn">%)
 71
     4
 62
   256
 62
   257
300
ANSI31
 40
1.0
 90
        0
290
     0
290
     0
 90
        6
 40
0.0
 40
1.570796326794896
 40
0.2617993877991494
 40
1.308996938995747
 40
-0.2617993877991494
 40
1.832595714594046
  0
TABLESTYLE
  5
345
102
{ACAD_XDICTIONARY
360
3C6
102
}
102
{ACAD_REACTORS
330
342
102
}
330
342
100
AcDbTableStyle
280
     0
  3
Standard
 70
     0
 71
     0
 40
0.06
 41
0.06
280
     1
281
     1
  7
STANDARD
140
0.18
170
     1
 62
     0
 63
     7
283
     0
 90
      512
 91
        0
  1

274
    -2
284
     1
 64
     0
275
    -2
285
     1
 65
     0
276
    -2
286
     1
 66
     0
277
    -2
287
     1
 67
     0
278
    -2
288
     1
 68
     0
279
    -2
289
     1
 69
     0
  7
STANDARD
140
0.18
170
     1
 62
     0
 63
     7
283
     0
 90
      512
 91
        0
  1

274
    -2
284
     1
 64
     0
275
    -2
285
     1
 65
     0
276
    -2
286
     1
 66
     0
277
    -2
287
     1
 67
     0
278
    -2
288
     1
 68
     0
279
    -2
289
     1
 69
     0
  7
STANDARD
140
0.18
170
     1
 62
     0
 63
     7
283
     0
 90
      512
 91
        0
  1

274
    -2
284
     1
 64
     0
275
    -2
285
     1
 65
     0
276
    -2
286
     1
 66
     0
277
    -2
287
     1
 67
     0
278
    -2
288
     1
 68
     0
279
    -2
289
     1
 69
     0
  0
TABLESTYLE
  5
346
102
{ACAD_XDICTIONARY
360
3C8
102
}
102
{ACAD_REACTORS
330
342
330
285
102
}
330
342
100
AcDbTableStyle
280
     0
  3
Standard1
 70
     1
 71
     0
 40
0.06
 41
0.06
280
     1
281
     1
  7
STANDARD
140
0.18
170
     1
 62
     0
 63
     7
283
     0
 90
      512
 91
        0
  1

274
    -2
284
     1
 64
     0
275
    -2
285
     1
 65
     0
276
    -2
286
     1
 66
     0
277
    -2
287
     1
 67
     0
278
    -2
288
     1
 68
     0
279
    -2
289
     1
 69
     0
  7
STANDARD
140
0.18
170
     1
 62
     0
 63
     7
283
     0
 90
      512
 91
        0
  1

274
    -2
284
     1
 64
     0
275
    -2
285
     1
 65
     0
276
    -2
286
     1
 66
     0
277
    -2
287
     1
 67
     0
278
    -2
288
     1
 68
     0
279
    -2
289
     1
 69
     0
  7
STANDARD
140
0.18
170
     1
 62
     0
 63
     7
283
     0
 90
      512
 91
        0
  1

274
    -2
284
     1
 64
     0
275
    -2
285
     1
 65
     0
276
    -2
286
     1
 66
     0
277
    -2
287
     1
 67
     0
278
    -2
288
     1
 68
     0
279
    -2
289
     1
 69
     0
  0
VISUALSTYLE
  5
368
102
{ACAD_REACTORS
330
362
102
}
330
362
100
AcDbVisualStyle
  2
2dWireframe
 70
     4
177
     3
291
     0
 70
    58
 90
        0
176
     1
 90
        2
176
     1
 90
        0
176
     1
 90
        0
176
     1
 40
0.6
176
     1
 40
30.0
176
     1
 62
     7
420
 16777215
176
     1
 90
        1
176
     1
 90
        4
176
     1
 62
     7
176
     1
 62
   257
176
     1
 90
        1
176
     1
 90
        1
176
     1
 40
1.0
176
     1
 90
        0
176
     1
 62
   257
176
     1
 40
1.0
176
     1
 90
        1
176
     1
 90
        6
176
     1
 90
        2
176
     1
 62
     7
176
     1
 90
        5
176
     1
 90
        0
176
     1
 90
        0
176
     1
290
     0
176
     1
 90
        1
176
     1
 40
0.0
176
     1
 90
        0
176
     1
290
     1
176
     1
290
     1
176
     1
290
     0
176
     1
290
     0
176
     1
290
     0
176
     1
290
     0
176
     1
290
     0
176
     1
290
     0
176
     1
290
     0
176
     1
 90
       50
176
     1
 40
0.0
176
     1
 40
1.0
176
     1
 90
        0
176
     1
 62
    18
420
        0
176
     1
 90
       50
176
     1
 90
        3
176
     1
 62
     5
420
      255
176
     1
290
     0
176
     1
 90
       50
176
     1
 90
       50
176
     1
 90
       50
176
     1
290
     0
176
     1
 90
       50
176
     1
 62
   256
176
     0
 40
1.0
176
     0
 90
        2
176
     1
  1
strokes_ogs.tif
176
     1
290
     0
176
     1
 40
1.0
176
     1
 40
1.0
176
     1
1001
ACAD
1000
AcDbSavedByObjectVersion
1070
     0
  0
VISUALSTYLE
  5
367
102
{ACAD_REACTORS
330
362
102
}
330
362
100
AcDbVisualStyle
  2
Basic
 70
     7
177
     3
291
     1
 70
    58
 90
        1
176
     1
 90
        0
176
     1
 90
        1
176
     1
 90
        0
176
     1
 40
0.6
176
     1
 40
30.0
176
     1
 62
     7
420
 16777215
176
     1
 90
        0
176
     1
 90
        4
176
     1
 62
     7
176
     1
 62
   257
176
     1
 90
        1
176
     1
 90
        1
176
     1
 40
1.0
176
     1
 90
        8
176
     1
 62
     7
176
     1
 40
1.0
176
     1
 90
        1
176
     1
 90
        6
176
     1
 90
        2
176
     1
 62
     7
176
     1
 90
        5
176
     1
 90
        0
176
     1
 90
        0
176
     1
290
     0
176
     1
 90
        1
176
     1
 40
0.0
176
     1
 90
        0
176
     1
290
     0
176
     1
290
     1
176
     1
290
     1
176
     1
290
     0
176
     1
290
     0
176
     1
290
     0
176
     1
290
     0
176
     1
290
     0
176
     1
290
     0
176
     1
 90
       50
176
     1
 40
0.0
176
     1
 40
1.0
176
     1
 90
        0
176
     1
 62
    18
420
        0
176
     1
 90
       50
176
     1
 90
        3
176
     1
 62
     5
420
      255
176
     1
290
     0
176
     1
 90
       50
176
     1
 90
       50
176
     1
 90
       50
176
     1
290
     0
176
     1
 90
       50
176
     1
 62
   256
176
     0
 40
1.0
176
     0
 90
        2
176
     1
  1
strokes_ogs.tif
176
     1
290
     0
176
     1
 40
1.0
176
     1
 40
1.0
176
     1
1001
ACAD
1000
AcDbSavedByObjectVersion
1070
     0
  0
VISUALSTYLE
  5
36E
102
{ACAD_REACTORS
330
362
102
}
330
362
100
AcDbVisualStyle
  2
Brighten
 70
    12
177
     3
291
     1
 70
    58
 90
        2
176
     1
 90
        2
176
     1
 90
        0
176
     1
 90
        0
176
     1
 40
0.6
176
     1
 40
30.0
176
     1
 62
     7
420
 16777215
176
     1
 90
        1
176
     1
 90
        4
176
     1
 62
     7
176
     1
 62
   257
176
     1
 90
        1
176
     1
 90
        1
176
     1
 40
1.0
176
     1
 90
        8
176
     1
 62
     7
176
     1
 40
1.0
176
     1
 90
        1
176
     1
 90
        6
176
     1
 90
        2
176
     1
 62
     7
176
     1
 90
        5
176
     1
 90
        0
176
     1
 90
        0
176
     1
290
     0
176
     1
 90
        1
176
     1
 40
50.0
176
     1
 90
        0
176
     1
290
     0
176
     1
290
     1
176
     1
290
     1
176
     1
290
     0
176
     1
290
     0
176
     1
290
     0
176
     1
290
     0
176
     1
290
     0
176
     1
290
     0
176
     1
 90
       50
176
     1
 40
0.0
176
     1
 40
1.0
176
     1
 90
        0
176
     1
 62
    18
420
        0
176
     1
 90
       50
176
     1
 90
        3
176
     1
 62
     5
420
      255
176
     1
290
     0
176
     1
 90
       50
176
     1
 90
       50
176
     1
 90
       50
176
     1
290
     0
176
     1
 90
       50
176
     1
 62
   256
176
     0
 40
1.0
176
     0
 90
        2
176
     1
  1
strokes_ogs.tif
176
     1
290
     0
176
     1
 40
1.0
176
     1
 40
1.0
176
     1
1001
ACAD
1000
AcDbSavedByObjectVersion
1070
     0
  0
VISUALSTYLE
  5
372
102
{ACAD_REACTORS
330
362
102
}
330
362
100
AcDbVisualStyle
  2
ColorChange
 70
    16
177
     3
291
     1
 70
    58
 90
        2
176
     1
 90
        2
176
     1
 90
        3
176
     1
 90
        0
176
     1
 40
0.6
176
     1
 40
30.0
176
     1
 62
     8
420
  8421504
176
     1
 90
        1
176
     1
 90
        4
176
     1
 62
     7
176
     1
 62
   257
176
     1
 90
        1
176
     1
 90
        1
176
     1
 40
1.0
176
     1
 90
        8
176
     1
 62
     8
420
  8421504
176
     1
 40
1.0
176
     1
 90
        1
176
     1
 90
        6
176
     1
 90
        2
176
     1
 62
     7
176
     1
 90
        5
176
     1
 90
        0
176
     1
 90
        0
176
     1
290
     0
176
     1
 90
        1
176
     1
 40
0.0
176
     1
 90
        0
176
     1
290
     0
176
     1
290
     1
176
     1
290
     1
176
     1
290
     0
176
     1
290
     0
176
     1
290
     0
176
     1
290
     0
176
     1
290
     0
176
     1
290
     0
176
     1
 90
       50
176
     1
 40
0.0
176
     1
 40
1.0
176
     1
 90
        0
176
     1
 62
    18
420
        0
176
     1
 90
       50
176
     1
 90
        3
176
     1
 62
     5
420
      255
176
     1
290
     0
176
     1
 90
       50
176
     1
 90
       50
176
     1
 90
       50
176
     1
290
     0
176
     1
 90
       50
176
     1
 62
   256
176
     0
 40
1.0
176
     0
 90
        2
176
     1
  1
strokes_ogs.tif
176
     1
290
     0
176
     1
 40
1.0
176
     1
 40
1.0
176
     1
1001
ACAD
1000
AcDbSavedByObjectVersion
1070
     0
  0
VISUALSTYLE
  5
36B
102
{ACAD_REACTORS
330
362
102
}
330
362
100
AcDbVisualStyle
  2
Conceptual
 70
     9
177
     3
291
     0
 70
    58
 90
        3
176
     1
 90
        2
176
     1
 90
        0
176
     1
 90
        0
176
     1
 40
0.6
176
     1
 40
30.0
176
     1
 62
     7
420
 16777215
176
     1
 90
        2
176
     1
 90
        2
176
     1
 62
     7
176
     1
 62
   257
176
     1
 90
        1
176
     1
 90
        1
176
     1
 40
179.0
176
     1
 90
        8
176
     1
 62
     7
176
     1
 40
1.0
176
     1
 90
        1
176
     1
 90
        6
176
     1
 90
        2
176
     1
 62
     7
176
     1
 90
        3
176
     1
 90
        0
176
     1
 90
        0
176
     1
290
     0
176
     1
 90
        1
176
     1
 40
0.0
176
     1
 90
        0
176
     1
290
     0
176
     1
290
     1
176
     1
290
     1
176
     1
290
     0
176
     1
290
     0
176
     1
290
     0
176
     1
290
     0
176
     1
290
     0
176
     1
290
     0
176
     1
 90
       50
176
     1
 40
0.0
176
     1
 40
1.0
176
     1
 90
        0
176
     1
 62
    18
420
        0
176
     1
 90
       50
176
     1
 90
        3
176
     1
 62
     5
420
      255
176
     1
290
     0
176
     1
 90
       50
176
     1
 90
       50
176
     1
 90
       50
176
     1
290
     0
176
     1
 90
       50
176
     1
 62
   256
176
     0
 40
1.0
176
     0
 90
        2
176
     1
  1
strokes_ogs.tif
176
     1
290
     0
176
     1
 40
1.0
176
     1
 40
1.0
176
     1
1001
ACAD
1000
AcDbSavedByObjectVersion
1070
     0
  0
VISUALSTYLE
  5
36D
102
{ACAD_REACTORS
330
362
102
}
330
362
100
AcDbVisualStyle
  2
Dim
 70
    11
177
     3
291
     1
 70
    58
 90
        2
176
     1
 90
        2
176
     1
 90
        0
176
     1
 90
        0
176
     1
 40
0.6
176
     1
 40
30.0
176
     1
 62
     7
420
 16777215
176
     1
 90
        1
176
     1
 90
        4
176
     1
 62
     7
176
     1
 62
   257
176
     1
 90
        1
176
     1
 90
        1
176
     1
 40
1.0
176
     1
 90
        8
176
     1
 62
     7
176
     1
 40
1.0
176
     1
 90
        1
176
     1
 90
        6
176
     1
 90
        2
176
     1
 62
     7
176
     1
 90
        5
176
     1
 90
        0
176
     1
 90
        0
176
     1
290
     0
176
     1
 90
        1
176
     1
 40
-50.0
176
     1
 90
        0
176
     1
290
     0
176
     1
290
     1
176
     1
290
     1
176
     1
290
     0
176
     1
290
     0
176
     1
290
     0
176
     1
290
     0
176
     1
290
     0
176
     1
290
     0
176
     1
 90
       50
176
     1
 40
0.0
176
     1
 40
1.0
176
     1
 90
        0
176
     1
 62
    18
420
        0
176
     1
 90
       50
176
     1
 90
        3
176
     1
 62
     5
420
      255
176
     1
290
     0
176
     1
 90
       50
176
     1
 90
       50
176
     1
 90
       50
176
     1
290
     0
176
     1
 90
       50
176
     1
 62
   256
176
     0
 40
1.0
176
     0
 90
        2
176
     1
  1
strokes_ogs.tif
176
     1
290
     0
176
     1
 40
1.0
176
     1
 40
1.0
176
     1
1001
ACAD
1000
AcDbSavedByObjectVersion
1070
     0
  0
VISUALSTYLE
  5
37A
102
{ACAD_REACTORS
330
362
102
}
330
362
100
AcDbVisualStyle
  2
EdgeColorOff
 70
    22
177
     3
291
     1
 70
    58
 90
        2
176
     0
 90
        2
176
     0
 90
        0
176
     0
 90
        0
176
     0
 40
0.6
176
     0
 40
30.0
176
     0
 62
     7
420
 16777215
176
     0
 90
        1
176
     0
 90
        4
176
     0
 62
     7
176
     0
 62
   257
176
     0
 90
        1
176
     0
 90
        1
176
     0
 40
1.0
176
     0
 90
        8
176
     2
 62
     7
176
     0
 40
1.0
176
     0
 90
        1
176
     0
 90
        6
176
     0
 90
        2
176
     0
 62
     7
176
     0
 90
        5
176
     0
 90
        0
176
     0
 90
        0
176
     0
290
     0
176
     0
 90
        1
176
     0
 40
0.0
176
     0
 90
        0
176
     0
290
     0
176
     0
290
     1
176
     0
290
     1
176
     0
290
     0
176
     0
290
     0
176
     0
290
     0
176
     0
290
     0
176
     0
290
     0
176
     0
290
     0
176
     0
 90
       50
176
     0
 40
0.0
176
     0
 40
1.0
176
     0
 90
        0
176
     0
 62
    18
420
        0
176
     0
 90
       50
176
     0
 90
        3
176
     0
 62
     5
420
      255
176
     0
290
     0
176
     0
 90
       50
176
     0
 90
       50
176
     0
 90
       50
176
     0
290
     0
176
     0
 90
       50
176
     0
 62
   256
176
     0
 40
1.0
176
     0
 90
        2
176
     0
  1
strokes_ogs.tif
176
     0
290
     0
176
     0
 40
1.0
176
     0
 40
1.0
176
     0
1001
ACAD
1000
AcDbSavedByObjectVersion
1070
     0
  0
VISUALSTYLE
  5
371
102
{ACAD_REACTORS
330
362
102
}
330
362
100
AcDbVisualStyle
  2
Facepattern
 70
    15
177
     3
291
     1
 70
    58
 90
        2
176
     1
 90
        2
176
     1
 90
        0
176
     1
 90
        0
176
     1
 40
0.6
176
     1
 40
30.0
176
     1
 62
     7
420
 16777215
176
     1
 90
        1
176
     1
 90
        4
176
     1
 62
     7
176
     1
 62
   257
176
     1
 90
        1
176
     1
 90
        1
176
     1
 40
1.0
176
     1
 90
        8
176
     1
 62
     7
176
     1
 40
1.0
176
     1
 90
        1
176
     1
 90
        6
176
     1
 90
        2
176
     1
 62
     7
176
     1
 90
        5
176
     1
 90
        0
176
     1
 90
        0
176
     1
290
     0
176
     1
 90
        1
176
     1
 40
0.0
176
     1
 90
        0
176
     1
290
     0
176
     1
290
     1
176
     1
290
     1
176
     1
290
     0
176
     1
290
     0
176
     1
290
     0
176
     1
290
     0
176
     1
290
     0
176
     1
290
     0
176
     1
 90
       50
176
     1
 40
0.0
176
     1
 40
1.0
176
     1
 90
        0
176
     1
 62
    18
420
        0
176
     1
 90
       50
176
     1
 90
        3
176
     1
 62
     5
420
      255
176
     1
290
     0
176
     1
 90
       50
176
     1
 90
       50
176
     1
 90
       50
176
     1
290
     0
176
     1
 90
       50
176
     1
 62
   256
176
     0
 40
1.0
176
     0
 90
        2
176
     1
  1
strokes_ogs.tif
176
     1
290
     0
176
     1
 40
1.0
176
     1
 40
1.0
176
     1
1001
ACAD
1000
AcDbSavedByObjectVersion
1070
     0
  0
VISUALSTYLE
  5
363
102
{ACAD_REACTORS
330
362
102
}
330
362
100
AcDbVisualStyle
  2
Flat
 70
     0
177
     3
291
     1
 70
    58
 90
        2
176
     1
 90
        1
176
     1
 90
        1
176
     1
 90
        2
176
     1
 40
0.6
176
     1
 40
30.0
176
     1
 62
     7
420
 16777215
176
     1
 90
        0
176
     1
 90
        0
176
     1
 62
     7
176
     1
 62
   257
176
     1
 90
        1
176
     1
 90
        1
176
     1
 40
1.0
176
     1
 90
        8
176
     1
 62
     7
176
     1
 40
1.0
176
     1
 90
        1
176
     1
 90
        6
176
     1
 90
        2
176
     1
 62
     7
176
     1
 90
        5
176
     1
 90
        0
176
     1
 90
        0
176
     1
290
     0
176
     1
 90
       13
176
     1
 40
0.0
176
     1
 90
        0
176
     1
290
     0
176
     1
290
     1
176
     1
290
     1
176
     1
290
     0
176
     1
290
     0
176
     1
290
     0
176
     1
290
     0
176
     1
290
     0
176
     1
290
     0
176
     1
 90
       50
176
     1
 40
0.0
176
     1
 40
1.0
176
     1
 90
        0
176
     1
 62
    18
420
        0
176
     1
 90
       50
176
     1
 90
        3
176
     1
 62
     5
420
      255
176
     1
290
     0
176
     1
 90
       50
176
     1
 90
       50
176
     1
 90
       50
176
     1
290
     0
176
     1
 90
       50
176
     1
 62
   256
176
     0
 40
1.0
176
     0
 90
        2
176
     1
  1
strokes_ogs.tif
176
     1
290
     0
176
     1
 40
1.0
176
     1
 40
1.0
176
     1
1001
ACAD
1000
AcDbSavedByObjectVersion
1070
     0
  0
VISUALSTYLE
  5
364
102
{ACAD_REACTORS
330
362
102
}
330
362
100
AcDbVisualStyle
  2
FlatWithEdges
 70
     1
177
     3
291
     1
 70
    58
 90
        2
176
     1
 90
        1
176
     1
 90
        1
176
     1
 90
        2
176
     1
 40
0.6
176
     1
 40
30.0
176
     1
 62
     7
420
 16777215
176
     1
 90
        1
176
     1
 90
        0
176
     1
 62
     7
176
     1
 62
   257
176
     1
 90
        1
176
     1
 90
        1
176
     1
 40
1.0
176
     1
 90
        0
176
     1
 62
   257
176
     1
 40
1.0
176
     1
 90
        1
176
     1
 90
        6
176
     1
 90
        2
176
     1
 62
     7
176
     1
 90
        5
176
     1
 90
        0
176
     1
 90
        0
176
     1
290
     0
176
     1
 90
       13
176
     1
 40
0.0
176
     1
 90
        0
176
     1
290
     0
176
     1
290
     1
176
     1
290
     1
176
     1
290
     0
176
     1
290
     0
176
     1
290
     0
176
     1
290
     0
176
     1
290
     0
176
     1
290
     0
176
     1
 90
       50
176
     1
 40
0.0
176
     1
 40
1.0
176
     1
 90
        0
176
     1
 62
    18
420
        0
176
     1
 90
       50
176
     1
 90
        3
176
     1
 62
     5
420
      255
176
     1
290
     0
176
     1
 90
       50
176
     1
 90
       50
176
     1
 90
       50
176
     1
290
     0
176
     1
 90
       50
176
     1
 62
   256
176
     0
 40
1.0
176
     0
 90
        2
176
     1
  1
strokes_ogs.tif
176
     1
290
     0
176
     1
 40
1.0
176
     1
 40
1.0
176
     1
1001
ACAD
1000
AcDbSavedByObjectVersion
1070
     0
  0
VISUALSTYLE
  5
365
102
{ACAD_REACTORS
330
362
102
}
330
362
100
AcDbVisualStyle
  2
Gouraud
 70
     2
177
     3
291
     1
 70
    58
 90
        2
176
     1
 90
        2
176
     1
 90
        1
176
     1
 90
        2
176
     1
 40
0.6
176
     1
 40
30.0
176
     1
 62
     7
420
 16777215
176
     1
 90
        0
176
     1
 90
        0
176
     1
 62
     7
176
     1
 62
   257
176
     1
 90
        1
176
     1
 90
        1
176
     1
 40
1.0
176
     1
 90
        0
176
     1
 62
     7
176
     1
 40
1.0
176
     1
 90
        1
176
     1
 90
        6
176
     1
 90
        2
176
     1
 62
     7
176
     1
 90
        5
176
     1
 90
        0
176
     1
 90
        0
176
     1
290
     0
176
     1
 90
       13
176
     1
 40
0.0
176
     1
 90
        0
176
     1
290
     0
176
     1
290
     1
176
     1
290
     1
176
     1
290
     0
176
     1
290
     0
176
     1
290
     0
176
     1
290
     0
176
     1
290
     0
176
     1
290
     0
176
     1
 90
       50
176
     1
 40
0.0
176
     1
 40
1.0
176
     1
 90
        0
176
     1
 62
    18
420
        0
176
     1
 90
       50
176
     1
 90
        3
176
     1
 62
     5
420
      255
176
     1
290
     0
176
     1
 90
       50
176
     1
 90
       50
176
     1
 90
       50
176
     1
290
     0
176
     1
 90
       50
176
     1
 62
   256
176
     0
 40
1.0
176
     0
 90
        2
176
     1
  1
strokes_ogs.tif
176
     1
290
     0
176
     1
 40
1.0
176
     1
 40
1.0
176
     1
1001
ACAD
1000
AcDbSavedByObjectVersion
1070
     0
  0
VISUALSTYLE
  5
366
102
{ACAD_REACTORS
330
362
102
}
330
362
100
AcDbVisualStyle
  2
GouraudWithEdges
 70
     3
177
     3
291
     1
 70
    58
 90
        2
176
     1
 90
        2
176
     1
 90
        1
176
     1
 90
        2
176
     1
 40
0.6
176
     1
 40
30.0
176
     1
 62
     7
420
 16777215
176
     1
 90
        1
176
     1
 90
        0
176
     1
 62
     7
176
     1
 62
   257
176
     1
 90
        1
176
     1
 90
        1
176
     1
 40
1.0
176
     1
 90
        0
176
     1
 62
   257
176
     1
 40
1.0
176
     1
 90
        1
176
     1
 90
        6
176
     1
 90
        2
176
     1
 62
     7
176
     1
 90
        5
176
     1
 90
        0
176
     1
 90
        0
176
     1
290
     0
176
     1
 90
       13
176
     1
 40
0.0
176
     1
 90
        0
176
     1
290
     0
176
     1
290
     1
176
     1
290
     1
176
     1
290
     0
176
     1
290
     0
176
     1
290
     0
176
     1
290
     0
176
     1
290
     0
176
     1
290
     0
176
     1
 90
       50
176
     1
 40
0.0
176
     1
 40
1.0
176
     1
 90
        0
176
     1
 62
    18
420
        0
176
     1
 90
       50
176
     1
 90
        3
176
     1
 62
     5
420
      255
176
     1
290
     0
176
     1
 90
       50
176
     1
 90
       50
176
     1
 90
       50
176
     1
290
     0
176
     1
 90
       50
176
     1
 62
   256
176
     0
 40
1.0
176
     0
 90
        2
176
     1
  1
strokes_ogs.tif
176
     1
290
     0
176
     1
 40
1.0
176
     1
 40
1.0
176
     1
1001
ACAD
1000
AcDbSavedByObjectVersion
1070
     0
  0
VISUALSTYLE
  5
36A
102
{ACAD_REACTORS
330
362
102
}
330
362
100
AcDbVisualStyle
  2
Hidden
 70
     6
177
     3
291
     0
 70
    58
 90
        1
176
     1
 90
        2
176
     1
 90
        2
176
     1
 90
        0
176
     1
 40
0.6
176
     1
 40
30.0
176
     1
 62
     7
420
 16777215
176
     1
 90
        2
176
     1
 90
        2
176
     1
 62
     7
176
     1
 62
   257
176
     1
 90
        2
176
     1
 90
        1
176
     1
 40
40.0
176
     1
 90
        0
176
     1
 62
   257
176
     1
 40
1.0
176
     1
 90
        1
176
     1
 90
        6
176
     1
 90
        2
176
     1
 62
     7
176
     1
 90
        3
176
     1
 90
        0
176
     1
 90
        0
176
     1
290
     0
176
     1
 90
        1
176
     1
 40
0.0
176
     1
 90
        0
176
     1
290
     0
176
     1
290
     1
176
     1
290
     1
176
     1
290
     0
176
     1
290
     0
176
     1
290
     0
176
     1
290
     0
176
     1
290
     0
176
     1
290
     0
176
     1
 90
       50
176
     1
 40
0.0
176
     1
 40
1.0
176
     1
 90
        0
176
     1
 62
    18
420
        0
176
     1
 90
       50
176
     1
 90
        3
176
     1
 62
     5
420
      255
176
     1
290
     0
176
     1
 90
       50
176
     1
 90
       50
176
     1
 90
       50
176
     1
290
     0
176
     1
 90
       50
176
     1
 62
   256
176
     0
 40
1.0
176
     0
 90
        2
176
     1
  1
strokes_ogs.tif
176
     1
290
     0
176
     1
 40
1.0
176
     1
 40
1.0
176
     1
1001
ACAD
1000
AcDbSavedByObjectVersion
1070
     0
  0
VISUALSTYLE
  5
378
102
{ACAD_REACTORS
330
362
102
}
330
362
100
AcDbVisualStyle
  2
JitterOff
 70
    20
177
     3
291
     1
 70
    58
 90
        2
176
     0
 90
        2
176
     0
 90
        0
176
     0
 90
        0
176
     0
 40
0.6
176
     0
 40
30.0
176
     0
 62
     7
420
 16777215
176
     0
 90
        1
176
     0
 90
        4
176
     0
 62
     7
176
     0
 62
   257
176
     0
 90
        1
176
     0
 90
        1
176
     0
 40
1.0
176
     0
 90
       10
176
     2
 62
     7
176
     0
 40
1.0
176
     0
 90
        1
176
     0
 90
        6
176
     0
 90
        2
176
     0
 62
     7
176
     0
 90
        5
176
     0
 90
        0
176
     0
 90
        0
176
     0
290
     0
176
     0
 90
        1
176
     0
 40
0.0
176
     0
 90
        0
176
     0
290
     0
176
     0
290
     1
176
     0
290
     1
176
     0
290
     0
176
     0
290
     0
176
     0
290
     0
176
     0
290
     0
176
     0
290
     0
176
     0
290
     0
176
     0
 90
       50
176
     0
 40
0.0
176
     0
 40
1.0
176
     0
 90
        0
176
     0
 62
    18
420
        0
176
     0
 90
       50
176
     0
 90
        3
176
     0
 62
     5
420
      255
176
     0
290
     0
176
     0
 90
       50
176
     0
 90
       50
176
     0
 90
       50
176
     0
290
     0
176
     0
 90
       50
176
     0
 62
   256
176
     0
 40
1.0
176
     0
 90
        2
176
     0
  1
strokes_ogs.tif
176
     0
290
     0
176
     0
 40
1.0
176
     0
 40
1.0
176
     0
1001
ACAD
1000
AcDbSavedByObjectVersion
1070
     0
  0
VISUALSTYLE
  5
370
102
{ACAD_REACTORS
330
362
102
}
330
362
100
AcDbVisualStyle
  2
Linepattern
 70
    14
177
     3
291
     1
 70
    58
 90
        2
176
     1
 90
        2
176
     1
 90
        0
176
     1
 90
        0
176
     1
 40
0.6
176
     1
 40
30.0
176
     1
 62
     7
420
 16777215
176
     1
 90
        1
176
     1
 90
        4
176
     1
 62
     7
176
     1
 62
   257
176
     1
 90
        7
176
     1
 90
        7
176
     1
 40
1.0
176
     1
 90
        8
176
     1
 62
     7
176
     1
 40
1.0
176
     1
 90
        1
176
     1
 90
        6
176
     1
 90
        2
176
     1
 62
     7
176
     1
 90
        5
176
     1
 90
        0
176
     1
 90
        0
176
     1
290
     0
176
     1
 90
        1
176
     1
 40
0.0
176
     1
 90
        0
176
     1
290
     0
176
     1
290
     1
176
     1
290
     1
176
     1
290
     0
176
     1
290
     0
176
     1
290
     0
176
     1
290
     0
176
     1
290
     0
176
     1
290
     0
176
     1
 90
       50
176
     1
 40
0.0
176
     1
 40
1.0
176
     1
 90
        0
176
     1
 62
    18
420
        0
176
     1
 90
       50
176
     1
 90
        3
176
     1
 62
     5
420
      255
176
     1
290
     0
176
     1
 90
       50
176
     1
 90
       50
176
     1
 90
       50
176
     1
290
     0
176
     1
 90
       50
176
     1
 62
   256
176
     0
 40
1.0
176
     0
 90
        2
176
     1
  1
strokes_ogs.tif
176
     1
290
     0
176
     1
 40
1.0
176
     1
 40
1.0
176
     1
1001
ACAD
1000
AcDbSavedByObjectVersion
1070
     0
  0
VISUALSTYLE
  5
379
102
{ACAD_REACTORS
330
362
102
}
330
362
100
AcDbVisualStyle
  2
OverhangOff
 70
    21
177
     3
291
     1
 70
    58
 90
        2
176
     0
 90
        2
176
     0
 90
        0
176
     0
 90
        0
176
     0
 40
0.6
176
     0
 40
30.0
176
     0
 62
     7
420
 16777215
176
     0
 90
        1
176
     0
 90
        4
176
     0
 62
     7
176
     0
 62
   257
176
     0
 90
        1
176
     0
 90
        1
176
     0
 40
1.0
176
     0
 90
        9
176
     2
 62
     7
176
     0
 40
1.0
176
     0
 90
        1
176
     0
 90
        6
176
     0
 90
        2
176
     0
 62
     7
176
     0
 90
        5
176
     0
 90
        0
176
     0
 90
        0
176
     0
290
     0
176
     0
 90
        1
176
     0
 40
0.0
176
     0
 90
        0
176
     0
290
     0
176
     0
290
     1
176
     0
290
     1
176
     0
290
     0
176
     0
290
     0
176
     0
290
     0
176
     0
290
     0
176
     0
290
     0
176
     0
290
     0
176
     0
 90
       50
176
     0
 40
0.0
176
     0
 40
1.0
176
     0
 90
        0
176
     0
 62
    18
420
        0
176
     0
 90
       50
176
     0
 90
        3
176
     0
 62
     5
420
      255
176
     0
290
     0
176
     0
 90
       50
176
     0
 90
       50
176
     0
 90
       50
176
     0
290
     0
176
     0
 90
       50
176
     0
 62
   256
176
     0
 40
1.0
176
     0
 90
        2
176
     0
  1
strokes_ogs.tif
176
     0
290
     0
176
     0
 40
1.0
176
     0
 40
1.0
176
     0
1001
ACAD
1000
AcDbSavedByObjectVersion
1070
     0
  0
VISUALSTYLE
  5
36C
102
{ACAD_REACTORS
330
362
102
}
330
362
100
AcDbVisualStyle
  2
Realistic
 70
     8
177
     3
291
     0
 70
    58
 90
        2
176
     1
 90
        3
176
     1
 90
        0
176
     1
 90
        2
176
     1
 40
0.6
176
     1
 40
30.0
176
     1
 62
     7
420
 16777215
176
     1
 90
        0
176
     1
 90
        0
176
     1
 62
     7
176
     1
 62
   257
176
     1
 90
        1
176
     1
 90
        1
176
     1
 40
1.0
176
     1
 90
        8
176
     1
 62
   257
176
     1
 40
1.0
176
     1
 90
        1
176
     1
 90
        6
176
     1
 90
        2
176
     1
 62
     7
176
     1
 90
        3
176
     1
 90
        0
176
     1
 90
        0
176
     1
290
     0
176
     1
 90
       13
176
     1
 40
0.0
176
     1
 90
        0
176
     1
290
     0
176
     1
290
     1
176
     1
290
     1
176
     1
290
     0
176
     1
290
     0
176
     1
290
     0
176
     1
290
     0
176
     1
290
     0
176
     1
290
     0
176
     1
 90
       50
176
     1
 40
0.0
176
     1
 40
1.0
176
     1
 90
        0
176
     1
 62
    18
420
        0
176
     1
 90
       50
176
     1
 90
        3
176
     1
 62
     5
420
      255
176
     1
290
     0
176
     1
 90
       50
176
     1
 90
       50
176
     1
 90
       50
176
     1
290
     0
176
     1
 90
       50
176
     1
 62
   256
176
     0
 40
1.0
176
     0
 90
        2
176
     1
  1
strokes_ogs.tif
176
     1
290
     0
176
     1
 40
1.0
176
     1
 40
1.0
176
     1
1001
ACAD
1000
AcDbSavedByObjectVersion
1070
     0
  0
VISUALSTYLE
  5
377
102
{ACAD_REACTORS
330
362
102
}
330
362
100
AcDbVisualStyle
  2
Shaded
 70
    27
177
     3
291
     0
 70
    58
 90
        2
176
     1
 90
        2
176
     1
 90
        1
176
     1
 90
        2
176
     1
 40
0.6
176
     1
 40
30.0
176
     1
 62
     7
420
 16777215
176
     1
 90
        0
176
     1
 90
        4
176
     1
 62
     7
176
     1
 62
   257
176
     1
 90
        1
176
     1
 90
        1
176
     1
 40
1.0
176
     1
 90
        8
176
     1
 62
   257
176
     1
 40
1.0
176
     1
 90
        1
176
     1
 90
        6
176
     1
 90
        2
176
     1
 62
     8
420
  7895160
176
     1
 90
        3
176
     1
 90
        0
176
     1
 90
        0
176
     1
290
     0
176
     1
 90
        5
176
     1
 40
0.0
176
     1
 90
        0
176
     1
290
     0
176
     1
290
     1
176
     1
290
     1
176
     1
290
     0
176
     1
290
     0
176
     1
290
     0
176
     1
290
     0
176
     1
290
     0
176
     1
290
     0
176
     1
 90
       50
176
     1
 40
0.0
176
     1
 40
1.0
176
     1
 90
        0
176
     1
 62
    18
420
        0
176
     1
 90
       50
176
     1
 90
        3
176
     1
 62
     5
420
      255
176
     1
290
     0
176
     1
 90
       50
176
     1
 90
       50
176
     1
 90
       50
176
     1
290
     0
176
     1
 90
       50
176
     1
 62
   256
176
     0
 40
1.0
176
     0
 90
        2
176
     1
  1
strokes_ogs.tif
176
     1
290
     0
176
     1
 40
1.0
176
     1
 40
1.0
176
     1
1001
ACAD
1000
AcDbSavedByObjectVersion
1070
     0
  0
VISUALSTYLE
  5
376
102
{ACAD_REACTORS
330
362
102
}
330
362
100
AcDbVisualStyle
  2
Shaded with edges
 70
    26
177
     3
291
     0
 70
    58
 90
        2
176
     1
 90
        2
176
     1
 90
        1
176
     1
 90
        2
176
     1
 40
0.6
176
     1
 40
30.0
176
     1
 62
     7
420
 16777215
176
     1
 90
        1
176
     1
 90
        2
176
     1
 62
     7
176
     1
 62
   257
176
     1
 90
        2
176
     1
 90
        1
176
     1
 40
1.0
176
     1
 90
        8
176
     1
 62
   257
176
     1
 40
1.0
176
     1
 90
        1
176
     1
 90
        6
176
     1
 90
        2
176
     1
 62
     7
176
     1
 90
        3
176
     1
 90
        0
176
     1
 90
        0
176
     1
290
     0
176
     1
 90
        5
176
     1
 40
0.0
176
     1
 90
        0
176
     1
290
     0
176
     1
290
     1
176
     1
290
     1
176
     1
290
     0
176
     1
290
     0
176
     1
290
     0
176
     1
290
     0
176
     1
290
     0
176
     1
290
     0
176
     1
 90
       50
176
     1
 40
0.0
176
     1
 40
1.0
176
     1
 90
        0
176
     1
 62
    18
420
        0
176
     1
 90
       50
176
     1
 90
        3
176
     1
 62
     5
420
      255
176
     1
290
     0
176
     1
 90
       50
176
     1
 90
       50
176
     1
 90
       50
176
     1
290
     0
176
     1
 90
       50
176
     1
 62
   256
176
     0
 40
1.0
176
     0
 90
        2
176
     1
  1
strokes_ogs.tif
176
     1
290
     0
176
     1
 40
1.0
176
     1
 40
1.0
176
     1
1001
ACAD
1000
AcDbSavedByObjectVersion
1070
     0
  0
VISUALSTYLE
  5
373
102
{ACAD_REACTORS
330
362
102
}
330
362
100
AcDbVisualStyle
  2
Shades of Gray
 70
    23
177
     3
291
     0
 70
    58
 90
        2
176
     1
 90
        2
176
     1
 90
        3
176
     1
 90
        0
176
     1
 40
0.6
176
     1
 40
30.0
176
     1
 62
     7
420
 16777215
176
     1
 90
        2
176
     1
 90
        2
176
     1
 62
     7
176
     1
 62
     7
176
     1
 90
        1
176
     1
 90
        1
176
     1
 40
40.0
176
     1
 90
        8
176
     1
 62
     7
176
     1
 40
1.0
176
     1
 90
        1
176
     1
 90
        6
176
     1
 90
        2
176
     1
 62
     7
176
     1
 90
        3
176
     1
 90
        0
176
     1
 90
        0
176
     1
290
     0
176
     1
 90
        1
176
     1
 40
0.0
176
     1
 90
        0
176
     1
290
     0
176
     1
290
     1
176
     1
290
     1
176
     1
290
     0
176
     1
290
     0
176
     1
290
     0
176
     1
290
     0
176
     1
290
     0
176
     1
290
     0
176
     1
 90
       50
176
     1
 40
0.0
176
     1
 40
1.0
176
     1
 90
        0
176
     1
 62
    18
420
        0
176
     1
 90
       50
176
     1
 90
        3
176
     1
 62
     5
420
      255
176
     1
290
     0
176
     1
 90
       50
176
     1
 90
       50
176
     1
 90
       50
176
     1
290
     0
176
     1
 90
       50
176
     1
 62
   256
176
     0
 40
1.0
176
     0
 90
        2
176
     1
  1
strokes_ogs.tif
176
     1
290
     0
176
     1
 40
1.0
176
     1
 40
1.0
176
     1
1001
ACAD
1000
AcDbSavedByObjectVersion
1070
     0
  0
VISUALSTYLE
  5
374
102
{ACAD_REACTORS
330
362
102
}
330
362
100
AcDbVisualStyle
  2
Sketchy
 70
    24
177
     3
291
     0
 70
    58
 90
        1
176
     1
 90
        2
176
     1
 90
        2
176
     1
 90
        0
176
     1
 40
0.6
176
     1
 40
30.0
176
     1
 62
     7
420
 16777215
176
     1
 90
        2
176
     1
 90
        2
176
     1
 62
     7
176
     1
 62
     7
176
     1
 90
        1
176
     1
 90
        1
176
     1
 40
40.0
176
     1
 90
       11
176
     1
 62
     7
176
     1
 40
1.0
176
     1
 90
        1
176
     1
 90
        6
176
     1
 90
        2
176
     1
 62
     7
176
     1
 90
        6
176
     1
 90
        0
176
     1
 90
        0
176
     1
290
     0
176
     1
 90
        1
176
     1
 40
0.0
176
     1
 90
        0
176
     1
290
     0
176
     1
290
     1
176
     1
290
     1
176
     1
290
     0
176
     1
290
     0
176
     1
290
     0
176
     1
290
     0
176
     1
290
     0
176
     1
290
     0
176
     1
 90
       50
176
     1
 40
0.0
176
     1
 40
1.0
176
     1
 90
        0
176
     1
 62
    18
420
        0
176
     1
 90
       50
176
     1
 90
        3
176
     1
 62
     5
420
      255
176
     1
290
     0
176
     1
 90
       50
176
     1
 90
       50
176
     1
 90
       50
176
     1
290
     0
176
     1
 90
       50
176
     1
 62
   256
176
     0
 40
1.0
176
     0
 90
        2
176
     1
  1
strokes_ogs.tif
176
     1
290
     0
176
     1
 40
1.0
176
     1
 40
1.0
176
     1
1001
ACAD
1000
AcDbSavedByObjectVersion
1070
     0
  0
VISUALSTYLE
  5
36F
102
{ACAD_REACTORS
330
362
102
}
330
362
100
AcDbVisualStyle
  2
Thicken
 70
    13
177
     3
291
     1
 70
    58
 90
        2
176
     1
 90
        2
176
     1
 90
        0
176
     1
 90
        0
176
     1
 40
0.6
176
     1
 40
30.0
176
     1
 62
     7
420
 16777215
176
     1
 90
        1
176
     1
 90
        4
176
     1
 62
     7
176
     1
 62
   257
176
     1
 90
        1
176
     1
 90
        1
176
     1
 40
1.0
176
     1
 90
       12
176
     1
 62
     7
176
     1
 40
1.0
176
     1
 90
        1
176
     1
 90
        6
176
     1
 90
        2
176
     1
 62
     7
176
     1
 90
        5
176
     1
 90
        0
176
     1
 90
        0
176
     1
290
     0
176
     1
 90
        1
176
     1
 40
0.0
176
     1
 90
        0
176
     1
290
     0
176
     1
290
     1
176
     1
290
     1
176
     1
290
     0
176
     1
290
     0
176
     1
290
     0
176
     1
290
     0
176
     1
290
     0
176
     1
290
     0
176
     1
 90
       50
176
     1
 40
0.0
176
     1
 40
1.0
176
     1
 90
        0
176
     1
 62
    18
420
        0
176
     1
 90
       50
176
     1
 90
        3
176
     1
 62
     5
420
      255
176
     1
290
     0
176
     1
 90
       50
176
     1
 90
       50
176
     1
 90
       50
176
     1
290
     0
176
     1
 90
       50
176
     1
 62
   256
176
     0
 40
1.0
176
     0
 90
        2
176
     1
  1
strokes_ogs.tif
176
     1
290
     0
176
     1
 40
1.0
176
     1
 40
1.0
176
     1
1001
ACAD
1000
AcDbSavedByObjectVersion
1070
     0
  0
VISUALSTYLE
  5
369
102
{ACAD_REACTORS
330
362
102
}
330
362
100
AcDbVisualStyle
  2
Wireframe
 70
     5
177
     3
291
     0
 70
    58
 90
        0
176
     1
 90
        2
176
     1
 90
        0
176
     1
 90
        0
176
     1
 40
0.6
176
     1
 40
30.0
176
     1
 62
     7
420
 16777215
176
     1
 90
        1
176
     1
 90
        4
176
     1
 62
     7
176
     1
 62
   257
176
     1
 90
        1
176
     1
 90
        1
176
     1
 40
1.0
176
     1
 90
        0
176
     1
 62
   257
176
     1
 40
1.0
176
     1
 90
        1
176
     1
 90
        6
176
     1
 90
        2
176
     1
 62
     7
176
     1
 90
        3
176
     1
 90
        0
176
     1
 90
        0
176
     1
290
     0
176
     1
 90
        1
176
     1
 40
0.0
176
     1
 90
        0
176
     1
290
     0
176
     1
290
     1
176
     1
290
     1
176
     1
290
     0
176
     1
290
     0
176
     1
290
     0
176
     1
290
     0
176
     1
290
     0
176
     1
290
     0
176
     1
 90
       50
176
     1
 40
0.0
176
     1
 40
1.0
176
     1
 90
        0
176
     1
 62
    18
420
        0
176
     1
 90
       50
176
     1
 90
        3
176
     1
 62
     5
420
      255
176
     1
290
     0
176
     1
 90
       50
176
     1
 90
       50
176
     1
 90
       50
176
     1
290
     0
176
     1
 90
       50
176
     1
 62
   256
176
     0
 40
1.0
176
     0
 90
        2
176
     1
  1
strokes_ogs.tif
176
     1
290
     0
176
     1
 40
1.0
176
     1
 40
1.0
176
     1
1001
ACAD
1000
AcDbSavedByObjectVersion
1070
     0
  0
VISUALSTYLE
  5
375
102
{ACAD_REACTORS
330
362
102
}
330
362
100
AcDbVisualStyle
  2
X-Ray
 70
    25
177
     3
291
     0
 70
    58
 90
        2
176
     1
 90
        2
176
     1
 90
        1
176
     1
 90
        1
176
     1
 40
0.5
176
     1
 40
30.0
176
     1
 62
     7
420
 16777215
176
     1
 90
        1
176
     1
 90
        0
176
     1
 62
     7
176
     1
 62
   257
176
     1
 90
        1
176
     1
 90
        1
176
     1
 40
1.0
176
     1
 90
        8
176
     1
 62
     7
176
     1
 40
1.0
176
     1
 90
        1
176
     1
 90
        6
176
     1
 90
        2
176
     1
 62
     7
176
     1
 90
        3
176
     1
 90
        0
176
     1
 90
        0
176
     1
290
     0
176
     1
 90
       13
176
     1
 40
0.0
176
     1
 90
        0
176
     1
290
     0
176
     1
290
     1
176
     1
290
     1
176
     1
290
     0
176
     1
290
     0
176
     1
290
     0
176
     1
290
     0
176
     1
290
     0
176
     1
290
     0
176
     1
 90
       50
176
     1
 40
0.0
176
     1
 40
1.0
176
     1
 90
        0
176
     1
 62
    18
420
        0
176
     1
 90
       50
176
     1
 90
        3
176
     1
 62
     5
420
      255
176
     1
290
     0
176
     1
 90
       50
176
     1
 90
       50
176
     1
 90
       50
176
     1
290
     0
176
     1
 90
       50
176
     1
 62
   256
176
     0
 40
1.0
176
     0
 90
        2
176
     1
  1
strokes_ogs.tif
176
     1
290
     0
176
     1
 40
1.0
176
     1
 40
1.0
176
     1
1001
ACAD
1000
AcDbSavedByObjectVersion
1070
     0
  0
DICTIONARYVAR
  5
3C4
102
{ACAD_REACTORS
330
3BF
102
}
330
3BF
100
DictionaryVariables
280
     0
  1
1:1
  0
DICTIONARYVAR
  5
3C1
102
{ACAD_REACTORS
330
3BF
102
}
330
3BF
100
DictionaryVariables
280
     0
  1
STANDARD
  0
DICTIONARYVAR
  5
3C0
102
{ACAD_REACTORS
330
3BF
102
}
330
3BF
100
DictionaryVariables
280
     0
  1
STANDARD
  0
DICTIONARYVAR
  5
3C2
102
{ACAD_REACTORS
330
3BF
102
}
330
3BF
100
DictionaryVariables
280
     0
  1
Metric50
  0
DICTIONARYVAR
  5
3C3
102
{ACAD_REACTORS
330
3BF
102
}
330
3BF
100
DictionaryVariables
280
     0
  1
Metric50
  0
DICTIONARY
  5
3CD
330
393
100
AcDbDictionary
280
     1
281
     1
  3
ACAD_XREC_ROUNDTRIP
360
3CE
  0
DICTIONARY
  5
353
330
352
100
AcDbDictionary
280
     1
281
     1
  3
BUMPTILE
360
355
  3
DIFFUSETILE
360
354
  3
OPACITYTILE
360
358
  3
REFLECTIONTILE
360
357
  3
REFRACTIONTILE
360
359
  3
SPECULARTILE
360
356
  0
DICTIONARY
  5
34B
330
34A
100
AcDbDictionary
280
     1
281
     1
  3
BUMPTILE
360
34D
  3
DIFFUSETILE
360
34C
  3
OPACITYTILE
360
350
  3
REFLECTIONTILE
360
34F
  3
REFRACTIONTILE
360
351
  3
SPECULARTILE
360
34E
  0
DICTIONARY
  5
35B
330
35A
100
AcDbDictionary
280
     1
281
     1
  3
BUMPTILE
360
35D
  3
DIFFUSETILE
360
35C
  3
OPACITYTILE
360
360
  3
REFLECTIONTILE
360
35F
  3
REFRACTIONTILE
360
361
  3
SPECULARTILE
360
35E
  0
DICTIONARY
  5
3CB
330
391
100
AcDbDictionary
280
     1
281
     1
  3
ACAD_XREC_ROUNDTRIP
360
3CC
  0
DICTIONARY
  5
3C6
330
345
100
AcDbDictionary
280
     1
281
     1
  3
ACAD_ROUNDTRIP_2008_TABLESTYLE_CELLSTYLEMAP
360
3C7
  0
DICTIONARY
  5
3C8
330
346
100
AcDbDictionary
280
     1
281
     1
  3
ACAD_ROUNDTRIP_2008_TABLESTYLE_CELLSTYLEMAP
360
3C9
  0
XRECORD
  5
3CE
102
{ACAD_REACTORS
330
3CD
102
}
330
3CD
100
AcDbXrecord
280
     1
102
DISPLAYNAME
  1
Metric50
102
FLAGS
 90
        0
  0
XRECORD
  5
355
102
{ACAD_REACTORS
330
353
102
}
330
353
100
AcDbXrecord
280
     1
270
     1
271
     1
  0
XRECORD
  5
354
102
{ACAD_REACTORS
330
353
102
}
330
353
100
AcDbXrecord
280
     1
270
     1
271
     1
  0
XRECORD
  5
358
102
{ACAD_REACTORS
330
353
102
}
330
353
100
AcDbXrecord
280
     1
270
     1
271
     1
  0
XRECORD
  5
357
102
{ACAD_REACTORS
330
353
102
}
330
353
100
AcDbXrecord
280
     1
270
     1
271
     1
  0
XRECORD
  5
359
102
{ACAD_REACTORS
330
353
102
}
330
353
100
AcDbXrecord
280
     1
270
     1
271
     1
  0
XRECORD
  5
356
102
{ACAD_REACTORS
330
353
102
}
330
353
100
AcDbXrecord
280
     1
270
     1
271
     1
  0
XRECORD
  5
34D
102
{ACAD_REACTORS
330
34B
102
}
330
34B
100
AcDbXrecord
280
     1
270
     1
271
     1
  0
XRECORD
  5
34C
102
{ACAD_REACTORS
330
34B
102
}
330
34B
100
AcDbXrecord
280
     1
270
     1
271
     1
  0
XRECORD
  5
350
102
{ACAD_REACTORS
330
34B
102
}
330
34B
100
AcDbXrecord
280
     1
270
     1
271
     1
  0
XRECORD
  5
34F
102
{ACAD_REACTORS
330
34B
102
}
330
34B
100
AcDbXrecord
280
     1
270
     1
271
     1
  0
XRECORD
  5
351
102
{ACAD_REACTORS
330
34B
102
}
330
34B
100
AcDbXrecord
280
     1
270
     1
271
     1
  0
XRECORD
  5
34E
102
{ACAD_REACTORS
330
34B
102
}
330
34B
100
AcDbXrecord
280
     1
270
     1
271
     1
  0
XRECORD
  5
35D
102
{ACAD_REACTORS
330
35B
102
}
330
35B
100
AcDbXrecord
280
     1
270
     1
271
     1
  0
XRECORD
  5
35C
102
{ACAD_REACTORS
330
35B
102
}
330
35B
100
AcDbXrecord
280
     1
270
     1
271
     1
  0
XRECORD
  5
360
102
{ACAD_REACTORS
330
35B
102
}
330
35B
100
AcDbXrecord
280
     1
270
     1
271
     1
  0
XRECORD
  5
35F
102
{ACAD_REACTORS
330
35B
102
}
330
35B
100
AcDbXrecord
280
     1
270
     1
271
     1
  0
XRECORD
  5
361
102
{ACAD_REACTORS
330
35B
102
}
330
35B
100
AcDbXrecord
280
     1
270
     1
271
     1
  0
XRECORD
  5
35E
102
{ACAD_REACTORS
330
35B
102
}
330
35B
100
AcDbXrecord
280
     1
270
     1
271
     1
  0
XRECORD
  5
3CC
102
{ACAD_REACTORS
330
3CB
102
}
330
3CB
100
AcDbXrecord
280
     1
102
DISPLAYNAME
  1
Metric50
102
FLAGS
 90
        0
  0
CELLSTYLEMAP
  5
3C7
102
{ACAD_REACTORS
330
3C6
102
}
330
3C6
100
AcDbCellStyleMap
 90
        3
300
CELLSTYLE
  1
TABLEFORMAT_BEGIN
 90
        5
170
     1
 91
        0
 92
    32768
 62
   257
 93
        1
300
CONTENTFORMAT
  1
CONTENTFORMAT_BEGIN
 90
        0
 91
        0
 92
      512
 93
        0
300

 40
0.0
140
1.0
 94
        1
 62
     0
340
11
144
0.18
309
CONTENTFORMAT_END
171
     0
 94
        0
309
TABLEFORMAT_END
  1
CELLSTYLE_BEGIN
 90
        1
 91
        1
300
_TITLE
309
CELLSTYLE_END
300
CELLSTYLE
  1
TABLEFORMAT_BEGIN
 90
        5
170
     1
 91
        0
 92
        0
 62
   257
 93
        1
300
CONTENTFORMAT
  1
CONTENTFORMAT_BEGIN
 90
        0
 91
        0
 92
      512
 93
        0
300

 40
0.0
140
1.0
 94
        1
 62
     0
340
11
144
0.18
309
CONTENTFORMAT_END
171
     0
 94
        0
309
TABLEFORMAT_END
  1
CELLSTYLE_BEGIN
 90
        2
 91
        1
300
_HEADER
309
CELLSTYLE_END
300
CELLSTYLE
  1
TABLEFORMAT_BEGIN
 90
        5
170
     1
 91
        0
 92
        0
 62
   257
 93
        1
300
CONTENTFORMAT
  1
CONTENTFORMAT_BEGIN
 90
        0
 91
        0
 92
      512
 93
        0
300

 40
0.0
140
1.0
 94
        1
 62
     0
340
11
144
0.18
309
CONTENTFORMAT_END
171
     0
 94
        0
309
TABLEFORMAT_END
  1
CELLSTYLE_BEGIN
 90
        3
 91
        2
300
_DATA
309
CELLSTYLE_END
  0
CELLSTYLEMAP
  5
3C9
102
{ACAD_REACTORS
330
3C8
102
}
330
3C8
100
AcDbCellStyleMap
 90
        3
300
CELLSTYLE
  1
TABLEFORMAT_BEGIN
 90
        5
170
     1
 91
        0
 92
    32768
 62
   257
 93
        1
300
CONTENTFORMAT
  1
CONTENTFORMAT_BEGIN
 90
        0
 91
        0
 92
      512
 93
        0
300

 40
0.0
140
1.0
 94
        1
 62
     0
340
11
144
0.18
309
CONTENTFORMAT_END
171
     0
 94
        0
309
TABLEFORMAT_END
  1
CELLSTYLE_BEGIN
 90
        1
 91
        1
300
_TITLE
309
CELLSTYLE_END
300
CELLSTYLE
  1
TABLEFORMAT_BEGIN
 90
        5
170
     1
 91
        0
 92
        0
 62
   257
 93
        1
300
CONTENTFORMAT
  1
CONTENTFORMAT_BEGIN
 90
        0
 91
        0
 92
      512
 93
        0
300

 40
0.0
140
1.0
 94
        1
 62
     0
340
11
144
0.18
309
CONTENTFORMAT_END
171
     0
 94
        0
309
TABLEFORMAT_END
  1
CELLSTYLE_BEGIN
 90
        2
 91
        1
300
_HEADER
309
CELLSTYLE_END
300
CELLSTYLE
  1
TABLEFORMAT_BEGIN
 90
        5
170
     1
 91
        0
 92
        0
 62
   257
 93
        1
300
CONTENTFORMAT
  1
CONTENTFORMAT_BEGIN
 90
        0
 91
        0
 92
      512
 93
        0
300

 40
0.0
140
1.0
 94
        1
 62
     0
340
11
144
0.18
309
CONTENTFORMAT_END
171
     0
 94
        0
309
TABLEFORMAT_END
  1
CELLSTYLE_BEGIN
 90
        3
 91
        2
300
_DATA
309
CELLSTYLE_END
  0
ENDSEC
  0
EOF
