999
DXF file: 21480-50bt.dxf
999
Pro/ENGINEER 2019352 by Parametric Technology Corporation
  0
SECTION
  2
HEADER
  9
$ACADVER
  1
AC1027
  9
$DWGCODEPAGE
  3
ANSI_1252
  9
$EXTMAX
 10
210.0
 20
297.0
 30
0.0
  9
$EXTMIN
 10
0.0
 20
0.0
 30
0.0
  9
$LIMMIN
 10
0.0
 20
0.0
  9
$LIMMAX
 10
210.0
 20
297.0
  9
$VIEWCTR
 10
105.0
 20
148.5
  9
$VIEWSIZE
 40
297.0
  9
$CLAYER
  8
0
  9
$LTSCALE
 40
19.36
  9
$CELTYPE
  6
BYLAYER
  9
$DIMSCALE
 40
1.0
  9
$DIMASZ
 40
4.76
  9
$DIMEXO
 40
0.1
  9
$DIMDLI
 40
13.376
  9
$DIMEXE
 40
1.0
  9
$DIMCEN
 40
3.168
  9
$DIMLFAC
 40
1.0
  9
$DIMBLK
  1
_FILLED
  9
$DIMALT
 70
0
  9
$DIMALTF
 40
0.0393700787
  9
$DIMTXT
 40
1.5
  9
$DIMTOL
 70
1
  9
$DIMLIM
 70
0
  9
$DIMTFAC
 40
1.0
  9
$DIMTP
 40
0.001
  9
$DIMTM
 40
0.001
  9
$DIMGAP
 40
0.625
  9
$DIMDSEP
 70
46
  9
$AUNITS
 70
0
  9
$PDMODE
 70
3
  9
$PDSIZE
 40
0.3125
  9
$HANDSEED
  5
314
  9
$TILEMODE
 70
1
  9
$MEASUREMENT
 70
1
  9
$INSUNITS
 70
4
  0
ENDSEC
  0
SECTION
  2
CLASSES
  0
CLASS
  1
ACDBDICTIONARYWDFLT
  2
AcDbDictionaryWithDefault
  3
AutoCAD 2000
 90
0
 91
1
280
0
281
0
  0
CLASS
  1
ACDBPLACEHOLDER
  2
AcDbPlaceHolder
  3
AutoCAD 2000
 90
0
 91
1
280
0
281
0
  0
CLASS
  1
LAYOUT
  2
AcDbLayout
  3
AutoCAD 2000
 90
0
 91
0
280
0
281
0
  0
CLASS
  1
TABLESTYLE
  2
AcDbTableStyle
  3
ObjectDBX Classes
 90
2047
 91
1
280
0
281
0
  0
CLASS
  1
ACAD_TABLE
  2
AcDbTable
  3
ObjectDBX Classes
 90
1025
 91
1
280
0
281
1
  0
ENDSEC
  0
SECTION
  2
TABLES
  0
TABLE
  2
VPORT
  5
8
100
AcDbSymbolTable
 70
2
  0
VPORT
  5
1F4
100
AcDbSymbolTableRecord
100
AcDbViewportTableRecord
  2
*ACTIVE
 70
0
 10
0.0
 20
0.0
 11
1.0
 21
1.0
 12
105.0
 22
148.5
 13
0.0
 23
0.0
 14
1.0
 24
1.0
 15
0.0
 25
0.0
 16
0.0
 26
0.0
 36
1.0
 17
0.0
 27
0.0
 37
0.0
 40
297.0
 41
0.7070707071
 42
50.0
 43
0.0
 44
0.0
 50
0.0
 51
0.0
 71
0
 72
100
 73
1
 74
1
 75
0
 76
0
 77
0
 78
0
  0
ENDTAB
  0
TABLE
  2
LTYPE
  5
5
100
AcDbSymbolTable
 70
6
  0
LTYPE
  5
14
100
AcDbSymbolTableRecord
100
AcDbLinetypeTableRecord
  2
BYBLOCK
 70
0
  3

 72
65
 73
0
 40
0.0
  0
LTYPE
  5
15
100
AcDbSymbolTableRecord
100
AcDbLinetypeTableRecord
  2
BYLAYER
 70
0
  3

 72
65
 73
0
 40
0.0
  0
LTYPE
  5
16
100
AcDbSymbolTableRecord
100
AcDbLinetypeTableRecord
  2
CONTINUOUS
 70
64
  3
Solid line
 72
65
 73
0
 40
0.0
  0
LTYPE
  5
1F5
100
AcDbSymbolTableRecord
100
AcDbLinetypeTableRecord
  2
CENTER
 70
64
  3
____ _ ____ _ ____ _ ____ _ ____ _ ____ _ ____
 72
65
 73
4
 40
0.6
 49
0.375
 74
0
 49
-0.075
 74
0
 49
0.075
 74
0
 49
-0.075
 74
0
  0
LTYPE
  5
1F6
100
AcDbSymbolTableRecord
100
AcDbLinetypeTableRecord
  2
HIDDEN
 70
64
  3
- - - - - - - - - - - - - - - - - - - -
 72
65
 73
2
 40
0.2
 49
0.1
 74
0
 49
-0.1
 74
0
  0
LTYPE
  5
1F7
100
AcDbSymbolTableRecord
100
AcDbLinetypeTableRecord
  2
PHANTOM
 70
64
  3
_____ _ _ _____ _ _ _____ _ _ _____
 72
65
 73
6
 40
0.8
 49
0.45
 74
0
 49
-0.05
 74
0
 49
0.1
 74
0
 49
-0.05
 74
0
 49
0.1
 74
0
 49
-0.05
 74
0
  0
LTYPE
  5
1F8
100
AcDbSymbolTableRecord
100
AcDbLinetypeTableRecord
  2
DOT
 70
64
  3
. . . . . . . . . . . . . . . . . . . .
 72
65
 73
2
 40
0.2
 49
0.1
 74
0
 49
-0.1
 74
0
  0
LTYPE
  5
1F9
100
AcDbSymbolTableRecord
100
AcDbLinetypeTableRecord
  2
DASHED
 70
64
  3
- - - - - - - - - - - - - - - - - - - -
 72
65
 73
2
 40
0.2
 49
0.1
 74
0
 49
-0.1
 74
0
  0
ENDTAB
  0
TABLE
  2
LAYER
  5
2
100
AcDbSymbolTable
 70
36
  0
LAYER
  5
10
100
AcDbSymbolTableRecord
100
AcDbLayerTableRecord
  2
0
 70
0
 62
7
  6
CONTINUOUS
370
-3
390
F
  0
LAYER
  5
1FA
100
AcDbSymbolTableRecord
100
AcDbLayerTableRecord
  2
DEFAULT_1
 70
0
 62
7
  6
CENTER
370
-3
390
F
  0
LAYER
  5
1FB
100
AcDbSymbolTableRecord
100
AcDbLayerTableRecord
  2
DEFAULT_2
 70
0
 62
8
  6
HIDDEN
370
-3
390
F
  0
LAYER
  5
1FC
100
AcDbSymbolTableRecord
100
AcDbLayerTableRecord
  2
DEFAULT_3
 70
0
 62
7
  6
PHANTOM
370
-3
390
F
  0
LAYER
  5
1FD
100
AcDbSymbolTableRecord
100
AcDbLayerTableRecord
  2
0_COMPONENTS
 70
0
 62
7
  6
CONTINUOUS
370
-3
390
F
  0
LAYER
  5
1FE
100
AcDbSymbolTableRecord
100
AcDbLayerTableRecord
  2
1_ALL_PLANES
 70
0
 62
7
  6
CONTINUOUS
370
-3
390
F
  0
LAYER
  5
1FF
100
AcDbSymbolTableRecord
100
AcDbLayerTableRecord
  2
1__DEF_ASM_PLN
 70
0
 62
7
  6
CONTINUOUS
370
-3
390
F
  0
LAYER
  5
200
100
AcDbSymbolTableRecord
100
AcDbLayerTableRecord
  2
1__DEF_PLANES
 70
0
 62
7
  6
CONTINUOUS
370
-3
390
F
  0
LAYER
  5
201
100
AcDbSymbolTableRecord
100
AcDbLayerTableRecord
  2
2_ALL_CSYS
 70
0
 62
7
  6
CONTINUOUS
370
-3
390
F
  0
LAYER
  5
202
100
AcDbSymbolTableRecord
100
AcDbLayerTableRecord
  2
2__DEF_ASM_CSYS
 70
0
 62
7
  6
CONTINUOUS
370
-3
390
F
  0
LAYER
  5
203
100
AcDbSymbolTableRecord
100
AcDbLayerTableRecord
  2
2__DEF_CSYS
 70
0
 62
7
  6
CONTINUOUS
370
-3
390
F
  0
LAYER
  5
204
100
AcDbSymbolTableRecord
100
AcDbLayerTableRecord
  2
3_ALL_AXES
 70
0
 62
7
  6
CONTINUOUS
370
-3
390
F
  0
LAYER
  5
205
100
AcDbSymbolTableRecord
100
AcDbLayerTableRecord
  2
4_ALL_POINTS
 70
0
 62
7
  6
CONTINUOUS
370
-3
390
F
  0
LAYER
  5
206
100
AcDbSymbolTableRecord
100
AcDbLayerTableRecord
  2
5_ALL_CURVES
 70
0
 62
7
  6
CONTINUOUS
370
-3
390
F
  0
LAYER
  5
207
100
AcDbSymbolTableRecord
100
AcDbLayerTableRecord
  2
5_ALL_GTOLS(FREE)
 70
0
 62
7
  6
CONTINUOUS
370
-3
390
F
  0
LAYER
  5
208
100
AcDbSymbolTableRecord
100
AcDbLayerTableRecord
  2
6_ALL_SURFS
 70
0
 62
7
  6
CONTINUOUS
370
-3
390
F
  0
LAYER
  5
209
100
AcDbSymbolTableRecord
100
AcDbLayerTableRecord
  2
CURVE
 70
0
 62
7
  6
CONTINUOUS
370
-3
390
F
  0
LAYER
  5
20A
100
AcDbSymbolTableRecord
100
AcDbLayerTableRecord
  2
GIANNI_ASSI
 70
0
 62
7
  6
CONTINUOUS
370
-3
390
F
  0
LAYER
  5
20B
100
AcDbSymbolTableRecord
100
AcDbLayerTableRecord
  2
GIANNI_CURVE
 70
0
 62
7
  6
CONTINUOUS
370
-3
390
F
  0
LAYER
  5
20C
100
AcDbSymbolTableRecord
100
AcDbLayerTableRecord
  2
GIANNI_PIANI
 70
0
 62
7
  6
CONTINUOUS
370
-3
390
F
  0
LAYER
  5
20D
100
AcDbSymbolTableRecord
100
AcDbLayerTableRecord
  2
LAY0001
 70
0
 62
7
  6
CONTINUOUS
370
-3
390
F
  0
LAYER
  5
20E
100
AcDbSymbolTableRecord
100
AcDbLayerTableRecord
  2
PIANI_SCORD
 70
0
 62
7
  6
CONTINUOUS
370
-3
390
F
  0
LAYER
  5
20F
100
AcDbSymbolTableRecord
100
AcDbLayerTableRecord
  2
XSEC_DATUMS
 70
0
 62
7
  6
CONTINUOUS
370
-3
390
F
  0
ENDTAB
  0
TABLE
  2
STYLE
  5
3
100
AcDbSymbolTable
 70
1
  0
STYLE
  5
11
100
AcDbSymbolTableRecord
100
AcDbTextStyleTableRecord
  2
STANDARD
 70
0
 40
0.0
 41
1.2
 50
0.0
 71
0
 42
0.2
  3
txt
  4

  0
STYLE
  5
210
100
AcDbSymbolTableRecord
100
AcDbTextStyleTableRecord
  2
TEXTSTYLE_1
 70
0
 40
0.0
 41
0.8
 50
0.0
 71
0
 42
0.2
  3
gdt
  4

  0
STYLE
  5
211
100
AcDbSymbolTableRecord
100
AcDbTextStyleTableRecord
  2
TEXTSTYLE_2
 70
0
 40
0.0
 41
1.2
 50
0.0
 71
0
 42
0.2
  3
gdt
  4

  0
STYLE
  5
212
100
AcDbSymbolTableRecord
100
AcDbTextStyleTableRecord
  2
TEXTSTYLE_3
 70
0
 40
0.0
 41
1.0
 50
0.0
 71
0
 42
0.2
  3
trium.ttf
  4

  0
STYLE
  5
213
100
AcDbSymbolTableRecord
100
AcDbTextStyleTableRecord
  2
TEXTSTYLE_4
 70
0
 40
0.0
 41
1.0
 50
0.0
 71
0
 42
0.2
  3
txt
  4

  0
STYLE
  5
214
100
AcDbSymbolTableRecord
100
AcDbTextStyleTableRecord
  2
TEXTSTYLE_5
 70
0
 40
0.0
 41
1.2
 50
0.0
 71
0
 42
0.2
  3
txt
  4

  0
STYLE
  5
215
100
AcDbSymbolTableRecord
100
AcDbTextStyleTableRecord
  2
TEXTSTYLE_6
 70
0
 40
0.0
 41
1.0
 50
0.0
 71
0
 42
0.2
  3
txt
  4

  0
STYLE
  5
216
100
AcDbSymbolTableRecord
100
AcDbTextStyleTableRecord
  2
TEXTSTYLE_7
 70
0
 40
0.0
 41
1.0
 50
0.0
 71
0
 42
0.2
  3
bluprntb.ttf
  4

  0
STYLE
  5
217
100
AcDbSymbolTableRecord
100
AcDbTextStyleTableRecord
  2
TEXTSTYLE_8
 70
0
 40
0.0
 41
1.0
 50
0.0
 71
0
 42
0.2
  3
gdt
  4

  0
ENDTAB
  0
TABLE
  2
VIEW
  5
6
100
AcDbSymbolTable
 70
0
  0
ENDTAB
  0
TABLE
  2
UCS
  5
7
100
AcDbSymbolTable
 70
0
  0
ENDTAB
  0
TABLE
  2
APPID
  5
9
100
AcDbSymbolTable
 70
1
  0
APPID
  5
218
100
AcDbSymbolTableRecord
100
AcDbRegAppTableRecord
  2
ACAD
 70
0
  0
ENDTAB
  0
TABLE
  2
BLOCK_RECORD
  5
1
100
AcDbSymbolTable
 70
0
  0
BLOCK_RECORD
  5
219
100
AcDbSymbolTableRecord
100
AcDbBlockTableRecord
  2
*Model_Space
  0
BLOCK_RECORD
  5
21A
100
AcDbSymbolTableRecord
100
AcDbBlockTableRecord
  2
*Paper_Space
  0
BLOCK_RECORD
  5
21B
100
AcDbSymbolTableRecord
100
AcDbBlockTableRecord
  2
_FILLED
  0
BLOCK_RECORD
  5
21C
100
AcDbSymbolTableRecord
100
AcDbBlockTableRecord
  2
*D0
  0
BLOCK_RECORD
  5
21D
100
AcDbSymbolTableRecord
100
AcDbBlockTableRecord
  2
*D1
  0
BLOCK_RECORD
  5
21E
100
AcDbSymbolTableRecord
100
AcDbBlockTableRecord
  2
*D2
  0
BLOCK_RECORD
  5
21F
100
AcDbSymbolTableRecord
100
AcDbBlockTableRecord
  2
*D3
  0
BLOCK_RECORD
  5
220
100
AcDbSymbolTableRecord
100
AcDbBlockTableRecord
  2
*T1
  0
ENDTAB
  0
TABLE
  2
DIMSTYLE
  5
A
100
AcDbSymbolTable
 70
1
100
AcDbDimStyleTable
 71
0
  0
DIMSTYLE
105
221
100
AcDbSymbolTableRecord
100
AcDbDimStyleTableRecord
  2
STANDARD
 70
0
  3

  4

 40
1.0
 41
4.76
 42
0.1
 43
0.38
 44
1.0
 45
0.0
 46
0.0
 47
0.001
 48
0.001
140
1.5
141
0.09
142
0.0
143
25.4
144
1.0
145
0.0
146
1.0
147
0.625
 71
1.0
 72
0.0
 73
0
 74
0
 75
0
 76
0
 77
1
 78
8
 79
2
170
0
171
2
172
0
173
0
174
0
175
0
176
0
177
0
178
5
270
2
179
3
271
3
272
3
273
2
274
2
275
0
280
0
281
0
282
0
283
1
284
8
285
0
286
0
287
3
288
0
340
11
278
46
341
21B
342
21B
343
21B
344
21B
  0
DIMSTYLE
105
222
100
AcDbSymbolTableRecord
100
AcDbDimStyleTableRecord
  2
DIMSTYLE_1
 70
0
  3

  4

 40
1.0
 41
4.76
 42
0.1
 43
0.38
 44
1.0
 45
0.0
 46
0.0
 47
0.01
 48
0.01
140
1.5
141
0.09
142
0.0
143
25.4
144
1.0
145
0.0
146
1.0
147
0.375
 71
0.0
 72
0.0
 73
0
 74
0
 75
0
 76
0
 77
1
 78
8
 79
2
170
0
171
2
172
0
173
0
174
0
175
0
176
0
177
0
178
5
270
2
179
3
271
3
272
3
273
2
274
2
275
0
280
0
281
0
282
0
283
1
284
8
285
0
286
0
287
3
288
0
340
11
278
46
341
21B
342
21B
343
21B
344
21B
  0
DIMSTYLE
105
223
100
AcDbSymbolTableRecord
100
AcDbDimStyleTableRecord
  2
DIMSTYLE_2
 70
0
  3

  4

 40
1.0
 41
4.76
 42
0.1
 43
0.38
 44
1.0
 45
0.0
 46
0.0
 47
0.1
 48
0.1
140
1.5
141
0.09
142
0.0
143
25.4
144
1.0
145
0.0
146
1.0
147
0.375
 71
0.0
 72
0.0
 73
0
 74
0
 75
0
 76
0
 77
1
 78
8
 79
2
170
0
171
2
172
0
173
0
174
0
175
0
176
0
177
0
178
5
270
2
179
3
271
1
272
1
273
2
274
2
275
0
280
0
281
0
282
0
283
1
284
8
285
0
286
0
287
3
288
0
340
11
278
46
341
21B
342
21B
343
21B
344
21B
  0
ENDTAB
  0
ENDSEC
  0
SECTION
  2
BLOCKS
  0
BLOCK
  5
20
100
AcDbEntity
  8
0
100
AcDbBlockBegin
  2
*Model_Space
 70
0
 10
0.0
 20
0.0
 30
0.0
  3
*Model_Space
  1

  0
ENDBLK
  5
21
100
AcDbEntity
  8
0
100
AcDbBlockEnd
  0
BLOCK
  5
1C
100
AcDbEntity
  8
0
100
AcDbBlockBegin
  2
*Paper_Space
 70
0
 10
0.0
 20
0.0
 30
0.0
  3
*Paper_Space
  1

  0
ENDBLK
  5
1D
100
AcDbEntity
  8
0
100
AcDbBlockEnd
  0
BLOCK
  5
224
100
AcDbEntity
  8
0
100
AcDbBlockBegin
  2
_FILLED
 70
64
 10
0.0
 20
0.0
  3
_FILLED
  1

  0
SOLID
  5
225
100
AcDbEntity
  8
0
  6
BYBLOCK
 62
0
100
AcDbTrace
 10
0.0
 20
0.0
 11
-1.0
 21
0.1050420168
 12
-1.0
 22
-0.1050420168
 13
-1.0
 23
-0.1050420168
  0
ENDBLK
  5
226
100
AcDbEntity
  8
0
  6
BYBLOCK
 62
0
100
AcDbBlockEnd
  0
BLOCK
  5
227
100
AcDbEntity
  8
0
100
AcDbBlockBegin
 62
2
  6
CONTINUOUS
  2
*D0
 70
65
 10
0.0
 20
0.0
  3
*D0
  1

  0
MTEXT
  5
228
100
AcDbEntity
  8
0
100
AcDbMText
 62
5
  6
CONTINUOUS
  7
TEXTSTYLE_2
 71
2
 72
1
 10
103.7761505477
 20
83.2321613708
 30
0.0
 11
1.0
 21
0.0
 31
0.0
 73
2
 44
0.9
  1
{\fgdt;n}\ftxt;{\W1.2;19}
 40
1.5
 41
9.9428571429
  0
LINE
  5
229
100
AcDbEntity
  8
0
100
AcDbLine
 62
2
  6
CONTINUOUS
 10
93.5912238352
 20
90.7400291371
 11
93.5912238352
 21
80.089304228
  0
LINE
  5
22A
100
AcDbEntity
  8
0
100
AcDbLine
 62
2
  6
CONTINUOUS
 10
112.5912238352
 20
90.7400291371
 11
112.5912238352
 21
80.089304228
  0
LINE
  5
22B
100
AcDbEntity
  8
0
100
AcDbLine
 62
2
  6
CONTINUOUS
 10
93.5912238352
 20
81.089304228
 11
103.0912238352
 21
81.089304228
  0
LINE
  5
22C
100
AcDbEntity
  8
0
100
AcDbLine
 62
2
  6
CONTINUOUS
 10
112.5912238352
 20
81.089304228
 11
103.0912238352
 21
81.089304228
  0
INSERT
  5
22D
100
AcDbEntity
  8
0
100
AcDbBlockReference
 62
2
  6
CONTINUOUS
  2
_FILLED
 10
93.5912238352
 20
81.089304228
 41
4.76
 42
4.76
 43
4.76
 50
180.0
  0
INSERT
  5
22E
100
AcDbEntity
  8
0
100
AcDbBlockReference
 62
2
  6
CONTINUOUS
  2
_FILLED
 10
112.5912238352
 20
81.089304228
 41
4.76
 42
4.76
 43
4.76
  0
ENDBLK
  5
22F
100
AcDbEntity
  8
0
  6
BYBLOCK
 62
0
100
AcDbBlockEnd
  0
BLOCK
  5
230
100
AcDbEntity
  8
0
100
AcDbBlockBegin
 62
2
  6
CONTINUOUS
  2
*D1
 70
65
 10
0.0
 20
0.0
  3
*D1
  1

  0
MTEXT
  5
231
100
AcDbEntity
  8
0
100
AcDbMText
 62
5
  6
CONTINUOUS
  7
TEXTSTYLE_2
 71
2
 72
1
 10
105.0114193404
 20
74.859783998
 30
0.0
 11
1.0
 21
0.0
 31
0.0
 73
2
 44
0.9
  1
{\fgdt;n}\ftxt;{\W1.2;32.8}
 40
1.5
 41
16.8857142857
  0
LINE
  5
232
100
AcDbEntity
  8
0
100
AcDbLine
 62
2
  6
CONTINUOUS
 10
119.4912238352
 20
91.9400291371
 11
119.4912238352
 21
71.7169268552
  0
LINE
  5
233
100
AcDbEntity
  8
0
100
AcDbLine
 62
2
  6
CONTINUOUS
 10
86.6912238352
 20
91.9400291371
 11
86.6912238352
 21
71.7169268552
  0
LINE
  5
234
100
AcDbEntity
  8
0
100
AcDbLine
 62
2
  6
CONTINUOUS
 10
119.4912238352
 20
72.7169268552
 11
103.0912238352
 21
72.7169268552
  0
LINE
  5
235
100
AcDbEntity
  8
0
100
AcDbLine
 62
2
  6
CONTINUOUS
 10
86.6912238352
 20
72.7169268552
 11
103.0912238352
 21
72.7169268552
  0
INSERT
  5
236
100
AcDbEntity
  8
0
100
AcDbBlockReference
 62
2
  6
CONTINUOUS
  2
_FILLED
 10
119.4912238352
 20
72.7169268552
 41
4.76
 42
4.76
 43
4.76
  0
INSERT
  5
237
100
AcDbEntity
  8
0
100
AcDbBlockReference
 62
2
  6
CONTINUOUS
  2
_FILLED
 10
86.6912238352
 20
72.7169268552
 41
4.76
 42
4.76
 43
4.76
 50
180.0
  0
ENDBLK
  5
238
100
AcDbEntity
  8
0
  6
BYBLOCK
 62
0
100
AcDbBlockEnd
  0
BLOCK
  5
239
100
AcDbEntity
  8
0
100
AcDbBlockBegin
 62
2
  6
CONTINUOUS
  2
*D2
 70
65
 10
0.0
 20
0.0
  3
*D2
  1

  0
MTEXT
  5
23A
100
AcDbEntity
  8
0
100
AcDbMText
 62
5
  6
CONTINUOUS
  7
STANDARD
 71
2
 72
1
 10
159.416422486
 20
122.951191092
 30
0.0
 11
0.0
 21
1.0
 31
0.0
 73
2
 44
0.9
  1
56
 40
1.5
 41
6.9428571429
  0
LINE
  5
23B
100
AcDbEntity
  8
0
100
AcDbLine
 62
2
  6
CONTINUOUS
 10
151.1412238352
 20
145.9900291371
 11
162.5592796289
 21
145.9900291371
  0
LINE
  5
23C
100
AcDbEntity
  8
0
100
AcDbLine
 62
2
  6
CONTINUOUS
 10
118.1478481858
 20
90.0400291371
 11
162.5592796289
 21
90.0400291371
  0
LINE
  5
23D
100
AcDbEntity
  8
0
100
AcDbLine
 62
2
  6
CONTINUOUS
 10
161.5592796289
 20
145.9900291371
 11
161.5592796289
 21
118.0150291371
  0
LINE
  5
23E
100
AcDbEntity
  8
0
100
AcDbLine
 62
2
  6
CONTINUOUS
 10
161.5592796289
 20
90.0400291371
 11
161.5592796289
 21
118.0150291371
  0
INSERT
  5
23F
100
AcDbEntity
  8
0
100
AcDbBlockReference
 62
2
  6
CONTINUOUS
  2
_FILLED
 10
161.5592796289
 20
145.9900291371
 41
4.76
 42
4.76
 43
4.76
 50
90.0
  0
INSERT
  5
240
100
AcDbEntity
  8
0
100
AcDbBlockReference
 62
2
  6
CONTINUOUS
  2
_FILLED
 10
161.5592796289
 20
90.0400291371
 41
4.76
 42
4.76
 43
4.76
 50
270.0
  0
ENDBLK
  5
241
100
AcDbEntity
  8
0
  6
BYBLOCK
 62
0
100
AcDbBlockEnd
  0
BLOCK
  5
242
100
AcDbEntity
  8
0
100
AcDbBlockBegin
 62
2
  6
CONTINUOUS
  2
*D3
 70
65
 10
0.0
 20
0.0
  3
*D3
  1

  0
MTEXT
  5
243
100
AcDbEntity
  8
0
100
AcDbMText
 62
5
  6
CONTINUOUS
  7
STANDARD
 71
2
 72
1
 10
170.4220396639
 20
133.7683787798
 30
0.0
 11
0.0
 21
1.0
 31
0.0
 73
2
 44
0.9
  1
75
 40
1.5
 41
6.9428571429
  0
LINE
  5
244
100
AcDbEntity
  8
0
100
AcDbLine
 62
2
  6
CONTINUOUS
 10
118.1478481858
 20
90.0400291371
 11
173.5648968067
 21
90.0400291371
  0
LINE
  5
245
100
AcDbEntity
  8
0
100
AcDbLine
 62
2
  6
CONTINUOUS
 10
138.1162238352
 20
165.0400291371
 11
173.5648968067
 21
165.0400291371
  0
LINE
  5
246
100
AcDbEntity
  8
0
100
AcDbLine
 62
2
  6
CONTINUOUS
 10
172.5648968067
 20
90.0400291371
 11
172.5648968067
 21
127.5400291371
  0
LINE
  5
247
100
AcDbEntity
  8
0
100
AcDbLine
 62
2
  6
CONTINUOUS
 10
172.5648968067
 20
165.0400291371
 11
172.5648968067
 21
127.5400291371
  0
INSERT
  5
248
100
AcDbEntity
  8
0
100
AcDbBlockReference
 62
2
  6
CONTINUOUS
  2
_FILLED
 10
172.5648968067
 20
90.0400291371
 41
4.76
 42
4.76
 43
4.76
 50
270.0
  0
INSERT
  5
249
100
AcDbEntity
  8
0
100
AcDbBlockReference
 62
2
  6
CONTINUOUS
  2
_FILLED
 10
172.5648968067
 20
165.0400291371
 41
4.76
 42
4.76
 43
4.76
 50
90.0
  0
ENDBLK
  5
24A
100
AcDbEntity
  8
0
  6
BYBLOCK
 62
0
100
AcDbBlockEnd
  0
BLOCK
  5
24B
100
AcDbEntity
  8
0
100
AcDbBlockBegin
  2
*T1
 70
1
 10
0.0
 20
0.0
  3
*T1
  1

  0
LINE
  5
24C
100
AcDbEntity
  8
0
100
AcDbLine
 62
2
  6
CONTINUOUS
 10
199.5
 20
0.0
 11
0.0
 21
0.0
  0
LINE
  5
24D
100
AcDbEntity
  8
0
100
AcDbLine
 62
2
  6
CONTINUOUS
 10
199.5
 20
0.0
 11
199.5
 21
40.0
  0
LINE
  5
24E
100
AcDbEntity
  8
0
100
AcDbLine
 62
2
  6
CONTINUOUS
 10
110.0
 20
5.0
 11
0.0
 21
5.0
  0
LINE
  5
24F
100
AcDbEntity
  8
0
100
AcDbLine
 62
2
  6
CONTINUOUS
 10
199.5
 20
10.0
 11
0.0
 21
10.0
  0
LINE
  5
250
100
AcDbEntity
  8
0
100
AcDbLine
 62
2
  6
CONTINUOUS
 10
28.0
 20
15.0
 11
0.0
 21
15.0
  0
LINE
  5
251
100
AcDbEntity
  8
0
100
AcDbLine
 62
2
  6
CONTINUOUS
 10
162.0
 20
20.0
 11
0.0
 21
20.0
  0
LINE
  5
252
100
AcDbEntity
  8
0
100
AcDbLine
 62
2
  6
CONTINUOUS
 10
28.0
 20
25.0
 11
0.0
 21
25.0
  0
LINE
  5
253
100
AcDbEntity
  8
0
100
AcDbLine
 62
2
  6
CONTINUOUS
 10
162.0
 20
30.0
 11
0.0
 21
30.0
  0
LINE
  5
254
100
AcDbEntity
  8
0
100
AcDbLine
 62
2
  6
CONTINUOUS
 10
199.5
 20
35.0
 11
162.0
 21
35.0
  0
LINE
  5
255
100
AcDbEntity
  8
0
100
AcDbLine
 62
2
  6
CONTINUOUS
 10
128.0
 20
35.0
 11
0.0
 21
35.0
  0
LINE
  5
256
100
AcDbEntity
  8
0
100
AcDbLine
 62
2
  6
CONTINUOUS
 10
199.5
 20
40.0
 11
0.0
 21
40.0
  0
LINE
  5
257
100
AcDbEntity
  8
0
100
AcDbLine
 62
2
  6
CONTINUOUS
 10
191.0
 20
0.0
 11
191.0
 21
10.0
  0
LINE
  5
258
100
AcDbEntity
  8
0
100
AcDbLine
 62
2
  6
CONTINUOUS
 10
180.0
 20
10.0
 11
180.0
 21
35.0
  0
LINE
  5
259
100
AcDbEntity
  8
0
100
AcDbLine
 62
2
  6
CONTINUOUS
 10
162.0
 20
10.0
 11
162.0
 21
40.0
  0
LINE
  5
25A
100
AcDbEntity
  8
0
100
AcDbLine
 62
2
  6
CONTINUOUS
 10
145.0
 20
0.0
 11
145.0
 21
40.0
  0
LINE
  5
25B
100
AcDbEntity
  8
0
100
AcDbLine
 62
2
  6
CONTINUOUS
 10
128.0
 20
0.0
 11
128.0
 21
10.0
  0
LINE
  5
25C
100
AcDbEntity
  8
0
100
AcDbLine
 62
2
  6
CONTINUOUS
 10
128.0
 20
20.0
 11
128.0
 21
40.0
  0
LINE
  5
25D
100
AcDbEntity
  8
0
100
AcDbLine
 62
2
  6
CONTINUOUS
 10
110.0
 20
0.0
 11
110.0
 21
10.0
  0
LINE
  5
25E
100
AcDbEntity
  8
0
100
AcDbLine
 62
2
  6
CONTINUOUS
 10
108.0
 20
10.0
 11
108.0
 21
20.0
  0
LINE
  5
25F
100
AcDbEntity
  8
0
100
AcDbLine
 62
2
  6
CONTINUOUS
 10
100.0
 20
10.0
 11
100.0
 21
20.0
  0
LINE
  5
260
100
AcDbEntity
  8
0
100
AcDbLine
 62
2
  6
CONTINUOUS
 10
56.0
 20
10.0
 11
56.0
 21
20.0
  0
LINE
  5
261
100
AcDbEntity
  8
0
100
AcDbLine
 62
2
  6
CONTINUOUS
 10
28.0
 20
0.0
 11
28.0
 21
40.0
  0
LINE
  5
262
100
AcDbEntity
  8
0
100
AcDbLine
 62
2
  6
CONTINUOUS
 10
23.0
 20
5.0
 11
23.0
 21
40.0
  0
LINE
  5
263
100
AcDbEntity
  8
0
100
AcDbLine
 62
2
  6
CONTINUOUS
 10
8.0
 20
5.0
 11
8.0
 21
40.0
  0
LINE
  5
264
100
AcDbEntity
  8
0
100
AcDbLine
 62
2
  6
CONTINUOUS
 10
0.0
 20
0.0
 11
0.0
 21
40.0
  0
MTEXT
  5
265
100
AcDbEntity
  8
0
100
AcDbMText
 62
5
  6
CONTINUOUS
  7
TEXTSTYLE_3
 71
3
 72
1
 10
189.5
 20
4.5
 30
0.0
 11
1.0
 21
0.0
 31
0.0
 73
2
 44
0.9
  1
21480/50BT 
 40
3.0
 41
47.8888888889
  0
MTEXT
  5
266
100
AcDbEntity
  8
0
100
AcDbMText
 62
5
  6
CONTINUOUS
  7
TEXTSTYLE_4
 71
1
 72
1
 10
129.5
 20
6.8125
 30
0.0
 11
1.0
 21
0.0
 31
0.0
 73
2
 44
0.9
  1
Peso finito \P3.139
 40
1.3
 41
30.4
  0
MTEXT
  5
267
100
AcDbEntity
  8
0
100
AcDbMText
 62
5
  6
CONTINUOUS
  7
TEXTSTYLE_4
 71
1
 72
1
 10
29.5
 20
2.8076923077
 30
0.0
 11
1.0
 21
0.0
 31
0.0
 73
2
 44
0.9
  1
La ditta tutela i propri disegni a norma di legge
 40
1.2
 41
113.9076923077
  0
MTEXT
  5
268
100
AcDbEntity
  8
0
100
AcDbMText
 62
5
  6
CONTINUOUS
  7
TEXTSTYLE_4
 71
2
 72
1
 10
14.0
 20
2.9230769231
 30
0.0
 11
1.0
 21
0.0
 31
0.0
 73
2
 44
0.9
  1
Modifica
 40
2.0
 41
31.3846153846
  0
MTEXT
  5
269
100
AcDbEntity
  8
0
100
AcDbMText
 62
5
  6
CONTINUOUS
  7
TEXTSTYLE_4
 71
2
 72
1
 10
195.25
 20
7.75
 30
0.0
 11
1.0
 21
0.0
 31
0.0
 73
2
 44
0.9
  1
esp.
 40
1.3
 41
11.4
  0
MTEXT
  5
26A
100
AcDbEntity
  8
0
100
AcDbMText
 62
5
  6
CONTINUOUS
  7
TEXTSTYLE_4
 71
2
 72
1
 10
168.0
 20
7.75
 30
0.0
 11
1.0
 21
0.0
 31
0.0
 73
2
 44
0.9
  1
cod.disegno
 40
1.3
 41
29.2
  0
MTEXT
  5
26B
100
AcDbEntity
  8
0
100
AcDbMText
 62
5
  6
CONTINUOUS
  7
TEXTSTYLE_4
 71
1
 72
1
 10
29.5
 20
7.5769230769
 30
0.0
 11
1.0
 21
0.0
 31
0.0
 73
2
 44
0.9
  1
Cod.Cad 21480-50BT
 40
1.6
 41
68.6769230769
  0
MTEXT
  5
26C
100
AcDbEntity
  8
0
100
AcDbMText
 62
5
  6
CONTINUOUS
  7
TEXTSTYLE_4
 71
2
 72
1
 10
25.5
 20
7.75
 30
0.0
 11
1.0
 21
0.0
 31
0.0
 73
2
 44
0.9
  1
Esp
 40
1.3
 41
9.4
  0
MTEXT
  5
26D
100
AcDbEntity
  8
0
100
AcDbMText
 62
5
  6
CONTINUOUS
  7
TEXTSTYLE_4
 71
2
 72
1
 10
15.5
 20
7.75
 30
0.0
 11
1.0
 21
0.0
 31
0.0
 73
2
 44
0.9
  1
DATA
 40
1.3
 41
14.8
  0
MTEXT
  5
26E
100
AcDbEntity
  8
0
100
AcDbMText
 62
5
  6
CONTINUOUS
  7
TEXTSTYLE_4
 71
2
 72
1
 10
4.0
 20
7.75
 30
0.0
 11
1.0
 21
0.0
 31
0.0
 73
2
 44
0.9
  1
N°
 40
1.3
 41
6.6
  0
MTEXT
  5
26F
100
AcDbEntity
  8
0
100
AcDbMText
 62
5
  6
CONTINUOUS
  7
TEXTSTYLE_4
 71
1
 72
1
 10
29.5
 20
12.8384615385
 30
0.0
 11
1.0
 21
0.0
 31
0.0
 73
2
 44
0.9
  1
--
 40
1.6
 41
7.8769230769
  0
MTEXT
  5
270
100
AcDbEntity
  8
0
100
AcDbMText
 62
5
  6
CONTINUOUS
  7
TEXTSTYLE_4
 71
1
 72
1
 10
146.5
 20
17.7115384615
 30
0.0
 11
1.0
 21
0.0
 31
0.0
 73
2
 44
0.9
  1
Peso grezzo Kg. 
 40
1.0
 41
35.2307692308
  0
MTEXT
  5
271
100
AcDbEntity
  8
0
100
AcDbMText
 62
5
  6
CONTINUOUS
  7
TEXTSTYLE_4
 71
1
 72
1
 10
109.5
 20
17.775
 30
0.0
 11
1.0
 21
0.0
 31
0.0
 73
2
 44
0.9
  1
Dimens.grezze 
 40
1.3
 41
38.6
  0
MTEXT
  5
272
100
AcDbEntity
  8
0
100
AcDbMText
 62
5
  6
CONTINUOUS
  7
TEXTSTYLE_4
 71
1
 72
1
 10
57.5
 20
17.8173076923
 30
0.0
 11
1.0
 21
0.0
 31
0.0
 73
2
 44
0.9
  1
Tratt.termici
 40
1.5
 41
36.0
  0
MTEXT
  5
273
100
AcDbEntity
  8
0
100
AcDbMText
 62
5
  6
CONTINUOUS
  7
TEXTSTYLE_4
 71
1
 72
1
 10
29.5
 20
17.775
 30
0.0
 11
1.0
 21
0.0
 31
0.0
 73
2
 44
0.9
  1
Materiale 
 40
1.3
 41
25.2
  0
MTEXT
  5
274
100
AcDbEntity
  8
0
100
AcDbMText
 62
5
  6
CONTINUOUS
  7
TEXTSTYLE_4
 71
1
 72
1
 10
146.5
 20
27.75
 30
0.0
 11
1.0
 21
0.0
 31
0.0
 73
2
 44
1.2
  1
Scala\P1:1
 40
1.3
 41
13.6
  0
MTEXT
  5
275
100
AcDbEntity
  8
0
100
AcDbMText
 62
5
  6
CONTINUOUS
  7
TEXTSTYLE_4
 71
1
 72
1
 10
129.5
 20
27.75
 30
0.0
 11
1.0
 21
0.0
 31
0.0
 73
2
 44
1.2
  1
Visto
 40
1.3
 41
12.8
  0
MTEXT
  5
276
100
AcDbEntity
  8
0
100
AcDbMText
 62
5
  6
CONTINUOUS
  7
TEXTSTYLE_4
 71
1
 72
1
 10
29.5
 20
23.0
 30
0.0
 11
1.0
 21
0.0
 31
0.0
 73
2
 44
0.9
  1
MANDRINO SENZA COMPENSAZIONE ASSIALE PER BUSSOLE 19/11
 40
1.5
 41
197.1923076923
  0
MTEXT
  5
277
100
AcDbEntity
  8
0
100
AcDbMText
 62
5
  6
CONTINUOUS
  7
TEXTSTYLE_4
 71
1
 72
1
 10
29.5
 20
27.8076923077
 30
0.0
 11
1.0
 21
0.0
 31
0.0
 73
2
 44
0.9
  1
Descrizione
 40
1.2
 41
25.2923076923
  0
MTEXT
  5
278
100
AcDbEntity
  8
0
100
AcDbMText
 62
5
  6
CONTINUOUS
  7
TEXTSTYLE_4
 71
1
 72
1
 10
146.5
 20
37.75
 30
0.0
 11
1.0
 21
0.0
 31
0.0
 73
2
 44
1.2
  1
Data\PMar-03-16
 40
1.3
 41
25.8
  0
MTEXT
  5
279
100
AcDbEntity
  8
0
100
AcDbMText
 62
5
  6
CONTINUOUS
  7
TEXTSTYLE_4
 71
1
 72
1
 10
129.5
 20
37.75
 30
0.0
 11
1.0
 21
0.0
 31
0.0
 73
2
 44
1.2
  1
Firma\Pcalvo
 40
1.3
 41
14.2
  0
MTEXT
  5
27A
100
AcDbEntity
  8
0
100
AcDbMText
 62
5
  6
CONTINUOUS
  7
TEXTSTYLE_4
 71
1
 72
1
 10
29.5
 20
32.775
 30
0.0
 11
1.0
 21
0.0
 31
0.0
 73
2
 44
0.9
  1
Macchina o codice prenotante  
 40
1.3
 41
81.0
  0
MTEXT
  5
27B
100
AcDbEntity
  8
0
100
AcDbMText
 62
5
  6
CONTINUOUS
  7
TEXTSTYLE_4
 71
1
 72
1
 10
163.5
 20
37.75
 30
0.0
 11
1.0
 21
0.0
 31
0.0
 73
2
 44
0.9
  1
Rugosita' \fgdt;{\fgdt;a}\ftxt;0.8=rettifica
 40
1.3
 41
61.375
  0
MTEXT
  5
27C
100
AcDbEntity
  8
0
100
AcDbMText
 62
5
  6
CONTINUOUS
  7
TEXTSTYLE_4
 71
1
 72
1
 10
29.5
 20
37.75
 30
0.0
 11
1.0
 21
0.0
 31
0.0
 73
2
 44
0.9
  1
Toleranze generali per quote senza valori:\fgdt;{\fgdt;n}\ftxt;=H11-h11 - lineari\fgdt;{\fgdt;`}\ftxt;0.2
 40
1.3
 41
161.8
  0
ENDBLK
  5
27D
100
AcDbEntity
  8
0
  6
BYBLOCK
 62
0
100
AcDbBlockEnd
  0
ENDSEC
  0
SECTION
  2
ENTITIES
  0
DIMENSION
  5
27E
100
AcDbEntity
  8
0
100
AcDbDimension
 62
2
  6
CONTINUOUS
  2
*D0
 10
112.5912238352
 20
81.089304228
 11
103.7761505477
 21
81.089304228
 70
160
 71
2
 72
2
 41
0.9
 42
19.0
  1
%%c<>
  3
DIMSTYLE_1
100
AcDbAlignedDimension
 13
93.5912238352
 23
90.8400291371
 14
112.5912238352
 24
90.8400291371
100
AcDbRotatedDimension
  0
DIMENSION
  5
27F
100
AcDbEntity
  8
0
100
AcDbDimension
 62
2
  6
CONTINUOUS
  2
*D1
 10
86.6912238352
 20
72.7169268552
 11
105.0114193404
 21
72.7169268552
 70
160
 71
2
 72
2
 41
0.9
 42
32.8
  1
%%c<>
  3
DIMSTYLE_1
100
AcDbAlignedDimension
 13
119.4912238352
 23
92.0400291371
 14
86.6912238352
 24
92.0400291371
 50
180.0
100
AcDbRotatedDimension
  0
DIMENSION
  5
280
100
AcDbEntity
  8
0
100
AcDbDimension
 62
2
  6
CONTINUOUS
  2
*D2
 10
161.5592796289
 20
90.0400291371
 11
161.5592796289
 21
122.5654760557
 70
160
 71
2
 72
2
 41
0.9
 42
55.95
  3
DIMSTYLE_2
100
AcDbAlignedDimension
 13
151.0412238352
 23
145.9900291371
 14
118.0478481858
 24
90.0400291371
 50
270.0
100
AcDbRotatedDimension
  0
DIMENSION
  5
281
100
AcDbEntity
  8
0
100
AcDbDimension
 62
2
  6
CONTINUOUS
  2
*D3
 10
172.5648968067
 20
165.0400291371
 11
172.5648968067
 21
133.3826647297
 70
160
 71
2
 72
2
 41
0.9
 42
75.0
  3
DIMSTYLE_1
100
AcDbAlignedDimension
 13
118.0478481858
 23
90.0400291371
 14
138.0162238352
 24
165.0400291371
 50
90.0
100
AcDbRotatedDimension
  0
ACAD_TABLE
  5
282
100
AcDbEntity
  8
0
 62
2
  6
CONTINUOUS
100
AcDbBlockReference
  2
*T1
 10
6.0078075829
 20
6.5470414813
 30
0.0
100
AcDbTable
342
       313
343
220
 11
1.0
 21
0.0
 31
0.0
 90
6
 91
8
 92
15
 93
4
 94
0
 95
0
 96
0
 70
1
141
5.0
141
5.0
141
5.0
141
5.0
141
5.0
141
5.0
141
5.0
141
5.0
142
8.0
142
15.0
142
5.0
142
28.0
142
44.0
142
8.0
142
2.0
142
18.0
142
8.5
142
8.5
142
17.0
142
9.0
142
9.0
142
11.0
142
8.5
171
1
172
0
173
0
174
0
175
3
176
1
 91
49
178
0
145
0.0
  7
TEXTSTYLE_4
301
CELL_VALUE
 90
4
  1
Modifica
304
ACVALUE_END
170
5
140
2.0
171
1
172
0
173
1
174
0
175
1
176
1
 91
1
178
0
145
0.0
170
1
171
1
172
0
173
1
174
0
175
1
176
1
 91
1
178
0
145
0.0
170
5
171
1
172
0
173
0
174
0
175
4
176
1
 91
49
178
0
145
0.0
  7
TEXTSTYLE_4
301
CELL_VALUE
 90
4
  1
La ditta tutela i propri disegni a norma di legge
304
ACVALUE_END
170
1
140
1.2
171
1
172
0
173
1
174
0
175
1
176
1
 91
1
178
0
145
0.0
170
1
171
1
172
0
173
1
174
0
175
1
176
1
 91
1
178
0
145
0.0
170
1
171
1
172
0
173
1
174
0
175
1
176
1
 91
1
178
0
145
0.0
170
1
171
1
172
0
173
0
174
0
175
1
176
2
 91
33
178
0
145
0.0
301
CELL_VALUE
 90
4
  1
 
304
ACVALUE_END
170
1
140
3.0
171
1
172
0
173
0
174
0
175
2
176
2
 91
49
178
0
145
0.0
  7
TEXTSTYLE_4
301
CELL_VALUE
 90
4
  1
Peso finito \P3.139
304
ACVALUE_END
170
4
140
1.3
171
1
172
0
173
1
174
0
175
1
176
1
 91
1
178
0
145
0.0
170
4
171
1
172
0
173
0
174
0
175
4
176
1
 91
49
178
0
145
0.0
  7
TEXTSTYLE_3
301
CELL_VALUE
 90
4
  1
21480/50BT 
304
ACVALUE_END
170
9
140
3.0
171
1
172
0
173
1
174
0
175
1
176
1
 91
1
178
0
145
0.0
170
1
171
1
172
0
173
1
174
0
175
1
176
1
 91
1
178
0
145
0.0
170
1
171
1
172
0
173
1
174
0
175
1
176
1
 91
1
178
0
145
0.0
170
9
171
1
172
0
173
0
174
0
175
1
176
1
 91
33
178
0
145
0.0
301
CELL_VALUE
 90
4
  1
 
304
ACVALUE_END
170
1
140
3.0
171
1
172
0
173
0
174
0
175
1
176
1
 91
57
178
0
145
0.0
  7
TEXTSTYLE_4
301
CELL_VALUE
 90
4
  1
N°
304
ACVALUE_END
170
2
140
1.3
 64
5
171
1
172
0
173
0
174
0
175
1
176
1
 91
57
178
0
145
0.0
  7
TEXTSTYLE_4
301
CELL_VALUE
 90
4
  1
DATA
304
ACVALUE_END
170
2
140
1.3
 64
5
171
1
172
0
173
0
174
0
175
1
176
1
 91
57
178
0
145
0.0
  7
TEXTSTYLE_4
301
CELL_VALUE
 90
4
  1
Esp
304
ACVALUE_END
170
2
140
1.3
 64
5
171
1
172
0
173
0
174
0
175
4
176
1
 91
49
178
0
145
0.0
  7
TEXTSTYLE_4
301
CELL_VALUE
 90
4
  1
Cod.Cad 21480-50BT
304
ACVALUE_END
170
1
140
1.6
171
1
172
0
173
1
174
0
175
1
176
1
 91
1
178
0
145
0.0
170
1
171
1
172
0
173
1
174
0
175
1
176
1
 91
1
178
0
145
0.0
170
1
171
1
172
0
173
1
174
0
175
1
176
1
 91
1
178
0
145
0.0
170
1
171
1
172
0
173
1
174
0
175
1
176
1
 91
1
178
0
145
0.0
170
1
171
1
172
0
173
1
174
0
175
1
176
1
 91
1
178
0
145
0.0
170
1
171
1
172
0
173
1
174
0
175
1
176
1
 91
1
178
0
145
0.0
170
1
171
1
172
0
173
0
174
0
175
4
176
1
 91
49
178
0
145
0.0
  7
TEXTSTYLE_4
301
CELL_VALUE
 90
4
  1
cod.disegno
304
ACVALUE_END
170
2
140
1.3
171
1
172
0
173
1
174
0
175
1
176
1
 91
1
178
0
145
0.0
170
1
171
1
172
0
173
1
174
0
175
1
176
1
 91
1
178
0
145
0.0
170
1
171
1
172
0
173
1
174
0
175
1
176
1
 91
1
178
0
145
0.0
170
2
171
1
172
0
173
0
174
0
175
1
176
1
 91
57
178
0
145
0.0
  7
TEXTSTYLE_4
301
CELL_VALUE
 90
4
  1
esp.
304
ACVALUE_END
170
2
140
1.3
 64
5
171
1
172
0
173
0
174
0
175
1
176
1
 91
41
178
0
145
0.0
301
CELL_VALUE
 90
4
  1
 
304
ACVALUE_END
170
5
140
3.0
 64
5
171
1
172
0
173
0
174
0
175
1
176
1
 91
41
178
0
145
0.0
301
CELL_VALUE
 90
4
  1
 
304
ACVALUE_END
170
4
140
3.0
 64
5
171
1
172
0
173
0
174
0
175
1
176
1
 91
33
178
0
145
0.0
301
CELL_VALUE
 90
4
  1
 
304
ACVALUE_END
170
1
140
3.0
171
1
172
0
173
0
174
0
175
1
176
1
 91
57
178
0
145
0.0
  7
TEXTSTYLE_4
301
CELL_VALUE
 90
4
  1
--
304
ACVALUE_END
170
4
140
1.6
 64
5
171
1
172
0
173
0
174
0
175
1
176
1
 91
33
178
0
145
0.0
301
CELL_VALUE
 90
4
  1
 
304
ACVALUE_END
170
4
140
3.0
171
1
172
0
173
0
174
0
175
1
176
2
 91
41
178
0
145
0.0
301
CELL_VALUE
 90
4
  1
 
304
ACVALUE_END
170
5
140
3.0
 64
5
171
1
172
0
173
0
174
0
175
4
176
1
 91
33
178
0
145
0.0
301
CELL_VALUE
 90
4
  1
 
304
ACVALUE_END
170
4
140
3.0
171
1
172
0
173
1
174
0
175
1
176
1
 91
1
178
0
145
0.0
170
1
171
1
172
0
173
1
174
0
175
1
176
1
 91
1
178
0
145
0.0
170
1
171
1
172
0
173
1
174
0
175
1
176
1
 91
1
178
0
145
0.0
170
4
171
1
172
0
173
0
174
0
175
1
176
1
 91
41
178
0
145
0.0
301
CELL_VALUE
 90
4
  1
 
304
ACVALUE_END
170
4
140
3.0
 64
5
171
1
172
0
173
0
174
0
175
2
176
5
 91
33
178
0
145
0.0
301
CELL_VALUE
 90
4
  1
 
304
ACVALUE_END
170
1
140
3.0
171
1
172
0
173
1
174
0
175
1
176
1
 91
1
178
0
145
0.0
170
1
171
1
172
0
173
0
174
0
175
2
176
3
 91
33
178
0
145
0.0
301
CELL_VALUE
 90
4
  1
 
304
ACVALUE_END
170
1
140
3.0
171
1
172
0
173
1
174
0
175
1
176
1
 91
1
178
0
145
0.0
170
1
171
1
172
0
173
0
174
0
175
1
176
1
 91
41
178
0
145
0.0
301
CELL_VALUE
 90
4
  1
 
304
ACVALUE_END
170
5
140
3.0
 64
5
171
1
172
0
173
0
174
0
175
1
176
1
 91
41
178
0
145
0.0
301
CELL_VALUE
 90
4
  1
 
304
ACVALUE_END
170
4
140
3.0
 64
5
171
1
172
0
173
0
174
0
175
1
176
1
 91
33
178
0
145
0.0
301
CELL_VALUE
 90
4
  1
 
304
ACVALUE_END
170
1
140
3.0
171
1
172
0
173
0
174
0
175
1
176
1
 91
57
178
0
145
0.0
  7
TEXTSTYLE_4
301
CELL_VALUE
 90
4
  1
Materiale 
304
ACVALUE_END
170
4
140
1.3
 64
5
171
1
172
0
173
0
174
0
175
1
176
1
 91
57
178
0
145
0.0
  7
TEXTSTYLE_4
301
CELL_VALUE
 90
4
  1
Tratt.termici
304
ACVALUE_END
170
4
140
1.5
 64
5
171
1
172
0
173
1
174
0
175
1
176
1
 91
1
178
0
145
0.0
170
1
171
1
172
0
173
0
174
0
175
4
176
1
 91
49
178
0
145
0.0
  7
TEXTSTYLE_4
301
CELL_VALUE
 90
4
  1
Dimens.grezze 
304
ACVALUE_END
170
4
140
1.3
171
1
172
0
173
1
174
0
175
1
176
1
 91
1
178
0
145
0.0
170
1
171
1
172
0
173
1
174
0
175
1
176
1
 91
1
178
0
145
0.0
170
1
171
1
172
0
173
1
174
0
175
1
176
1
 91
1
178
0
145
0.0
170
4
171
1
172
0
173
0
174
0
175
1
176
1
 91
57
178
0
145
0.0
  7
TEXTSTYLE_4
301
CELL_VALUE
 90
4
  1
Peso grezzo Kg. 
304
ACVALUE_END
170
4
140
1.0
 64
5
171
1
172
0
173
1
174
0
175
1
176
1
 91
1
178
0
145
0.0
170
1
171
1
172
0
173
1
174
0
175
1
176
1
 91
1
178
0
145
0.0
170
1
171
1
172
0
173
1
174
0
175
1
176
1
 91
1
178
0
145
0.0
170
1
171
1
172
0
173
1
174
0
175
1
176
1
 91
1
178
0
145
0.0
170
1
171
1
172
0
173
0
174
0
175
1
176
1
 91
41
178
0
145
0.0
301
CELL_VALUE
 90
4
  1
 
304
ACVALUE_END
170
5
140
3.0
 64
5
171
1
172
0
173
0
174
0
175
1
176
1
 91
41
178
0
145
0.0
301
CELL_VALUE
 90
4
  1
 
304
ACVALUE_END
170
4
140
3.0
 64
5
171
1
172
0
173
0
174
0
175
1
176
1
 91
33
178
0
145
0.0
301
CELL_VALUE
 90
4
  1
 
304
ACVALUE_END
170
1
140
3.0
171
1
172
0
173
0
174
0
175
1
176
1
 91
57
178
0
145
0.0
  7
TEXTSTYLE_4
301
CELL_VALUE
 90
4
  1
MANDRINO SENZA COMPENSAZIONE ASSIALE PER BUSSOLE 19/11
304
ACVALUE_END
170
7
140
1.5
 64
5
171
1
172
0
173
0
174
0
175
4
176
1
 91
33
178
0
145
0.0
301
CELL_VALUE
 90
4
  1
 
304
ACVALUE_END
170
1
140
3.0
171
1
172
0
173
1
174
0
175
1
176
1
 91
1
178
0
145
0.0
170
1
171
1
172
0
173
1
174
0
175
1
176
1
 91
1
178
0
145
0.0
170
1
171
1
172
0
173
1
174
0
175
1
176
1
 91
1
178
0
145
0.0
170
1
171
1
172
0
173
0
174
0
175
2
176
2
 91
49
178
0
145
0.0
  7
TEXTSTYLE_4
301
CELL_VALUE
 90
4
  1
Visto
304
ACVALUE_END
170
1
140
1.3
171
1
172
0
173
1
174
0
175
1
176
1
 91
1
178
0
145
0.0
170
1
171
1
172
0
173
0
174
0
175
1
176
2
 91
57
178
0
145
0.0
  7
TEXTSTYLE_4
301
CELL_VALUE
 90
4
  1
Scala\P1:1
304
ACVALUE_END
170
1
140
1.3
 64
5
171
1
172
0
173
1
174
0
175
1
176
1
 91
1
178
0
145
0.0
170
1
171
1
172
0
173
1
174
0
175
1
176
1
 91
1
178
0
145
0.0
170
1
171
1
172
0
173
1
174
0
175
1
176
1
 91
1
178
0
145
0.0
170
1
171
1
172
0
173
1
174
0
175
1
176
1
 91
1
178
0
145
0.0
170
1
171
1
172
0
173
0
174
0
175
1
176
1
 91
41
178
0
145
0.0
301
CELL_VALUE
 90
4
  1
 
304
ACVALUE_END
170
5
140
3.0
 64
5
171
1
172
0
173
0
174
0
175
1
176
1
 91
41
178
0
145
0.0
301
CELL_VALUE
 90
4
  1
 
304
ACVALUE_END
170
4
140
3.0
 64
5
171
1
172
0
173
0
174
0
175
1
176
1
 91
33
178
0
145
0.0
301
CELL_VALUE
 90
4
  1
 
304
ACVALUE_END
170
1
140
3.0
171
1
172
0
173
0
174
0
175
1
176
1
 91
57
178
0
145
0.0
  7
TEXTSTYLE_4
301
CELL_VALUE
 90
4
  1
Descrizione
304
ACVALUE_END
170
1
140
1.2
 64
5
171
1
172
0
173
0
174
0
175
1
176
1
 91
33
178
0
145
0.0
301
CELL_VALUE
 90
4
  1
 
304
ACVALUE_END
170
1
140
3.0
171
1
172
0
173
0
174
0
175
1
176
1
 91
33
178
0
145
0.0
301
CELL_VALUE
 90
4
  1
 
304
ACVALUE_END
170
1
140
3.0
171
1
172
0
173
0
174
0
175
1
176
1
 91
33
178
0
145
0.0
301
CELL_VALUE
 90
4
  1
 
304
ACVALUE_END
170
1
140
3.0
171
1
172
0
173
0
174
0
175
1
176
1
 91
33
178
0
145
0.0
301
CELL_VALUE
 90
4
  1
 
304
ACVALUE_END
170
1
140
3.0
171
1
172
0
173
1
174
0
175
1
176
1
 91
1
178
0
145
0.0
170
1
171
1
172
0
173
1
174
0
175
1
176
1
 91
1
178
0
145
0.0
170
1
171
1
172
0
173
1
174
0
175
1
176
1
 91
1
178
0
145
0.0
170
1
171
1
172
0
173
1
174
0
175
1
176
1
 91
1
178
0
145
0.0
170
1
171
1
172
0
173
1
174
0
175
1
176
1
 91
1
178
0
145
0.0
170
1
171
1
172
0
173
0
174
0
175
2
176
2
 91
33
178
0
145
0.0
301
CELL_VALUE
 90
4
  1
 
304
ACVALUE_END
170
5
140
3.0
171
1
172
0
173
1
174
0
175
1
176
1
 91
1
178
0
145
0.0
170
5
171
1
172
0
173
0
174
0
175
1
176
1
 91
41
178
0
145
0.0
301
CELL_VALUE
 90
4
  1
 
304
ACVALUE_END
170
5
140
3.0
 64
5
171
1
172
0
173
0
174
0
175
1
176
1
 91
41
178
0
145
0.0
301
CELL_VALUE
 90
4
  1
 
304
ACVALUE_END
170
4
140
3.0
 64
5
171
1
172
0
173
0
174
0
175
1
176
1
 91
33
178
0
145
0.0
301
CELL_VALUE
 90
4
  1
 
304
ACVALUE_END
170
1
140
3.0
171
1
172
0
173
0
174
0
175
5
176
1
 91
49
178
0
145
0.0
  7
TEXTSTYLE_4
301
CELL_VALUE
 90
4
  1
Macchina o codice prenotante  
304
ACVALUE_END
170
4
140
1.3
171
1
172
0
173
1
174
0
175
1
176
1
 91
1
178
0
145
0.0
170
1
171
1
172
0
173
1
174
0
175
1
176
1
 91
1
178
0
145
0.0
170
1
171
1
172
0
173
1
174
0
175
1
176
1
 91
1
178
0
145
0.0
170
1
171
1
172
0
173
1
174
0
175
1
176
1
 91
1
178
0
145
0.0
170
4
171
1
172
0
173
0
174
0
175
2
176
2
 91
49
178
0
145
0.0
  7
TEXTSTYLE_4
301
CELL_VALUE
 90
4
  1
Firma\Pcalvo
304
ACVALUE_END
170
1
140
1.3
171
1
172
0
173
1
174
0
175
1
176
1
 91
1
178
0
145
0.0
170
1
171
1
172
0
173
0
174
0
175
1
176
2
 91
57
178
0
145
0.0
  7
TEXTSTYLE_4
301
CELL_VALUE
 90
4
  1
Data\PMar-03-16
304
ACVALUE_END
170
1
140
1.3
 64
5
171
1
172
0
173
1
174
0
175
1
176
1
 91
1
178
0
145
0.0
170
1
171
1
172
0
173
1
174
0
175
1
176
1
 91
1
178
0
145
0.0
170
1
171
1
172
0
173
1
174
0
175
1
176
1
 91
1
178
0
145
0.0
170
1
171
1
172
0
173
1
174
0
175
1
176
1
 91
1
178
0
145
0.0
170
1
171
1
172
0
173
0
174
0
175
1
176
1
 91
41
178
0
145
0.0
301
CELL_VALUE
 90
4
  1
 
304
ACVALUE_END
170
5
140
3.0
 64
5
171
1
172
0
173
0
174
0
175
1
176
1
 91
41
178
0
145
0.0
301
CELL_VALUE
 90
4
  1
 
304
ACVALUE_END
170
4
140
3.0
 64
5
171
1
172
0
173
0
174
0
175
1
176
1
 91
33
178
0
145
0.0
301
CELL_VALUE
 90
4
  1
 
304
ACVALUE_END
170
1
140
3.0
171
1
172
0
173
0
174
0
175
5
176
1
 91
49
178
0
145
0.0
  7
TEXTSTYLE_4
301
CELL_VALUE
 90
4
  1
Toleranze generali per quote senza valori:\fgdt;{\fgdt;n}\ftxt;=H11-h11 - lineari\fgdt;{\fgdt;`}\ftxt;0.2
304
ACVALUE_END
170
1
140
1.3
171
1
172
0
173
1
174
0
175
1
176
1
 91
1
178
0
145
0.0
170
1
171
1
172
0
173
1
174
0
175
1
176
1
 91
1
178
0
145
0.0
170
1
171
1
172
0
173
1
174
0
175
1
176
1
 91
1
178
0
145
0.0
170
1
171
1
172
0
173
1
174
0
175
1
176
1
 91
1
178
0
145
0.0
170
1
171
1
172
0
173
1
174
0
175
1
176
1
 91
1
178
0
145
0.0
170
1
171
1
172
0
173
1
174
0
175
1
176
1
 91
1
178
0
145
0.0
170
1
171
1
172
0
173
1
174
0
175
1
176
1
 91
1
178
0
145
0.0
170
1
171
1
172
0
173
0
174
0
175
4
176
1
 91
49
178
0
145
0.0
  7
TEXTSTYLE_4
301
CELL_VALUE
 90
4
  1
Rugosita' \fgdt;{\fgdt;a}\ftxt;0.8=rettifica
304
ACVALUE_END
170
1
140
1.3
171
1
172
0
173
1
174
0
175
1
176
1
 91
1
178
0
145
0.0
170
1
171
1
172
0
173
1
174
0
175
1
176
1
 91
1
178
0
145
0.0
170
1
171
1
172
0
173
1
174
0
175
1
176
1
 91
1
178
0
145
0.0
170
1
  0
LINE
  5
283
100
AcDbEntity
  8
0
100
AcDbLine
 62
7
  6
CONTINUOUS
 10
0.0
 20
0.0
 11
210.0
 21
0.0
  0
LINE
  5
284
100
AcDbEntity
  8
0
100
AcDbLine
 62
7
  6
CONTINUOUS
 10
0.0
 20
0.0
 11
0.0
 21
297.0
  0
LINE
  5
285
100
AcDbEntity
  8
0
100
AcDbLine
 62
7
  6
CONTINUOUS
 10
210.0
 20
0.0
 11
210.0
 21
297.0
  0
LINE
  5
286
100
AcDbEntity
  8
0
100
AcDbLine
 62
7
  6
CONTINUOUS
 10
0.0
 20
297.0
 11
210.0
 21
297.0
  0
LINE
  5
287
100
AcDbEntity
  8
0
100
AcDbLine
 62
7
  6
CONTINUOUS
 10
88.1345995082
 20
90.0400291371
 11
118.0478481623
 21
90.0400291371
  0
LINE
  5
288
100
AcDbEntity
  8
0
100
AcDbLine
 62
7
  6
CONTINUOUS
 10
87.7015868063
 20
90.2900291371
 11
118.4808608641
 21
90.2900291371
  0
LINE
  5
289
100
AcDbEntity
  8
0
100
AcDbLine
 62
7
  6
CONTINUOUS
 10
119.4912238352
 20
92.0400291371
 11
86.6912238352
 21
92.0400291371
  0
LINE
  5
28A
100
AcDbEntity
  8
3_ALL_AXES
100
AcDbLine
 62
7
  6
CONTINUOUS
 10
119.4912238352
 20
100.0400291371
 11
86.6912238352
 21
100.0400291371
  0
LINE
  5
28B
100
AcDbEntity
  8
3_ALL_AXES
100
AcDbLine
 62
7
  6
CONTINUOUS
 10
119.7412238352
 20
100.2900291371
 11
86.4412238352
 21
100.2900291371
  0
LINE
  5
28C
100
AcDbEntity
  8
3_ALL_AXES
100
AcDbLine
 62
7
  6
CONTINUOUS
 10
119.7412238352
 20
111.7900291371
 11
86.4412238352
 21
111.7900291371
  0
LINE
  5
28D
100
AcDbEntity
  8
3_ALL_AXES
100
AcDbLine
 62
7
  6
CONTINUOUS
 10
86.4412238352
 20
100.2900291371
 11
86.6912238352
 21
100.0400291371
  0
LINE
  5
28E
100
AcDbEntity
  8
3_ALL_AXES
100
AcDbLine
 62
7
  6
CONTINUOUS
 10
119.4912238352
 20
112.0400291371
 11
86.6912238352
 21
112.0400291371
  0
LINE
  5
28F
100
AcDbEntity
  8
0
100
AcDbLine
 62
7
  6
CONTINUOUS
 10
119.4912238352
 20
121.2400291371
 11
86.6912238352
 21
121.2400291371
  0
LINE
  5
290
100
AcDbEntity
  8
0
100
AcDbLine
 62
7
  6
CONTINUOUS
 10
118.9912238352
 20
121.7400291371
 11
87.1912238352
 21
121.7400291371
  0
LINE
  5
291
100
AcDbEntity
  8
0
100
AcDbLine
 62
7
  6
CONTINUOUS
 10
68.1662238352
 20
131.0400291371
 11
69.1662238352
 21
130.0400291371
  0
LINE
  5
292
100
AcDbEntity
  8
GIANNI_ASSI
100
AcDbLine
 62
7
  6
CONTINUOUS
 10
54.3412238352
 20
146.7900291371
 11
55.1412238352
 21
145.9900291371
  0
LINE
  5
293
100
AcDbEntity
  8
0
100
AcDbLine
 62
7
  6
CONTINUOUS
 10
86.6912238352
 20
92.0400291371
 11
87.7015868063
 21
90.2900291371
  0
LINE
  5
294
100
AcDbEntity
  8
GIANNI_ASSI
100
AcDbLine
 62
7
  6
CONTINUOUS
 10
54.3412238352
 20
161.0400291371
 11
54.3412238352
 21
157.1876244013
  0
LINE
  5
295
100
AcDbEntity
  8
GIANNI_ASSI
100
AcDbLine
 62
7
  6
CONTINUOUS
 10
54.3412238352
 20
150.6924338729
 11
54.3412238352
 21
146.7900291371
  0
LINE
  5
296
100
AcDbEntity
  8
0
100
AcDbLine
 62
7
  6
CONTINUOUS
 10
117.3412237982
 20
128.0400291371
 11
88.8412238722
 21
128.0400291371
  0
LINE
  5
297
100
AcDbEntity
  8
0
100
AcDbLine
 62
7
  6
CONTINUOUS
 10
137.0162238352
 20
130.0400291371
 11
69.1662238352
 21
130.0400291371
  0
LINE
  5
298
100
AcDbEntity
  8
0
100
AcDbLine
 62
7
  6
CONTINUOUS
 10
138.0162238352
 20
131.0400291371
 11
68.1662238352
 21
131.0400291371
  0
LINE
  5
299
100
AcDbEntity
  8
GIANNI_ASSI
100
AcDbLine
 62
7
  6
CONTINUOUS
 10
57.5912238352
 20
152.0650291371
 11
57.5912238352
 21
155.8150291371
  0
LINE
  5
29A
100
AcDbEntity
  8
GIANNI_ASSI
100
AcDbLine
 62
7
  6
CONTINUOUS
 10
56.718628571
 20
155.8150291371
 11
54.3412238352
 21
157.1876244013
  0
LINE
  5
29B
100
AcDbEntity
  8
GIANNI_ASSI
100
AcDbLine
 62
7
  6
CONTINUOUS
 10
73.8912238352
 20
145.9900291371
 11
73.0912238352
 21
146.7900291371
  0
LINE
  5
29C
100
AcDbEntity
  8
GIANNI_ASSI
100
AcDbLine
 62
7
  6
CONTINUOUS
 10
64.1750039945
 20
161.0400291371
 11
64.1750039945
 21
157.1876244013
  0
LINE
  5
29D
100
AcDbEntity
  8
GIANNI_ASSI
100
AcDbLine
 62
7
  6
CONTINUOUS
 10
64.1750039945
 20
150.6924338729
 11
64.1750039945
 21
146.7900291371
  0
LINE
  5
29E
100
AcDbEntity
  8
GIANNI_ASSI
100
AcDbLine
 62
7
  6
CONTINUOUS
 10
65.4568316844
 20
161.0400291371
 11
65.4568316844
 21
156.8287699035
  0
LINE
  5
29F
100
AcDbEntity
  8
GIANNI_ASSI
100
AcDbLine
 62
7
  6
CONTINUOUS
 10
65.4568316844
 20
151.0512883707
 11
65.4568316844
 21
146.7900291371
  0
LINE
  5
2A0
100
AcDbEntity
  8
GIANNI_ASSI
100
AcDbLine
 62
7
  6
CONTINUOUS
 10
68.1662238352
 20
145.9900291371
 11
68.1662238352
 21
131.0400291371
  0
LINE
  5
2A1
100
AcDbEntity
  8
GIANNI_ASSI
100
AcDbLine
 62
7
  6
CONTINUOUS
 10
68.4412238352
 20
164.563715165
 11
68.4412238352
 21
162.6400291371
  0
LINE
  5
2A2
100
AcDbEntity
  8
GIANNI_ASSI
100
AcDbLine
 62
7
  6
CONTINUOUS
 10
68.882306869
 20
152.0650291371
 11
68.882306869
 21
155.8150291371
  0
LINE
  5
2A3
100
AcDbEntity
  8
3_ALL_AXES
100
AcDbLine
 62
7
  6
CONTINUOUS
 10
119.4912238352
 20
112.0400291371
 11
119.7412238352
 21
111.7900291371
  0
LINE
  5
2A4
100
AcDbEntity
  8
GIANNI_ASSI
100
AcDbLine
 62
7
  6
CONTINUOUS
 10
68.1662238352
 20
165.0400291371
 11
68.4412238352
 21
164.563715165
  0
LINE
  5
2A5
100
AcDbEntity
  8
GIANNI_ASSI
100
AcDbLine
 62
7
  6
CONTINUOUS
 10
72.2912238352
 20
145.9900291371
 11
72.2912238352
 21
161.8400291371
  0
LINE
  5
2A6
100
AcDbEntity
  8
GIANNI_ASSI
100
AcDbLine
 62
7
  6
CONTINUOUS
 10
73.0912238352
 20
146.7900291371
 11
73.0912238352
 21
161.0400291371
  0
LINE
  5
2A7
100
AcDbEntity
  8
GIANNI_ASSI
100
AcDbLine
 62
7
  6
CONTINUOUS
 10
73.7298489813
 20
161.0400291371
 11
73.7298489813
 21
157.1876244013
  0
LINE
  5
2A8
100
AcDbEntity
  8
GIANNI_ASSI
100
AcDbLine
 62
7
  6
CONTINUOUS
 10
73.7298489813
 20
150.6924338729
 11
73.7298489813
 21
146.7900291371
  0
LINE
  5
2A9
100
AcDbEntity
  8
GIANNI_ASSI
100
AcDbLine
 62
7
  6
CONTINUOUS
 10
82.7330545022
 20
264.9286379158
 11
68.1662238352
 21
165.0400291371
  0
LINE
  5
2AA
100
AcDbEntity
  8
GIANNI_ASSI
100
AcDbLine
 62
7
  6
CONTINUOUS
 10
55.1412719894
 20
145.9900291371
 11
151.0395038225
 21
145.9900291371
  0
LINE
  5
2AB
100
AcDbEntity
  8
GIANNI_ASSI
100
AcDbLine
 62
7
  6
CONTINUOUS
 10
151.8412238352
 20
146.7900291371
 11
116.9002662783
 21
146.7900291371
  0
LINE
  5
2AC
100
AcDbEntity
  8
GIANNI_ASSI
100
AcDbLine
 62
7
  6
CONTINUOUS
 10
89.2821813922
 20
146.7900291371
 11
73.7298489813
 21
146.7900291371
  0
LINE
  5
2AD
100
AcDbEntity
  8
GIANNI_ASSI
100
AcDbLine
 62
7
  6
CONTINUOUS
 10
64.1750039945
 20
146.7900291371
 11
54.3412238352
 21
146.7900291371
  0
LINE
  5
2AE
100
AcDbEntity
  8
GIANNI_ASSI
100
AcDbLine
 62
7
  6
CONTINUOUS
 10
65.4568316844
 20
146.7900291371
 11
73.0912238352
 21
146.7900291371
  0
LINE
  5
2AF
100
AcDbEntity
  8
GIANNI_ASSI
100
AcDbLine
 62
7
  6
CONTINUOUS
 10
151.8412238348
 20
150.6924338729
 11
116.9002662783
 21
150.6924338729
  0
LINE
  5
2B0
100
AcDbEntity
  8
GIANNI_ASSI
100
AcDbLine
 62
7
  6
CONTINUOUS
 10
89.2821813922
 20
150.6924338729
 11
73.7298489813
 21
150.6924338729
  0
LINE
  5
2B1
100
AcDbEntity
  8
GIANNI_ASSI
100
AcDbLine
 62
7
  6
CONTINUOUS
 10
64.1750039945
 20
150.6924338729
 11
54.3412238352
 21
150.6924338729
  0
LINE
  5
2B2
100
AcDbEntity
  8
GIANNI_ASSI
100
AcDbLine
 62
7
  6
CONTINUOUS
 10
56.718832317
 20
152.0650291371
 11
68.882306869
 21
152.0650291371
  0
LINE
  5
2B3
100
AcDbEntity
  8
GIANNI_ASSI
100
AcDbLine
 62
7
  6
CONTINUOUS
 10
73.0912238352
 20
152.0650291371
 11
90.2412238352
 21
152.0650291371
  0
LINE
  5
2B4
100
AcDbEntity
  8
GIANNI_ASSI
100
AcDbLine
 62
7
  6
CONTINUOUS
 10
115.9412238352
 20
152.0650291371
 11
149.4638191015
 21
152.0650291371
  0
LINE
  5
2B5
100
AcDbEntity
  8
GIANNI_ASSI
100
AcDbLine
 62
7
  6
CONTINUOUS
 10
64.8202313268
 20
161.3571926682
 11
65.4568316844
 21
161.0400291371
  0
LINE
  5
2B6
100
AcDbEntity
  8
0
100
AcDbLine
 62
7
  6
CONTINUOUS
 10
118.9912238352
 20
121.7400291371
 11
119.4912238352
 21
121.2400291371
  0
LINE
  5
2B7
100
AcDbEntity
  8
GIANNI_ASSI
100
AcDbLine
 62
7
  6
CONTINUOUS
 10
55.1412238352
 20
161.8400291371
 11
54.3412238352
 21
161.0400291371
  0
LINE
  5
2B8
100
AcDbEntity
  8
GIANNI_ASSI
100
AcDbLine
 62
7
  6
CONTINUOUS
 10
149.4638191015
 20
155.8150291371
 11
115.9412238352
 21
155.8150291371
  0
LINE
  5
2B9
100
AcDbEntity
  8
GIANNI_ASSI
100
AcDbLine
 62
7
  6
CONTINUOUS
 10
90.2412238352
 20
155.8150291371
 11
73.0912238352
 21
155.8150291371
  0
LINE
  5
2BA
100
AcDbEntity
  8
GIANNI_ASSI
100
AcDbLine
 62
7
  6
CONTINUOUS
 10
56.718832317
 20
155.8150291371
 11
68.882306869
 21
155.8150291371
  0
LINE
  5
2BB
100
AcDbEntity
  8
GIANNI_ASSI
100
AcDbLine
 62
7
  6
CONTINUOUS
 10
54.3412238352
 20
157.1876244013
 11
64.1750039945
 21
157.1876244013
  0
LINE
  5
2BC
100
AcDbEntity
  8
GIANNI_ASSI
100
AcDbLine
 62
7
  6
CONTINUOUS
 10
73.7298489813
 20
157.1876244013
 11
89.2821813922
 21
157.1876244013
  0
LINE
  5
2BD
100
AcDbEntity
  8
GIANNI_ASSI
100
AcDbLine
 62
7
  6
CONTINUOUS
 10
116.9002662783
 20
157.1876244013
 11
151.8412238348
 21
157.1876244013
  0
LINE
  5
2BE
100
AcDbEntity
  8
GIANNI_ASSI
100
AcDbLine
 62
7
  6
CONTINUOUS
 10
89.6412238352
 20
161.8400291371
 11
91.2412238352
 21
160.2400291371
  0
LINE
  5
2BF
100
AcDbEntity
  8
3_ALL_AXES
100
AcDbLine
 62
7
  6
CONTINUOUS
 10
86.4412238352
 20
111.7900291371
 11
86.4412238352
 21
100.2900291371
  0
LINE
  5
2C0
100
AcDbEntity
  8
3_ALL_AXES
100
AcDbLine
 62
7
  6
CONTINUOUS
 10
86.6912238352
 20
121.2400291371
 11
86.6912238352
 21
112.0400291371
  0
LINE
  5
2C1
100
AcDbEntity
  8
3_ALL_AXES
100
AcDbLine
 62
7
  6
CONTINUOUS
 10
86.6912238352
 20
100.0400291371
 11
86.6912238352
 21
92.0400291371
  0
LINE
  5
2C2
100
AcDbEntity
  8
GIANNI_ASSI
100
AcDbLine
 62
7
  6
CONTINUOUS
 10
88.8412238352
 20
128.0400291371
 11
88.8412238352
 21
121.7400291371
  0
LINE
  5
2C3
100
AcDbEntity
  8
GIANNI_ASSI
100
AcDbLine
 62
7
  6
CONTINUOUS
 10
89.2821813922
 20
161.0400291371
 11
89.2821813922
 21
157.1876244013
  0
LINE
  5
2C4
100
AcDbEntity
  8
GIANNI_ASSI
100
AcDbLine
 62
7
  6
CONTINUOUS
 10
89.2821813922
 20
150.6924338729
 11
89.2821813922
 21
146.7900291371
  0
LINE
  5
2C5
100
AcDbEntity
  8
GIANNI_ASSI
100
AcDbLine
 62
7
  6
CONTINUOUS
 10
90.2412238352
 20
146.5900291371
 11
90.2412238352
 21
161.2400291371
  0
LINE
  5
2C6
100
AcDbEntity
  8
GIANNI_ASSI
100
AcDbLine
 62
7
  6
CONTINUOUS
 10
54.3412238352
 20
161.0400291371
 11
64.1750039945
 21
161.0400291371
  0
LINE
  5
2C7
100
AcDbEntity
  8
GIANNI_ASSI
100
AcDbLine
 62
7
  6
CONTINUOUS
 10
65.4568316844
 20
161.0400291371
 11
73.0912238352
 21
161.0400291371
  0
LINE
  5
2C8
100
AcDbEntity
  8
GIANNI_ASSI
100
AcDbLine
 62
7
  6
CONTINUOUS
 10
73.7298489813
 20
161.0400291371
 11
89.2821813922
 21
161.0400291371
  0
LINE
  5
2C9
100
AcDbEntity
  8
GIANNI_ASSI
100
AcDbLine
 62
7
  6
CONTINUOUS
 10
116.9002662783
 20
161.0400291371
 11
151.8412238352
 21
161.0400291371
  0
LINE
  5
2CA
100
AcDbEntity
  8
GIANNI_ASSI
100
AcDbLine
 62
7
  6
CONTINUOUS
 10
55.1412719894
 20
161.8400291371
 11
151.0395038225
 21
161.8400291371
  0
LINE
  5
2CB
100
AcDbEntity
  8
GIANNI_ASSI
100
AcDbLine
 62
7
  6
CONTINUOUS
 10
137.7412238352
 20
162.6400291371
 11
68.4412238352
 21
162.6400291371
  0
LINE
  5
2CC
100
AcDbEntity
  8
GIANNI_ASSI
100
AcDbLine
 62
7
  6
CONTINUOUS
 10
137.7412238352
 20
164.563715165
 11
68.4412238352
 21
164.563715165
  0
LINE
  5
2CD
100
AcDbEntity
  8
GIANNI_ASSI
100
AcDbLine
 62
7
  6
CONTINUOUS
 10
138.0162238352
 20
165.0400291371
 11
68.1662238352
 21
165.0400291371
  0
LINE
  5
2CE
100
AcDbEntity
  8
GIANNI_ASSI
100
AcDbLine
 62
7
  6
CONTINUOUS
 10
114.9412238352
 20
147.5900291371
 11
116.5412238352
 21
145.9900291371
  0
LINE
  5
2CF
100
AcDbEntity
  8
GIANNI_ASSI
100
AcDbLine
 62
7
  6
CONTINUOUS
 10
91.2412238352
 20
147.5900291371
 11
91.2412238352
 21
160.2400291371
  0
LINE
  5
2D0
100
AcDbEntity
  8
GIANNI_ASSI
100
AcDbLine
 62
8
  6
HIDDEN
 10
93.5912238352
 20
90.8400291371
 11
93.5912238352
 21
110.5400291371
  0
LINE
  5
2D1
100
AcDbEntity
  8
GIANNI_ASSI
100
AcDbLine
 62
7
  6
CONTINUOUS
 10
73.8912238352
 20
161.8400291371
 11
73.0912238352
 21
161.0400291371
  0
LINE
  5
2D2
100
AcDbEntity
  8
3_ALL_AXES
100
AcDbLine
 62
7
  6
CENTER
 10
103.0912238352
 20
84.0400291371
 11
103.0912238352
 21
273.2696629213
  0
LINE
  5
2D3
100
AcDbEntity
  8
GIANNI_ASSI
100
AcDbLine
 62
7
  6
CONTINUOUS
 10
54.3412238352
 20
150.6924338729
 11
56.718628571
 21
152.0650291371
  0
LINE
  5
2D4
100
AcDbEntity
  8
GIANNI_ASSI
100
AcDbLine
 62
7
  6
CONTINUOUS
 10
151.8412238352
 20
150.6924338729
 11
149.4638190994
 21
152.0650291371
  0
LINE
  5
2D5
100
AcDbEntity
  8
GIANNI_ASSI
100
AcDbLine
 62
8
  6
HIDDEN
 10
112.5912238352
 20
90.8400291371
 11
112.5912238352
 21
110.5400291371
  0
LINE
  5
2D6
100
AcDbEntity
  8
GIANNI_ASSI
100
AcDbLine
 62
7
  6
CONTINUOUS
 10
114.9412238352
 20
160.2400291371
 11
114.9412238352
 21
147.5900291371
  0
LINE
  5
2D7
100
AcDbEntity
  8
GIANNI_ASSI
100
AcDbLine
 62
7
  6
CONTINUOUS
 10
115.9412238352
 20
146.5900291371
 11
115.9412238352
 21
161.2400291371
  0
LINE
  5
2D8
100
AcDbEntity
  8
GIANNI_ASSI
100
AcDbLine
 62
7
  6
CONTINUOUS
 10
116.9002662783
 20
161.0400291371
 11
116.9002662783
 21
157.1876244013
  0
LINE
  5
2D9
100
AcDbEntity
  8
GIANNI_ASSI
100
AcDbLine
 62
7
  6
CONTINUOUS
 10
116.9002662783
 20
150.6924338729
 11
116.9002662783
 21
146.7900291371
  0
LINE
  5
2DA
100
AcDbEntity
  8
GIANNI_ASSI
100
AcDbLine
 62
7
  6
CONTINUOUS
 10
117.3412238352
 20
128.0400291371
 11
117.3412238352
 21
121.7400291371
  0
LINE
  5
2DB
100
AcDbEntity
  8
GIANNI_ASSI
100
AcDbLine
 62
7
  6
CONTINUOUS
 10
89.6412238352
 20
145.9900291371
 11
91.2412238352
 21
147.5900291371
  0
LINE
  5
2DC
100
AcDbEntity
  8
GIANNI_ASSI
100
AcDbLine
 62
7
  6
CONTINUOUS
 10
64.8202313268
 20
146.4728656059
 11
65.4568316844
 21
146.7900291371
  0
LINE
  5
2DD
100
AcDbEntity
  8
3_ALL_AXES
100
AcDbLine
 62
7
  6
CONTINUOUS
 10
119.4912238352
 20
121.2400291371
 11
119.4912238352
 21
112.0400291371
  0
LINE
  5
2DE
100
AcDbEntity
  8
3_ALL_AXES
100
AcDbLine
 62
7
  6
CONTINUOUS
 10
119.4912238352
 20
100.0400291371
 11
119.4912238352
 21
92.0400291371
  0
LINE
  5
2DF
100
AcDbEntity
  8
3_ALL_AXES
100
AcDbLine
 62
7
  6
CONTINUOUS
 10
119.7412238352
 20
111.7900291371
 11
119.7412238352
 21
100.2900291371
  0
LINE
  5
2E0
100
AcDbEntity
  8
GIANNI_ASSI
100
AcDbLine
 62
7
  6
CONTINUOUS
 10
114.9412238352
 20
160.2400291371
 11
116.5412238352
 21
161.8400291371
  0
LINE
  5
2E1
100
AcDbEntity
  8
GIANNI_ASSI
100
AcDbLine
 62
7
  6
CONTINUOUS
 10
151.0412238352
 20
161.8400291371
 11
151.8412238352
 21
161.0400291371
  0
LINE
  5
2E2
100
AcDbEntity
  8
0
100
AcDbLine
 62
7
  6
CONTINUOUS
 10
87.1912238352
 20
121.7400291371
 11
86.6912238352
 21
121.2400291371
  0
LINE
  5
2E3
100
AcDbEntity
  8
GIANNI_ASSI
100
AcDbLine
 62
7
  6
CONTINUOUS
 10
123.4493931682
 20
264.9286379158
 11
138.0162238352
 21
165.0400291371
  0
LINE
  5
2E4
100
AcDbEntity
  8
GIANNI_ASSI
100
AcDbLine
 62
7
  6
CONTINUOUS
 10
137.7412238352
 20
164.563715165
 11
137.7412238352
 21
162.6400291371
  0
LINE
  5
2E5
100
AcDbEntity
  8
GIANNI_ASSI
100
AcDbLine
 62
7
  6
CONTINUOUS
 10
138.0162238352
 20
145.9900291371
 11
138.0162238352
 21
131.0400291371
  0
LINE
  5
2E6
100
AcDbEntity
  8
GIANNI_ASSI
100
AcDbLine
 62
7
  6
CONTINUOUS
 10
138.0162238352
 20
165.0400291371
 11
137.7412238352
 21
164.563715165
  0
LINE
  5
2E7
100
AcDbEntity
  8
3_ALL_AXES
100
AcDbLine
 62
7
  6
CONTINUOUS
 10
86.6912238352
 20
112.0400291371
 11
86.4412238352
 21
111.7900291371
  0
LINE
  5
2E8
100
AcDbEntity
  8
GIANNI_ASSI
100
AcDbLine
 62
7
  6
CONTINUOUS
 10
148.5912238352
 20
152.0650291371
 11
148.5912238352
 21
155.8150291371
  0
LINE
  5
2E9
100
AcDbEntity
  8
GIANNI_ASSI
100
AcDbLine
 62
7
  6
CONTINUOUS
 10
149.4638190994
 20
155.8150291371
 11
151.8412238352
 21
157.1876244013
  0
LINE
  5
2EA
100
AcDbEntity
  8
GIANNI_ASSI
100
AcDbLine
 62
7
  6
CONTINUOUS
 10
151.8412238352
 20
161.0400291371
 11
151.8412238352
 21
157.1876244013
  0
LINE
  5
2EB
100
AcDbEntity
  8
GIANNI_ASSI
100
AcDbLine
 62
7
  6
CONTINUOUS
 10
151.8412238352
 20
150.6924338729
 11
151.8412238352
 21
146.7900291371
  0
LINE
  5
2EC
100
AcDbEntity
  8
0
100
AcDbLine
 62
7
  6
CONTINUOUS
 10
119.4912238352
 20
92.0400291371
 11
118.4808608641
 21
90.2900291371
  0
LINE
  5
2ED
100
AcDbEntity
  8
GIANNI_ASSI
100
AcDbLine
 62
7
  6
CONTINUOUS
 10
151.8412238352
 20
146.7900291371
 11
151.0412238352
 21
145.9900291371
  0
LINE
  5
2EE
100
AcDbEntity
  8
0
100
AcDbLine
 62
7
  6
CONTINUOUS
 10
138.0162238352
 20
131.0400291371
 11
137.0162238352
 21
130.0400291371
  0
LINE
  5
2EF
100
AcDbEntity
  8
3_ALL_AXES
100
AcDbLine
 62
7
  6
CONTINUOUS
 10
119.7412238352
 20
100.2900291371
 11
119.4912238352
 21
100.0400291371
  0
LINE
  5
2F0
100
AcDbEntity
  8
GIANNI_ASSI
100
AcDbLine
 62
7
  6
CONTINUOUS
 10
82.7330545022
 20
264.9286379158
 11
123.4493931682
 21
264.9286379158
  0
LINE
  5
2F1
100
AcDbEntity
  8
GIANNI_ASSI
100
AcDbLine
 62
7
  6
CONTINUOUS
 10
121.4703264759
 20
266.6400291371
 11
84.7121211946
 21
266.6400291371
  0
ARC
  5
2F2
100
AcDbEntity
  8
GIANNI_ASSI
100
AcDbCircle
 62
7
  6
CONTINUOUS
 10
175.0312621922
 20
-91.5960077552
 40
266.2409925956
100
AcDbArc
 50
113.7673065139
 51
114.3029372086
  0
ARC
  5
2F3
100
AcDbEntity
  8
GIANNI_ASSI
100
AcDbCircle
 62
7
  6
CONTINUOUS
 10
175.0312621919
 20
399.4760660286
 40
266.2409925948
100
AcDbArc
 50
245.6970627914
 51
246.2326934861
  0
ARC
  5
2F4
100
AcDbEntity
  8
GIANNI_ASSI
100
AcDbCircle
 62
7
  6
CONTINUOUS
 10
-53.6963091787
 20
-9.5521064808
 40
241.2568512857
100
AcDbArc
 50
44.9992544183
 51
45.1938926475
  0
ARC
  5
2F5
100
AcDbEntity
  8
GIANNI_ASSI
100
AcDbCircle
 62
7
  6
CONTINUOUS
 10
259.8787568422
 20
-9.5521064738
 40
241.2568512759
100
AcDbArc
 50
134.8061073525
 51
135.0007455817
  0
ARC
  5
2F6
100
AcDbEntity
  8
GIANNI_ASSI
100
AcDbCircle
 62
7
  6
CONTINUOUS
 10
-53.6963091717
 20
317.382164748
 40
241.2568512759
100
AcDbArc
 50
314.8061073525
 51
315.0007455817
  0
ARC
  5
2F7
100
AcDbEntity
  8
GIANNI_ASSI
100
AcDbCircle
 62
7
  6
CONTINUOUS
 10
259.8787568353
 20
317.382164741
 40
241.2568512661
100
AcDbArc
 50
224.9992544183
 51
225.1938926475
  0
ARC
  5
2F8
100
AcDbEntity
  8
GIANNI_ASSI
100
AcDbCircle
 62
7
  6
CONTINUOUS
 10
4.403079556
 20
-44.1460163186
 40
224.9836409463
100
AcDbArc
 50
59.9984219697
 51
60.2800472966
  0
ARC
  5
2F9
100
AcDbEntity
  8
GIANNI_ASSI
100
AcDbCircle
 62
7
  6
CONTINUOUS
 10
4.4030795574
 20
352.0260745903
 40
224.9836409435
100
AcDbArc
 50
299.7199527034
 51
300.0015780303
  0
ARC
  5
2FA
100
AcDbEntity
  8
GIANNI_ASSI
100
AcDbCircle
 62
7
  6
CONTINUOUS
 10
201.7793650037
 20
352.0260685498
 40
224.9836341576
100
AcDbArc
 50
239.9984218862
 51
240.2800472219
  0
ARC
  5
2FB
100
AcDbEntity
  8
GIANNI_ASSI
100
AcDbCircle
 62
7
  6
CONTINUOUS
 10
201.7793650037
 20
-44.1460102757
 40
224.9836341576
100
AcDbArc
 50
119.7199527781
 51
120.0015781138
  0
ARC
  5
2FC
100
AcDbEntity
  8
GIANNI_ASSI
100
AcDbCircle
 62
7
  6
CONTINUOUS
 10
89.8159030542
 20
246.3081042014
 40
92.7357300311
100
AcDbArc
 50
253.9489165978
 51
254.7713368905
  0
ARC
  5
2FD
100
AcDbEntity
  8
GIANNI_ASSI
100
AcDbCircle
 62
7
  6
CONTINUOUS
 10
89.8159030541
 20
61.5719540731
 40
92.7357300307
100
AcDbArc
 50
105.2286631095
 51
106.0510834022
  0
ARC
  5
2FE
100
AcDbEntity
  8
GIANNI_ASSI
100
AcDbCircle
 62
7
  6
CONTINUOUS
 10
93.9590822167
 20
101.263150759
 40
66.7859753554
100
AcDbArc
 50
115.8681675781
 51
116.484971818
  0
ARC
  5
2FF
100
AcDbEntity
  8
GIANNI_ASSI
100
AcDbCircle
 62
7
  6
CONTINUOUS
 10
93.9590822167
 20
206.5669075152
 40
66.7859753554
100
AcDbArc
 50
243.515028182
 51
244.1318324219
  0
ARC
  5
300
100
AcDbEntity
  8
GIANNI_ASSI
100
AcDbCircle
 62
7
  6
CONTINUOUS
 10
50.2411049353
 20
170.2755932891
 40
33.2158519445
100
AcDbArc
 50
314.2249073403
 51
315.003878599
  0
ARC
  5
301
100
AcDbEntity
  8
GIANNI_ASSI
100
AcDbCircle
 62
7
  6
CONTINUOUS
 10
50.241104935
 20
137.5544649848
 40
33.2158519449
100
AcDbArc
 50
44.996121401
 51
45.7750926597
  0
ARC
  5
302
100
AcDbEntity
  8
GIANNI_ASSI
100
AcDbCircle
 62
7
  6
CONTINUOUS
 10
58.2146561662
 20
123.8289436048
 40
31.0220617863
100
AcDbArc
 50
59.9911236442
 51
61.3441146901
  0
ARC
  5
303
100
AcDbEntity
  8
GIANNI_ASSI
100
AcDbCircle
 62
7
  6
CONTINUOUS
 10
58.2146561662
 20
184.0511146692
 40
31.0220617862
100
AcDbArc
 50
298.6558853099
 51
300.0088763558
  0
CIRCLE
  5
304
100
AcDbEntity
  8
GIANNI_ASSI
100
AcDbCircle
 62
7
  6
CONTINUOUS
 10
103.0912238352
 20
153.9400291371
 40
4.7625
  0
ARC
  5
305
100
AcDbEntity
  8
0
100
AcDbCircle
 62
7
  6
CONTINUOUS
 10
86.8412238352
 20
128.0400291371
 40
2.0
100
AcDbArc
 50
0.0
 51
89.999880019
  0
ARC
  5
306
100
AcDbEntity
  8
0
100
AcDbCircle
 62
7
  6
CONTINUOUS
 10
119.3412238352
 20
128.0400291371
 40
2.0
100
AcDbArc
 50
90.000119981
 51
180.0
  0
ARC
  5
307
100
AcDbEntity
  8
GIANNI_ASSI
100
AcDbCircle
 62
7
  6
CONTINUOUS
 10
121.4703264759
 20
264.6400291371
 40
2.0
100
AcDbArc
 50
8.297
 51
90.0
  0
ARC
  5
308
100
AcDbEntity
  8
GIANNI_ASSI
100
AcDbCircle
 62
7
  6
CONTINUOUS
 10
84.7121211946
 20
264.6400291371
 40
2.0
100
AcDbArc
 50
90.0
 51
171.703
  0
ARC
  5
309
100
AcDbEntity
  8
GIANNI_ASSI
100
AcDbCircle
 62
7
  6
CONTINUOUS
 10
138.5412238352
 20
162.6400291371
 40
0.8
100
AcDbArc
 50
180.0
 51
269.9999999959
  0
ARC
  5
30A
100
AcDbEntity
  8
GIANNI_ASSI
100
AcDbCircle
 62
7
  6
CONTINUOUS
 10
67.6412238352
 20
162.6400291371
 40
0.8
100
AcDbArc
 50
270.0000000052
 51
360.0
  0
ARC
  5
30B
100
AcDbEntity
  8
0
100
AcDbCircle
 62
7
  6
CONTINUOUS
 10
118.0478481623
 20
90.5400291371
 40
0.5
100
AcDbArc
 50
270.0
 51
329.9999999995
  0
ARC
  5
30C
100
AcDbEntity
  8
0
100
AcDbCircle
 62
7
  6
CONTINUOUS
 10
88.1345995082
 20
90.5400291371
 40
0.5
100
AcDbArc
 50
210.0000000004
 51
270.0
  0
SPLINE
  5
30D
100
AcDbEntity
  8
GIANNI_ASSI
100
AcDbSpline
 62
7
  6
CONTINUOUS
 70
0
 71
3
 72
9
 73
5
 74
0
 42
0.0000001
 43
0.0000001
 44
0.0000000001
 40
0.0
 40
0.0
 40
0.0
 40
0.0
 40
0.5006463063
 40
1.0
 40
1.0
 40
1.0
 40
1.0
 10
65.0600519419
 20
161.8400291371
 30
0.0
 10
65.0202822714
 20
161.7593259114
 30
0.0
 10
64.9373418676
 20
161.5998723079
 30
0.0
 10
64.859712644
 20
161.4377787587
 30
0.0
 10
64.8202313268
 20
161.3571926682
 30
0.0
  0
SPLINE
  5
30E
100
AcDbEntity
  8
GIANNI_ASSI
100
AcDbSpline
 62
7
  6
CONTINUOUS
 70
0
 71
3
 72
9
 73
5
 74
0
 42
0.0000001
 43
0.0000001
 44
0.0000000001
 40
0.0
 40
0.0
 40
0.0
 40
0.0
 40
0.5006463063
 40
1.0
 40
1.0
 40
1.0
 40
1.0
 10
65.0600519419
 20
145.9900291371
 30
0.0
 10
65.0202822714
 20
146.0707323627
 30
0.0
 10
64.9373418676
 20
146.2301859662
 30
0.0
 10
64.859712644
 20
146.3922795155
 30
0.0
 10
64.8202313268
 20
146.4728656059
 30
0.0
  0
ENDSEC
  0
SECTION
  2
OBJECTS
  0
DICTIONARY
  5
C
100
AcDbDictionary
280
0
281
1
  3
ACAD_GROUP
350
D
  3
ACAD_MLINESTYLE
350
17
  3
ACAD_LAYOUT
350
1A
  3
ACAD_PLOTSETTINGS
350
19
  3
ACAD_PLOTSTYLENAME
350
E
  3
ACAD_TABLESTYLE
350
       30F
  0
DICTIONARY
  5
D
102
{ACAD_REACTORS
330
C
102
}
100
AcDbDictionary
280
0
281
1
  0
ACDBDICTIONARYWDFLT
  5
E
102
{ACAD_REACTORS
330
C
102
}
100
AcDbDictionary
281
1
  3
Normal
350
F
100
AcDbDictionaryWithDefault
340
F
  0
DICTIONARY
  5
17
102
{ACAD_REACTORS
330
C
102
}
100
AcDbDictionary
280
0
281
1
  3
Standard
350
18
  0
DICTIONARY
  5
30F
330
C
100
AcDbDictionary
281
1
  3
Standard
350
       312
  3
Standard1
350
       313
  0
DICTIONARY
  5
19
102
{ACAD_REACTORS
330
C
102
}
100
AcDbDictionary
281
1
  0
DICTIONARY
  5
1A
102
{ACAD_REACTORS
330
C
102
}
100
AcDbDictionary
281
1
  3
Model
350
310
  3
Layout1
350
311
  0
ACDBPLACEHOLDER
  5
F
102
{ACAD_REACTORS
330
E
102
}
  0
MLINESTYLE
  5
18
102
{ACAD_REACTORS
330
17
102
}
100
AcDbMlineStyle
  2
STANDARD
 70
0
  3

 62
256
 51
90.0
 52
90.0
 71
2
 49
0.5
 62
256
  6
BYLAYER
 49
-0.5
 62
256
  6
BYLAYER
  0
LAYOUT
  5
310
102
{ACAD_REACTORS
330
1A
102
}
100
AcDbPlotSettings
  1

  2
none_device
  4

  6

 40
0.0
 41
0.0
 42
0.0
 43
0.0
 44
210.0
 45
297.0
 46
0.0
 47
0.0
 48
0.0
 49
0.0
140
0.0
141
0.0
142
1.0
143
1.0
 70
1024
 72
1
 73
0
 74
0
  7

 75
0
147
1.0
148
0.0
149
0.0
100
AcDbLayout
  1
Model
 70
0
 71
0
 10
0.0
 20
0.0
 11
210.0
 21
297.0
 12
0.0
 22
0.0
 32
0.0
 14
0.0
 24
0.0
 34
0.0
 15
0.0
 25
0.0
 35
0.0
146
0.0
 13
0.0
 23
0.0
 33
0.0
 16
1.0
 26
0.0
 36
0.0
 17
0.0
 27
1.0
 37
0.0
 76
0
330
219
345
0
346
0
  0
LAYOUT
  5
311
102
{ACAD_REACTORS
330
1A
102
}
100
AcDbPlotSettings
  1

  2
none_device
  4

  6

 40
0.0
 41
0.0
 42
0.0
 43
0.0
 44
210.0
 45
297.0
 46
0.0
 47
0.0
 48
0.0
 49
0.0
140
0.0
141
0.0
142
1.0
143
1.0
 70
0
 72
1
 73
0
 74
0
  7

 75
0
147
1.0
148
0.0
149
0.0
100
AcDbLayout
  1
Layout1
 70
0
 71
1
 10
0.0
 20
0.0
 11
210.0
 21
297.0
 12
0.0
 22
0.0
 32
0.0
 14
0.0
 24
0.0
 34
0.0
 15
0.0
 25
0.0
 35
0.0
146
0.0
 13
0.0
 23
0.0
 33
0.0
 16
1.0
 26
0.0
 36
0.0
 17
0.0
 27
1.0
 37
0.0
 76
0
330
21A
345
0
346
0
  0
TABLESTYLE
  5
312
102
{ACAD_REACTORS
330
30F
102
}
330
30F
100
AcDbTableStyle
  3
Standard
 70
0
 71
0
 40
0.06
 41
0.06
280
1
281
1
  7
Standard
140
0.18
170
1
 62
0
 63
7
283
0
  7
Standard
140
0.18
170
1
 62
0
 63
7
283
0
  7
Standard
140
0.18
170
1
 62
0
 63
7
283
0
  0
TABLESTYLE
  5
313
102
{ACAD_REACTORS
330
30F
330
282
102
}
330
30F
100
AcDbTableStyle
  3
Standard1
 70
1
 71
0
 40
0.06
 41
0.06
280
1
281
1
  7
Standard
140
0.18
170
1
 62
0
 63
7
283
0
  7
Standard
140
0.18
170
1
 62
0
 63
7
283
0
  7
Standard
140
0.18
170
1
 62
0
 63
7
283
0
  0
ENDSEC
  0
EOF
