  0
SECTION
  2
HEADER
  9
$ACADVER
  1
AC1009
  9
$INSBASE
 10
0.0
 20
0.0
 30
0.0
  9
$EXTMIN
 10
-0.0000000000000003
 20
-0.5
 30
0.0
  9
$EXTMAX
 10
349.80000000000001
 20
241.50000000000031
 30
0.0
  9
$LIMMIN
 10
0.0
 20
0.0
  9
$LIMMAX
 10
500.0
 20
500.0
  9
$ORTHOMODE
 70
     1
  9
$REGENMODE
 70
     1
  9
$FILLMODE
 70
     1
  9
$QTEXTMODE
 70
     0
  9
$MIRRTEXT
 70
     1
  9
$DRAGMODE
 70
     2
  9
$LTSCALE
 40
7.0
  9
$OSMODE
 70
   951
  9
$ATTMODE
 70
     1
  9
$TEXTSIZE
 40
3.0
  9
$TRACEWID
 40
1.0
  9
$TEXTSTYLE
  7
STANDARD
  9
$CLAYER
  8
0
  9
$CELTYPE
  6
CONTINUOUS
  9
$CECOLOR
 62
   256
  9
$DIMSCALE
 40
1.0
  9
$DIMASZ
 40
2.5
  9
$DIMEXO
 40
0.6
  9
$DIMDLI
 40
1.0
  9
$DIMRND
 40
0.0
  9
$DIMDLE
 40
0.0
  9
$DIMEXE
 40
1.0
  9
$DIMTP
 40
0.1
  9
$DIMTM
 40
0.1
  9
$DIMTXT
 40
3.0
  9
$DIMCEN
 40
-0.5
  9
$DIMTSZ
 40
0.0
  9
$DIMTOL
 70
     0
  9
$DIMLIM
 70
     0
  9
$DIMTIH
 70
     0
  9
$DIMTOH
 70
     0
  9
$DIMSE1
 70
     0
  9
$DIMSE2
 70
     0
  9
$DIMTAD
 70
     1
  9
$DIMZIN
 70
     8
  9
$DIMBLK
  1

  9
$DIMASO
 70
     1
  9
$DIMSHO
 70
     1
  9
$DIMPOST
  1

  9
$DIMAPOST
  1

  9
$DIMALT
 70
     0
  9
$DIMALTD
 70
     2
  9
$DIMALTF
 40
0.0394
  9
$DIMLFAC
 40
1.0
  9
$DIMTOFL
 70
     1
  9
$DIMTVP
 40
1.0
  9
$DIMTIX
 70
     0
  9
$DIMSOXD
 70
     0
  9
$DIMSAH
 70
     0
  9
$DIMBLK1
  1

  9
$DIMBLK2
  1

  9
$DIMSTYLE
  2
ISO-25
  9
$DIMCLRD
 70
     2
  9
$DIMCLRE
 70
     2
  9
$DIMCLRT
 70
     3
  9
$DIMTFAC
 40
0.7
  9
$DIMGAP
 40
0.6
  9
$LUNITS
 70
     2
  9
$LUPREC
 70
     4
  9
$SKETCHINC
 40
1.0
  9
$FILLETRAD
 40
0.0
  9
$AUNITS
 70
     0
  9
$AUPREC
 70
     0
  9
$MENU
  1
acad
  9
$ELEVATION
 40
0.0
  9
$PELEVATION
 40
0.0
  9
$THICKNESS
 40
0.0
  9
$LIMCHECK
 70
     0
  9
$BLIPMODE
 70
     0
  9
$CHAMFERA
 40
0.75
  9
$CHAMFERB
 40
0.75
  9
$SKPOLY
 70
     0
  9
$TDCREATE
 40
2450166.8692156249
  9
$TDUPDATE
 40
2457520.4992547338
  9
$TDINDWG
 40
4.9314276504999999
  9
$TDUSRTIMER
 40
4.9314276504999999
  9
$USRTIMER
 70
     1
  9
$ANGBASE
 50
0.0
  9
$ANGDIR
 70
     0
  9
$PDMODE
 70
     0
  9
$PDSIZE
 40
0.0
  9
$PLINEWID
 40
1.0
  9
$COORDS
 70
     0
  9
$SPLFRAME
 70
     0
  9
$SPLINETYPE
 70
     6
  9
$SPLINESEGS
 70
     8
  9
$ATTDIA
 70
     0
  9
$ATTREQ
 70
     1
  9
$HANDLING
 70
     1
  9
$HANDSEED
  5
11023
  9
$SURFTAB1
 70
     6
  9
$SURFTAB2
 70
     6
  9
$SURFTYPE
 70
     6
  9
$SURFU
 70
     6
  9
$SURFV
 70
     6
  9
$UCSNAME
  2

  9
$UCSORG
 10
0.0
 20
0.0
 30
0.0
  9
$UCSXDIR
 10
1.0
 20
0.0
 30
0.0
  9
$UCSYDIR
 10
0.0
 20
1.0
 30
0.0
  9
$PUCSNAME
  2

  9
$PUCSORG
 10
0.0
 20
0.0
 30
0.0
  9
$PUCSXDIR
 10
1.0
 20
0.0
 30
0.0
  9
$PUCSYDIR
 10
0.0
 20
1.0
 30
0.0
  9
$USERI1
 70
     0
  9
$USERI2
 70
     0
  9
$USERI3
 70
     0
  9
$USERI4
 70
     0
  9
$USERI5
 70
     0
  9
$USERR1
 40
0.0
  9
$USERR2
 40
0.0
  9
$USERR3
 40
0.0
  9
$USERR4
 40
0.0
  9
$USERR5
 40
0.0
  9
$WORLDVIEW
 70
     1
  9
$SHADEDGE
 70
     3
  9
$SHADEDIF
 70
    70
  9
$TILEMODE
 70
     1
  9
$MAXACTVP
 70
    16
  9
$PLIMCHECK
 70
     0
  9
$PEXTMIN
 10
1.0000000000000000E+020
 20
1.0000000000000000E+020
 30
1.0000000000000000E+020
  9
$PEXTMAX
 10
-1.0000000000000000E+020
 20
-1.0000000000000000E+020
 30
-1.0000000000000000E+020
  9
$PLIMMIN
 10
0.0
 20
0.0
  9
$PLIMMAX
 10
420.0
 20
297.0
  9
$UNITMODE
 70
     0
  9
$VISRETAIN
 70
     0
  9
$PLINEGEN
 70
     0
  9
$PSLTSCALE
 70
     1
  0
ENDSEC
  0
SECTION
  2
TABLES
  0
TABLE
  2
VPORT
 70
     1
  0
VPORT
  2
*ACTIVE
 70
     0
 10
0.0
 20
0.0
 11
1.0
 21
1.0
 12
165.51250657979469
 22
96.814910459411465
 13
0.0
 23
0.0
 14
1.0
 24
1.0
 15
2.0
 25
2.0
 16
0.0
 26
0.0
 36
1.0
 17
0.0
 27
0.0
 37
0.0
 40
191.89982725479911
 41
2.1307870370370372
 42
50.0
 43
0.0
 44
0.0
 50
0.0
 51
0.0
 71
     0
 72
   100
 73
     1
 74
     1
 75
     0
 76
     0
 77
     0
 78
     1
  0
ENDTAB
  0
TABLE
  2
LTYPE
 70
     7
  0
LTYPE
  2
CONTINUOUS
 70
     0
  3
Solid line
 72
    65
 73
     0
 40
0.0
  0
LTYPE
  2
CENTER
 70
     0
  3
____ _ ____ _ ____ _ ____ _ ____ _ ____ _ ____ 
 72
    65
 73
     4
 40
2.0
 49
1.25
 49
-0.25
 49
0.25
 49
-0.25
  0
LTYPE
  2
HIDDEN
 70
     0
  3
Hidden __ __ __ __ __ __ __ __ __ __ __ __ __ _
 72
    65
 73
     2
 40
0.375
 49
0.25
 49
-0.125
  0
LTYPE
  2
PHANTOM2
 70
     0
  3
___ _ _ ___ _ _ ___ _ _ ___ _ _ ___ _ _ ___ _ _
 72
    65
 73
     6
 40
1.25
 49
0.625
 49
-0.125
 49
0.125
 49
-0.125
 49
0.125
 49
-0.125
  0
LTYPE
  2
PHANTOM
 70
     0
  3
______  __  __  ______  __  __  ______  __  __ 
 72
    65
 73
     6
 40
2.5
 49
1.25
 49
-0.25
 49
0.25
 49
-0.25
 49
0.25
 49
-0.25
  0
LTYPE
  2
CENTER2
 70
     0
  3
___ _ ___ _ ___ _ ___ _ ___ _ ___ _ ___ _ ___ _
 72
    65
 73
     4
 40
1.125
 49
0.75
 49
-0.125
 49
0.125
 49
-0.125
  0
ENDTAB
  0
TABLE
  2
LAYER
 70
     3
  0
LAYER
  2
0
 70
     0
 62
     7
  6
CONTINUOUS
  0
LAYER
  2
DEFPOINTS
 70
     0
 62
     7
  6
CONTINUOUS
  0
LAYER
  2
CT
 70
     0
 62
     2
  6
CENTER
  0
ENDTAB
  0
TABLE
  2
STYLE
 70
     1
  0
STYLE
  2
STANDARD
 70
     0
 40
3.0
 41
1.0
 50
0.0
 71
     0
 42
3.0
  3
ISOCP
  4
WHGTXT.SHX
  0
ENDTAB
  0
TABLE
  2
VIEW
 70
     0
  0
ENDTAB
  0
TABLE
  2
UCS
 70
     0
  0
ENDTAB
  0
TABLE
  2
APPID
 70
     5
  0
APPID
  2
ACAD
 70
     0
  0
APPID
  2
ACAD_DSTYLE_DIMRADIAL_EXTENSION
 70
     0
  0
APPID
  2
ACAD_MLEADERVER
 70
     0
  0
APPID
  2
ACAD_EXEMPT_FROM_CAD_STANDARDS
 70
     0
  0
APPID
  2
CONTENTBLOCKICON
 70
     0
  0
ENDTAB
  0
TABLE
  2
DIMSTYLE
 70
     2
  0
DIMSTYLE
  2
ISO-25
 70
     0
  3

  4

  5

  6

  7

 40
1.0
 41
2.5
 42
0.625
 43
3.75
 44
1.25
 45
0.0
 46
0.0
 47
0.0
 48
0.0
140
2.5
141
2.5
142
0.0
143
0.0394
144
1.0
145
1.0
146
1.0
147
0.625
 71
     0
 72
     0
 73
     1
 74
     0
 75
     0
 76
     0
 77
     1
 78
     8
170
     0
171
     2
172
     1
173
     0
174
     0
175
     0
176
     2
177
     2
178
     0
  0
DIMSTYLE
  2
KSM
 70
     0
  3

  4

  5

  6

  7

 40
1.0
 41
2.0
 42
0.0
 43
0.1
 44
1.1999999999999991
 45
0.0
 46
0.0
 47
0.25
 48
0.25
140
3.0
141
0.0
142
0.0
143
0.0394
144
1.0
145
1.0
146
1.0
147
1.0
 71
     1
 72
     0
 73
     0
 74
     0
 75
     0
 76
     0
 77
     1
 78
     8
170
     0
171
     2
172
     1
173
     0
174
     0
175
     0
176
     2
177
     2
178
     3
  0
ENDTAB
  0
ENDSEC
  0
SECTION
  2
BLOCKS
  0
BLOCK
  8
0
  2
$MODEL_SPACE
 70
     0
 10
0.0
 20
0.0
 30
0.0
  3
$MODEL_SPACE
  1

  0
ENDBLK
  5
16
  8
0
  0
BLOCK
 67
     1
  8
0
  2
$PAPER_SPACE
 70
     0
 10
0.0
 20
0.0
 30
0.0
  3
$PAPER_SPACE
  1

  0
ENDBLK
  5
1B
 67
     1
  8
0
  0
BLOCK
  8
0
  2
_CLOSEDBLANK
 70
     0
 10
0.0
 20
0.0
 30
0.0
  3
_CLOSEDBLANK
  1

  0
LINE
  5
45D
  8
0
  6
BYBLOCK
 62
     0
 10
-1.0
 20
0.1666666666666666
 30
0.0
 11
0.0
 21
0.0
 31
0.0
  0
LINE
  5
45E
  8
0
  6
BYBLOCK
 62
     0
 10
0.0
 20
0.0
 30
0.0
 11
-1.0
 21
-0.1666666666666666
 31
0.0
  0
LINE
  5
45F
  8
0
  6
BYBLOCK
 62
     0
 10
-1.0
 20
0.1666666666666666
 30
0.0
 11
-1.0
 21
-0.1666666666666666
 31
0.0
  0
ENDBLK
  5
460
  8
0
  0
BLOCK
  8
0
  2
DFG
 70
     0
 10
0.0
 20
0.0
 30
0.0
  3
DFG
  1

  0
LINE
  5
62E
  8
0
  6
CONTINUOUS
 62
     4
 10
86.283570637268895
 20
194.3173600391579
 30
0.0
 11
87.100067218196514
 21
195.13385662008551
 31
0.0
  0
LINE
  5
62F
  8
0
  6
CONTINUOUS
 62
     4
 10
85.827275012060909
 20
196.40664882622119
 30
0.0
 11
85.010778431133076
 21
195.5901522452935
 31
0.0
  0
LINE
  5
630
  8
0
  6
CONTINUOUS
 62
     4
 10
85.364331821726182
 20
196.65081241707321
 30
0.0
 11
84.657225040539743
 21
195.94370563588669
 31
0.0
  0
LINE
  5
631
  8
0
  6
CONTINUOUS
 62
     4
 10
85.364331821726182
 20
196.65081241707321
 30
0.0
 11
84.248976750075826
 21
196.35195392635069
 31
0.0
  0
LINE
  5
632
  8
0
  6
CONTINUOUS
 10
87.953595175868358
 20
196.1995166121132
 30
0.0
 11
84.418061269935833
 21
192.6639827061806
 31
0.0
  0
LINE
  5
633
  8
0
  6
CONTINUOUS
 10
84.913036016766455
 20
199.24007577121549
 30
0.0
 11
81.377502110833461
 21
195.70454186528281
 31
0.0
  0
LINE
  5
634
  8
0
  6
CONTINUOUS
 10
84.418061269935606
 20
199.24007577121529
 30
0.0
 11
81.377502110833802
 21
196.1995166121134
 31
0.0
  0
LINE
  5
635
  8
0
  6
CONTINUOUS
 10
87.953595175868585
 20
195.70454186528261
 30
0.0
 11
84.913036016766227
 21
192.66398270618041
 31
0.0
  0
LINE
  5
636
  8
0
  6
CONTINUOUS
 10
84.418061269935606
 20
199.24007577121529
 30
0.0
 11
84.913036016766455
 21
199.24007577121549
 31
0.0
  0
LINE
  5
637
  8
0
  6
CONTINUOUS
 62
     4
 10
85.717885212319516
 20
196.29725902647991
 30
0.0
 11
85.364331821726182
 21
196.65081241707321
 31
0.0
  0
LINE
  5
638
  8
0
  6
CONTINUOUS
 62
     4
 10
87.100067218196514
 20
195.13385662008551
 30
0.0
 11
85.827275012060909
 21
196.40664882622119
 31
0.0
  0
LINE
  5
639
  8
0
  6
CONTINUOUS
 62
     4
 10
86.691818927732811
 20
194.72560832962171
 30
0.0
 11
85.419026721596978
 21
195.9984005357575
 31
0.0
  0
LINE
  5
63A
  8
0
  6
CONTINUOUS
 10
87.953595175868585
 20
195.70454186528261
 30
0.0
 11
87.953595175868358
 21
196.1995166121132
 31
0.0
  0
LINE
  5
63B
  8
0
  6
CONTINUOUS
 62
     4
 10
87.100067218196514
 20
195.13385662008551
 30
0.0
 11
87.382909930671289
 21
195.1338566200854
 31
0.0
  0
LINE
  5
63C
  8
0
  6
CONTINUOUS
 10
81.377502110833802
 20
196.1995166121134
 30
0.0
 11
81.377502110833802
 21
195.70454186528269
 31
0.0
  0
LINE
  5
63D
  8
0
  6
CONTINUOUS
 62
     4
 10
85.467074056341076
 20
193.5008634582301
 30
0.0
 11
85.467074056341175
 21
193.21802074575541
 31
0.0
  0
LINE
  5
63E
  8
0
  6
CONTINUOUS
 62
     4
 10
86.283570637268653
 20
194.31736003915771
 30
0.0
 11
85.467074056341076
 21
193.5008634582301
 31
0.0
  0
LINE
  5
63F
  8
0
  6
CONTINUOUS
 62
     4
 10
84.194281850205485
 20
194.7736556643658
 30
0.0
 11
85.010778431133076
 21
195.5901522452935
 31
0.0
  0
LINE
  5
640
  8
0
  6
CONTINUOUS
 62
     4
 10
83.950118259353076
 20
195.23659885470019
 30
0.0
 11
84.657225040539743
 21
195.94370563588669
 31
0.0
  0
LINE
  5
641
  8
0
  6
CONTINUOUS
 62
     4
 10
83.950118259353076
 20
195.23659885470019
 30
0.0
 11
84.248976750075826
 21
196.35195392635069
 31
0.0
  0
LINE
  5
642
  8
0
  6
CONTINUOUS
 62
     4
 10
84.303671649946395
 20
194.88304546410691
 30
0.0
 11
83.950118259353076
 21
195.23659885470019
 31
0.0
  0
LINE
  5
643
  8
0
  6
CONTINUOUS
 62
     4
 10
85.467074056341076
 20
193.5008634582301
 30
0.0
 11
84.194281850205485
 21
194.7736556643658
 31
0.0
  0
LINE
  5
644
  8
0
  6
CONTINUOUS
 62
     4
 10
85.875322346804978
 20
193.9091117486939
 30
0.0
 11
84.60253014066916
 21
195.18190395482961
 31
0.0
  0
LINE
  5
645
  8
0
  6
CONTINUOUS
 10
84.913036016766569
 20
192.66398270618069
 30
0.0
 11
84.418061269935606
 21
192.66398270618069
 31
0.0
  0
LINE
  5
646
  8
0
  6
CONTINUOUS
 10
81.377502110833461
 20
195.70454186528229
 30
0.0
 11
84.418061269935833
 21
192.66398270618041
 31
0.0
  0
LINE
  5
647
  8
0
  6
CONTINUOUS
 10
84.913036016766455
 20
199.24007577121549
 30
0.0
 11
87.953595175868713
 21
196.19951661211331
 31
0.0
  0
ENDBLK
  5
648
  8
0
  0
BLOCK
  8
0
  2
SRGASG
 70
     0
 10
0.0
 20
0.0
 30
0.0
  3
SRGASG
  1

  0
POLYLINE
  5
5B1
  8
0
  6
BYBLOCK
 62
     4
 66
     1
 10
0.0
 20
0.0
 30
0.0
 70
     1
  0
VERTEX
  5
10E14
  8
0
  6
BYBLOCK
 62
     4
 10
871.005558875318
 20
137.3574030047659
 30
0.0
  0
VERTEX
  5
10E15
  8
0
  6
BYBLOCK
 62
     4
 10
871.53889220865142
 20
137.157403004766
 30
0.0
  0
VERTEX
  5
10E16
  8
0
  6
BYBLOCK
 62
     4
 10
872.30866776664266
 20
137.157403004766
 30
0.0
  0
VERTEX
  5
10E17
  8
0
  6
BYBLOCK
 62
     4
 10
872.80555887531818
 20
137.4442832201178
 30
0.0
  0
VERTEX
  5
10E18
  8
0
  6
BYBLOCK
 62
     4
 10
872.80555887531818
 20
138.16144765336671
 30
0.0
  0
VERTEX
  5
10E19
  8
0
  6
BYBLOCK
 62
     4
 10
874.30555887531807
 20
138.70740300476601
 30
0.0
  0
VERTEX
  5
10E1A
  8
0
  6
BYBLOCK
 62
     4
 10
874.30555887531807
 20
140.20740300476601
 30
0.0
  0
VERTEX
  5
10E1B
  8
0
  6
BYBLOCK
 62
     4
 10
874.30555887531807
 20
141.70740300476601
 30
0.0
  0
VERTEX
  5
10E1C
  8
0
  6
BYBLOCK
 62
     4
 10
872.80555887531818
 20
142.25335835616531
 30
0.0
  0
VERTEX
  5
10E1D
  8
0
  6
BYBLOCK
 62
     4
 10
872.80555887531818
 20
142.9705227894143
 30
0.0
  0
VERTEX
  5
10E1E
  8
0
  6
BYBLOCK
 62
     4
 10
872.30866776664266
 20
143.2574030047661
 30
0.0
  0
VERTEX
  5
10E1F
  8
0
  6
BYBLOCK
 62
     4
 10
871.53889220865142
 20
143.2574030047661
 30
0.0
  0
VERTEX
  5
10E20
  8
0
  6
BYBLOCK
 62
     4
 10
871.005558875318
 20
143.057403004766
 30
0.0
  0
VERTEX
  5
10E21
  8
0
  6
BYBLOCK
 62
     4
 10
867.70555887531805
 20
143.057403004766
 30
0.0
  0
VERTEX
  5
10E22
  8
0
  6
BYBLOCK
 62
     4
 10
867.70555887531805
 20
140.20740300476601
 30
0.0
  0
VERTEX
  5
10E23
  8
0
  6
BYBLOCK
 62
     4
 10
867.70555887531805
 20
137.3574030047661
 30
0.0
  0
SEQEND
  5
10E24
  8
0
  6
BYBLOCK
 62
     4
  0
LINE
  5
5B2
  8
0
  6
BYBLOCK
 62
     4
 10
871.005558875318
 20
137.3574030047659
 30
0.0
 11
871.005558875318
 21
143.057403004766
 31
0.0
  0
LINE
  5
5B3
  8
0
  6
BYBLOCK
 62
     4
 10
871.53889220865142
 20
137.157403004766
 30
0.0
 11
871.53889220865142
 21
143.2574030047661
 31
0.0
  0
LINE
  5
5B4
  8
0
  6
BYBLOCK
 62
     4
 10
872.30866776664266
 20
137.157403004766
 30
0.0
 11
872.30866776664266
 21
143.2574030047661
 31
0.0
  0
LINE
  5
5B5
  8
0
  6
BYBLOCK
 62
     4
 10
872.80555887531818
 20
138.16144765336671
 30
0.0
 11
872.80555887531818
 21
142.25335835616531
 31
0.0
  0
LINE
  5
5B6
  8
0
  6
BYBLOCK
 62
     4
 10
855.70555887531827
 20
136.20740300476601
 30
0.0
 11
857.50555887531891
 21
136.20740300476601
 31
0.0
  0
LINE
  5
5B7
  8
0
  6
BYBLOCK
 62
     4
 10
855.70555887531839
 20
144.20740300476609
 30
0.0
 11
857.50555887531846
 21
144.20740300476589
 31
0.0
  0
LINE
  5
5B8
  8
0
  6
BYBLOCK
 62
     4
 10
867.50555887531846
 20
143.20740300476609
 30
0.0
 11
857.70555887531884
 21
143.20740300476609
 31
0.0
  0
LINE
  5
5B9
  8
0
  6
BYBLOCK
 62
     4
 10
857.70555887531839
 20
137.20740300476601
 30
0.0
 11
867.50555887531812
 21
137.20740300476601
 31
0.0
  0
LINE
  5
5BA
  8
0
  6
BYBLOCK
 62
     4
 10
867.50555887531812
 20
137.20740300476601
 30
0.0
 11
867.50555887531846
 21
143.20740300476609
 31
0.0
  0
LINE
  5
5BB
  8
0
  6
BYBLOCK
 62
     4
 10
867.50555887531812
 20
137.20740300476601
 30
0.0
 11
867.70555887531805
 21
137.40740300476631
 31
0.0
  0
LINE
  5
5BC
  8
0
  6
BYBLOCK
 62
     4
 10
867.70555887531805
 20
143.00740300476591
 30
0.0
 11
867.50555887531846
 21
143.20740300476609
 31
0.0
  0
LINE
  5
5BD
  8
0
  6
BYBLOCK
 62
     4
 10
857.70555887528269
 20
140.20740300476609
 30
0.0
 11
857.70555887531839
 21
136.40740300476611
 31
0.0
  0
LINE
  5
5BE
  8
0
  6
BYBLOCK
 62
     4
 10
857.70555887531839
 20
136.40740300476611
 30
0.0
 11
857.50555887531891
 21
136.20740300476601
 31
0.0
  0
LINE
  5
5BF
  8
0
  6
BYBLOCK
 62
     4
 10
857.70555887531884
 20
144.00740300476591
 30
0.0
 11
857.70555887531953
 21
140.20740300476609
 31
0.0
  0
LINE
  5
5C0
  8
0
  6
BYBLOCK
 62
     4
 10
857.70555887531884
 20
144.00740300476591
 30
0.0
 11
857.50555887531846
 21
144.20740300476589
 31
0.0
  0
LINE
  5
5C1
  8
0
  6
BYBLOCK
 62
     4
 10
848.20555887531816
 20
145.20740300476609
 30
0.0
 11
844.20555887531839
 21
145.20740300476609
 31
0.0
  0
LINE
  5
5C2
  8
0
  6
BYBLOCK
 62
     4
 10
844.20555887531805
 20
135.20740300476621
 30
0.0
 11
848.2055588753185
 21
135.20740300476609
 31
0.0
  0
LINE
  5
5C3
  8
0
  6
BYBLOCK
 62
     4
 10
842.90555887531843
 20
136.0074030047661
 30
0.0
 11
855.50555887531823
 21
136.0074030047661
 31
0.0
  0
LINE
  5
5C4
  8
0
  6
BYBLOCK
 62
     4
 10
843.20555887531827
 20
137.32065165881829
 30
0.0
 11
848.70555887531748
 21
137.32065165881841
 31
0.0
  0
LINE
  5
5C5
  8
0
  6
BYBLOCK
 62
     4
 10
843.20555887531805
 20
138.76402733179219
 30
0.0
 11
848.70555887531771
 21
138.76402733179191
 31
0.0
  0
LINE
  5
5C6
  8
0
  6
BYBLOCK
 62
     4
 10
842.90555887531843
 20
144.407403004766
 30
0.0
 11
855.50555887531823
 21
144.40740300476591
 31
0.0
  0
LINE
  5
5C7
  8
0
  6
BYBLOCK
 62
     4
 10
843.20555887531827
 20
141.65077867774039
 30
0.0
 11
848.70555887531771
 21
141.65077867773971
 31
0.0
  0
LINE
  5
5C8
  8
0
  6
BYBLOCK
 62
     4
 10
843.20555887531827
 20
143.09415435071401
 30
0.0
 11
848.70555887531748
 21
143.09415435071401
 31
0.0
  0
LINE
  5
5C9
  8
0
  6
BYBLOCK
 62
     4
 10
848.70555887531748
 20
143.09415435071401
 30
0.0
 11
848.70555887531748
 21
137.3206516588177
 31
0.0
  0
LINE
  5
5CA
  8
0
  6
BYBLOCK
 62
     4
 10
850.70555887531782
 20
142.70740300476601
 30
0.0
 11
850.70555887531782
 21
137.70740300476589
 31
0.0
  0
LINE
  5
5CB
  8
0
  6
BYBLOCK
 62
     4
 10
850.70555887531782
 20
142.70740300476609
 30
0.0
 11
852.14893454829155
 21
140.20740300476601
 31
0.0
  0
LINE
  5
5CC
  8
0
  6
BYBLOCK
 62
     4
 10
849.20555887531805
 20
135.20740300476601
 30
0.0
 11
854.70555887531827
 21
135.20740300476581
 31
0.0
  0
LINE
  5
5CD
  8
0
  6
BYBLOCK
 62
     4
 10
850.70555887531782
 20
137.70740300476589
 30
0.0
 11
852.14893454829155
 21
140.20740300476601
 31
0.0
  0
LINE
  5
5CE
  8
0
  6
BYBLOCK
 62
     4
 10
854.70555887531827
 20
135.20740300476581
 30
0.0
 11
855.70555887531827
 21
136.20740300476601
 31
0.0
  0
LINE
  5
5CF
  8
0
  6
BYBLOCK
 62
     4
 10
848.2055588753185
 20
135.20740300476609
 30
0.0
 11
849.20555887531805
 21
135.20740300476601
 31
0.0
  0
LINE
  5
5D0
  8
0
  6
BYBLOCK
 62
     4
 10
848.70555887531748
 20
137.70740300476581
 30
0.0
 11
850.70555887531782
 21
137.70740300476589
 31
0.0
  0
LINE
  5
5D1
  8
0
  6
BYBLOCK
 62
     4
 10
854.70555887531827
 20
145.20740300476601
 30
0.0
 11
849.20555887531827
 21
145.20740300476589
 31
0.0
  0
LINE
  5
5D2
  8
0
  6
BYBLOCK
 62
     4
 10
855.70555887531839
 20
144.20740300476609
 30
0.0
 11
854.70555887531827
 21
145.20740300476601
 31
0.0
  0
LINE
  5
5D3
  8
0
  6
BYBLOCK
 62
     4
 10
848.70555887531805
 20
142.70740300476601
 30
0.0
 11
850.70555887531782
 21
142.70740300476601
 31
0.0
  0
LINE
  5
5D4
  8
0
  6
BYBLOCK
 62
     4
 10
849.20555887531827
 20
145.20740300476589
 30
0.0
 11
848.20555887531816
 21
145.20740300476609
 31
0.0
  0
LINE
  5
5D5
  8
0
  6
BYBLOCK
 62
     4
 10
842.70555887531805
 20
144.20740300476621
 30
0.0
 11
842.70555887531805
 21
136.20740300476601
 31
0.0
  0
LINE
  5
5D6
  8
0
  6
BYBLOCK
 62
     4
 10
843.20555887531827
 20
143.09415435071401
 30
0.0
 11
843.20555887531827
 21
140.20740300476609
 31
0.0
  0
LINE
  5
5D7
  8
0
  6
BYBLOCK
 62
     4
 10
843.70555887531816
 20
135.20740300476641
 30
0.0
 11
843.70555887531805
 21
145.20740300476609
 31
0.0
  0
LINE
  5
5D8
  8
0
  6
BYBLOCK
 62
     4
 10
843.20555887531827
 20
137.32065165881829
 30
0.0
 11
843.20555887531827
 21
140.20740300476609
 31
0.0
  0
LINE
  5
5D9
  8
0
  6
BYBLOCK
 62
     4
 10
844.20555887531805
 20
135.20740300476621
 30
0.0
 11
844.20555887531805
 21
135.20740300476621
 31
0.0
  0
LINE
  5
5DA
  8
0
  6
BYBLOCK
 62
     4
 10
843.70555887531816
 20
135.20740300476641
 30
0.0
 11
844.20555887531805
 21
135.20740300476621
 31
0.0
  0
LINE
  5
5DB
  8
0
  6
BYBLOCK
 62
     4
 10
842.70555887531805
 20
136.20740300476601
 30
0.0
 11
843.70555887531816
 21
135.20740300476641
 31
0.0
  0
LINE
  5
5DC
  8
0
  6
BYBLOCK
 62
     4
 10
842.70555887531805
 20
136.82065165881841
 30
0.0
 11
843.20555887531827
 21
137.32065165881829
 31
0.0
  0
LINE
  5
5DD
  8
0
  6
BYBLOCK
 62
     4
 10
842.7055588753185
 20
143.59415435071401
 30
0.0
 11
843.20555887531827
 21
143.09415435071401
 31
0.0
  0
LINE
  5
5DE
  8
0
  6
BYBLOCK
 62
     4
 10
843.70555887531827
 20
145.20740300476609
 30
0.0
 11
842.70555887531805
 21
144.20740300476621
 31
0.0
  0
LINE
  5
5DF
  8
0
  6
BYBLOCK
 62
     4
 10
844.20555887531839
 20
145.20740300476609
 30
0.0
 11
843.70555887531827
 21
145.20740300476609
 31
0.0
  0
LINE
  5
5E0
  8
0
  6
BYBLOCK
 62
     4
 10
844.20555887531839
 20
145.20740300476609
 30
0.0
 11
844.20555887531839
 21
145.20740300476609
 31
0.0
  0
LINE
  5
5E1
  8
0
  6
BYBLOCK
 62
     4
 10
867.70555887531805
 20
137.40740300476631
 30
0.0
 11
867.70555887531805
 21
140.20740300476601
 31
0.0
  0
LINE
  5
5E2
  8
0
  6
BYBLOCK
 62
     4
 10
867.70555887531805
 20
140.20740300476601
 30
0.0
 11
867.70555887531805
 21
143.00740300476591
 31
0.0
  0
LINE
  5
5E3
  8
0
  6
BYBLOCK
 62
     4
 10
857.50555887531891
 20
136.20740300476601
 30
0.0
 11
857.50555887531891
 21
140.20740300476601
 31
0.0
  0
LINE
  5
5E4
  8
0
  6
BYBLOCK
 62
     4
 10
857.50555887531891
 20
140.20740300476601
 30
0.0
 11
857.50555887531846
 21
144.20740300476589
 31
0.0
  0
LINE
  5
5E5
  8
0
  6
BYBLOCK
 62
     4
 10
855.70555887531827
 20
136.20740300476601
 30
0.0
 11
855.70555887531827
 21
140.20740300476601
 31
0.0
  0
LINE
  5
5E6
  8
0
  6
BYBLOCK
 62
     4
 10
855.70555887531827
 20
140.20740300476601
 30
0.0
 11
855.70555887531884
 21
144.20740300476609
 31
0.0
  0
LINE
  5
5E7
  8
0
  6
BYBLOCK
 62
     4
 10
854.70555887531827
 20
135.20740300476581
 30
0.0
 11
854.70555887531827
 21
140.20740300476609
 31
0.0
  0
LINE
  5
5E8
  8
0
  6
BYBLOCK
 62
     4
 10
854.70555887531827
 20
140.20740300476609
 30
0.0
 11
854.70555887531827
 21
145.20740300476601
 31
0.0
  0
ENDBLK
  5
5E9
  8
0
  0
BLOCK
  8
0
  2
DFGDFG
 70
     0
 10
0.0
 20
0.0
 30
0.0
  3
DFGDFG
  1

  0
LINE
  5
4DA
  8
0
  6
PHANTOM
 62
     4
 10
515.12727105287081
 20
144.25623312232949
 30
0.0
 11
525.6272710528707
 21
144.25623312232949
 31
0.0
  0
LINE
  5
4DB
  8
0
  6
PHANTOM
 62
     4
 10
515.62727105287081
 20
144.75623312232949
 30
0.0
 11
525.12727105287081
 21
144.75623312232949
 31
0.0
  0
LINE
  5
4DC
  8
0
  6
PHANTOM
 62
     4
 10
515.62727105287081
 20
144.75623312232949
 30
0.0
 11
515.62727105287081
 21
136.75623312232949
 31
0.0
  0
LINE
  5
4DD
  8
0
  6
PHANTOM
 62
     4
 10
514.62727105287081
 20
143.75623312232949
 30
0.0
 11
514.62727105287081
 21
136.75623312232949
 31
0.0
  0
LINE
  5
4DE
  8
0
  6
PHANTOM
 62
     4
 10
515.62727105287081
 20
144.75623312232949
 30
0.0
 11
514.62727105287081
 21
143.75623312232949
 31
0.0
  0
LINE
  5
4DF
  8
0
  6
PHANTOM
 62
     4
 10
529.42727105287076
 20
144.75623312232949
 30
0.0
 11
529.42727105287076
 21
136.75623312232949
 31
0.0
  0
LINE
  5
4E0
  8
0
  6
PHANTOM
 62
     4
 10
529.6272710528707
 20
144.5562331223295
 30
0.0
 11
529.6272710528707
 21
136.75623312232949
 31
0.0
  0
LINE
  5
4E1
  8
0
  6
PHANTOM
 62
     4
 10
529.42727105287076
 20
144.75623312232949
 30
0.0
 11
529.6272710528707
 21
144.5562331223295
 31
0.0
  0
LINE
  5
4E2
  8
0
  6
PHANTOM
 62
     4
 10
527.62727105287081
 20
144.75623312232949
 30
0.0
 11
527.62727105287081
 21
136.75623312232949
 31
0.0
  0
LINE
  5
4E3
  8
0
  6
PHANTOM
 62
     4
 10
525.87727105287081
 20
144.00623312232949
 30
0.0
 11
527.62727105287081
 21
144.00623312232949
 31
0.0
  0
LINE
  5
4E4
  8
0
  6
PHANTOM
 62
     4
 10
525.87727105287081
 20
136.75623312232949
 30
0.0
 11
525.87727105287081
 21
144.00623312232949
 31
0.0
  0
LINE
  5
4E5
  8
0
  6
PHANTOM
 62
     4
 10
525.12727105287081
 20
144.75623312232949
 30
0.0
 11
525.12727105287081
 21
136.75623312232949
 31
0.0
  0
LINE
  5
4E6
  8
0
  6
PHANTOM
 62
     4
 10
525.12727105287081
 20
144.75623312232949
 30
0.0
 11
525.87727105287081
 21
144.00623312232949
 31
0.0
  0
LINE
  5
4E7
  8
0
  6
PHANTOM
 62
     4
 10
527.62727105287081
 20
144.75623312232949
 30
0.0
 11
529.42727105287076
 21
144.75623312232949
 31
0.0
  0
ENDBLK
  5
4E8
  8
0
  0
BLOCK
  8
0
  2
_OBLIQUE
 70
     0
 10
0.0
 20
0.0
 30
0.0
  3
_OBLIQUE
  1

  0
LINE
  5
4F71
  8
0
  6
BYBLOCK
 62
     0
 10
-0.5
 20
-0.5
 30
0.0
 11
0.5
 21
0.5
 31
0.0
  0
ENDBLK
  5
4F72
  8
0
  0
BLOCK
  8
0
  2
SEFSRF
 70
     0
 10
0.0
 20
0.0
 30
0.0
  3
SEFSRF
  1

  0
LINE
  5
7443
  8
0
 62
     4
 10
565.79354578904156
 20
199.40588144428301
 30
0.0
 11
565.79354578904156
 21
194.90588144428301
 31
0.0
  0
LINE
  5
7444
  8
0
 62
     4
 10
580.79354578904156
 20
199.65588144428301
 30
0.0
 11
580.79354578904156
 21
194.90588144428301
 31
0.0
  0
LINE
  5
7445
  8
0
 62
     4
 10
566.29354578904167
 20
199.90588144428301
 30
0.0
 11
576.79354578904145
 21
199.90588144428301
 31
0.0
  0
LINE
  5
7446
  8
0
 62
     4
 10
577.29354578904145
 20
199.40588144428301
 30
0.0
 11
577.29354578904156
 21
194.90588144428301
 31
0.0
  0
LINE
  5
7447
  8
0
 62
     4
 10
565.79354578904156
 20
199.40588144428301
 30
0.0
 11
577.29354578904145
 21
199.40588144428301
 31
0.0
  0
LINE
  5
7448
  8
0
 62
     4
 10
565.79354578904156
 20
199.40588144428301
 30
0.0
 11
566.29354578904167
 21
199.90588144428301
 31
0.0
  0
LINE
  5
7449
  8
0
 62
     4
 10
576.79354578904145
 20
199.90588144428301
 30
0.0
 11
577.29354578904145
 21
199.40588144428301
 31
0.0
  0
LINE
  5
744A
  8
0
 62
     4
 10
578.79354578904167
 20
199.90588144428301
 30
0.0
 11
580.54354578904167
 21
199.90588144428301
 31
0.0
  0
LINE
  5
744B
  8
0
 62
     4
 10
577.29354578904145
 20
199.15588144428301
 30
0.0
 11
578.79354578904167
 21
199.15588144428301
 31
0.0
  0
LINE
  5
744C
  8
0
 62
     4
 10
566.29354578904167
 20
199.90588144428301
 30
0.0
 11
566.29354578904167
 21
194.90588144428301
 31
0.0
  0
LINE
  5
744D
  8
0
  6
CONTINUOUS
 62
     4
 10
576.79354578904145
 20
199.90588144428301
 30
0.0
 11
576.79354578904145
 21
194.90588144428301
 31
0.0
  0
LINE
  5
744E
  8
0
 62
     4
 10
580.54354578904167
 20
199.90588144428301
 30
0.0
 11
580.79354578904156
 21
199.65588144428301
 31
0.0
  0
LINE
  5
744F
  8
0
 62
     4
 10
580.54354578904167
 20
194.90588144428301
 30
0.0
 11
580.54354578904167
 21
199.90588144428301
 31
0.0
  0
LINE
  5
7450
  8
0
  6
CONTINUOUS
 62
     4
 10
578.79354578904167
 20
199.90588144428301
 30
0.0
 11
578.79354578904145
 21
194.90588144428301
 31
0.0
  0
ENDBLK
  5
7451
  8
0
  0
BLOCK
  8
0
  2
*D6
 70
     1
 10
0.0
 20
0.0
 30
0.0
  3
*D6
  1

  0
LINE
  5
771E
  8
0
  6
CONTINUOUS
 62
     2
 10
316.64312742251769
 20
194.94267274344591
 30
0.0
 11
316.64312742251769
 21
201.30627229884971
 31
0.0
  0
LINE
  5
771F
  8
0
  6
CONTINUOUS
 62
     2
 10
322.64312742251769
 20
194.94267274344591
 30
0.0
 11
322.64312742251769
 21
201.30627229884971
 31
0.0
  0
LINE
  5
7720
  8
0
  6
CONTINUOUS
 62
     2
 10
314.14312742251769
 20
200.10627229884969
 30
0.0
 11
311.64312742251758
 21
200.10627229884969
 31
0.0
  0
LINE
  5
7721
  8
0
  6
CONTINUOUS
 62
     2
 10
325.14312742251758
 20
200.10627229884969
 30
0.0
 11
327.64312742251758
 21
200.10627229884969
 31
0.0
  0
LINE
  5
7722
  8
0
  6
CONTINUOUS
 62
     2
 10
316.64312742251769
 20
200.10627229884969
 30
0.0
 11
322.64312742251769
 21
200.10627229884969
 31
0.0
  0
SOLID
  5
7723
  8
0
  6
CONTINUOUS
 62
     2
 10
314.14312742251769
 20
200.5229389655164
 30
0.0
 11
314.14312742251769
 21
199.689605632183
 31
0.0
 12
316.64312742251769
 22
200.10627229884969
 32
0.0
 13
316.64312742251769
 23
200.10627229884969
 33
0.0
  0
SOLID
  5
7724
  8
0
  6
CONTINUOUS
 62
     2
 10
325.14312742251758
 20
200.5229389655164
 30
0.0
 11
325.14312742251758
 21
199.689605632183
 31
0.0
 12
322.64312742251769
 22
200.10627229884969
 32
0.0
 13
322.64312742251769
 23
200.10627229884969
 33
0.0
  0
INSERT
  5
7725
  8
0
  6
CONTINUOUS
  2
*U67
 10
0.0
 20
0.0
 30
0.0
  0
POINT
  5
7726
  8
DEFPOINTS
  6
CONTINUOUS
 62
     0
 10
316.64312742251769
 20
194.94267274344591
 30
0.0
  0
POINT
  5
7727
  8
DEFPOINTS
  6
CONTINUOUS
 62
     0
 10
322.64312742251769
 20
194.94267274344591
 30
0.0
  0
POINT
  5
7728
  8
DEFPOINTS
  6
CONTINUOUS
 62
     0
 10
322.64312742251769
 20
200.10627229884969
 30
0.0
  0
ENDBLK
  5
7729
  8
0
  0
BLOCK
  8
0
  2
*D7
 70
     1
 10
0.0
 20
0.0
 30
0.0
  3
*D7
  1

  0
LINE
  5
772C
  8
0
  6
CONTINUOUS
 62
     2
 10
301.64312742251769
 20
194.94267274344591
 30
0.0
 11
301.64312742251769
 21
201.30627229884971
 31
0.0
  0
LINE
  5
772D
  8
0
  6
CONTINUOUS
 62
     2
 10
316.64312742251769
 20
194.94267274344591
 30
0.0
 11
316.64312742251769
 21
201.30627229884971
 31
0.0
  0
LINE
  5
772E
  8
0
  6
CONTINUOUS
 62
     2
 10
304.14312742251769
 20
200.10627229884969
 30
0.0
 11
314.14312742251769
 21
200.10627229884969
 31
0.0
  0
SOLID
  5
772F
  8
0
  6
CONTINUOUS
 62
     2
 10
304.14312742251769
 20
200.5229389655164
 30
0.0
 11
304.14312742251769
 21
199.689605632183
 31
0.0
 12
301.64312742251769
 22
200.10627229884969
 32
0.0
 13
301.64312742251769
 23
200.10627229884969
 33
0.0
  0
SOLID
  5
7730
  8
0
  6
CONTINUOUS
 62
     2
 10
314.14312742251769
 20
200.5229389655164
 30
0.0
 11
314.14312742251769
 21
199.689605632183
 31
0.0
 12
316.64312742251769
 22
200.10627229884969
 32
0.0
 13
316.64312742251769
 23
200.10627229884969
 33
0.0
  0
INSERT
  5
7731
  8
0
  6
CONTINUOUS
  2
*U68
 10
0.0
 20
0.0
 30
0.0
  0
POINT
  5
7732
  8
DEFPOINTS
  6
CONTINUOUS
 62
     0
 10
301.64312742251769
 20
194.94267274344591
 30
0.0
  0
POINT
  5
7733
  8
DEFPOINTS
  6
CONTINUOUS
 62
     0
 10
316.64312742251769
 20
194.94267274344591
 30
0.0
  0
POINT
  5
7734
  8
DEFPOINTS
  6
CONTINUOUS
 62
     0
 10
316.64312742251769
 20
200.10627229884969
 30
0.0
  0
ENDBLK
  5
7735
  8
0
  0
BLOCK
  8
0
  2
*D8
 70
     1
 10
0.0
 20
0.0
 30
0.0
  3
*D8
  1

  0
LINE
  5
7738
  8
0
  6
CONTINUOUS
 62
     2
 10
295.64312742251758
 20
194.8604209395626
 30
0.0
 11
295.64312742251758
 21
201.10627229884969
 31
0.0
  0
LINE
  5
7739
  8
0
  6
CONTINUOUS
 62
     2
 10
301.64312742251769
 20
194.8604209395626
 30
0.0
 11
301.64312742251769
 21
201.10627229884969
 31
0.0
  0
LINE
  5
773A
  8
0
  6
CONTINUOUS
 62
     2
 10
293.14312742251758
 20
200.10627229884969
 30
0.0
 11
290.64312742251758
 21
200.10627229884969
 31
0.0
  0
LINE
  5
773B
  8
0
  6
CONTINUOUS
 62
     2
 10
304.14312742251769
 20
200.10627229884969
 30
0.0
 11
306.64312742251758
 21
200.10627229884969
 31
0.0
  0
LINE
  5
773C
  8
0
  6
CONTINUOUS
 62
     2
 10
295.64312742251758
 20
200.10627229884969
 30
0.0
 11
301.64312742251769
 21
200.10627229884969
 31
0.0
  0
SOLID
  5
773D
  8
0
  6
CONTINUOUS
 62
     2
 10
293.14312742251758
 20
200.5229389655164
 30
0.0
 11
293.14312742251758
 21
199.689605632183
 31
0.0
 12
295.64312742251758
 22
200.10627229884969
 32
0.0
 13
295.64312742251758
 23
200.10627229884969
 33
0.0
  0
SOLID
  5
773E
  8
0
  6
CONTINUOUS
 62
     2
 10
304.14312742251769
 20
200.5229389655164
 30
0.0
 11
304.14312742251769
 21
199.689605632183
 31
0.0
 12
301.64312742251769
 22
200.10627229884969
 32
0.0
 13
301.64312742251769
 23
200.10627229884969
 33
0.0
  0
INSERT
  5
773F
  8
0
  6
CONTINUOUS
  2
*U69
 10
0.0
 20
0.0
 30
0.0
  0
POINT
  5
7740
  8
DEFPOINTS
  6
CONTINUOUS
 62
     0
 10
295.64312742251758
 20
194.26042093956261
 30
0.0
  0
POINT
  5
7741
  8
DEFPOINTS
  6
CONTINUOUS
 62
     0
 10
301.64312742251769
 20
194.26042093956261
 30
0.0
  0
POINT
  5
7742
  8
DEFPOINTS
  6
CONTINUOUS
 62
     0
 10
301.64312742251769
 20
200.10627229884969
 30
0.0
  0
ENDBLK
  5
7743
  8
0
  0
BLOCK
  8
0
  2
FDFSDFDF
 70
     0
 10
0.0
 20
0.0
 30
0.0
  3
FDFSDFDF
  1

  0
INSERT
  5
7747
  8
0
  6
CONTINUOUS
 62
     2
  2
*X70
 10
0.0
 20
0.0
 30
0.0
1001
ACAD
1000
HATCH
1002
{
1070
    19
1000
ANSI31
1040
20.0
1040
0.0
1000
ASC_BOUNDS
1070
     3
1070
     1
1070
    18
1005
7767
1005
7749
1005
7748
1005
774F
1005
774E
1005
774A
1005
775A
1005
775B
1005
7759
1005
776D
1005
776E
1005
776F
1005
7757
1005
775E
1005
775D
1005
775C
1005
7755
1005
7753
1070
     1
1070
     7
1005
776A
1005
776B
1005
7748
1005
7749
1005
7767
1005
7753
1005
7769
1070
     1
1070
    11
1005
7765
1005
7766
1005
7752
1005
7769
1005
7767
1005
7753
1005
7755
1005
7762
1005
7763
1005
7764
1005
7760
1000
ASC_SEEDPOINT
1011
319.20416400034668
1021
0.0
1031
-0.0
1021
189.24524749093069
1031
0.0
1000
R14_HATCH_DATA
1000
7747
1011
1.0
1021
0.0
1031
-0.0
1021
0.0
1031
0.0
1011
0.0
1021
0.0
1031
-0.0
1021
1.0
1031
0.0
1011
0.0
1021
0.0
1031
-0.0
1021
0.0
1031
1.0
1040
0.0
1010
0.0
1020
0.0
1030
1.0
1000
ANSI31
1070
     0
1070
     1
1071
        3
1071
        7
1070
     1
1070
     1
1071
       15
1040
322.52357380591383
1040
187.77285330962101
1040
-0.1320611831095684
1040
322.48987902673332
1040
187.89820103176311
1040
-0.7501745522296774
1040
322.95073905779537
1040
188.03250682948061
1040
0.2507365363306379
1040
325.6050548447846
1040
192.9927773723598
1040
0.0192153241715104
1040
325.58745732531872
1040
193.45051156929571
1040
0.0
1040
324.54838331084329
1040
193.45051156929571
1040
0.2679491924310505
1040
323.50915282630223
1040
192.85051156929589
1040
0.0
1040
323.16274266478808
1040
192.25051156929581
1040
-0.2679491924312327
1040
322.64312742251713
1040
191.95051156929591
1040
0.0
1040
316.64312742251713
1040
191.95051156929591
1040
-0.2679491924310309
1040
316.12351218024651
1040
192.25051156929581
1040
0.0
1040
315.77710201873248
1040
192.850511569296
1040
0.2679491924310934
1040
314.7378715341913
1040
193.45051156929591
1040
0.0
1040
313.69879751971638
1040
193.45051156929591
1040
0.01921532417152
1040
313.6812000002505
1040
192.9927773723598
1040
0.5709145023684346
1071
       11
1005
7760
1005
7764
1005
7763
1005
7762
1005
7755
1005
7753
1005
7767
1005
7769
1005
7752
1005
7766
1005
7765
1071
        7
1070
     1
1070
     1
1071
        9
1040
322.95073905779537
1040
188.03250682948061
1040
-0.1427431609333959
1040
322.98987902673332
1040
187.89820103176311
1040
-0.2406337495410551
1040
322.88640054215352
1040
187.69563883015829
1040
0.0
1040
323.23408639120862
1040
187.2149721454773
1040
0.0
1040
325.47862043463812
1040
187.89971892824849
1040
0.0
1040
328.09183864425751
1040
190.92010459039369
1040
0.0
1040
328.66715002206729
1040
193.45051156929571
1040
0.0
1040
325.58745732531872
1040
193.45051156929571
1040
-0.0192153241715104
1040
325.6050548447846
1040
192.9927773723598
1040
-0.2507365363306379
1071
        7
1005
7769
1005
7753
1005
7767
1005
7749
1005
7748
1005
776B
1005
776A
1071
        7
1070
     1
1070
     1
1071
       19
1040
303.54838331084352
1040
193.45051156929591
1040
0.2679491924310505
1040
302.5091528263024
1040
192.85051156929609
1040
0.0
1040
302.16274266478808
1040
192.25051156929581
1040
-0.2679491924312327
1040
301.64312742251713
1040
191.95051156929591
1040
0.0
1040
295.64312742251713
1040
191.95051156929591
1040
-0.2679491924310892
1040
295.12351218024651
1040
192.25051156929581
1040
0.0
1040
294.77710201873248
1040
192.850511569296
1040
0.2679491924311121
1040
293.73787153419119
1040
193.45051156929611
1040
0.0
1040
284.88492660384009
1040
193.45051156929591
1040
0.0
1040
285.22418130025
1040
191.327173156295
1040
0.0
1040
288.41838560002498
1040
187.77850831812449
1040
0.0
1040
296.54777269352439
1040
185.5476890666805
1040
0.0
1040
310.0985767472207
1040
185.10629339102061
1040
0.0
1040
317.76889294371591
1040
185.5476890666805
1040
0.0
1040
323.23408639120851
1040
187.2149721454773
1040
0.0
1040
322.88640054215352
1040
187.69563883015829
1040
-0.4441191269305316
1040
322.52357380591383
1040
187.77285330962101
1040
-0.5709145023684346
1040
313.6812000002505
1040
192.9927773723598
1040
-0.01921532417152
1040
313.69879751971638
1040
193.45051156929591
1040
0.0
1071
       18
1005
7753
1005
7755
1005
775C
1005
775D
1005
775E
1005
7757
1005
776F
1005
776E
1005
776D
1005
7759
1005
775B
1005
775A
1005
774A
1005
774E
1005
774F
1005
7748
1005
7749
1005
7767
1070
     0
1070
     1
1040
0.0
1040
20.0
1070
     0
1070
     1
1040
0.7853981633974483
1040
0.0
1040
0.0
1040
-1.767766952966368
1040
1.767766952966368
1070
     0
1040
0.0406034499754259
1071
        3
1040
319.20416400034668
1040
189.24524749093069
1040
0.0
1040
326.39538939337223
1040
191.39723023879239
1040
0.0
1040
309.73775247072223
1040
189.4888679050818
1040
0.0
1002
}
  0
LINE
  5
7748
  8
0
  6
CONTINUOUS
 62
     3
 10
317.76889294371591
 20
185.5476890666805
 30
0.0
 11
325.47862043463812
 21
187.8997189282486
 31
0.0
1001
ACAD
1000
ASC_BOUNDS
1002
{
1070
    19
1005
7747
1005
7747
1002
}
  0
LINE
  5
7749
  8
0
  6
CONTINUOUS
 62
     2
 10
322.73987902673332
 20
187.89820103176311
 30
0.0
 11
328.81184676062952
 21
179.50386284378649
 31
0.0
1001
ACAD
1000
ASC_BOUNDS
1002
{
1070
    19
1005
7747
1005
7747
1002
}
  0
LINE
  5
774A
  8
0
  6
CONTINUOUS
 62
     3
 10
288.41838560002498
 20
187.77850831812449
 30
0.0
 11
296.54777269352439
 21
185.5476890666805
 31
0.0
1001
ACAD
1000
ASC_BOUNDS
1002
{
1070
    19
1005
7747
1002
}
  0
LINE
  5
774B
  8
0
  6
CONTINUOUS
 62
     7
 10
298.03898836139177
 20
174.76176518260809
 30
0.0
 11
314.8322691380983
 21
174.76176518260809
 31
0.0
  0
LINE
  5
774C
  8
0
  6
CONTINUOUS
 62
     3
 10
298.03898836139177
 20
175.76176518260809
 30
0.0
 11
314.8322691380983
 21
175.76176518260809
 31
0.0
  0
TEXT
  5
774D
  8
0
  6
CONTINUOUS
 62
     7
 10
298.06094022686528
 20
176.4246370851877
 30
0.0
 40
3.0
  1
DETAIL X
  0
LINE
  5
774E
  8
0
  6
CONTINUOUS
 62
     3
 10
296.54777269352439
 20
185.5476890666805
 30
0.0
 11
310.09857674722087
 21
185.1062933910207
 31
0.0
1001
ACAD
1000
ASC_BOUNDS
1002
{
1070
    19
1005
7747
1002
}
  0
LINE
  5
774F
  8
0
  6
CONTINUOUS
 62
     3
 10
310.09857674722087
 20
185.1062933910207
 30
0.0
 11
317.76889294371591
 21
185.5476890666805
 31
0.0
1001
ACAD
1000
ASC_BOUNDS
1002
{
1070
    19
1005
7747
1002
}
  0
LINE
  5
7750
  8
0
  6
CONTINUOUS
 62
     2
 10
328.81184676062952
 20
179.50386284378649
 30
0.0
 11
333.63284564025082
 21
179.50386284378649
 31
0.0
  0
TEXT
  5
7751
  8
0
  6
CONTINUOUS
 62
     3
 10
329.64491976575488
 20
180.06168687877539
 30
0.0
 40
3.0
  1
Y
  0
ARC
  5
7752
  8
0
  6
CONTINUOUS
 62
     7
 10
324.54838331084329
 20
192.2505115692957
 30
0.0
 40
1.1999999999999991
 50
90.0
 51
149.99999999998491
1001
ACAD
1000
ASC_BOUNDS
1002
{
1070
    19
1005
7747
1002
}
  0
CIRCLE
  5
7753
  8
0
  6
PHANTOM2
 62
     4
 10
319.64312742251752
 20
192.9927773723598
 30
0.0
 40
5.9619274222670748
1001
ACAD
1000
ASC_BOUNDS
1002
{
1070
    19
1005
7747
1005
7747
1005
7747
1002
}
  0
DIMENSION
  5
7754
  8
0
  6
CONTINUOUS
 62
     7
  2
*D6
 10
322.64312742251769
 20
200.10627229884969
 30
0.0
 11
319.64312742251758
 21
202.60656757444031
 31
0.0
  1
2
  3
KSM
 13
316.64312742251769
 23
194.94267274344591
 33
0.0
 14
322.64312742251769
 24
194.94267274344591
 34
0.0
1001
ACAD
1000
DSTYLE
1002
{
1070
    47
1040
0.1
1070
    71
1070
     0
1070
    48
1040
-0.02
1070
   146
1040
0.7
1070
   272
1070
     3
1070
   271
1070
     3
1070
    41
1040
2.5
1002
}
  0
LINE
  5
7755
  8
0
  6
CONTINUOUS
 62
     7
 10
303.54838331084352
 20
193.45051156929591
 30
0.0
 11
314.7378715341913
 21
193.45051156929591
 31
0.0
1001
ACAD
1000
ASC_BOUNDS
1002
{
1070
    19
1005
7747
1005
7747
1002
}
  0
DIMENSION
  5
7756
  8
0
  6
CONTINUOUS
 62
     7
  2
*D7
 10
316.64312742251769
 20
200.10627229884969
 30
0.0
 11
309.14312742251758
 21
202.60627229884969
 31
0.0
  1
5
  3
KSM
 13
301.64312742251769
 23
194.94267274344591
 33
0.0
 14
316.64312742251769
 24
194.94267274344591
 34
0.0
1001
ACAD
1000
DSTYLE
1002
{
1070
    47
1040
0.1
1070
    71
1070
     0
1070
    48
1040
-0.02
1070
   146
1040
0.7
1070
   272
1070
     3
1070
   271
1070
     3
1070
    41
1040
2.5
1002
}
  0
LINE
  5
7757
  8
0
  6
CONTINUOUS
 10
295.64312742251713
 20
191.95051156929591
 30
0.0
 11
301.64312742251713
 21
191.95051156929591
 31
0.0
1001
ACAD
1000
ASC_BOUNDS
1002
{
1070
    19
1005
7747
1002
}
  0
DIMENSION
  5
7758
  8
0
  6
CONTINUOUS
  2
*D8
 10
301.64312742251769
 20
200.10627229884969
 30
0.0
 11
298.64312742251758
 21
200.10627229884969
 31
0.0
 70
   128
  1
2
  3
ISO-25
 13
295.64312742251758
 23
194.26042093956261
 33
0.0
 14
301.64312742251769
 24
194.26042093956261
 34
0.0
1001
ACAD
1000
DSTYLE
1002
{
1070
   287
1070
     2
1070
   144
1040
333.0
1070
    42
1040
0.6
1070
    43
1040
1.0
1070
    44
1040
1.0
1070
    47
1040
0.1
1070
    48
1040
0.1
1070
    73
1070
     0
1070
   140
1040
3.0
1070
   141
1040
-0.5
1070
   146
1040
0.7
1070
   147
1040
0.6
1070
   178
1070
     3
1070
   271
1070
     8
1070
   272
1070
     8
1070
   275
1070
     1
1070
   283
1070
     0
1070
   284
1070
     8
1070
   289
1070
     2
1002
}
  0
LINE
  5
7759
  8
0
  6
CONTINUOUS
 62
     7
 10
284.88492660384009
 20
193.45051156929591
 30
0.0
 11
293.73787153419119
 21
193.45051156929611
 31
0.0
1001
ACAD
1000
ASC_BOUNDS
1002
{
1070
    19
1005
7747
1002
}
  0
LINE
  5
775A
  8
0
  6
CONTINUOUS
 62
     3
 10
285.22418130025011
 20
191.32717315629489
 30
0.0
 11
288.41838560002498
 21
187.77850831812449
 31
0.0
1001
ACAD
1000
ASC_BOUNDS
1002
{
1070
    19
1005
7747
1002
}
  0
LINE
  5
775B
  8
0
  6
CONTINUOUS
 62
     3
 10
285.22418130025011
 20
191.32717315629489
 30
0.0
 11
284.88492660384009
 21
193.45051156929591
 31
0.0
1001
ACAD
1000
ASC_BOUNDS
1002
{
1070
    19
1005
7747
1002
}
  0
ARC
  5
775C
  8
0
  6
CONTINUOUS
 62
     7
 10
303.54838331084352
 20
192.2505115692959
 30
0.0
 40
1.1999999999999991
 50
90.0
 51
149.99999999998491
1001
ACAD
1000
ASC_BOUNDS
1002
{
1070
    19
1005
7747
1002
}
  0
LINE
  5
775D
  8
0
  6
CONTINUOUS
 62
     7
 10
302.16274266478808
 20
192.25051156929581
 30
0.0
 11
302.5091528263024
 21
192.85051156929609
 31
0.0
1001
ACAD
1000
ASC_BOUNDS
1002
{
1070
    19
1005
7747
1002
}
  0
ARC
  5
775E
  8
0
  6
CONTINUOUS
 62
     7
 10
301.64312742251718
 20
192.55051156929591
 30
0.0
 40
0.6000000000000001
 50
270.0
 51
329.99999999999721
1001
ACAD
1000
ASC_BOUNDS
1002
{
1070
    19
1005
7747
1002
}
  0
LINE
  5
775F
  8
0
  6
CENTER
 62
     2
 10
301.64312742251769
 20
194.26042093956261
 30
0.0
 11
301.64312742251769
 21
189.02229574619631
 31
0.0
  0
LINE
  5
7760
  8
0
  6
CONTINUOUS
 10
316.64312742251713
 20
191.95051156929591
 30
0.0
 11
322.64312742251713
 21
191.95051156929591
 31
0.0
1001
ACAD
1000
ASC_BOUNDS
1002
{
1070
    19
1005
7747
1002
}
  0
LINE
  5
7761
  8
0
  6
CENTER
 62
     2
 10
316.64312742251769
 20
194.26042093956261
 30
0.0
 11
316.64312742251769
 21
189.02229574619631
 31
0.0
  0
ARC
  5
7762
  8
0
  6
CONTINUOUS
 62
     7
 10
314.7378715341913
 20
192.25051156929601
 30
0.0
 40
1.1999999999999991
 50
30.00000000000194
 51
90.0
1001
ACAD
1000
ASC_BOUNDS
1002
{
1070
    19
1005
7747
1002
}
  0
LINE
  5
7763
  8
0
  6
CONTINUOUS
 62
     7
 10
316.12351218024651
 20
192.25051156929581
 30
0.0
 11
315.77710201873248
 21
192.850511569296
 31
0.0
1001
ACAD
1000
ASC_BOUNDS
1002
{
1070
    19
1005
7747
1002
}
  0
ARC
  5
7764
  8
0
  6
CONTINUOUS
 62
     7
 10
316.64312742251718
 20
192.55051156929591
 30
0.0
 40
0.6000000000000001
 50
209.9999999999892
 51
270.0
1001
ACAD
1000
ASC_BOUNDS
1002
{
1070
    19
1005
7747
1002
}
  0
ARC
  5
7765
  8
0
  6
CONTINUOUS
 62
     7
 10
322.64312742251718
 20
192.55051156929591
 30
0.0
 40
0.6000000000000001
 50
270.0
 51
329.99999999999721
1001
ACAD
1000
ASC_BOUNDS
1002
{
1070
    19
1005
7747
1002
}
  0
LINE
  5
7766
  8
0
  6
CONTINUOUS
 62
     7
 10
323.16274266478808
 20
192.25051156929581
 30
0.0
 11
323.50915282630223
 21
192.85051156929589
 31
0.0
1001
ACAD
1000
ASC_BOUNDS
1002
{
1070
    19
1005
7747
1002
}
  0
POLYLINE
  5
7767
  8
0
  6
CONTINUOUS
 62
     7
 66
     1
 10
0.0
 20
0.0
 30
0.0
 70
     1
 40
0.5
 41
0.5
1001
ACAD
1000
ASC_BOUNDS
1002
{
1070
    19
1005
7747
1005
7747
1005
7747
1002
}
  0
VERTEX
  5
10E54
  8
0
  6
CONTINUOUS
 62
     7
 10
322.48987902673332
 20
187.89820103176311
 30
0.0
 42
-1.0
  0
VERTEX
  5
10E55
  8
0
  6
CONTINUOUS
 62
     7
 10
322.98987902673332
 20
187.89820103176311
 30
0.0
 42
-1.0
  0
SEQEND
  5
10E56
  8
0
  6
CONTINUOUS
 62
     7
  0
LINE
  5
7768
  8
0
  6
CENTER
 62
     2
 10
322.64312742251769
 20
194.26042093956261
 30
0.0
 11
322.64312742251769
 21
189.02229574619631
 31
0.0
  0
LINE
  5
7769
  8
0
  6
CONTINUOUS
 62
     7
 10
324.54838331084329
 20
193.45051156929571
 30
0.0
 11
328.66715002206729
 21
193.45051156929571
 31
0.0
1001
ACAD
1000
ASC_BOUNDS
1002
{
1070
    19
1005
7747
1005
7747
1002
}
  0
LINE
  5
776A
  8
0
  6
CONTINUOUS
 62
     3
 10
328.09183864425751
 20
190.92010459039369
 30
0.0
 11
328.66715002206729
 21
193.45051156929591
 31
0.0
1001
ACAD
1000
ASC_BOUNDS
1002
{
1070
    19
1005
7747
1002
}
  0
LINE
  5
776B
  8
0
  6
CONTINUOUS
 62
     3
 10
325.47862043463812
 20
187.8997189282486
 30
0.0
 11
328.09183864425751
 21
190.92010459039369
 31
0.0
1001
ACAD
1000
ASC_BOUNDS
1002
{
1070
    19
1005
7747
1002
}
  0
LINE
  5
776C
  8
0
  6
CENTER
 62
     2
 10
295.64312742251758
 20
194.26042093956269
 30
0.0
 11
295.64312742251758
 21
189.02229574619631
 31
0.0
  0
ARC
  5
776D
  8
0
  6
CONTINUOUS
 62
     7
 10
293.73787153419119
 20
192.25051156929601
 30
0.0
 40
1.1999999999999991
 50
30.000000000001911
 51
90.0
1001
ACAD
1000
ASC_BOUNDS
1002
{
1070
    19
1005
7747
1002
}
  0
LINE
  5
776E
  8
0
  6
CONTINUOUS
 62
     7
 10
295.12351218024651
 20
192.25051156929581
 30
0.0
 11
294.77710201873248
 21
192.850511569296
 31
0.0
1001
ACAD
1000
ASC_BOUNDS
1002
{
1070
    19
1005
7747
1002
}
  0
ARC
  5
776F
  8
0
  6
CONTINUOUS
 62
     7
 10
295.64312742251713
 20
192.55051156929599
 30
0.0
 40
0.6000000000000001
 50
209.9999999999892
 51
270.0
1001
ACAD
1000
ASC_BOUNDS
1002
{
1070
    19
1005
7747
1002
}
  0
ENDBLK
  5
7770
  8
0
  0
BLOCK
  8
0
  2
*D10
 70
     1
 10
0.0
 20
0.0
 30
0.0
  3
*D10
  1

  0
LINE
  5
10E69
  8
0
  6
CONTINUOUS
 62
     2
 10
179.95922032106481
 20
107.10347339991669
 30
0.0
 11
179.95922032106481
 21
81.411957344624653
 31
0.0
  0
LINE
  5
10E6A
  8
0
  6
CONTINUOUS
 62
     2
 10
222.9592203210677
 20
110.6373779752911
 30
0.0
 11
222.9592203210677
 21
81.411957344624653
 31
0.0
  0
LINE
  5
10E6B
  8
0
  6
CONTINUOUS
 62
     2
 10
182.45922032106481
 20
82.411957344624653
 30
0.0
 11
220.4592203210677
 21
82.411957344624653
 31
0.0
  0
SOLID
  5
10E6C
  8
0
  6
CONTINUOUS
 62
     2
 10
182.45922032106481
 20
82.828624011291325
 30
0.0
 11
182.45922032106481
 21
81.995290677957996
 31
0.0
 12
179.95922032106481
 22
82.411957344624653
 32
0.0
 13
179.95922032106481
 23
82.411957344624653
 33
0.0
  0
SOLID
  5
10E6D
  8
0
  6
CONTINUOUS
 62
     2
 10
220.4592203210677
 20
82.828624011291325
 30
0.0
 11
220.4592203210677
 21
81.995290677957996
 31
0.0
 12
222.9592203210677
 22
82.411957344624653
 32
0.0
 13
222.9592203210677
 23
82.411957344624653
 33
0.0
  0
TEXT
  8
0
  40
3
  5
1101B
  62
3
  72
0
  71
0
 10
201.459
 20
80.6120
 30
0.000000
  1
43
  0
POINT
  5
10E6F
  8
DEFPOINTS
  6
CONTINUOUS
 62
     0
 10
179.95922032106481
 20
107.7034733999167
 30
0.0
  0
POINT
  5
10E70
  8
DEFPOINTS
  6
CONTINUOUS
 62
     0
 10
222.9592203210677
 20
111.237377975291
 30
0.0
  0
POINT
  5
10E71
  8
DEFPOINTS
  6
CONTINUOUS
 62
     0
 10
222.9592203210677
 20
82.411957344624653
 30
0.0
  0
ENDBLK
  5
B8A1
  8
0
  0
BLOCK
  8
0
  2
*D11
 70
     1
 10
0.0
 20
0.0
 30
0.0
  3
*D11
  1

  0
LINE
  5
10E72
  8
0
  6
CONTINUOUS
 62
     2
 10
112.9592203210684
 20
111.3299778578737
 30
0.0
 11
112.9592203210684
 21
65.411957344624653
 31
0.0
  0
LINE
  5
10E73
  8
0
  6
CONTINUOUS
 62
     2
 10
222.9592203210677
 20
110.6373779752911
 30
0.0
 11
222.9592203210677
 21
65.411957344624653
 31
0.0
  0
LINE
  5
10E74
  8
0
  6
CONTINUOUS
 62
     2
 10
115.4592203210684
 20
66.411957344624653
 30
0.0
 11
220.4592203210677
 21
66.411957344624653
 31
0.0
  0
SOLID
  5
10E75
  8
0
  6
CONTINUOUS
 62
     2
 10
115.4592203210684
 20
66.828624011291325
 30
0.0
 11
115.4592203210684
 21
65.995290677957982
 31
0.0
 12
112.9592203210684
 22
66.411957344624653
 32
0.0
 13
112.9592203210684
 23
66.411957344624653
 33
0.0
  0
SOLID
  5
10E76
  8
0
  6
CONTINUOUS
 62
     2
 10
220.4592203210677
 20
66.828624011291325
 30
0.0
 11
220.4592203210677
 21
65.995290677957982
 31
0.0
 12
222.9592203210677
 22
66.411957344624653
 32
0.0
 13
222.9592203210677
 23
66.411957344624653
 33
0.0
  0
TEXT
  8
0
  40
3
  5
1101C
  62
3
  72
0
  71
0
 10
167.959
 20
64.6120
 30
0.000000
  1
110
  0
POINT
  5
10E78
  8
DEFPOINTS
  6
CONTINUOUS
 62
     0
 10
112.9592203210684
 20
111.92997785787369
 30
0.0
  0
POINT
  5
10E79
  8
DEFPOINTS
  6
CONTINUOUS
 62
     0
 10
222.9592203210677
 20
111.237377975291
 30
0.0
  0
POINT
  5
10E7A
  8
DEFPOINTS
  6
CONTINUOUS
 62
     0
 10
222.9592203210677
 20
66.411957344624653
 30
0.0
  0
ENDBLK
  5
B8AD
  8
0
  0
BLOCK
  8
0
  2
*D12
 70
     1
 10
0.0
 20
0.0
 30
0.0
  3
*D12
  1

  0
LINE
  5
10E7B
  8
0
  6
CONTINUOUS
 62
     2
 10
137.95922032106839
 20
97.378728528525116
 30
0.0
 11
137.95922032106839
 21
73.411957344624653
 31
0.0
  0
LINE
  5
10E7C
  8
0
  6
CONTINUOUS
 62
     2
 10
222.9592203210677
 20
110.6373779752911
 30
0.0
 11
222.9592203210677
 21
73.411957344624653
 31
0.0
  0
LINE
  5
10E7D
  8
0
  6
CONTINUOUS
 62
     2
 10
140.45922032106839
 20
74.411957344624653
 30
0.0
 11
220.4592203210677
 21
74.411957344624653
 31
0.0
  0
SOLID
  5
10E7E
  8
0
  6
CONTINUOUS
 62
     2
 10
140.45922032106839
 20
74.828624011291325
 30
0.0
 11
140.45922032106839
 21
73.995290677957982
 31
0.0
 12
137.95922032106839
 22
74.411957344624653
 32
0.0
 13
137.95922032106839
 23
74.411957344624653
 33
0.0
  0
SOLID
  5
10E7F
  8
0
  6
CONTINUOUS
 62
     2
 10
220.4592203210677
 20
74.828624011291325
 30
0.0
 11
220.4592203210677
 21
73.995290677957982
 31
0.0
 12
222.9592203210677
 22
74.411957344624653
 32
0.0
 13
222.9592203210677
 23
74.411957344624653
 33
0.0
  0
TEXT
  8
0
  40
3
  5
1101D
  62
3
  72
0
  71
0
 10
180.459
 20
72.6120
 30
0.000000
  1
85
  0
POINT
  5
10E81
  8
DEFPOINTS
  6
CONTINUOUS
 62
     0
 10
137.95922032106839
 20
97.978728528525096
 30
0.0
  0
POINT
  5
10E82
  8
DEFPOINTS
  6
CONTINUOUS
 62
     0
 10
222.9592203210677
 20
111.237377975291
 30
0.0
  0
POINT
  5
10E83
  8
DEFPOINTS
  6
CONTINUOUS
 62
     0
 10
222.9592203210677
 20
74.411957344624653
 30
0.0
  0
ENDBLK
  5
B8B9
  8
0
  0
BLOCK
  8
0
  2
*D13
 70
     1
 10
0.0
 20
0.0
 30
0.0
  3
*D13
  1

  0
LINE
  5
10E84
  8
0
  6
CONTINUOUS
 62
     2
 10
211.08240031791061
 20
107.97872852852529
 30
0.0
 11
248.2090274010861
 21
107.97872852852529
 31
0.0
  0
LINE
  5
10E85
  8
0
  6
CONTINUOUS
 62
     2
 10
211.0824003179072
 20
149.97872852852529
 30
0.0
 11
248.2090274010861
 21
149.97872852852529
 31
0.0
  0
LINE
  5
10E86
  8
0
  6
CONTINUOUS
 62
     2
 10
247.2090274010861
 20
110.47872852852529
 30
0.0
 11
247.2090274010861
 21
147.47872852852529
 31
0.0
  0
SOLID
  5
10E87
  8
0
  6
CONTINUOUS
 62
     2
 10
246.79236073441939
 20
110.47872852852529
 30
0.0
 11
247.62569406775279
 21
110.47872852852529
 31
0.0
 12
247.2090274010861
 22
107.97872852852529
 32
0.0
 13
247.2090274010861
 23
107.97872852852529
 33
0.0
  0
SOLID
  5
10E88
  8
0
  6
CONTINUOUS
 62
     2
 10
246.79236073441939
 20
147.47872852852529
 30
0.0
 11
247.62569406775279
 21
147.47872852852529
 31
0.0
 12
247.2090274010861
 22
149.97872852852529
 32
0.0
 13
247.2090274010861
 23
149.97872852852529
 33
0.0
  0
TEXT
  8
0
  40
3
  5
1101E
  62
3
  72
0
  71
0
 10
245.109
 20
125.079
 30
0.000000
  1
%%c42
  0
POINT
  5
10E8A
  8
DEFPOINTS
  6
CONTINUOUS
 62
     0
 10
210.4824003179107
 20
107.97872852852529
 30
0.0
  0
POINT
  5
10E8B
  8
DEFPOINTS
  6
CONTINUOUS
 62
     0
 10
210.48240031790721
 20
149.97872852852529
 30
0.0
  0
POINT
  5
10E8C
  8
DEFPOINTS
  6
CONTINUOUS
 62
     0
 10
247.2090274010861
 20
149.97872852852529
 30
0.0
  0
ENDBLK
  5
B92B
  8
0
  0
BLOCK
  8
0
  2
*D14
 70
     1
 10
0.0
 20
0.0
 30
0.0
  3
*D14
  1

  0
LINE
  5
10E8D
  8
0
  6
CONTINUOUS
 62
     2
 10
222.0592203210683
 20
119.45372852852501
 30
0.0
 11
240.2090274010861
 21
119.45372852852501
 31
0.0
  0
LINE
  5
10E8E
  8
0
  6
CONTINUOUS
 62
     2
 10
222.0592203210683
 20
138.50372852852499
 30
0.0
 11
240.2090274010861
 21
138.50372852852499
 31
0.0
  0
LINE
  5
10E8F
  8
0
  6
CONTINUOUS
 62
     2
 10
239.2090274010861
 20
121.95372852852501
 30
0.0
 11
239.2090274010861
 21
136.00372852852499
 31
0.0
  0
SOLID
  5
10E90
  8
0
  6
CONTINUOUS
 62
     2
 10
238.7923607344195
 20
121.95372852852501
 30
0.0
 11
239.62569406775279
 21
121.95372852852501
 31
0.0
 12
239.2090274010861
 22
119.45372852852501
 32
0.0
 13
239.2090274010861
 23
119.45372852852501
 33
0.0
  0
SOLID
  5
10E91
  8
0
  6
CONTINUOUS
 62
     2
 10
238.7923607344195
 20
136.00372852852499
 30
0.0
 11
239.62569406775279
 21
136.00372852852499
 31
0.0
 12
239.2090274010861
 22
138.50372852852499
 32
0.0
 13
239.2090274010861
 23
138.50372852852499
 33
0.0
  0
TEXT
  8
0
  40
3
  5
1101F
  62
3
  72
0
  71
0
 10
237.109
 20
125.079
 30
0.000000
  1
%%C19.05
  0
POINT
  5
10E93
  8
DEFPOINTS
  6
CONTINUOUS
 62
     0
 10
221.4592203210683
 20
119.45372852852501
 30
0.0
  0
POINT
  5
10E94
  8
DEFPOINTS
  6
CONTINUOUS
 62
     0
 10
221.4592203210683
 20
138.50372852852499
 30
0.0
  0
POINT
  5
10E95
  8
DEFPOINTS
  6
CONTINUOUS
 62
     0
 10
239.2090274010861
 20
138.50372852852499
 30
0.0
  0
ENDBLK
  5
BB15
  8
0
  0
BLOCK
  8
0
  2
*D15
 70
     1
 10
0.0
 20
0.0
 30
0.0
  3
*D15
  1

  0
LINE
  5
10E96
  8
0
  6
CONTINUOUS
 62
     2
 10
137.6211892268999
 20
160.47872852852501
 30
0.0
 11
98.347969012632603
 21
160.47872852852501
 31
0.0
  0
LINE
  5
10E97
  8
0
  6
CONTINUOUS
 62
     2
 10
137.85922032106839
 20
97.478728528525096
 30
0.0
 11
98.347969012632575
 21
97.478728528525096
 31
0.0
  0
LINE
  5
10E98
  8
0
  6
CONTINUOUS
 62
     2
 10
99.347969012632575
 20
157.97872852852501
 30
0.0
 11
99.347969012632575
 21
99.978728528525096
 31
0.0
  0
SOLID
  5
10E99
  8
0
  6
CONTINUOUS
 62
     2
 10
98.931302345965904
 20
157.97872852852501
 30
0.0
 11
99.764635679299261
 21
157.97872852852501
 31
0.0
 12
99.347969012632589
 22
160.47872852852501
 32
0.0
 13
99.347969012632589
 23
160.47872852852501
 33
0.0
  0
SOLID
  5
10E9A
  8
0
  6
CONTINUOUS
 62
     2
 10
98.931302345965904
 20
99.978728528525096
 30
0.0
 11
99.764635679299261
 21
99.978728528525096
 31
0.0
 12
99.347969012632575
 22
97.478728528525096
 32
0.0
 13
99.347969012632575
 23
97.478728528525096
 33
0.0
  0
TEXT
  8
0
  40
3
  5
11020
  62
3
  72
0
  71
0
 10
97.2480
 20
125.079
 30
0.000000
  1
HSK63F
  0
POINT
  5
10E9C
  8
DEFPOINTS
  6
CONTINUOUS
 62
     0
 10
138.2211892268999
 20
160.47872852852501
 30
0.0
  0
POINT
  5
10E9D
  8
DEFPOINTS
  6
CONTINUOUS
 62
     0
 10
138.45922032106839
 20
97.478728528525096
 30
0.0
  0
POINT
  5
10E9E
  8
DEFPOINTS
  6
CONTINUOUS
 62
     0
 10
99.347969012632575
 20
97.478728528525096
 30
0.0
  0
ENDBLK
  5
BD89
  8
0
  0
BLOCK
  8
0
  2
*D16
 70
     1
 10
0.0
 20
0.0
 30
0.0
  3
*D16
  1

  0
LINE
  5
10E9F
  8
0
  6
CONTINUOUS
 62
     2
 10
177.09511870592689
 20
153.9787285285249
 30
0.0
 11
256.20902740108608
 21
153.9787285285249
 31
0.0
  0
LINE
  5
10EA0
  8
0
  6
CONTINUOUS
 62
     2
 10
177.0951187059274
 20
103.978728528525
 30
0.0
 11
256.20902740108608
 21
103.978728528525
 31
0.0
  0
LINE
  5
10EA1
  8
0
  6
CONTINUOUS
 62
     2
 10
255.2090274010861
 20
151.47872852852481
 30
0.0
 11
255.2090274010861
 21
106.478728528525
 31
0.0
  0
SOLID
  5
10EA2
  8
0
  6
CONTINUOUS
 62
     2
 10
254.79236073441939
 20
151.47872852852481
 30
0.0
 11
255.62569406775279
 21
151.47872852852481
 31
0.0
 12
255.2090274010861
 22
153.9787285285249
 32
0.0
 13
255.2090274010861
 23
153.9787285285249
 33
0.0
  0
SOLID
  5
10EA3
  8
0
  6
CONTINUOUS
 62
     2
 10
254.79236073441939
 20
106.478728528525
 30
0.0
 11
255.62569406775279
 21
106.478728528525
 31
0.0
 12
255.2090274010861
 22
103.978728528525
 32
0.0
 13
255.2090274010861
 23
103.978728528525
 33
0.0
  0
TEXT
  8
0
  40
3
  5
11021
  62
3
  72
0
  71
0
 10
253.109
 20
125.079
 30
0.000000
  1
%%c50
  0
POINT
  5
10EA5
  8
DEFPOINTS
  6
CONTINUOUS
 62
     0
 10
176.4951187059269
 20
153.9787285285249
 30
0.0
  0
POINT
  5
10EA6
  8
DEFPOINTS
  6
CONTINUOUS
 62
     0
 10
176.49511870592741
 20
103.978728528525
 30
0.0
  0
POINT
  5
10EA7
  8
DEFPOINTS
  6
CONTINUOUS
 62
     0
 10
255.2090274010861
 20
103.978728528525
 30
0.0
  0
ENDBLK
  5
BDB4
  8
0
  0
BLOCK
  8
0
  2
*D17
 70
     1
 10
0.0
 20
0.0
 30
0.0
  3
*D17
  1

  0
LINE
  5
10EA8
  8
0
  6
CONTINUOUS
 62
     2
 10
180.9592203210683
 20
139.32872852852501
 30
0.0
 11
180.9592203210683
 21
165.43544888638991
 31
0.0
  0
LINE
  5
10EA9
  8
0
  6
CONTINUOUS
 62
     2
 10
222.95922032106751
 20
147.53962889734771
 30
0.0
 11
222.95922032106751
 21
165.43544888638991
 31
0.0
  0
LINE
  5
10EAA
  8
0
  6
CONTINUOUS
 62
     2
 10
183.45922032106819
 20
164.43544888638991
 30
0.0
 11
220.45922032106751
 21
164.43544888638991
 31
0.0
  0
SOLID
  5
10EAB
  8
0
  6
CONTINUOUS
 62
     2
 10
183.45922032106819
 20
164.85211555305659
 30
0.0
 11
183.45922032106819
 21
164.01878221972331
 31
0.0
 12
180.9592203210683
 22
164.43544888638991
 32
0.0
 13
180.9592203210683
 23
164.43544888638991
 33
0.0
  0
SOLID
  5
10EAC
  8
0
  6
CONTINUOUS
 62
     2
 10
220.45922032106751
 20
164.85211555305659
 30
0.0
 11
220.45922032106751
 21
164.01878221972331
 31
0.0
 12
222.95922032106751
 22
164.43544888638991
 32
0.0
 13
222.95922032106751
 23
164.43544888638991
 33
0.0
  0
TEXT
  8
0
  40
3
  5
11022
  62
3
  72
0
  71
0
 10
201.959
 20
162.636
 30
0.000000
  1
42
  0
POINT
  5
10EAE
  8
DEFPOINTS
  6
CONTINUOUS
 62
     0
 10
180.9592203210683
 20
138.72872852852501
 30
0.0
  0
POINT
  5
10EAF
  8
DEFPOINTS
  6
CONTINUOUS
 62
     0
 10
222.95922032106751
 20
146.93962889734769
 30
0.0
  0
POINT
  5
10EB0
  8
DEFPOINTS
  6
CONTINUOUS
 62
     0
 10
222.95922032106751
 20
164.43544888638991
 30
0.0
  0
ENDBLK
  5
BE09
  8
0
  0
BLOCK
  8
0
  2
*D18
 70
     1
 10
0.0
 20
0.0
 30
0.0
  3
*D18
  1

  0
LINE
  5
E9A7
  8
0
  6
CONTINUOUS
 62
     2
 10
116.8303500075375
 20
193.06195409908321
 30
0.0
 11
89.903820331158386
 21
193.06195409908321
 31
0.0
  0
LINE
  5
E9A8
  8
0
  6
CONTINUOUS
 62
     2
 10
90.903820331158386
 20
190.56195409908329
 30
0.0
 11
90.903820331158386
 21
170.45486748491001
 31
0.0
  0
SOLID
  5
E9A9
  8
0
  6
CONTINUOUS
 62
     2
 10
90.487153664491714
 20
190.56195409908329
 30
0.0
 11
91.320486997825057
 21
190.56195409908329
 31
0.0
 12
90.903820331158386
 22
193.06195409908321
 32
0.0
 13
90.903820331158386
 23
193.06195409908321
 33
0.0
  0
INSERT
  5
E9AA
  8
0
  6
CONTINUOUS
  2
*U71
 10
0.0
 20
0.0
 30
0.0
  0
POINT
  5
E9AB
  8
DEFPOINTS
  6
CONTINUOUS
 62
     0
 10
117.4303500075375
 20
193.06195409908321
 30
0.0
  0
POINT
  5
E9AC
  8
DEFPOINTS
  6
CONTINUOUS
 62
     0
 10
116.3333844960775
 20
161.0619540990831
 30
0.0
  0
POINT
  5
E9AD
  8
DEFPOINTS
  6
CONTINUOUS
 62
     0
 10
90.903820331158386
 20
161.0619540990831
 30
0.0
  0
ENDBLK
  5
E9AE
  8
0
  0
BLOCK
  8
0
  2
*D19
 70
     1
 10
0.0
 20
0.0
 30
0.0
  3
*D19
  1

  0
LINE
  5
E9B1
  8
0
  6
CONTINUOUS
 62
     2
 10
114.5209489307791
 20
190.0619540990831
 30
0.0
 11
97.903820331158414
 21
190.0619540990831
 31
0.0
  0
LINE
  5
E9B2
  8
0
  6
CONTINUOUS
 62
     2
 10
98.903820331158414
 20
187.5619540990831
 30
0.0
 11
98.903820331158414
 21
167.85456388058071
 31
0.0
  0
SOLID
  5
E9B3
  8
0
  6
CONTINUOUS
 62
     2
 10
98.487153664491757
 20
187.5619540990831
 30
0.0
 11
99.320486997825085
 21
187.5619540990831
 31
0.0
 12
98.903820331158414
 22
190.0619540990831
 32
0.0
 13
98.903820331158414
 23
190.0619540990831
 33
0.0
  0
INSERT
  5
E9B4
  8
0
  6
CONTINUOUS
  2
*U72
 10
0.0
 20
0.0
 30
0.0
  0
POINT
  5
E9B5
  8
DEFPOINTS
  6
CONTINUOUS
 62
     0
 10
115.12094893077909
 20
190.0619540990831
 30
0.0
  0
POINT
  5
E9B6
  8
DEFPOINTS
  6
CONTINUOUS
 62
     0
 10
115.12094893077909
 20
161.0619540990831
 30
0.0
  0
POINT
  5
E9B7
  8
DEFPOINTS
  6
CONTINUOUS
 62
     0
 10
98.903820331158414
 20
161.0619540990831
 30
0.0
  0
ENDBLK
  5
E9B8
  8
0
  0
BLOCK
  8
0
  2
*D20
 70
     1
 10
0.0
 20
0.0
 30
0.0
  3
*D20
  1

  0
LINE
  5
E9BB
  8
0
  6
CONTINUOUS
 62
     2
 10
275.3376894925899
 20
67.89283552401028
 30
0.0
 11
280.2777111647103
 21
58.68555567409728
 31
0.0
  0
INSERT
  5
E9BC
  8
0
  6
CONTINUOUS
  2
*U73
 10
0.0
 20
0.0
 30
0.0
  0
LINE
  5
E9BD
  8
0
  6
CONTINUOUS
 62
     2
 10
283.16168613787642
 20
53.310363737603538
 30
0.0
 11
281.45966812092598
 21
56.48260815914071
 31
0.0
  0
SOLID
  5
E9BE
  8
0
  6
CONTINUOUS
 62
     2
 10
280.64486908386982
 20
58.882548500133247
 30
0.0
 11
279.91055324555089
 21
58.488562848061321
 31
0.0
 12
281.45966812092598
 22
56.48260815914071
 32
0.0
 13
281.45966812092598
 23
56.48260815914071
 33
0.0
  0
POINT
  5
E9BF
  8
DEFPOINTS
  6
CONTINUOUS
 62
     0
 10
281.45966812092598
 20
56.48260815914071
 30
0.0
  0
POINT
  5
E9C0
  8
DEFPOINTS
  6
CONTINUOUS
 62
     0
 10
283.16168613787642
 20
53.310363737603538
 30
0.0
  0
ENDBLK
  5
E9C1
  8
0
  0
BLOCK
  8
0
  2
*D21
 70
     1
 10
0.0
 20
0.0
 30
0.0
  3
*D21
  1

  0
LINE
  5
E9C4
  8
0
  6
CONTINUOUS
 62
     2
 10
282.59471537026599
 20
68.561885872795017
 30
0.0
 11
297.78959987940652
 21
68.561885872795003
 31
0.0
  0
LINE
  5
E9C5
  8
0
  6
CONTINUOUS
 62
     2
 10
280.19471537026601
 20
55.96188587279488
 30
0.0
 11
297.78959987940652
 21
55.96188587279488
 31
0.0
  0
LINE
  5
E9C6
  8
0
  6
CONTINUOUS
 62
     2
 10
296.78959987940652
 20
66.061885872795003
 30
0.0
 11
296.78959987940652
 21
58.46188587279488
 31
0.0
  0
SOLID
  5
E9C7
  8
0
  6
CONTINUOUS
 62
     2
 10
296.37293321273978
 20
66.061885872795003
 30
0.0
 11
297.20626654607321
 21
66.061885872795003
 31
0.0
 12
296.78959987940652
 22
68.561885872795003
 32
0.0
 13
296.78959987940652
 23
68.561885872795003
 33
0.0
  0
SOLID
  5
E9C8
  8
0
  6
CONTINUOUS
 62
     2
 10
296.37293321273978
 20
58.46188587279488
 30
0.0
 11
297.20626654607321
 21
58.46188587279488
 31
0.0
 12
296.78959987940652
 22
55.96188587279488
 32
0.0
 13
296.78959987940652
 23
55.96188587279488
 33
0.0
  0
INSERT
  5
E9C9
  8
0
  6
CONTINUOUS
  2
*U74
 10
0.0
 20
0.0
 30
0.0
  0
POINT
  5
E9CA
  8
DEFPOINTS
  6
CONTINUOUS
 62
     0
 10
281.99471537026602
 20
68.561885872795017
 30
0.0
  0
POINT
  5
E9CB
  8
DEFPOINTS
  6
CONTINUOUS
 62
     0
 10
279.59471537026587
 20
55.96188587279488
 30
0.0
  0
POINT
  5
E9CC
  8
DEFPOINTS
  6
CONTINUOUS
 62
     0
 10
296.78959987940652
 20
55.96188587279488
 30
0.0
  0
ENDBLK
  5
E9CD
  8
0
  0
BLOCK
  8
0
  2
*D22
 70
     1
 10
0.0
 20
0.0
 30
0.0
  3
*D22
  1

  0
LINE
  5
E9D0
  8
0
  6
CONTINUOUS
 62
     2
 10
267.59471537026559
 20
57.761885872794949
 30
0.0
 11
275.87849347968739
 21
57.761885872794942
 31
0.0
  0
LINE
  5
E9D1
  8
0
  6
CONTINUOUS
 62
     2
 10
274.31240682389
 20
55.96188587279488
 30
0.0
 11
275.87849347968739
 21
55.96188587279488
 31
0.0
  0
LINE
  5
E9D2
  8
0
  6
CONTINUOUS
 62
     2
 10
274.87849347968751
 20
53.46188587279488
 30
0.0
 11
274.87849347968751
 21
50.96188587279488
 31
0.0
  0
LINE
  5
E9D3
  8
0
  6
CONTINUOUS
 62
     2
 10
274.87849347968751
 20
60.261885872794942
 30
0.0
 11
274.87849347968751
 21
68.288512146231426
 31
0.0
  0
LINE
  5
E9D4
  8
0
  6
CONTINUOUS
 62
     2
 10
274.87849347968751
 20
55.96188587279488
 30
0.0
 11
274.87849347968751
 21
57.761885872794942
 31
0.0
  0
SOLID
  5
E9D5
  8
0
  6
CONTINUOUS
 62
     2
 10
274.46182681302082
 20
53.46188587279488
 30
0.0
 11
275.29516014635419
 21
53.46188587279488
 31
0.0
 12
274.87849347968751
 22
55.96188587279488
 32
0.0
 13
274.87849347968751
 23
55.96188587279488
 33
0.0
  0
SOLID
  5
E9D6
  8
0
  6
CONTINUOUS
 62
     2
 10
274.46182681302082
 20
60.261885872794942
 30
0.0
 11
275.29516014635419
 21
60.261885872794942
 31
0.0
 12
274.87849347968751
 22
57.761885872794942
 32
0.0
 13
274.87849347968751
 23
57.761885872794942
 33
0.0
  0
INSERT
  5
E9D7
  8
0
  6
CONTINUOUS
  2
*U75
 10
0.0
 20
0.0
 30
0.0
  0
POINT
  5
E9D8
  8
DEFPOINTS
  6
CONTINUOUS
 62
     0
 10
266.99471537026562
 20
57.761885872794949
 30
0.0
  0
POINT
  5
E9D9
  8
DEFPOINTS
  6
CONTINUOUS
 62
     0
 10
273.71240682388998
 20
55.96188587279488
 30
0.0
  0
POINT
  5
E9DA
  8
DEFPOINTS
  6
CONTINUOUS
 62
     0
 10
274.87849347968751
 20
55.96188587279488
 30
0.0
  0
ENDBLK
  5
E9DB
  8
0
  0
BLOCK
  8
0
  2
*D23
 70
     1
 10
0.0
 20
0.0
 30
0.0
  3
*D23
  1

  0
LINE
  5
E9DE
  8
0
  6
CONTINUOUS
 62
     2
 10
266.41515987449259
 20
57.917177299856199
 30
0.0
 11
248.865212218517
 21
62.619671601483077
 31
0.0
  0
LINE
  5
E9DF
  8
0
  6
CONTINUOUS
 62
     2
 10
273.11240682388973
 20
55.961885872794859
 30
0.0
 11
247.9886980989335
 21
55.961885872794788
 31
0.0
  0
ARC
  5
E9E0
  8
0
  6
CONTINUOUS
 62
     2
 10
273.71240682388969
 20
55.961885872794859
 30
0.0
 40
24.7237087249562
 50
153.4078440518463
 51
159.2039220259235
  0
ARC
  5
E9E1
  8
0
  6
CONTINUOUS
 62
     2
 10
273.71240682388969
 20
55.961885872794859
 30
0.0
 40
24.7237087249562
 50
185.79607797407729
 51
191.59215594815461
  0
ARC
  5
E9E2
  8
0
  6
CONTINUOUS
 62
     2
 10
273.71240682388969
 20
55.961885872794859
 30
0.0
 40
24.7237087249562
 50
165.00000000000071
 51
180.00000000000011
  0
SOLID
  5
E9E3
  8
0
  6
CONTINUOUS
 62
     2
 10
250.99595021659371
 20
64.611813176997146
 30
0.0
 11
250.2029461141349
 21
64.867916550516554
 31
0.0
 12
249.8311380448061
 22
62.360852556380557
 32
0.0
 13
249.8311380448061
 23
62.360852556380557
 33
0.0
  0
SOLID
  5
E9E4
  8
0
  6
CONTINUOUS
 62
     2
 10
248.69896120654781
 20
53.4440170032343
 30
0.0
 11
249.53122878004771
 21
53.486149301355709
 31
0.0
 12
248.98869809893361
 22
55.961885872794788
 32
0.0
 13
248.98869809893361
 23
55.961885872794788
 33
0.0
  0
INSERT
  5
E9E5
  8
0
  6
CONTINUOUS
  2
*U76
 10
0.0
 20
0.0
 30
0.0
  0
POINT
  5
E9E6
  8
DEFPOINTS
  6
CONTINUOUS
 62
     0
 10
249.36430678833719
 20
60.255112838051247
 30
0.0
  0
POINT
  5
E9E7
  8
DEFPOINTS
  6
CONTINUOUS
 62
     0
 10
266.99471537026602
 20
57.7618858727947
 30
0.0
  0
POINT
  5
E9E8
  8
DEFPOINTS
  6
CONTINUOUS
 62
     0
 10
273.71240682388992
 20
55.961885872794859
 30
0.0
  0
POINT
  5
E9E9
  8
DEFPOINTS
  6
CONTINUOUS
 62
     0
 10
279.59471537026587
 20
55.961885872794873
 30
0.0
  0
POINT
  5
E9EA
  8
DEFPOINTS
  6
CONTINUOUS
 62
     0
 10
273.71240682389021
 20
55.961885872794738
 30
0.0
  0
ENDBLK
  5
E9EB
  8
0
  0
BLOCK
  8
0
  2
*D24
 70
     1
 10
0.0
 20
0.0
 30
0.0
  3
*D24
  1

  0
LINE
  5
E9EE
  8
0
  6
CONTINUOUS
 62
     2
 10
281.99471537026568
 20
56.278604299795312
 30
0.0
 11
281.99471537026562
 21
36.625053060804731
 31
0.0
  0
LINE
  5
E9EF
  8
0
  6
CONTINUOUS
 62
     2
 10
283.2782192308419
 20
59.429281364690219
 30
0.0
 11
286.4394634275539
 21
36.935860122342987
 31
0.0
  0
ARC
  5
E9F0
  8
0
  6
CONTINUOUS
 62
     2
 10
281.99471537026591
 20
68.561885872795656
 30
0.0
 40
30.936832811990939
 50
260.73735487153238
 51
265.3686774357659
  0
ARC
  5
E9F1
  8
0
  6
CONTINUOUS
 62
     2
 10
281.99471537026591
 20
68.561885872795656
 30
0.0
 40
30.936832811990939
 50
282.63132256423359
 51
287.262645128467
  0
ARC
  5
E9F2
  8
0
  6
CONTINUOUS
 62
     2
 10
281.99471537026591
 20
68.561885872795656
 30
0.0
 40
30.936832811990939
 50
269.99999999999937
 51
278.00000000000011
  0
SOLID
  5
E9F3
  8
0
  6
CONTINUOUS
 62
     2
 10
279.51359227985381
 20
38.142391751931491
 30
0.0
 11
279.47992152005122
 21
37.3097389284938
 31
0.0
 12
281.99471537026562
 22
37.625053060804731
 32
0.0
 13
281.99471537026562
 23
37.625053060804731
 33
0.0
  0
SOLID
  5
E9F4
  8
0
  6
CONTINUOUS
 62
     2
 10
288.83449362149901
 20
37.963874332643712
 30
0.0
 11
288.68526766775528
 21
38.78373777198815
 31
0.0
 12
286.30029032659382
 22
37.926128191084558
 32
0.0
 13
286.30029032659382
 23
37.926128191084558
 33
0.0
  0
INSERT
  5
E9F5
  8
0
  6
CONTINUOUS
  2
*U77
 10
0.0
 20
0.0
 30
0.0
  0
POINT
  5
E9F6
  8
DEFPOINTS
  6
CONTINUOUS
 62
     0
 10
283.43406117525302
 20
37.658554206278779
 30
0.0
  0
POINT
  5
E9F7
  8
DEFPOINTS
  6
CONTINUOUS
 62
     0
 10
281.99471537026579
 20
56.878604299795313
 30
0.0
  0
POINT
  5
E9F8
  8
DEFPOINTS
  6
CONTINUOUS
 62
     0
 10
281.99471537026602
 20
68.561885872795017
 30
0.0
  0
POINT
  5
E9F9
  8
DEFPOINTS
  6
CONTINUOUS
 62
     0
 10
283.1947153702659
 20
60.023442205935169
 30
0.0
  0
POINT
  5
E9FA
  8
DEFPOINTS
  6
CONTINUOUS
 62
     0
 10
281.99471537026602
 20
76.559164148190277
 30
0.0
  0
ENDBLK
  5
E9FB
  8
0
  0
BLOCK
  8
0
  2
*D25
 70
     1
 10
0.0
 20
0.0
 30
0.0
  3
*D25
  1

  0
LINE
  5
E9FE
  8
0
  6
CONTINUOUS
 62
     2
 10
266.99471537026602
 20
58.36188587279495
 30
0.0
 11
266.99471537026602
 21
83.078920845342566
 31
0.0
  0
LINE
  5
E9FF
  8
0
  6
CONTINUOUS
 62
     2
 10
281.99471537026579
 20
77.159164148190172
 30
0.0
 11
281.99471537026579
 21
83.078920845342566
 31
0.0
  0
LINE
  5
EA00
  8
0
  6
CONTINUOUS
 62
     2
 10
269.49471537026602
 20
82.078920845342566
 30
0.0
 11
279.49471537026579
 21
82.078920845342566
 31
0.0
  0
SOLID
  5
EA01
  8
0
  6
CONTINUOUS
 62
     2
 10
269.49471537026602
 20
82.495587512009237
 30
0.0
 11
269.49471537026602
 21
81.662254178675894
 31
0.0
 12
266.99471537026602
 22
82.078920845342566
 32
0.0
 13
266.99471537026602
 23
82.078920845342566
 33
0.0
  0
SOLID
  5
EA02
  8
0
  6
CONTINUOUS
 62
     2
 10
279.49471537026579
 20
82.495587512009237
 30
0.0
 11
279.49471537026579
 21
81.662254178675894
 31
0.0
 12
281.99471537026579
 22
82.078920845342566
 32
0.0
 13
281.99471537026579
 23
82.078920845342566
 33
0.0
  0
INSERT
  5
EA03
  8
0
  6
CONTINUOUS
  2
*U78
 10
0.0
 20
0.0
 30
0.0
  0
POINT
  5
EA04
  8
DEFPOINTS
  6
CONTINUOUS
 62
     0
 10
266.99471537026602
 20
57.761885872794949
 30
0.0
  0
POINT
  5
EA05
  8
DEFPOINTS
  6
CONTINUOUS
 62
     0
 10
281.99471537026579
 20
76.559164148190163
 30
0.0
  0
POINT
  5
EA06
  8
DEFPOINTS
  6
CONTINUOUS
 62
     0
 10
281.99471537026579
 20
82.078920845342566
 30
0.0
  0
ENDBLK
  5
EA07
  8
0
  0
BLOCK
  8
0
  2
*D26
 70
     1
 10
0.0
 20
0.0
 30
0.0
  3
*D26
  1

  0
LINE
  5
EA0A
  8
0
  6
CONTINUOUS
 62
     2
 10
281.99471537026579
 20
77.159164148190172
 30
0.0
 11
281.99471537026579
 21
83.078920845342566
 31
0.0
  0
LINE
  5
EA0B
  8
0
  6
CONTINUOUS
 62
     2
 10
283.1947153702659
 20
60.62344220593517
 30
0.0
 11
283.1947153702659
 21
83.078920845342566
 31
0.0
  0
LINE
  5
EA0C
  8
0
  6
CONTINUOUS
 62
     2
 10
279.49471537026579
 20
82.078920845342566
 30
0.0
 11
276.99471537026579
 21
82.078920845342566
 31
0.0
  0
LINE
  5
EA0D
  8
0
  6
CONTINUOUS
 62
     2
 10
285.6947153702659
 20
82.078920845342566
 30
0.0
 11
293.77725474034457
 21
82.078920845342566
 31
0.0
  0
LINE
  5
EA0E
  8
0
  6
CONTINUOUS
 62
     2
 10
281.99471537026579
 20
82.078920845342566
 30
0.0
 11
283.1947153702659
 21
82.078920845342566
 31
0.0
  0
SOLID
  5
EA0F
  8
0
  6
CONTINUOUS
 62
     2
 10
279.49471537026579
 20
82.495587512009237
 30
0.0
 11
279.49471537026579
 21
81.662254178675894
 31
0.0
 12
281.99471537026579
 22
82.078920845342566
 32
0.0
 13
281.99471537026579
 23
82.078920845342566
 33
0.0
  0
SOLID
  5
EA10
  8
0
  6
CONTINUOUS
 62
     2
 10
285.6947153702659
 20
82.495587512009237
 30
0.0
 11
285.6947153702659
 21
81.662254178675894
 31
0.0
 12
283.1947153702659
 22
82.078920845342566
 32
0.0
 13
283.1947153702659
 23
82.078920845342566
 33
0.0
  0
INSERT
  5
EA11
  8
0
  6
CONTINUOUS
  2
*U79
 10
0.0
 20
0.0
 30
0.0
  0
POINT
  5
EA12
  8
DEFPOINTS
  6
CONTINUOUS
 62
     0
 10
281.99471537026579
 20
76.559164148190163
 30
0.0
  0
POINT
  5
EA13
  8
DEFPOINTS
  6
CONTINUOUS
 62
     0
 10
283.1947153702659
 20
60.023442205935169
 30
0.0
  0
POINT
  5
EA14
  8
DEFPOINTS
  6
CONTINUOUS
 62
     0
 10
283.1947153702659
 20
82.078920845342566
 30
0.0
  0
ENDBLK
  5
EA15
  8
0
  0
BLOCK
  8
0
  2
*D27
 70
     1
 10
0.0
 20
0.0
 30
0.0
  3
*D27
  1

  0
LINE
  5
EA18
  8
0
  6
CONTINUOUS
 62
     2
 10
167.59787008905829
 20
140.39378700617959
 30
0.0
 11
151.86435926403331
 21
140.39378700617959
 31
0.0
  0
LINE
  5
EA19
  8
0
  6
CONTINUOUS
 62
     2
 10
152.86435926403331
 20
137.89378700617959
 30
0.0
 11
152.86435926403331
 21
119.7887870061796
 31
0.0
  0
SOLID
  5
EA1A
  8
0
  6
CONTINUOUS
 62
     2
 10
152.4476925973666
 20
137.89378700617959
 30
0.0
 11
153.28102593069991
 21
137.89378700617959
 31
0.0
 12
152.86435926403331
 22
140.39378700617959
 32
0.0
 13
152.86435926403331
 23
140.39378700617959
 33
0.0
  0
INSERT
  5
EA1B
  8
0
  6
CONTINUOUS
  2
*U80
 10
0.0
 20
0.0
 30
0.0
  0
POINT
  5
EA1C
  8
DEFPOINTS
  6
CONTINUOUS
 62
     0
 10
168.19787008905811
 20
114.39378700617959
 30
0.0
  0
POINT
  5
EA1D
  8
DEFPOINTS
  6
CONTINUOUS
 62
     0
 10
168.19787008905831
 20
140.39378700617959
 30
0.0
  0
POINT
  5
EA1E
  8
DEFPOINTS
  6
CONTINUOUS
 62
     0
 10
152.86435926403331
 20
140.39378700617959
 30
0.0
  0
ENDBLK
  5
EA1F
  8
0
  0
BLOCK
  8
0
  2
*D28
 70
     1
 10
0.0
 20
0.0
 30
0.0
  3
*D28
  1

  0
LINE
  5
EA22
  8
0
  6
CONTINUOUS
 62
     2
 10
175.5978700890584
 20
145.84378694287969
 30
0.0
 11
143.86435926403331
 21
145.84378694287969
 31
0.0
  0
LINE
  5
EA23
  8
0
  6
CONTINUOUS
 62
     2
 10
144.86435926403331
 20
143.34378694287969
 30
0.0
 11
144.86435926403331
 21
118.336458896265
 31
0.0
  0
SOLID
  5
EA24
  8
0
  6
CONTINUOUS
 62
     2
 10
144.4476925973666
 20
143.34378694287969
 30
0.0
 11
145.2810259307
 21
143.34378694287969
 31
0.0
 12
144.86435926403331
 22
145.84378694287969
 32
0.0
 13
144.86435926403331
 23
145.84378694287969
 33
0.0
  0
INSERT
  5
EA25
  8
0
  6
CONTINUOUS
  2
*U81
 10
0.0
 20
0.0
 30
0.0
  0
POINT
  5
EA26
  8
DEFPOINTS
  6
CONTINUOUS
 62
     0
 10
176.1978700890584
 20
108.9437870694794
 30
0.0
  0
POINT
  5
EA27
  8
DEFPOINTS
  6
CONTINUOUS
 62
     0
 10
176.1978700890584
 20
145.84378694287969
 30
0.0
  0
POINT
  5
EA28
  8
DEFPOINTS
  6
CONTINUOUS
 62
     0
 10
144.86435926403331
 20
145.84378694287969
 30
0.0
  0
ENDBLK
  5
EA29
  8
0
  0
BLOCK
  8
0
  2
*D29
 70
     1
 10
0.0
 20
0.0
 30
0.0
  3
*D29
  1

  0
LINE
  5
EA2C
  8
0
  6
CONTINUOUS
 62
     2
 10
186.59787008905809
 20
146.39378700617959
 30
0.0
 11
135.86435926403331
 21
146.39378700617959
 31
0.0
  0
LINE
  5
EA2D
  8
0
  6
CONTINUOUS
 62
     2
 10
136.86435926403331
 20
143.89378700617959
 30
0.0
 11
136.86435926403331
 21
119.8186138532278
 31
0.0
  0
SOLID
  5
EA2E
  8
0
  6
CONTINUOUS
 62
     2
 10
136.4476925973666
 20
143.89378700617959
 30
0.0
 11
137.28102593069991
 21
143.89378700617959
 31
0.0
 12
136.86435926403331
 22
146.39378700617959
 32
0.0
 13
136.86435926403331
 23
146.39378700617959
 33
0.0
  0
INSERT
  5
EA2F
  8
0
  6
CONTINUOUS
  2
*U82
 10
0.0
 20
0.0
 30
0.0
  0
POINT
  5
EA30
  8
DEFPOINTS
  6
CONTINUOUS
 62
     0
 10
187.19787008905811
 20
108.39378700617959
 30
0.0
  0
POINT
  5
EA31
  8
DEFPOINTS
  6
CONTINUOUS
 62
     0
 10
187.19787008905811
 20
146.39378700617959
 30
0.0
  0
POINT
  5
EA32
  8
DEFPOINTS
  6
CONTINUOUS
 62
     0
 10
136.86435926403331
 20
146.39378700617959
 30
0.0
  0
ENDBLK
  5
EA33
  8
0
  0
BLOCK
  8
0
  2
*D30
 70
     1
 10
0.0
 20
0.0
 30
0.0
  3
*D30
  1

  0
LINE
  5
EA36
  8
0
  6
CONTINUOUS
 62
     2
 10
168.19787008905811
 20
135.92878700617959
 30
0.0
 11
168.19787008905811
 21
132.08148936694951
 31
0.0
  0
LINE
  5
EA37
  8
0
  6
CONTINUOUS
 62
     2
 10
167.19787008905811
 20
135.92878700617959
 30
0.0
 11
167.19787008905811
 21
132.08148936694951
 31
0.0
  0
LINE
  5
EA38
  8
0
  6
CONTINUOUS
 62
     2
 10
170.69787008905811
 20
133.08148936694951
 30
0.0
 11
173.19787008905811
 21
133.08148936694951
 31
0.0
  0
LINE
  5
EA39
  8
0
  6
CONTINUOUS
 62
     2
 10
164.69787008905811
 20
133.08148936694951
 30
0.0
 11
155.45088524095979
 21
133.08148936694951
 31
0.0
  0
LINE
  5
EA3A
  8
0
  6
CONTINUOUS
 62
     2
 10
168.19787008905811
 20
133.08148936694951
 30
0.0
 11
167.19787008905811
 21
133.08148936694951
 31
0.0
  0
SOLID
  5
EA3B
  8
0
  6
CONTINUOUS
 62
     2
 10
170.69787008905811
 20
133.4981560336162
 30
0.0
 11
170.69787008905811
 21
132.66482270028291
 31
0.0
 12
168.19787008905811
 22
133.08148936694951
 32
0.0
 13
168.19787008905811
 23
133.08148936694951
 33
0.0
  0
SOLID
  5
EA3C
  8
0
  6
CONTINUOUS
 62
     2
 10
164.69787008905811
 20
133.4981560336162
 30
0.0
 11
164.69787008905811
 21
132.66482270028291
 31
0.0
 12
167.19787008905811
 22
133.08148936694951
 32
0.0
 13
167.19787008905811
 23
133.08148936694951
 33
0.0
  0
INSERT
  5
EA3D
  8
0
  6
CONTINUOUS
  2
*U83
 10
0.0
 20
0.0
 30
0.0
  0
POINT
  5
EA3E
  8
DEFPOINTS
  6
CONTINUOUS
 62
     0
 10
168.19787008905811
 20
136.52878700617961
 30
0.0
  0
POINT
  5
EA3F
  8
DEFPOINTS
  6
CONTINUOUS
 62
     0
 10
167.19787008905811
 20
136.52878700617961
 30
0.0
  0
POINT
  5
EA40
  8
DEFPOINTS
  6
CONTINUOUS
 62
     0
 10
167.19787008905811
 20
133.08148936694951
 30
0.0
  0
ENDBLK
  5
EA41
  8
0
  0
BLOCK
  8
0
  2
*D31
 70
     1
 10
0.0
 20
0.0
 30
0.0
  3
*D31
  1

  0
LINE
  5
EA44
  8
0
  6
CONTINUOUS
 62
     2
 10
165.56229381073049
 20
146.74552219286949
 30
0.0
 11
160.51704779221541
 21
151.15409255214209
 31
0.0
  0
LINE
  5
EA45
  8
0
  6
CONTINUOUS
 62
     2
 10
168.19787008905919
 20
144.44253767683159
 30
0.0
 11
167.44484829525109
 21
145.1005332528423
 31
0.0
  0
SOLID
  5
EA46
  8
0
  6
CONTINUOUS
 62
     2
 10
165.83645863406841
 20
147.0592812736229
 30
0.0
 11
165.2881289873927
 21
146.43176311211599
 31
0.0
 12
167.44484829525109
 22
145.1005332528423
 32
0.0
 13
167.44484829525109
 23
145.1005332528423
 33
0.0
  0
INSERT
  5
EA47
  8
0
  6
CONTINUOUS
  2
*U84
 10
0.0
 20
0.0
 30
0.0
  0
POINT
  5
EA48
  8
DEFPOINTS
  6
CONTINUOUS
 62
     0
 10
167.44484829525109
 20
145.1005332528423
 30
0.0
  0
POINT
  5
EA49
  8
DEFPOINTS
  6
CONTINUOUS
 62
     0
 10
168.19787008905919
 20
144.44253767683159
 30
0.0
  0
ENDBLK
  5
EA4A
  8
0
  0
BLOCK
  8
0
  2
*D32
 70
     1
 10
0.0
 20
0.0
 30
0.0
  3
*D32
  1

  0
LINE
  5
EA4D
  8
0
  6
CONTINUOUS
 62
     2
 10
192.19787008905831
 20
102.2937870061797
 30
0.0
 11
192.19787008905831
 21
79.533172262933064
 31
0.0
  0
LINE
  5
EA4E
  8
0
  6
CONTINUOUS
 62
     2
 10
184.69787008905811
 20
123.2937870061796
 30
0.0
 11
184.69787008905811
 21
79.533172262933064
 31
0.0
  0
LINE
  5
EA4F
  8
0
  6
CONTINUOUS
 62
     2
 10
189.69787008905831
 20
80.533172262933064
 30
0.0
 11
187.19787008905811
 21
80.533172262933064
 31
0.0
  0
SOLID
  5
EA50
  8
0
  6
CONTINUOUS
 62
     2
 10
189.69787008905831
 20
80.94983892959975
 30
0.0
 11
189.69787008905831
 21
80.116505596266407
 31
0.0
 12
192.19787008905831
 22
80.533172262933064
 32
0.0
 13
192.19787008905831
 23
80.533172262933064
 33
0.0
  0
SOLID
  5
EA51
  8
0
  6
CONTINUOUS
 62
     2
 10
187.19787008905811
 20
80.94983892959975
 30
0.0
 11
187.19787008905811
 21
80.116505596266407
 31
0.0
 12
184.69787008905811
 22
80.533172262933064
 32
0.0
 13
184.69787008905811
 23
80.533172262933064
 33
0.0
  0
INSERT
  5
EA52
  8
0
  6
CONTINUOUS
  2
*U85
 10
0.0
 20
0.0
 30
0.0
  0
POINT
  5
EA53
  8
DEFPOINTS
  6
CONTINUOUS
 62
     0
 10
192.19787008905831
 20
102.89378700617971
 30
0.0
  0
POINT
  5
EA54
  8
DEFPOINTS
  6
CONTINUOUS
 62
     0
 10
184.69787008905811
 20
123.89378700617959
 30
0.0
  0
POINT
  5
EA55
  8
DEFPOINTS
  6
CONTINUOUS
 62
     0
 10
184.69787008905811
 20
80.533172262933064
 30
0.0
  0
ENDBLK
  5
EA56
  8
0
  0
BLOCK
  8
0
  2
*D33
 70
     1
 10
0.0
 20
0.0
 30
0.0
  3
*D33
  1

  0
LINE
  5
EA59
  8
0
  6
CONTINUOUS
 62
     2
 10
167.19787008905811
 20
109.7450363355281
 30
0.0
 11
167.19787008905811
 21
71.533172262933078
 31
0.0
  0
LINE
  5
EA5A
  8
0
  6
CONTINUOUS
 62
     2
 10
192.19787008905831
 20
102.2937870061797
 30
0.0
 11
192.19787008905831
 21
71.533172262933078
 31
0.0
  0
LINE
  5
EA5B
  8
0
  6
CONTINUOUS
 62
     2
 10
169.69787008905811
 20
72.533172262933078
 30
0.0
 11
189.69787008905831
 21
72.533172262933078
 31
0.0
  0
SOLID
  5
EA5C
  8
0
  6
CONTINUOUS
 62
     2
 10
169.69787008905811
 20
72.94983892959975
 30
0.0
 11
169.69787008905811
 21
72.116505596266407
 31
0.0
 12
167.19787008905811
 22
72.533172262933078
 32
0.0
 13
167.19787008905811
 23
72.533172262933078
 33
0.0
  0
SOLID
  5
EA5D
  8
0
  6
CONTINUOUS
 62
     2
 10
189.69787008905831
 20
72.94983892959975
 30
0.0
 11
189.69787008905831
 21
72.116505596266407
 31
0.0
 12
192.19787008905831
 22
72.533172262933078
 32
0.0
 13
192.19787008905831
 23
72.533172262933078
 33
0.0
  0
INSERT
  5
EA5E
  8
0
  6
CONTINUOUS
  2
*U86
 10
0.0
 20
0.0
 30
0.0
  0
POINT
  5
EA5F
  8
DEFPOINTS
  6
CONTINUOUS
 62
     0
 10
167.19787008905811
 20
110.34503633552811
 30
0.0
  0
POINT
  5
EA60
  8
DEFPOINTS
  6
CONTINUOUS
 62
     0
 10
192.19787008905831
 20
102.89378700617971
 30
0.0
  0
POINT
  5
EA61
  8
DEFPOINTS
  6
CONTINUOUS
 62
     0
 10
192.19787008905831
 20
72.533172262933078
 30
0.0
  0
ENDBLK
  5
EA62
  8
0
  0
BLOCK
  8
0
  2
*D34
 70
     1
 10
0.0
 20
0.0
 30
0.0
  3
*D34
  1

  0
LINE
  5
EA65
  8
0
  6
CONTINUOUS
 62
     2
 10
187.18688216251181
 20
137.39378700618059
 30
0.0
 11
189.1028926769954
 21
140.3227635694839
 31
0.0
  0
SOLID
  5
EA66
  8
0
  6
CONTINUOUS
 62
     2
 10
188.7542049908877
 20
140.5508600593034
 30
0.0
 11
189.45158036310301
 21
140.0946670796643
 31
0.0
 12
190.47147161591269
 22
142.41488968612981
 32
0.0
 13
190.47147161591269
 23
142.41488968612981
 33
0.0
  0
INSERT
  5
EA67
  8
0
  6
CONTINUOUS
  2
*U87
 10
0.0
 20
0.0
 30
0.0
  0
POINT
  5
EA68
  8
DEFPOINTS
  6
CONTINUOUS
 62
     0
 10
190.47147161591269
 20
142.41488968612981
 30
0.0
  0
POINT
  5
EA69
  8
DEFPOINTS
  6
CONTINUOUS
 62
     0
 10
187.18688216251181
 20
137.39378700618059
 30
0.0
  0
ENDBLK
  5
EA6A
  8
0
  0
BLOCK
  8
0
  2
*D35
 70
     1
 10
0.0
 20
0.0
 30
0.0
  3
*D35
  1

  0
LINE
  5
EA6D
  8
0
  6
CONTINUOUS
 62
     2
 10
194.3413114637504
 20
130.4325739011212
 30
0.0
 11
200.11061920669229
 21
138.3843820388355
 31
0.0
  0
INSERT
  5
EA6E
  8
0
  6
CONTINUOUS
  2
*U88
 10
0.0
 20
0.0
 30
0.0
  0
SOLID
  5
EA6F
  8
0
  6
CONTINUOUS
 62
     2
 10
199.77336713696559
 20
138.6290699064877
 30
0.0
 11
200.44787127641891
 21
138.13969417118329
 31
0.0
 12
201.5787464126058
 22
140.4078944571954
 32
0.0
 13
201.5787464126058
 23
140.4078944571954
 33
0.0
  0
POINT
  5
EA70
  8
DEFPOINTS
  6
CONTINUOUS
 62
     0
 10
201.5787464126058
 20
140.4078944571954
 30
0.0
  0
POINT
  5
EA71
  8
DEFPOINTS
  6
CONTINUOUS
 62
     0
 10
200.6978700890576
 20
139.19378700617941
 30
0.0
  0
ENDBLK
  5
EA72
  8
0
  0
BLOCK
  8
0
  2
*D36
 70
     1
 10
0.0
 20
0.0
 30
0.0
  3
*D36
  1

  0
LINE
  5
EA75
  8
0
  6
CONTINUOUS
 62
     2
 10
192.19787008905831
 20
152.4937870061795
 30
0.0
 11
192.19787008905831
 21
165.85235055059511
 31
0.0
  0
LINE
  5
EA76
  8
0
  6
CONTINUOUS
 62
     2
 10
187.19787008905811
 20
148.99628544620441
 30
0.0
 11
187.19787008905811
 21
165.85235055059511
 31
0.0
  0
LINE
  5
EA77
  8
0
  6
CONTINUOUS
 62
     2
 10
194.69787008905831
 20
164.85235055059511
 30
0.0
 11
197.19787008905831
 21
164.85235055059511
 31
0.0
  0
LINE
  5
EA78
  8
0
  6
CONTINUOUS
 62
     2
 10
184.69787008905811
 20
164.85235055059511
 30
0.0
 11
182.19787008905811
 21
164.85235055059511
 31
0.0
  0
LINE
  5
EA79
  8
0
  6
CONTINUOUS
 62
     2
 10
192.19787008905831
 20
164.85235055059511
 30
0.0
 11
187.19787008905811
 21
164.85235055059511
 31
0.0
  0
SOLID
  5
EA7A
  8
0
  6
CONTINUOUS
 62
     2
 10
194.69787008905831
 20
165.26901721726171
 30
0.0
 11
194.69787008905831
 21
164.43568388392839
 31
0.0
 12
192.19787008905831
 22
164.85235055059511
 32
0.0
 13
192.19787008905831
 23
164.85235055059511
 33
0.0
  0
SOLID
  5
EA7B
  8
0
  6
CONTINUOUS
 62
     2
 10
184.69787008905811
 20
165.26901721726171
 30
0.0
 11
184.69787008905811
 21
164.43568388392839
 31
0.0
 12
187.19787008905811
 22
164.85235055059511
 32
0.0
 13
187.19787008905811
 23
164.85235055059511
 33
0.0
  0
INSERT
  5
EA7C
  8
0
  6
CONTINUOUS
  2
*U89
 10
0.0
 20
0.0
 30
0.0
  0
POINT
  5
EA7D
  8
DEFPOINTS
  6
CONTINUOUS
 62
     0
 10
192.19787008905831
 20
151.89378700617951
 30
0.0
  0
POINT
  5
EA7E
  8
DEFPOINTS
  6
CONTINUOUS
 62
     0
 10
187.19787008905811
 20
148.39628544620439
 30
0.0
  0
POINT
  5
EA7F
  8
DEFPOINTS
  6
CONTINUOUS
 62
     0
 10
187.19787008905811
 20
164.85235055059511
 30
0.0
  0
ENDBLK
  5
EA80
  8
0
  0
BLOCK
  8
0
  2
*D37
 70
     1
 10
0.0
 20
0.0
 30
0.0
  3
*D37
  1

  0
LINE
  5
EA83
  8
0
  6
CONTINUOUS
 62
     2
 10
187.19787008905811
 20
148.99628544620441
 30
0.0
 11
187.19787008905811
 21
165.85235055059511
 31
0.0
  0
LINE
  5
EA84
  8
0
  6
CONTINUOUS
 62
     2
 10
176.1978700890584
 20
148.44628538290439
 30
0.0
 11
176.1978700890584
 21
165.85235055059511
 31
0.0
  0
LINE
  5
EA85
  8
0
  6
CONTINUOUS
 62
     2
 10
184.69787008905811
 20
164.85235055059511
 30
0.0
 11
178.6978700890584
 21
164.85235055059511
 31
0.0
  0
SOLID
  5
EA86
  8
0
  6
CONTINUOUS
 62
     2
 10
184.69787008905811
 20
165.26901721726171
 30
0.0
 11
184.69787008905811
 21
164.43568388392839
 31
0.0
 12
187.19787008905811
 22
164.85235055059511
 32
0.0
 13
187.19787008905811
 23
164.85235055059511
 33
0.0
  0
SOLID
  5
EA87
  8
0
  6
CONTINUOUS
 62
     2
 10
178.6978700890584
 20
165.26901721726171
 30
0.0
 11
178.6978700890584
 21
164.43568388392839
 31
0.0
 12
176.1978700890584
 22
164.85235055059511
 32
0.0
 13
176.1978700890584
 23
164.85235055059511
 33
0.0
  0
INSERT
  5
EA88
  8
0
  6
CONTINUOUS
  2
*U90
 10
0.0
 20
0.0
 30
0.0
  0
POINT
  5
EA89
  8
DEFPOINTS
  6
CONTINUOUS
 62
     0
 10
187.19787008905811
 20
148.39628544620439
 30
0.0
  0
POINT
  5
EA8A
  8
DEFPOINTS
  6
CONTINUOUS
 62
     0
 10
176.1978700890584
 20
147.8462853829044
 30
0.0
  0
POINT
  5
EA8B
  8
DEFPOINTS
  6
CONTINUOUS
 62
     0
 10
176.1978700890584
 20
164.85235055059511
 30
0.0
  0
ENDBLK
  5
EA8C
  8
0
  0
BLOCK
  8
0
  2
*D38
 70
     1
 10
0.0
 20
0.0
 30
0.0
  3
*D38
  1

  0
LINE
  5
EA8F
  8
0
  6
CONTINUOUS
 62
     2
 10
178.0678700890582
 20
142.49378700617939
 30
0.0
 11
178.0678700890582
 21
173.85235055059499
 31
0.0
  0
LINE
  5
EA90
  8
0
  6
CONTINUOUS
 62
     2
 10
192.19787008905831
 20
152.4937870061795
 30
0.0
 11
192.19787008905831
 21
173.85235055059499
 31
0.0
  0
LINE
  5
EA91
  8
0
  6
CONTINUOUS
 62
     2
 10
189.69787008905831
 20
172.85235055059511
 30
0.0
 11
180.5678700890582
 21
172.85235055059511
 31
0.0
  0
LINE
  5
EA92
  8
0
  6
CONTINUOUS
 62
     2
 10
178.0678700890582
 20
172.85235055059511
 30
0.0
 11
158.6658852409598
 21
172.85235055059511
 31
0.0
  0
SOLID
  5
EA93
  8
0
  6
CONTINUOUS
 62
     2
 10
189.69787008905831
 20
173.26901721726171
 30
0.0
 11
189.69787008905831
 21
172.43568388392839
 31
0.0
 12
192.19787008905831
 22
172.85235055059511
 32
0.0
 13
192.19787008905831
 23
172.85235055059511
 33
0.0
  0
SOLID
  5
EA94
  8
0
  6
CONTINUOUS
 62
     2
 10
180.5678700890582
 20
173.26901721726171
 30
0.0
 11
180.5678700890582
 21
172.43568388392839
 31
0.0
 12
178.0678700890582
 22
172.85235055059511
 32
0.0
 13
178.0678700890582
 23
172.85235055059511
 33
0.0
  0
INSERT
  5
EA95
  8
0
  6
CONTINUOUS
  2
*U91
 10
0.0
 20
0.0
 30
0.0
  0
POINT
  5
EA96
  8
DEFPOINTS
  6
CONTINUOUS
 62
     0
 10
178.0678700890582
 20
141.89378700617939
 30
0.0
  0
POINT
  5
EA97
  8
DEFPOINTS
  6
CONTINUOUS
 62
     0
 10
192.19787008905831
 20
151.89378700617951
 30
0.0
  0
POINT
  5
EA98
  8
DEFPOINTS
  6
CONTINUOUS
 62
     0
 10
192.19787008905831
 20
172.85235055059511
 30
0.0
  0
ENDBLK
  5
EA99
  8
0
  0
BLOCK
  8
0
  2
*D39
 70
     1
 10
0.0
 20
0.0
 30
0.0
  3
*D39
  1

  0
LINE
  5
EA9C
  8
0
  6
CONTINUOUS
 62
     2
 10
192.19787008905831
 20
153.0937870061795
 30
0.0
 11
192.19787008905831
 21
181.85235055059499
 31
0.0
  0
LINE
  5
EA9D
  8
0
  6
CONTINUOUS
 62
     2
 10
202.19787008905811
 20
139.79378700617951
 30
0.0
 11
202.19787008905811
 21
181.85235055059499
 31
0.0
  0
LINE
  5
EA9E
  8
0
  6
CONTINUOUS
 62
     2
 10
194.69787008905831
 20
180.85235055059499
 30
0.0
 11
199.69787008905811
 21
180.85235055059499
 31
0.0
  0
SOLID
  5
EA9F
  8
0
  6
CONTINUOUS
 62
     2
 10
194.69787008905831
 20
181.26901721726171
 30
0.0
 11
194.69787008905831
 21
180.43568388392839
 31
0.0
 12
192.19787008905831
 22
180.85235055059499
 32
0.0
 13
192.19787008905831
 23
180.85235055059499
 33
0.0
  0
SOLID
  5
EAA0
  8
0
  6
CONTINUOUS
 62
     2
 10
199.69787008905811
 20
181.26901721726171
 30
0.0
 11
199.69787008905811
 21
180.43568388392839
 31
0.0
 12
202.19787008905811
 22
180.85235055059499
 32
0.0
 13
202.19787008905811
 23
180.85235055059499
 33
0.0
  0
INSERT
  5
EAA1
  8
0
  6
CONTINUOUS
  2
*U92
 10
0.0
 20
0.0
 30
0.0
  0
POINT
  5
EAA2
  8
DEFPOINTS
  6
CONTINUOUS
 62
     0
 10
192.19787008905831
 20
152.4937870061795
 30
0.0
  0
POINT
  5
EAA3
  8
DEFPOINTS
  6
CONTINUOUS
 62
     0
 10
202.19787008905811
 20
139.19378700617949
 30
0.0
  0
POINT
  5
EAA4
  8
DEFPOINTS
  6
CONTINUOUS
 62
     0
 10
202.19787008905811
 20
180.85235055059499
 30
0.0
  0
ENDBLK
  5
EAA5
  8
0
  0
BLOCK
  8
0
  2
*D40
 70
     1
 10
0.0
 20
0.0
 30
0.0
  3
*D40
  1

  0
LINE
  5
EAA8
  8
0
  6
CONTINUOUS
 62
     2
 10
125.1122911975733
 20
182.94187443204009
 30
0.0
 11
118.396691554375
 21
190.91470346611081
 31
0.0
  0
INSERT
  5
EAA9
  8
0
  6
CONTINUOUS
  2
*U93
 10
0.0
 20
0.0
 30
0.0
  0
SOLID
  5
EAAA
  8
0
  6
CONTINUOUS
 62
     2
 10
118.7153722857564
 20
191.1831316735655
 30
0.0
 11
118.0780108229937
 21
190.646275258656
 31
0.0
 12
116.7861223096466
 22
192.82678785439879
 32
0.0
 13
116.7861223096466
 23
192.82678785439879
 33
0.0
  0
POINT
  5
EAAB
  8
DEFPOINTS
  6
CONTINUOUS
 62
     0
 10
116.7861223096466
 20
192.82678785439879
 30
0.0
  0
POINT
  5
EAAC
  8
DEFPOINTS
  6
CONTINUOUS
 62
     0
 10
117.4303500075376
 20
192.06195409908401
 30
0.0
  0
ENDBLK
  5
EAAD
  8
0
  0
BLOCK
  8
0
  2
*D41
 70
     1
 10
0.0
 20
0.0
 30
0.0
  3
*D41
  1

  0
LINE
  5
EAB0
  8
0
  6
CONTINUOUS
 62
     2
 10
266.18711347090959
 20
213.9514635981194
 30
0.0
 11
232.2789278034443
 21
213.9514635981194
 31
0.0
  0
LINE
  5
EAB1
  8
0
  6
CONTINUOUS
 62
     2
 10
233.2789278034443
 20
211.4514635981194
 30
0.0
 11
233.2789278034443
 21
182.767326231033
 31
0.0
  0
SOLID
  5
EAB2
  8
0
  6
CONTINUOUS
 62
     2
 10
232.8622611367777
 20
211.4514635981194
 30
0.0
 11
233.69559447011099
 21
211.4514635981194
 31
0.0
 12
233.2789278034443
 22
213.9514635981194
 32
0.0
 13
233.2789278034443
 23
213.9514635981194
 33
0.0
  0
INSERT
  5
EAB3
  8
0
  6
CONTINUOUS
  2
*U94
 10
0.0
 20
0.0
 30
0.0
  0
POINT
  5
EAB4
  8
DEFPOINTS
  6
CONTINUOUS
 62
     0
 10
266.78711347090962
 20
213.9514635981194
 30
0.0
  0
POINT
  5
EAB5
  8
DEFPOINTS
  6
CONTINUOUS
 62
     0
 10
266.78711347090962
 20
141.65146359811939
 30
0.0
  0
POINT
  5
EAB6
  8
DEFPOINTS
  6
CONTINUOUS
 62
     0
 10
233.2789278034443
 20
141.65146359811939
 30
0.0
  0
ENDBLK
  5
EAB7
  8
0
  0
BLOCK
  8
0
  2
*D42
 70
     1
 10
0.0
 20
0.0
 30
0.0
  3
*D42
  1

  0
LINE
  5
EABA
  8
0
  6
CONTINUOUS
 62
     2
 10
238.66347599369701
 20
153.89378700617959
 30
0.0
 11
274.05096768568762
 21
153.89378700617959
 31
0.0
  0
LINE
  5
EABB
  8
0
  6
CONTINUOUS
 62
     2
 10
238.66347599369701
 20
100.89378700617949
 30
0.0
 11
274.05096768568751
 21
100.89378700617949
 31
0.0
  0
LINE
  5
EABC
  8
0
  6
CONTINUOUS
 62
     2
 10
273.05096768568751
 20
151.39378700617959
 30
0.0
 11
273.05096768568751
 21
103.39378700617949
 31
0.0
  0
SOLID
  5
EABD
  8
0
  6
CONTINUOUS
 62
     2
 10
272.63430101902088
 20
151.39378700617959
 30
0.0
 11
273.4676343523542
 21
151.39378700617959
 31
0.0
 12
273.05096768568751
 22
153.89378700617959
 32
0.0
 13
273.05096768568751
 23
153.89378700617959
 33
0.0
  0
SOLID
  5
EABE
  8
0
  6
CONTINUOUS
 62
     2
 10
272.63430101902082
 20
103.39378700617949
 30
0.0
 11
273.4676343523542
 21
103.39378700617949
 31
0.0
 12
273.05096768568751
 22
100.89378700617949
 32
0.0
 13
273.05096768568751
 23
100.89378700617949
 33
0.0
  0
INSERT
  5
EABF
  8
0
  6
CONTINUOUS
  2
*U95
 10
0.0
 20
0.0
 30
0.0
  0
POINT
  5
EAC0
  8
DEFPOINTS
  6
CONTINUOUS
 62
     0
 10
238.06347599369701
 20
153.89378700617959
 30
0.0
  0
POINT
  5
EAC1
  8
DEFPOINTS
  6
CONTINUOUS
 62
     0
 10
238.06347599369701
 20
100.89378700617949
 30
0.0
  0
POINT
  5
EAC2
  8
DEFPOINTS
  6
CONTINUOUS
 62
     0
 10
273.05096768568751
 20
100.89378700617949
 30
0.0
  0
ENDBLK
  5
EAC3
  8
0
  0
BLOCK
  8
0
  2
*D43
 70
     1
 10
0.0
 20
0.0
 30
0.0
  3
*D43
  1

  0
LINE
  5
EAC6
  8
0
  6
CONTINUOUS
 62
     2
 10
201.29787008905811
 20
140.69378700617949
 30
0.0
 11
266.05096768568762
 21
140.69378700617949
 31
0.0
  0
LINE
  5
EAC7
  8
0
  6
CONTINUOUS
 62
     2
 10
265.05096768568762
 20
138.19378700617949
 30
0.0
 11
265.05096768568751
 21
120.0737870061795
 31
0.0
  0
SOLID
  5
EAC8
  8
0
  6
CONTINUOUS
 62
     2
 10
264.63430101902088
 20
138.19378700617949
 30
0.0
 11
265.46763435235431
 21
138.19378700617949
 31
0.0
 12
265.05096768568762
 22
140.69378700617949
 32
0.0
 13
265.05096768568762
 23
140.69378700617949
 33
0.0
  0
INSERT
  5
EAC9
  8
0
  6
CONTINUOUS
  2
*U96
 10
0.0
 20
0.0
 30
0.0
  0
POINT
  5
EACA
  8
DEFPOINTS
  6
CONTINUOUS
 62
     0
 10
200.69787008905811
 20
140.69378700617949
 30
0.0
  0
POINT
  5
EACB
  8
DEFPOINTS
  6
CONTINUOUS
 62
     0
 10
201.59787008905801
 20
114.0937870061795
 30
0.0
  0
POINT
  5
EACC
  8
DEFPOINTS
  6
CONTINUOUS
 62
     0
 10
265.05096768568751
 20
114.0937870061795
 30
0.0
  0
ENDBLK
  5
EACD
  8
0
  0
BLOCK
  8
0
  2
*D44
 70
     1
 10
0.0
 20
0.0
 30
0.0
  3
*D44
  1

  0
LINE
  5
EAD0
  8
0
  6
CONTINUOUS
 62
     2
 10
218.79787008905811
 20
158.89378700617951
 30
0.0
 11
282.05096768568762
 21
158.89378700617951
 31
0.0
  0
LINE
  5
EAD1
  8
0
  6
CONTINUOUS
 62
     2
 10
218.79787008905811
 20
95.893787006179593
 30
0.0
 11
282.05096768568751
 21
95.893787006179579
 31
0.0
  0
LINE
  5
EAD2
  8
0
  6
CONTINUOUS
 62
     2
 10
281.05096768568762
 20
156.39378700617951
 30
0.0
 11
281.05096768568751
 21
98.393787006179579
 31
0.0
  0
SOLID
  5
EAD3
  8
0
  6
CONTINUOUS
 62
     2
 10
280.63430101902088
 20
156.39378700617951
 30
0.0
 11
281.4676343523542
 21
156.39378700617951
 31
0.0
 12
281.05096768568762
 22
158.89378700617951
 32
0.0
 13
281.05096768568762
 23
158.89378700617951
 33
0.0
  0
SOLID
  5
EAD4
  8
0
  6
CONTINUOUS
 62
     2
 10
280.63430101902082
 20
98.393787006179579
 30
0.0
 11
281.4676343523542
 21
98.393787006179579
 31
0.0
 12
281.05096768568751
 22
95.893787006179579
 32
0.0
 13
281.05096768568751
 23
95.893787006179579
 33
0.0
  0
INSERT
  5
EAD5
  8
0
  6
CONTINUOUS
  2
*U97
 10
0.0
 20
0.0
 30
0.0
  0
POINT
  5
EAD6
  8
DEFPOINTS
  6
CONTINUOUS
 62
     0
 10
218.19787008905811
 20
158.89378700617951
 30
0.0
  0
POINT
  5
EAD7
  8
DEFPOINTS
  6
CONTINUOUS
 62
     0
 10
218.19787008905811
 20
95.893787006179593
 30
0.0
  0
POINT
  5
EAD8
  8
DEFPOINTS
  6
CONTINUOUS
 62
     0
 10
281.05096768568751
 20
95.893787006179579
 30
0.0
  0
ENDBLK
  5
EAD9
  8
0
  0
BLOCK
  8
0
  2
*D45
 70
     1
 10
0.0
 20
0.0
 30
0.0
  3
*D45
  1

  0
LINE
  5
EADC
  8
0
  6
CONTINUOUS
 62
     2
 10
192.19787008905811
 20
94.093787006179625
 30
0.0
 11
192.19787008905811
 21
63.94983892959975
 31
0.0
  0
LINE
  5
EADD
  8
0
  6
CONTINUOUS
 62
     2
 10
234.1978700890582
 20
98.644551085737774
 30
0.0
 11
234.1978700890582
 21
63.94983892959975
 31
0.0
  0
LINE
  5
EADE
  8
0
  6
CONTINUOUS
 62
     2
 10
194.69787008905811
 20
64.94983892959975
 30
0.0
 11
231.69787008905811
 21
64.94983892959975
 31
0.0
  0
SOLID
  5
EADF
  8
0
  6
CONTINUOUS
 62
     2
 10
194.69787008905811
 20
65.366505596266421
 30
0.0
 11
194.69787008905811
 21
64.533172262933064
 31
0.0
 12
192.19787008905811
 22
64.94983892959975
 32
0.0
 13
192.19787008905811
 23
64.94983892959975
 33
0.0
  0
SOLID
  5
EAE0
  8
0
  6
CONTINUOUS
 62
     2
 10
231.69787008905811
 20
65.366505596266421
 30
0.0
 11
231.69787008905811
 21
64.533172262933064
 31
0.0
 12
234.1978700890582
 22
64.94983892959975
 32
0.0
 13
234.1978700890582
 23
64.94983892959975
 33
0.0
  0
INSERT
  5
EAE1
  8
0
  6
CONTINUOUS
  2
*U98
 10
0.0
 20
0.0
 30
0.0
  0
POINT
  5
EAE2
  8
DEFPOINTS
  6
CONTINUOUS
 62
     0
 10
192.19787008905811
 20
94.693787006179605
 30
0.0
  0
POINT
  5
EAE3
  8
DEFPOINTS
  6
CONTINUOUS
 62
     0
 10
234.1978700890582
 20
99.244551085737797
 30
0.0
  0
POINT
  5
EAE4
  8
DEFPOINTS
  6
CONTINUOUS
 62
     0
 10
234.1978700890582
 20
64.94983892959975
 30
0.0
  0
ENDBLK
  5
EAE5
  8
0
  0
BLOCK
  8
0
  2
*D46
 70
     1
 10
0.0
 20
0.0
 30
0.0
  3
*D46
  1

  0
LINE
  5
EAE8
  8
0
  6
CONTINUOUS
 62
     2
 10
192.19787008905811
 20
95.293787006179585
 30
0.0
 11
192.19787008905811
 21
71.949838929599736
 31
0.0
  0
LINE
  5
EAE9
  8
0
  6
CONTINUOUS
 62
     2
 10
218.19787008905811
 20
95.293787006179585
 30
0.0
 11
218.19787008905811
 21
71.949838929599736
 31
0.0
  0
LINE
  5
EAEA
  8
0
  6
CONTINUOUS
 62
     2
 10
194.69787008905811
 20
72.94983892959975
 30
0.0
 11
215.6978700890582
 21
72.94983892959975
 31
0.0
  0
SOLID
  5
EAEB
  8
0
  6
CONTINUOUS
 62
     2
 10
194.69787008905811
 20
73.366505596266421
 30
0.0
 11
194.69787008905811
 21
72.533172262933078
 31
0.0
 12
192.19787008905811
 22
72.94983892959975
 32
0.0
 13
192.19787008905811
 23
72.94983892959975
 33
0.0
  0
SOLID
  5
EAEC
  8
0
  6
CONTINUOUS
 62
     2
 10
215.6978700890582
 20
73.366505596266421
 30
0.0
 11
215.6978700890582
 21
72.533172262933078
 31
0.0
 12
218.19787008905811
 22
72.94983892959975
 32
0.0
 13
218.19787008905811
 23
72.94983892959975
 33
0.0
  0
INSERT
  5
EAED
  8
0
  6
CONTINUOUS
  2
*U99
 10
0.0
 20
0.0
 30
0.0
  0
POINT
  5
EAEE
  8
DEFPOINTS
  6
CONTINUOUS
 62
     0
 10
192.19787008905811
 20
95.893787006179593
 30
0.0
  0
POINT
  5
EAEF
  8
DEFPOINTS
  6
CONTINUOUS
 62
     0
 10
218.19787008905811
 20
95.893787006179593
 30
0.0
  0
POINT
  5
EAF0
  8
DEFPOINTS
  6
CONTINUOUS
 62
     0
 10
218.19787008905811
 20
72.94983892959975
 30
0.0
  0
ENDBLK
  5
EAF1
  8
0
  0
BLOCK
  8
0
  2
*D47
 70
     1
 10
0.0
 20
0.0
 30
0.0
  3
*D47
  1

  0
LINE
  5
EAF4
  8
0
  6
CONTINUOUS
 62
     2
 10
192.19787008905811
 20
95.793787006179599
 30
0.0
 11
192.19787008905811
 21
79.533172262933064
 31
0.0
  0
LINE
  5
EAF5
  8
0
  6
CONTINUOUS
 62
     2
 10
210.19787008905811
 20
90.243787006179573
 30
0.0
 11
210.19787008905811
 21
79.533172262933064
 31
0.0
  0
LINE
  5
EAF6
  8
0
  6
CONTINUOUS
 62
     2
 10
194.69787008905811
 20
80.533172262933064
 30
0.0
 11
207.6978700890582
 21
80.533172262933064
 31
0.0
  0
SOLID
  5
EAF7
  8
0
  6
CONTINUOUS
 62
     2
 10
194.69787008905811
 20
80.94983892959975
 30
0.0
 11
194.69787008905811
 21
80.116505596266407
 31
0.0
 12
192.19787008905811
 22
80.533172262933064
 32
0.0
 13
192.19787008905811
 23
80.533172262933064
 33
0.0
  0
SOLID
  5
EAF8
  8
0
  6
CONTINUOUS
 62
     2
 10
207.6978700890582
 20
80.94983892959975
 30
0.0
 11
207.6978700890582
 21
80.116505596266407
 31
0.0
 12
210.19787008905811
 22
80.533172262933064
 32
0.0
 13
210.19787008905811
 23
80.533172262933064
 33
0.0
  0
INSERT
  5
EAF9
  8
0
  6
CONTINUOUS
  2
*U100
 10
0.0
 20
0.0
 30
0.0
  0
POINT
  5
EAFA
  8
DEFPOINTS
  6
CONTINUOUS
 62
     0
 10
192.19787008905811
 20
96.393787006179593
 30
0.0
  0
POINT
  5
EAFB
  8
DEFPOINTS
  6
CONTINUOUS
 62
     0
 10
210.19787008905811
 20
90.843787006179596
 30
0.0
  0
POINT
  5
EAFC
  8
DEFPOINTS
  6
CONTINUOUS
 62
     0
 10
210.19787008905811
 20
80.533172262933064
 30
0.0
  0
ENDBLK
  5
EAFD
  8
0
  0
BLOCK
  8
0
  2
*D48
 70
     1
 10
0.0
 20
0.0
 30
0.0
  3
*D48
  1

  0
LINE
  5
EB00
  8
0
  6
CONTINUOUS
 62
     2
 10
223.96876643196541
 20
89.265224709547027
 30
0.0
 11
219.52121687338899
 21
94.2761430808645
 31
0.0
  0
INSERT
  5
EB01
  8
0
  6
CONTINUOUS
  2
*U101
 10
0.0
 20
0.0
 30
0.0
  0
LINE
  5
EB02
  8
0
  6
CONTINUOUS
 62
     2
 10
217.19787008905811
 20
96.893787006179636
 30
0.0
 11
217.86168345600981
 21
96.145888741803873
 31
0.0
  0
SOLID
  5
EB03
  8
0
  6
CONTINUOUS
 62
     2
 10
219.8328411502122
 20
94.552731983761035
 30
0.0
 11
219.20959259656581
 21
93.999554177967937
 31
0.0
 12
217.86168345600981
 22
96.145888741803873
 32
0.0
 13
217.86168345600981
 23
96.145888741803873
 33
0.0
  0
POINT
  5
EB04
  8
DEFPOINTS
  6
CONTINUOUS
 62
     0
 10
217.86168345600981
 20
96.145888741803873
 30
0.0
  0
POINT
  5
EB05
  8
DEFPOINTS
  6
CONTINUOUS
 62
     0
 10
217.19787008905811
 20
96.893787006179636
 30
0.0
  0
ENDBLK
  5
EB06
  8
0
  0
BLOCK
  8
0
  2
*D49
 70
     1
 10
0.0
 20
0.0
 30
0.0
  3
*D49
  1

  0
LINE
  5
EB09
  8
0
  6
CONTINUOUS
 62
     2
 10
270.46461254566913
 20
209.82107884038999
 30
0.0
 11
282.99563232952511
 21
231.5254417766767
 31
0.0
  0
LINE
  5
EB0A
  8
0
  6
CONTINUOUS
 62
     2
 10
263.10961439615028
 20
209.82107884038999
 30
0.0
 11
250.5785946122956
 21
231.5254417766777
 31
0.0
  0
ARC
  5
EB0B
  8
0
  6
CONTINUOUS
 62
     2
 10
266.7871134709095
 20
203.45146359811949
 30
0.0
 40
31.41703771722824
 50
64.560495776615795
 51
115.43950422338079
  0
SOLID
  5
EB0C
  8
0
  6
CONTINUOUS
 62
     2
 10
280.47636037345791
 20
232.1911317115084
 30
0.0
 11
280.0887376666671
 21
231.45343727502089
 31
0.0
 12
282.49563232952499
 22
230.6594163728922
 32
0.0
 13
282.49563232952499
 23
230.6594163728922
 33
0.0
  0
SOLID
  5
EB0D
  8
0
  6
CONTINUOUS
 62
     2
 10
253.48548927515361
 20
231.4534372750216
 30
0.0
 11
253.09786656836289
 21
232.1911317115092
 31
0.0
 12
251.0785946122956
 22
230.65941637289319
 32
0.0
 13
251.0785946122956
 23
230.65941637289319
 33
0.0
  0
INSERT
  5
EB0E
  8
0
  6
CONTINUOUS
  2
*U102
 10
0.0
 20
0.0
 30
0.0
  0
POINT
  5
EB0F
  8
DEFPOINTS
  6
CONTINUOUS
 62
     0
 10
272.24262481820051
 20
234.3912059187227
 30
0.0
  0
POINT
  5
EB10
  8
DEFPOINTS
  6
CONTINUOUS
 62
     0
 10
264.91211347090962
 20
206.69905886231101
 30
0.0
  0
POINT
  5
EB11
  8
DEFPOINTS
  6
CONTINUOUS
 62
     0
 10
268.66211347090962
 20
206.69905886231101
 30
0.0
  0
POINT
  5
EB12
  8
DEFPOINTS
  6
CONTINUOUS
 62
     0
 10
270.16461254566912
 20
209.3014635981194
 30
0.0
  0
POINT
  5
EB13
  8
DEFPOINTS
  6
CONTINUOUS
 62
     0
 10
263.4096143961504
 20
209.3014635981194
 30
0.0
  0
ENDBLK
  5
EB14
  8
0
  0
BLOCK
  8
0
  2
*D50
 70
     1
 10
0.0
 20
0.0
 30
0.0
  3
*D50
  1

  0
LINE
  5
EB17
  8
0
  6
CONTINUOUS
 62
     2
 10
264.9121134709099
 20
199.80276146950999
 30
0.0
 11
264.9121134709099
 21
178.47404506287731
 31
0.0
  0
LINE
  5
EB18
  8
0
  6
CONTINUOUS
 62
     2
 10
268.66211347090962
 20
199.02652377348269
 30
0.0
 11
268.66211347090962
 21
178.47404506287731
 31
0.0
  0
LINE
  5
EB19
  8
0
  6
CONTINUOUS
 62
     2
 10
262.4121134709099
 20
179.47404506287731
 30
0.0
 11
259.91211347090979
 21
179.47404506287731
 31
0.0
  0
LINE
  5
EB1A
  8
0
  6
CONTINUOUS
 62
     2
 10
271.16211347090962
 20
179.47404506287731
 30
0.0
 11
287.15909831900802
 21
179.47404506287731
 31
0.0
  0
LINE
  5
EB1B
  8
0
  6
CONTINUOUS
 62
     2
 10
264.9121134709099
 20
179.47404506287731
 30
0.0
 11
268.66211347090962
 21
179.47404506287731
 31
0.0
  0
SOLID
  5
EB1C
  8
0
  6
CONTINUOUS
 62
     2
 10
262.4121134709099
 20
179.89071172954399
 30
0.0
 11
262.4121134709099
 21
179.05737839621059
 31
0.0
 12
264.9121134709099
 22
179.47404506287731
 32
0.0
 13
264.9121134709099
 23
179.47404506287731
 33
0.0
  0
SOLID
  5
EB1D
  8
0
  6
CONTINUOUS
 62
     2
 10
271.16211347090962
 20
179.89071172954399
 30
0.0
 11
271.16211347090962
 21
179.05737839621059
 31
0.0
 12
268.66211347090962
 22
179.47404506287731
 32
0.0
 13
268.66211347090962
 23
179.47404506287731
 33
0.0
  0
INSERT
  5
EB1E
  8
0
  6
CONTINUOUS
  2
*U103
 10
0.0
 20
0.0
 30
0.0
  0
POINT
  5
EB1F
  8
DEFPOINTS
  6
CONTINUOUS
 62
     0
 10
264.9121134709099
 20
200.40276146951001
 30
0.0
  0
POINT
  5
EB20
  8
DEFPOINTS
  6
CONTINUOUS
 62
     0
 10
268.66211347090962
 20
199.62652377348269
 30
0.0
  0
POINT
  5
EB21
  8
DEFPOINTS
  6
CONTINUOUS
 62
     0
 10
268.66211347090962
 20
179.47404506287731
 30
0.0
  0
ENDBLK
  5
EB22
  8
0
  0
BLOCK
  8
0
  2
*D51
 70
     1
 10
0.0
 20
0.0
 30
0.0
  3
*D51
  1

  0
LINE
  5
EB25
  8
0
  6
CONTINUOUS
 62
     2
 10
264.81211347090982
 20
205.3014635981194
 30
0.0
 11
248.0492231129995
 21
205.3014635981194
 31
0.0
  0
LINE
  5
EB26
  8
0
  6
CONTINUOUS
 62
     2
 10
249.0492231129995
 20
202.8014635981194
 30
0.0
 11
249.0492231129995
 21
184.267326231033
 31
0.0
  0
SOLID
  5
EB27
  8
0
  6
CONTINUOUS
 62
     2
 10
248.6325564463329
 20
202.8014635981194
 30
0.0
 11
249.46588977966621
 21
202.8014635981194
 31
0.0
 12
249.0492231129995
 22
205.3014635981194
 32
0.0
 13
249.0492231129995
 23
205.3014635981194
 33
0.0
  0
INSERT
  5
EB28
  8
0
  6
CONTINUOUS
  2
*U104
 10
0.0
 20
0.0
 30
0.0
  0
POINT
  5
EB29
  8
DEFPOINTS
  6
CONTINUOUS
 62
     0
 10
265.41211347090979
 20
205.3014635981194
 30
0.0
  0
POINT
  5
EB2A
  8
DEFPOINTS
  6
CONTINUOUS
 62
     0
 10
265.41211347090979
 20
150.3014635981194
 30
0.0
  0
POINT
  5
EB2B
  8
DEFPOINTS
  6
CONTINUOUS
 62
     0
 10
249.0492231129995
 20
150.3014635981194
 30
0.0
  0
ENDBLK
  5
EB2C
  8
0
  0
BLOCK
  8
0
  2
*D52
 70
     1
 10
0.0
 20
0.0
 30
0.0
  3
*D52
  1

  0
LINE
  5
EB2F
  8
0
  6
CONTINUOUS
 62
     2
 10
258.4893213633942
 20
209.3014635981194
 30
0.0
 11
240.10734756772499
 21
209.3014635981194
 31
0.0
  0
LINE
  5
EB30
  8
0
  6
CONTINUOUS
 62
     2
 10
241.10734756772499
 20
206.8014635981194
 30
0.0
 11
241.1073475677249
 21
184.43204606749629
 31
0.0
  0
SOLID
  5
EB31
  8
0
  6
CONTINUOUS
 62
     2
 10
240.6906809010583
 20
206.8014635981194
 30
0.0
 11
241.52401423439159
 21
206.8014635981194
 31
0.0
 12
241.10734756772499
 22
209.3014635981194
 32
0.0
 13
241.10734756772499
 23
209.3014635981194
 33
0.0
  0
INSERT
  5
EB32
  8
0
  6
CONTINUOUS
  2
*U105
 10
0.0
 20
0.0
 30
0.0
  0
POINT
  5
EB33
  8
DEFPOINTS
  6
CONTINUOUS
 62
     0
 10
259.08932136339422
 20
209.3014635981194
 30
0.0
  0
POINT
  5
EB34
  8
DEFPOINTS
  6
CONTINUOUS
 62
     0
 10
259.08932136339422
 20
146.3014635981194
 30
0.0
  0
POINT
  5
EB35
  8
DEFPOINTS
  6
CONTINUOUS
 62
     0
 10
241.1073475677249
 20
146.3014635981194
 30
0.0
  0
ENDBLK
  5
EB36
  8
0
  0
BLOCK
  8
0
  2
*D53
 70
     1
 10
0.0
 20
0.0
 30
0.0
  3
*D53
  1

  0
LINE
  5
EB39
  8
0
  6
CONTINUOUS
 62
     2
 10
282.01989658919382
 20
204.3014635981194
 30
0.0
 11
296.3381403788606
 21
204.3014635981194
 31
0.0
  0
LINE
  5
EB3A
  8
0
  6
CONTINUOUS
 62
     2
 10
295.3381403788606
 20
201.8014635981194
 30
0.0
 11
295.3381403788606
 21
181.55484770286259
 31
0.0
  0
SOLID
  5
EB3B
  8
0
  6
CONTINUOUS
 62
     2
 10
294.92147371219392
 20
201.8014635981194
 30
0.0
 11
295.75480704552729
 21
201.8014635981194
 31
0.0
 12
295.3381403788606
 22
204.3014635981194
 32
0.0
 13
295.3381403788606
 23
204.3014635981194
 33
0.0
  0
INSERT
  5
EB3C
  8
0
  6
CONTINUOUS
  2
*U106
 10
0.0
 20
0.0
 30
0.0
  0
POINT
  5
EB3D
  8
DEFPOINTS
  6
CONTINUOUS
 62
     0
 10
281.41989658919368
 20
204.3014635981194
 30
0.0
  0
POINT
  5
EB3E
  8
DEFPOINTS
  6
CONTINUOUS
 62
     0
 10
281.41989658919368
 20
151.3014635981194
 30
0.0
  0
POINT
  5
EB3F
  8
DEFPOINTS
  6
CONTINUOUS
 62
     0
 10
295.3381403788606
 20
151.3014635981194
 30
0.0
  0
ENDBLK
  5
EB40
  8
0
  0
BLOCK
  8
0
  2
*D54
 70
     1
 10
0.0
 20
0.0
 30
0.0
  3
*D54
  1

  0
LINE
  5
EB43
  8
0
  6
CONTINUOUS
 62
     2
 10
284.52310691037547
 20
218.30551798244011
 30
0.0
 11
272.27326214495542
 21
212.880902365873
 31
0.0
  0
LINE
  5
EB44
  8
0
  6
CONTINUOUS
 62
     2
 10
261.30096479686119
 20
208.0220248303707
 30
0.0
 11
259.01506951600828
 21
207.00975867714109
 31
0.0
  0
INSERT
  5
EB45
  8
0
  6
CONTINUOUS
  2
*U107
 10
0.0
 20
0.0
 30
0.0
  0
LINE
  5
EB46
  8
0
  6
CONTINUOUS
 62
     2
 10
263.58686007771422
 20
209.0342909836003
 30
0.0
 11
269.98736686410263
 21
211.86863621264339
 31
0.0
  0
SOLID
  5
EB47
  8
0
  6
CONTINUOUS
 62
     2
 10
261.13225377132289
 20
208.40300737717959
 30
0.0
 11
261.46967582239949
 21
207.64104228356189
 31
0.0
 12
263.58686007771422
 22
209.0342909836003
 32
0.0
 13
263.58686007771422
 23
209.0342909836003
 33
0.0
  0
SOLID
  5
EB48
  8
0
  6
CONTINUOUS
 62
     2
 10
272.10455111941718
 20
213.26188491268181
 30
0.0
 11
272.44197317049372
 21
212.49991981906419
 31
0.0
 12
269.98736686410263
 22
211.86863621264339
 32
0.0
 13
269.98736686410263
 23
211.86863621264339
 33
0.0
  0
POINT
  5
EB49
  8
DEFPOINTS
  6
CONTINUOUS
 62
     0
 10
269.98736686410263
 20
211.86863621264339
 30
0.0
  0
POINT
  5
EB4A
  8
DEFPOINTS
  6
CONTINUOUS
 62
     0
 10
263.58686007771422
 20
209.0342909836003
 30
0.0
  0
ENDBLK
  5
EB4B
  8
0
  0
BLOCK
  8
0
  2
*D55
 70
     1
 10
0.0
 20
0.0
 30
0.0
  3
*D55
  1

  0
LINE
  5
EB4E
  8
0
  6
CONTINUOUS
 62
     2
 10
266.78711347090962
 20
214.95146359811929
 30
0.0
 11
266.78711347090967
 21
228.03984197414121
 31
0.0
  0
LINE
  5
EB4F
  8
0
  6
CONTINUOUS
 62
     2
 10
263.10961439615011
 20
209.8210788403903
 30
0.0
 11
254.49292428289809
 21
224.7456239096179
 31
0.0
  0
ARC
  5
EB50
  8
0
  6
CONTINUOUS
 62
     2
 10
266.7871134709095
 20
203.45146359812
 30
0.0
 40
23.588378376021229
 50
96.075304183642203
 51
113.9246958163593
  0
SOLID
  5
EB51
  8
0
  6
CONTINUOUS
 62
     2
 10
264.26854607272031
 20
227.32344270031831
 30
0.0
 11
264.31270623710549
 21
226.49128026165269
 31
0.0
 12
266.78711347090967
 22
227.03984197414121
 32
0.0
 13
266.78711347090967
 23
227.03984197414121
 33
0.0
  0
SOLID
  5
EB52
  8
0
  6
CONTINUOUS
 62
     2
 10
257.41010466292488
 20
224.64173374417709
 30
0.0
 11
257.03226726778502
 21
225.38448763832929
 31
0.0
 12
254.9929242828982
 22
223.87959850583351
 32
0.0
 13
254.9929242828982
 23
223.87959850583351
 33
0.0
  0
INSERT
  5
EB53
  8
0
  6
CONTINUOUS
  2
*U108
 10
0.0
 20
0.0
 30
0.0
  0
POINT
  5
EB54
  8
DEFPOINTS
  6
CONTINUOUS
 62
     0
 10
262.69103455179521
 20
226.6814815038112
 30
0.0
  0
POINT
  5
EB55
  8
DEFPOINTS
  6
CONTINUOUS
 62
     0
 10
264.91211347090967
 20
206.69905886231109
 30
0.0
  0
POINT
  5
EB56
  8
DEFPOINTS
  6
CONTINUOUS
 62
     0
 10
266.78711347090962
 20
211.25146359811939
 30
0.0
  0
POINT
  5
EB57
  8
DEFPOINTS
  6
CONTINUOUS
 62
     0
 10
266.78711347090962
 20
214.3514635981193
 30
0.0
  0
POINT
  5
EB58
  8
DEFPOINTS
  6
CONTINUOUS
 62
     0
 10
263.40961439615018
 20
209.30146359811971
 30
0.0
  0
ENDBLK
  5
EB59
  8
0
  0
BLOCK
  8
0
  2
*D56
 70
     1
 10
0.0
 20
0.0
 30
0.0
  3
*D56
  1

  0
LINE
  5
EB5C
  8
0
  6
CONTINUOUS
 62
     2
 10
252.62116332421959
 20
190.8487780033231
 30
0.0
 11
263.46199356651368
 21
203.52176353923431
 31
0.0
  0
INSERT
  5
EB5D
  8
0
  6
CONTINUOUS
  2
*U109
 10
0.0
 20
0.0
 30
0.0
  0
LINE
  5
EB5E
  8
0
  6
CONTINUOUS
 62
     2
 10
265.4121134709103
 20
205.8014635981184
 30
0.0
 11
265.0870934868442
 21
205.42151358830441
 31
0.0
  0
SOLID
  5
EB5F
  8
0
  6
CONTINUOUS
 62
     2
 10
263.14536855833541
 20
203.792613525956
 30
0.0
 11
263.77861857469208
 21
203.25091355251249
 31
0.0
 12
265.0870934868442
 22
205.42151358830441
 32
0.0
 13
265.0870934868442
 23
205.42151358830441
 33
0.0
  0
POINT
  5
EB60
  8
DEFPOINTS
  6
CONTINUOUS
 62
     0
 10
265.0870934868442
 20
205.42151358830441
 30
0.0
  0
POINT
  5
EB61
  8
DEFPOINTS
  6
CONTINUOUS
 62
     0
 10
265.4121134709103
 20
205.8014635981184
 30
0.0
  0
ENDBLK
  5
EB62
  8
0
  0
BLOCK
  8
0
  2
*D57
 70
     1
 10
0.0
 20
0.0
 30
0.0
  3
*D57
  1

  0
LINE
  5
EB65
  8
0
  6
CONTINUOUS
 62
     2
 10
285.09852008227108
 20
187.55768890453001
 30
0.0
 11
270.20319227823268
 21
203.6028282708549
 31
0.0
  0
INSERT
  5
EB66
  8
0
  6
CONTINUOUS
  2
*U110
 10
0.0
 20
0.0
 30
0.0
  0
LINE
  5
EB67
  8
0
  6
CONTINUOUS
 62
     2
 10
268.16211347090979
 20
205.80146359811971
 30
0.0
 11
268.5022932721302
 21
205.4350243769089
 31
0.0
  0
SOLID
  5
EB68
  8
0
  6
CONTINUOUS
 62
     2
 10
270.50855829590841
 20
203.8863114385386
 30
0.0
 11
269.897826260557
 21
203.31934510317109
 31
0.0
 12
268.5022932721302
 22
205.4350243769089
 32
0.0
 13
268.5022932721302
 23
205.4350243769089
 33
0.0
  0
POINT
  5
EB69
  8
DEFPOINTS
  6
CONTINUOUS
 62
     0
 10
268.5022932721302
 20
205.4350243769089
 30
0.0
  0
POINT
  5
EB6A
  8
DEFPOINTS
  6
CONTINUOUS
 62
     0
 10
268.16211347090979
 20
205.80146359811971
 30
0.0
  0
ENDBLK
  5
EB6B
  8
0
  0
BLOCK
  8
0
  2
*D58
 70
     1
 10
0.0
 20
0.0
 30
0.0
  3
*D58
  1

  0
LINE
  5
EB6E
  8
0
  6
CONTINUOUS
 62
     2
 10
234.79787008905819
 20
129.89378700617951
 30
0.0
 11
250.05096768568751
 21
129.89378700617951
 31
0.0
  0
LINE
  5
EB6F
  8
0
  6
CONTINUOUS
 62
     2
 10
249.05096768568751
 20
134.89378700617951
 30
0.0
 11
249.05096768568751
 21
132.39378700617951
 31
0.0
  0
LINE
  5
EB70
  8
0
  6
CONTINUOUS
 62
     2
 10
249.05096768568751
 20
129.89378700617951
 30
0.0
 11
249.05096768568751
 21
121.39378700617949
 31
0.0
  0
SOLID
  5
EB71
  8
0
  6
CONTINUOUS
 62
     2
 10
248.63430101902091
 20
132.39378700617951
 30
0.0
 11
249.4676343523542
 21
132.39378700617951
 31
0.0
 12
249.05096768568751
 22
129.89378700617951
 32
0.0
 13
249.05096768568751
 23
129.89378700617951
 33
0.0
  0
INSERT
  5
EB72
  8
0
  6
CONTINUOUS
  2
*U111
 10
0.0
 20
0.0
 30
0.0
  0
POINT
  5
EB73
  8
DEFPOINTS
  6
CONTINUOUS
 62
     0
 10
234.1978700890582
 20
129.89378700617951
 30
0.0
  0
POINT
  5
EB74
  8
DEFPOINTS
  6
CONTINUOUS
 62
     0
 10
234.1978700890582
 20
124.89378700617949
 30
0.0
  0
POINT
  5
EB75
  8
DEFPOINTS
  6
CONTINUOUS
 62
     0
 10
249.05096768568751
 20
124.89378700617949
 30
0.0
  0
ENDBLK
  5
EB76
  8
0
  0
BLOCK
  8
0
  2
*D59
 70
     1
 10
0.0
 20
0.0
 30
0.0
  3
*D59
  1

  0
LINE
  5
EB79
  8
0
  6
CONTINUOUS
 62
     2
 10
209.19787008905811
 20
133.69378700617949
 30
0.0
 11
209.19787008905811
 21
181.85235055059499
 31
0.0
  0
LINE
  5
EB7A
  8
0
  6
CONTINUOUS
 62
     2
 10
202.19787008905811
 20
137.89378700617951
 30
0.0
 11
202.19787008905811
 21
181.85235055059499
 31
0.0
  0
LINE
  5
EB7B
  8
0
  6
CONTINUOUS
 62
     2
 10
206.69787008905811
 20
180.85235055059499
 30
0.0
 11
204.69787008905811
 21
180.85235055059499
 31
0.0
  0
SOLID
  5
EB7C
  8
0
  6
CONTINUOUS
 62
     2
 10
206.69787008905811
 20
181.26901721726171
 30
0.0
 11
206.69787008905811
 21
180.43568388392839
 31
0.0
 12
209.19787008905811
 22
180.85235055059499
 32
0.0
 13
209.19787008905811
 23
180.85235055059499
 33
0.0
  0
SOLID
  5
EB7D
  8
0
  6
CONTINUOUS
 62
     2
 10
204.69787008905811
 20
181.26901721726171
 30
0.0
 11
204.69787008905811
 21
180.43568388392839
 31
0.0
 12
202.19787008905811
 22
180.85235055059499
 32
0.0
 13
202.19787008905811
 23
180.85235055059499
 33
0.0
  0
INSERT
  5
EB7E
  8
0
  6
CONTINUOUS
  2
*U112
 10
0.0
 20
0.0
 30
0.0
  0
POINT
  5
EB7F
  8
DEFPOINTS
  6
CONTINUOUS
 62
     0
 10
209.19787008905811
 20
133.0937870061795
 30
0.0
  0
POINT
  5
EB80
  8
DEFPOINTS
  6
CONTINUOUS
 62
     0
 10
202.19787008905811
 20
137.2937870061796
 30
0.0
  0
POINT
  5
EB81
  8
DEFPOINTS
  6
CONTINUOUS
 62
     0
 10
202.19787008905811
 20
180.85235055059499
 30
0.0
  0
ENDBLK
  5
EB82
  8
0
  0
BLOCK
  8
0
  2
*D60
 70
     1
 10
0.0
 20
0.0
 30
0.0
  3
*D60
  1

  0
LINE
  5
EB85
  8
0
  6
CONTINUOUS
 62
     2
 10
209.19787008905811
 20
133.69378700617949
 30
0.0
 11
209.19787008905811
 21
181.85235055059499
 31
0.0
  0
LINE
  5
EB86
  8
0
  6
CONTINUOUS
 62
     2
 10
210.69787008905811
 20
130.4937870061793
 30
0.0
 11
210.69787008905811
 21
181.85235055059499
 31
0.0
  0
LINE
  5
EB87
  8
0
  6
CONTINUOUS
 62
     2
 10
206.69787008905811
 20
180.85235055059499
 30
0.0
 11
204.19787008905811
 21
180.85235055059499
 31
0.0
  0
LINE
  5
EB88
  8
0
  6
CONTINUOUS
 62
     2
 10
213.19787008905811
 20
180.85235055059499
 30
0.0
 11
220.62213415777009
 21
180.85235055059499
 31
0.0
  0
LINE
  5
EB89
  8
0
  6
CONTINUOUS
 62
     2
 10
209.19787008905811
 20
180.85235055059499
 30
0.0
 11
210.69787008905811
 21
180.85235055059499
 31
0.0
  0
SOLID
  5
EB8A
  8
0
  6
CONTINUOUS
 62
     2
 10
206.69787008905811
 20
181.26901721726171
 30
0.0
 11
206.69787008905811
 21
180.43568388392839
 31
0.0
 12
209.19787008905811
 22
180.85235055059499
 32
0.0
 13
209.19787008905811
 23
180.85235055059499
 33
0.0
  0
SOLID
  5
EB8B
  8
0
  6
CONTINUOUS
 62
     2
 10
213.19787008905811
 20
181.26901721726171
 30
0.0
 11
213.19787008905811
 21
180.43568388392839
 31
0.0
 12
210.69787008905811
 22
180.85235055059499
 32
0.0
 13
210.69787008905811
 23
180.85235055059499
 33
0.0
  0
INSERT
  5
EB8C
  8
0
  6
CONTINUOUS
  2
*U113
 10
0.0
 20
0.0
 30
0.0
  0
POINT
  5
EB8D
  8
DEFPOINTS
  6
CONTINUOUS
 62
     0
 10
209.19787008905811
 20
133.0937870061795
 30
0.0
  0
POINT
  5
EB8E
  8
DEFPOINTS
  6
CONTINUOUS
 62
     0
 10
210.69787008905811
 20
129.89378700617931
 30
0.0
  0
POINT
  5
EB8F
  8
DEFPOINTS
  6
CONTINUOUS
 62
     0
 10
210.69787008905811
 20
180.85235055059499
 30
0.0
  0
ENDBLK
  5
EB90
  8
0
  0
BLOCK
  8
0
  2
*D61
 70
     1
 10
0.0
 20
0.0
 30
0.0
  3
*D61
  1

  0
LINE
  5
EB93
  8
0
  6
CONTINUOUS
 62
     2
 10
207.57508691398681
 20
131.33587782998561
 30
0.0
 11
208.71749056518459
 21
132.8540721185166
 31
0.0
  0
LINE
  5
EB94
  8
0
  6
CONTINUOUS
 62
     2
 10
208.71749056518459
 20
132.8540721185166
 30
0.0
 11
202.44974460036889
 21
124.5245678178529
 31
0.0
  0
SOLID
  5
EB95
  8
0
  6
CONTINUOUS
 62
     2
 10
207.24214957001061
 20
131.58640494647639
 30
0.0
 11
207.90802425796289
 21
131.08535071349479
 31
0.0
 12
209.0782496129317
 22
133.33350189384259
 32
0.0
 13
209.0782496129317
 23
133.33350189384259
 33
0.0
  0
INSERT
  5
EB96
  8
0
  6
CONTINUOUS
  2
*U114
 10
0.0
 20
0.0
 30
0.0
  0
POINT
  5
EB97
  8
DEFPOINTS
  6
CONTINUOUS
 62
     0
 10
208.71749056518459
 20
132.8540721185166
 30
0.0
  0
POINT
  5
EB98
  8
DEFPOINTS
  6
CONTINUOUS
 62
     0
 10
208.8978700890581
 20
133.09378700617961
 30
0.0
  0
ENDBLK
  5
EB99
  8
0
  0
BLOCK
  8
0
  2
*D62
 70
     1
 10
0.0
 20
0.0
 30
0.0
  3
*D62
  1

  0
LINE
  5
EB9C
  8
0
  6
CONTINUOUS
 62
     2
 10
210.69787008905811
 20
130.4937870061795
 30
0.0
 11
210.6978700890582
 21
139.5720133705409
 31
0.0
  0
LINE
  5
EB9D
  8
0
  6
CONTINUOUS
 62
     2
 10
208.89787008905819
 20
133.01147845980361
 30
0.0
 11
205.8587569068776
 21
138.2753769012929
 31
0.0
  0
ARC
  5
EB9E
  8
0
  6
CONTINUOUS
 62
     2
 10
210.69787008905811
 20
129.89378700617951
 30
0.0
 40
8.6782263643614321
 50
56.514236799025348
 51
89.999999999999645
  0
LINE
  5
EB9F
  8
0
  6
CONTINUOUS
 62
     2
 10
215.48590588294459
 20
137.1316268819684
 30
0.0
 11
220.74025041176759
 21
133.65572936155331
 31
0.0
  0
ARC
  5
EBA0
  8
0
  6
CONTINUOUS
 62
     2
 10
210.69787008905811
 20
129.89378700617951
 30
0.0
 40
8.6782263643614321
 50
56.873546226878759
 51
73.436773113439202
  0
ARC
  5
EBA1
  8
0
  6
CONTINUOUS
 62
     2
 10
210.69787008905811
 20
129.89378700617951
 30
0.0
 40
8.6782263643614321
 50
136.56322688655931
 51
153.12645377311981
  0
ARC
  5
EBA2
  8
0
  6
CONTINUOUS
 62
     2
 10
210.69787008905811
 20
129.89378700617951
 30
0.0
 40
8.6782263643614321
 50
89.999999999999645
 51
119.99999999999891
  0
SOLID
  5
EBA3
  8
0
  6
CONTINUOUS
 62
     2
 10
213.1117841425712
 20
137.79959505553049
 30
0.0
 11
213.2318163499522
 21
138.62423844126511
 31
0.0
 12
210.6978700890582
 22
138.57201337054099
 32
0.0
 13
210.6978700890582
 23
138.57201337054099
 33
0.0
  0
SOLID
  5
EBA4
  8
0
  6
CONTINUOUS
 62
     2
 10
204.13818253775671
 20
136.18760660502301
 30
0.0
 11
204.65445517148819
 21
135.53346058760471
 31
0.0
 12
206.3587569068776
 22
137.40935149750851
 32
0.0
 13
206.3587569068776
 23
137.40935149750851
 33
0.0
  0
INSERT
  5
EBA5
  8
0
  6
CONTINUOUS
  2
*U115
 10
0.0
 20
0.0
 30
0.0
  0
POINT
  5
EBA6
  8
DEFPOINTS
  6
CONTINUOUS
 62
     0
 10
207.72974186410681
 20
138.0486522822797
 30
0.0
  0
POINT
  5
EBA7
  8
DEFPOINTS
  6
CONTINUOUS
 62
     0
 10
209.1978700890582
 20
132.49186321753291
 30
0.0
  0
POINT
  5
EBA8
  8
DEFPOINTS
  6
CONTINUOUS
 62
     0
 10
210.69787008905811
 20
129.89378700617951
 30
0.0
  0
POINT
  5
EBA9
  8
DEFPOINTS
  6
CONTINUOUS
 62
     0
 10
210.69787008905811
 20
127.39378700617949
 30
0.0
  0
POINT
  5
EBAA
  8
DEFPOINTS
  6
CONTINUOUS
 62
     0
 10
210.69787008905811
 20
129.89378700617951
 30
0.0
  0
ENDBLK
  5
EBAB
  8
0
  0
BLOCK
  8
0
  2
*D63
 70
     1
 10
0.0
 20
0.0
 30
0.0
  3
*D63
  1

  0
LINE
  5
EBAE
  8
0
  6
CONTINUOUS
 62
     2
 10
209.4978700890581
 20
133.39378700617951
 30
0.0
 11
258.05096768568768
 21
133.39378700617951
 31
0.0
  0
LINE
  5
EBAF
  8
0
  6
CONTINUOUS
 62
     2
 10
257.05096768568768
 20
130.89378700617951
 30
0.0
 11
257.05096768568762
 21
118.3923036834383
 31
0.0
  0
SOLID
  5
EBB0
  8
0
  6
CONTINUOUS
 62
     2
 10
256.634301019021
 20
130.89378700617951
 30
0.0
 11
257.46763435235442
 21
130.89378700617951
 31
0.0
 12
257.05096768568768
 22
133.39378700617951
 32
0.0
 13
257.05096768568768
 23
133.39378700617951
 33
0.0
  0
INSERT
  5
EBB1
  8
0
  6
CONTINUOUS
  2
*U116
 10
0.0
 20
0.0
 30
0.0
  0
POINT
  5
EBB2
  8
DEFPOINTS
  6
CONTINUOUS
 62
     0
 10
208.8978700890581
 20
133.39378700617951
 30
0.0
  0
POINT
  5
EBB3
  8
DEFPOINTS
  6
CONTINUOUS
 62
     0
 10
239.64792333854459
 20
121.39378700617949
 30
0.0
  0
POINT
  5
EBB4
  8
DEFPOINTS
  6
CONTINUOUS
 62
     0
 10
257.05096768568762
 20
121.39378700617949
 30
0.0
  0
ENDBLK
  5
EBB5
  8
0
  0
BLOCK
  8
0
  2
A$C55D42CD0
 70
     0
 10
0.0
 20
0.0
 30
0.0
  3
A$C55D42CD0
  1

  0
LINE
  5
EBB7
  8
0
  6
BYBLOCK
 62
     2
 10
223.92398654932711
 20
219.52022871048641
 30
0.0
 11
238.10734692431649
 21
219.52022871048629
 31
0.0
  0
DIMENSION
  5
EBB8
  8
0
  6
CONTINUOUS
  2
*D41
 10
230.27892716003589
 20
140.15146294861211
 30
0.0
 11
230.27892716003589
 21
188.58732558152579
 31
0.0
 12
-3.0000006434083839
 22
-1.500000649507228
 32
0.0
 70
   128
  3
ISO-25
 13
263.78711282750118
 23
212.45146294861209
 33
0.0
 14
263.78711282750118
 24
140.15146294861211
 34
0.0
 50
90.0
1001
ACAD
1000
DSTYLE
1002
{
1070
   284
1070
     8
1070
   140
1040
3.0
1070
   283
1070
     0
1070
    71
1070
     1
1070
    48
1040
0.1
1070
    73
1070
     0
1070
   146
1040
0.7
1070
   272
1070
     8
1070
    76
1070
     1
1070
   282
1070
     1
1070
     3
1000
%%c<>
1070
   147
1040
0.6
1070
    42
1040
0.6
1070
    44
1040
1.0
1070
    43
1040
1.0
1070
   271
1070
     8
1070
   178
1070
     3
1070
   141
1040
0.0
1070
   275
1070
     1
1002
}
  0
DIMENSION
  5
EBB9
  8
0
  6
CONTINUOUS
  2
*D42
 10
270.05096704227913
 20
99.393786356672322
 30
0.0
 11
267.9509670422791
 21
125.89378635667239
 31
0.0
 12
-3.0000006434083839
 22
-1.500000649507228
 32
0.0
  3
ISO-25
 13
235.0634753502886
 23
152.39378635667239
 33
0.0
 14
235.0634753502886
 24
99.393786356672322
 34
0.0
 50
90.0
1001
ACAD
1000
DSTYLE
1002
{
1070
   284
1070
     8
1070
   140
1040
3.0
1070
   283
1070
     0
1070
    48
1040
0.5
1070
    73
1070
     0
1070
   146
1040
0.7
1070
   272
1070
     8
1070
     3
1000
%%C<>max
1070
   147
1040
0.6
1070
    42
1040
0.6
1070
    44
1040
1.0
1070
    43
1040
1.0
1070
   271
1070
     8
1070
   178
1070
     3
1070
   141
1040
0.0
1070
   275
1070
     1
1002
}
  0
TEXT
  5
EBBA
  8
0
 62
     7
 10
175.85626779259999
 20
6.9313871426127589
 30
0.0
 40
4.0
  1
SSK TOOLS CO.,LTD.
  0
LINE
  5
EBBB
  8
0
 62
     2
 10
171.24086002711849
 20
16.999999350492772
 30
0.0
 11
342.48172533115809
 21
16.999999350492772
 31
0.0
  0
POLYLINE
  5
EBBC
  8
0
 66
     1
 10
0.0
 20
0.0
 30
0.0
 40
1.0
 41
1.0
  0
VERTEX
  5
10F8F
  8
0
 10
0.4999993565916157
 20
280.49999935049283
 30
0.0
  0
VERTEX
  5
10F90
  8
0
 10
402.98172533115797
 20
280.49999935049283
 30
0.0
  0
SEQEND
  5
10F91
  8
0
  0
POLYLINE
  5
EBBD
  8
0
 66
     1
 10
0.0
 20
0.0
 30
0.0
 40
1.0
 41
1.0
  0
VERTEX
  5
10F92
  8
0
 10
-0.0000006434086117
 20
0.4999993504927716
 30
0.0
  0
VERTEX
  5
10F93
  8
0
 10
402.48172533115797
 20
0.4999993504927716
 30
0.0
  0
SEQEND
  5
10F94
  8
0
  0
POLYLINE
  5
EBBE
  8
0
 66
     1
 10
0.0
 20
0.0
 30
0.0
 40
0.5
 41
0.5
  0
VERTEX
  5
10F95
  8
0
 10
402.48172533115797
 20
24.499999350492772
 30
0.0
  0
VERTEX
  5
10F96
  8
0
 10
0.9999993565916157
 20
24.499999350492772
 30
0.0
  0
SEQEND
  5
10F97
  8
0
  0
DIMENSION
  5
EBBF
  8
0
  6
CONTINUOUS
  2
*D43
 10
262.05096704227913
 20
112.5937863566723
 30
0.0
 11
259.20931349897199
 21
125.89378635667229
 31
0.0
 12
-3.0000006434083839
 22
-1.500000649507228
 32
0.0
  3
ISO-25
 13
197.6978694456497
 23
139.19378635667229
 33
0.0
 14
198.59786944564959
 24
112.5937863566723
 34
0.0
 50
90.0
1001
ACAD
1000
DSTYLE
1002
{
1070
   284
1070
     8
1070
   140
1040
5.25
1070
   283
1070
     0
1070
    71
1070
     1
1070
    48
1040
0.1
1070
    73
1070
     0
1070
   146
1040
0.7
1070
   272
1070
     8
1070
    76
1070
     1
1070
   282
1070
     1
1070
     3
1000
%%c<>
1070
   147
1040
0.6
1070
    42
1040
0.6
1070
    44
1040
1.0
1070
    43
1040
1.0
1070
   271
1070
     8
1070
   178
1070
     3
1070
   141
1040
0.0
1070
   275
1070
     1
1002
}
  0
DIMENSION
  5
EBC0
  8
0
  6
CONTINUOUS
  2
*D44
 10
278.05096704227913
 20
94.393786356672351
 30
0.0
 11
275.15702019188541
 21
125.89378635667239
 31
0.0
 12
-3.0000006434083839
 22
-1.500000649507228
 32
0.0
  3
ISO-25
 13
215.19786944564979
 23
157.39378635667231
 33
0.0
 14
215.19786944564979
 24
94.393786356672365
 34
0.0
 50
90.0
1001
ACAD
1000
DSTYLE
1002
{
1070
   284
1070
     8
1070
   140
1040
3.0
1070
   283
1070
     0
1070
    71
1070
     1
1070
    48
1040
0.12
1070
    73
1070
     0
1070
   146
1040
0.7
1070
   272
1070
     8
1070
     3
1000
%%C<>
1070
   147
1040
0.6
1070
    42
1040
0.6
1070
    44
1040
1.0
1070
    43
1040
1.0
1070
   271
1070
     8
1070
   178
1070
     3
1070
   141
1040
0.0
1070
   275
1070
     1
1002
}
  0
LINE
  5
EBC1
  8
0
  6
CONTINUOUS
 62
     4
 10
216.98636967434061
 20
163.10163694894561
 30
0.0
 11
258.17658134979678
 21
196.2435094954719
 31
0.0
  0
LINE
  5
EBC2
  8
0
  6
CONTINUOUS
 62
     3
 10
235.0634753502886
 20
152.39378635667239
 30
0.0
 11
235.35155749403751
 21
147.2637027666126
 31
0.0
  0
INSERT
  5
EBC3
  8
0
  6
CONTINUOUS
 62
     2
  2
*X117
 10
0.0
 20
0.0
 30
0.0
1001
ACAD
1000
HATCH
1002
{
1070
    19
1000
ANSI31
1040
20.0
1040
0.0
1000
R14_HATCH_DATA
1000
EBC3
1011
1.0
1021
0.0
1031
-0.0
1021
0.0
1031
0.0
1011
0.0
1021
0.0
1031
-0.0
1021
1.0
1031
0.0
1011
0.0
1021
0.0
1031
-0.0
1021
0.0
1031
1.0
1040
0.0
1010
0.0
1020
0.0
1030
1.0
1000
ANSI31
1070
     0
1070
     0
1071
        6
1071
        7
1070
     1
1070
     1
1071
        6
1040
184.19786944564979
1040
144.89378635667219
1040
0.0
1040
179.58431683799401
1040
144.6631086997406
1040
-0.0602521016307228
1040
179.76452184322929
1040
143.17311250618971
1040
-0.0515829849127869
1040
179.63218680264191
1040
141.89378635667231
1040
0.0
1040
184.1868815191028
1040
141.89378635667231
1040
-0.0004578305606847
1040
184.1978694456497
1040
141.89377629545311
1040
0.0
1071
        0
1071
        7
1070
     1
1070
     1
1071
       23
1040
231.1978694456497
1040
152.39378635667231
1040
0.0
1040
217.45413490483989
1040
152.39378635667239
1040
-0.7112017478232673
1040
202.6142162961844
1040
157.39378635667231
1040
0.0
1040
189.69786944564979
1040
157.39378635667231
1040
0.0
1040
189.1978694456497
1040
156.89378635667231
1040
0.0
1040
189.1978694456497
1040
150.71942669254361
1040
0.0
1040
189.1978694456497
1040
146.81878637105851
1040
0.0
1040
189.3978694456498
1040
145.39571242658161
1040
0.0
1040
189.3978694456498
1040
145.31878637105871
1040
-0.4142135623730674
1040
188.79786944564989
1040
144.71878637105871
1040
0.0
1040
187.81748468792051
1040
144.71878637105871
1040
0.0
1040
186.69786944564979
1040
145.01878637105861
1040
0.0
1040
184.1978694456497
1040
144.89378635667219
1040
0.0
1040
184.1978694456497
1040
141.89377629545311
1040
-0.2517767432359928
1040
189.1978694456497
1040
139.19378635667229
1040
0.0
1040
197.6978694456497
1040
139.19378635667229
1040
-0.4142135623730951
1040
199.1978694456497
1040
137.69378635667229
1040
0.0
1040
199.1978694456497
1040
131.89378635667231
1040
0.0
1040
205.89786944564969
1040
131.89378635667231
1040
-0.414213562373012
1040
206.1978694456497
1040
131.5937863566723
1040
0.0
1040
206.1978694456497
1040
130.99186256802571
1040
0.0
1040
207.69786944564979
1040
128.39378635667231
1040
0.0
1040
231.1978694456497
1040
128.39378635667231
1040
0.0
1071
        0
1071
       23
1070
     1
1070
     1
1071
       15
1040
215.19786944564979
1040
152.89378635667231
1040
0.0
1040
215.19786944564979
1040
156.39378635667231
1040
0.4142135623730951
1040
214.19786944564979
1040
157.39378635667231
1040
0.0
1040
210.575368520409
1040
157.39378635667231
1040
0.0
1040
209.07286944564979
1040
154.79138162086389
1040
0.0
1040
209.07286944564979
1040
153.89378635667231
1040
-0.4142135623730951
1040
208.57286944564979
1040
153.39378635667231
1040
0.0
1040
207.19786944564979
1040
153.39378635667231
1040
0.0
1040
205.82286944564979
1040
153.39378635667231
1040
-0.4142135623730951
1040
205.3228694456497
1040
153.89378635667231
1040
0.0
1040
205.3228694456497
1040
154.79138162086389
1040
0.0
1040
203.82037037089049
1040
157.39378635667231
1040
0.0
1040
202.6142162961844
1040
157.39378635667231
1040
0.7112017478232673
1040
217.45413490483989
1040
152.39378635667239
1040
0.0
1040
215.69786944564979
1040
152.39378635667239
1040
-0.4142135623730951
1071
        0
1071
        7
1070
     1
1070
     1
1071
        7
1040
167.2645222024517
1040
143.17311250618971
1040
-0.0352146933809632
1040
167.32637243923421
1040
144.05021140926391
1040
0.0
1040
165.14793182297299
1040
143.941289365915
1040
0.3996556417815075
1040
164.1978694456497
1040
142.94253702732379
1040
0.0
1040
164.1978694456497
1040
139.4711366258619
1040
0.0
1040
165.1978694456497
1040
138.89378635667239
1040
0.0
1040
168.9593200008751
1040
138.89378635667239
1040
-0.1908117796032296
1071
        0
1071
        7
1070
     1
1070
     1
1071
        5
1040
173.1978694456499
1040
144.3437862933724
1040
0.0
1040
167.32637243923421
1040
144.05021140926391
1040
0.0352146933809632
1040
167.2645222024517
1040
143.17311250618971
1040
0.1908117796032296
1040
168.9593200008751
1040
138.89378635667239
1040
0.0
1040
173.1978694456499
1040
138.89378635667239
1040
0.0
1071
        0
1071
        7
1070
     1
1070
     1
1071
        8
1040
175.78955728213691
1040
141.64378635667231
1040
-0.2679491924311452
1040
176.22256998402921
1040
141.89378635667231
1040
0.0
1040
179.63218680264191
1040
141.89378635667231
1040
0.0515829849127869
1040
179.76452184322929
1040
143.17311250618971
1040
0.060252101630724
1040
179.58431683799401
1040
144.66310869974069
1040
0.0
1040
173.1978694456499
1040
144.34378629337249
1040
0.0
1040
173.1978694456499
1040
138.89378635667239
1040
0.0
1040
174.2018440418656
1040
138.89378635667239
1040
0.0
1071
        0
1070
     0
1070
     1
1040
0.0
1040
20.0
1070
     0
1070
     1
1040
0.7853981633974483
1040
3.9000839543127759
1040
-1.500000649507228
1040
-1.767766952966368
1040
1.767766952966368
1070
     0
1040
0.0182061473859784
1071
        6
1040
183.2782526051908
1040
143.35329452228211
1040
0.0
1040
216.1244309559122
1040
146.0702969177766
1040
0.0
1040
212.0845814401803
1040
152.52985379012989
1040
0.0
1040
166.78709362826291
1040
140.5054527479758
1040
0.0
1040
170.36486706395999
1040
140.95947801439289
1040
0.0
1040
173.82906194113451
1040
141.3567505767526
1040
0.0
1002
}
  0
LINE
  5
EBC4
  8
0
  6
PHANTOM2
 62
     4
 10
231.1978694456497
 20
154.04302227711401
 30
0.0
 11
231.1978694456497
 21
97.744550436230554
 31
0.0
  0
POLYLINE
  5
EBC5
  8
0
 66
     1
 10
0.0
 20
0.0
 30
0.0
 40
1.0
 41
1.0
  0
VERTEX
  5
10FC1
  8
0
 10
0.9999993565916157
 20
280.49999935049283
 30
0.0
  0
VERTEX
  5
10FC2
  8
0
 10
0.9999993565916157
 20
0.4999993504927716
 30
0.0
  0
SEQEND
  5
10FC3
  8
0
  0
LINE
  5
EBC6
  8
0
 62
     2
 10
171.24086002711849
 20
12.99999935049277
 30
0.0
 11
0.9999993565916157
 21
12.99999935049277
 31
0.0
  0
TEXT
  5
EBC7
  8
0
 62
     7
 10
2.190675173740146
 20
21.202137981607741
 30
0.0
 40
2.0
  1
DESCRIPTION
  0
TEXT
  5
EBC8
  8
0
 62
     7
 10
2.2756173805596509
 20
9.9939902472026461
 30
0.0
 40
2.0
  1
KIND
  0
TEXT
  5
EBC9
  8
0
  6
CONTINUOUS
 62
     3
 10
32.305054111452023
 20
4.9932359397232631
 30
0.0
 40
4.0
  1
DIN69893/F
  0
TEXT
  5
EBCA
  8
0
  6
CONTINUOUS
 62
     3
 10
37.32580030609688
 20
16.59426017285432
 30
0.0
 40
4.0
  1
SHANK
  0
DIMENSION
  5
EBCB
  8
0
  6
CONTINUOUS
  2
*D45
 10
231.1978694456497
 20
63.449838280092521
 30
0.0
 11
210.1978694456497
 21
65.550133555683075
 31
0.0
 12
-3.0000006434083839
 22
-1.500000649507228
 32
0.0
  3
ISO-25
 13
189.1978694456497
 23
93.193786356672376
 33
0.0
 14
231.1978694456497
 24
97.744550436230554
 34
0.0
1001
ACAD
1000
DSTYLE
1002
{
1070
   284
1070
     8
1070
   140
1040
3.0
1070
   283
1070
     0
1070
    48
1040
0.1
1070
    73
1070
     0
1070
   146
1040
0.7
1070
   272
1070
     8
1070
     3
1000
min
1070
   147
1040
0.6
1070
    42
1040
0.6
1070
    44
1040
1.0
1070
    43
1040
1.0
1070
   271
1070
     8
1070
   178
1070
     3
1070
   141
1040
0.0
1070
   275
1070
     1
1002
}
  0
TEXT
  5
EBCC
  8
0
 62
     7
 10
132.17636843227541
 20
9.9608482912755107
 30
0.0
 40
2.0
  1
ORDER MAKER
  0
TEXT
  5
EBCD
  8
0
 62
     7
 10
132.36302383674791
 20
21.071652678143661
 30
0.0
 40
2.0
  1
SURFACE TREATMENT
  0
LINE
  5
EBCE
  8
0
  6
BYBLOCK
 62
     2
 10
147.8653341781008
 20
63.449838280092521
 30
0.0
 11
186.6978694456497
 21
63.449838280092521
 31
0.0
  0
TEXT
  5
EBCF
  8
0
  6
CONTINUOUS
 62
     3
 10
135.52269832448741
 20
15.53976058456931
 30
0.0
 40
4.0
  1
SHOT BLAST
  0
LINE
  5
EBD0
  8
0
 62
     2
 10
91.24086002711843
 20
24.499999350492772
 30
0.0
 11
91.24086002711843
 21
0.4999993504927716
 31
0.0
  0
LINE
  5
EBD1
  8
0
 62
     2
 10
131.2408600271184
 20
24.499999350492772
 30
0.0
 11
131.2408600271184
 21
0.4999993504927716
 31
0.0
  0
TEXT
  5
EBD2
  8
0
  6
CONTINUOUS
 62
     3
 10
99.56388390847772
 20
4.4127258471472706
 30
0.0
 40
4.0
  1
HRC61-63
  0
TEXT
  5
EBD3
  8
0
  6
CONTINUOUS
 62
     3
 10
132.6297122988974
 20
61.777836628061529
 30
0.0
 40
3.0
  1
0.002
  0
LINE
  5
EBD4
  8
0
  6
CONTINUOUS
 62
     3
 10
147.8653341781008
 20
60.765999329555022
 30
0.0
 11
126.9592474748096
 21
60.765999329555022
 31
0.0
  0
LINE
  5
EBD5
  8
0
  6
CONTINUOUS
 62
     3
 10
126.9592474748096
 20
66.133677230630028
 30
0.0
 11
147.8653341781008
 21
66.133677230630028
 31
0.0
  0
TEXT
  5
EBD6
  8
0
  6
CONTINUOUS
 62
     3
 10
101.4928791453831
 20
15.53976058456931
 30
0.0
 40
4.0
  1
SNCM23
  0
TEXT
  5
EBD7
  8
0
 62
     7
 10
92.066975987370967
 20
10.126871005141309
 30
0.0
 40
2.0
  1
HARDNESS
  0
TEXT
  5
EBD8
  8
0
 62
     7
 10
92.131634047482891
 20
21.253905742563351
 30
0.0
 40
2.0
  1
MATERIAL
  0
SOLID
  5
EBD9
  8
0
  6
BYBLOCK
 62
     3
 10
129.42521298917731
 20
62.464639208841383
 30
0.0
 11
128.76088605468999
 21
63.120215928398792
 31
0.0
 12
131.0597796806062
 22
64.785408372082173
 32
0.0
 13
131.0597796806062
 23
64.785408372082173
 33
0.0
  0
LINE
  5
EBDA
  8
0
  6
BYBLOCK
 62
     3
 10
129.09304952193361
 20
62.792427568620028
 30
0.0
 11
128.1096844425974
 21
61.795937166888947
 31
0.0
  0
LINE
  5
EBDB
  8
0
  6
CONTINUOUS
 62
     3
 10
126.9592474748096
 20
60.765999329555022
 30
0.0
 11
126.9592474748096
 21
66.133677230630028
 31
0.0
  0
LINE
  5
EBDC
  8
0
  6
CONTINUOUS
 62
     3
 10
132.05872947570779
 20
66.133677230630028
 30
0.0
 11
132.05872947570779
 21
60.765999329555022
 31
0.0
  0
TEXT
  5
EBDD
  8
0
  6
CONTINUOUS
 62
     3
 10
143.79650524137051
 20
61.922778277435988
 30
0.0
 40
3.0
  1
A
  0
LINE
  5
EBDE
  8
0
  6
CONTINUOUS
 62
     3
 10
142.7658521772029
 20
66.133677230630028
 30
0.0
 11
142.7658521772029
 21
60.765999329555022
 31
0.0
  0
LINE
  5
EBDF
  8
0
  6
CONTINUOUS
 62
     3
 10
147.8653341781008
 20
66.133677230630028
 30
0.0
 11
147.8653341781008
 21
60.765999329555022
 31
0.0
  0
LINE
  5
EBE0
  8
0
 62
     2
 10
171.24086002711849
 20
24.499999350492772
 30
0.0
 11
171.24086002711849
 21
0.4999993504927716
 31
0.0
  0
TEXT
  5
EBE1
  8
0
  6
CONTINUOUS
 62
     3
 10
146.47483638239891
 20
4.4127258471472706
 30
0.0
 40
4.0
  1
SSK
  0
TEXT
  5
EBE2
  8
0
 62
     7
 10
173.36093618903439
 20
19.658472481648001
 30
0.0
 40
2.0
  1
DATE
  0
SOLID
  5
EBE3
  8
0
  6
BYBLOCK
 62
     2
 10
186.6978694456497
 20
63.866504946759257
 30
0.0
 11
186.6978694456497
 21
63.033171613425893
 31
0.0
 12
189.1978694456497
 22
63.449838280092521
 32
0.0
 13
189.1978694456497
 23
63.449838280092521
 33
0.0
  0
LINE
  5
EBE4
  8
CT
  6
CENTER
 10
236.6479226951362
 20
125.89378635667229
 30
0.0
 11
154.32923318885381
 21
125.89378635667229
 31
0.0
1001
ACAD
1000
ASC_BOUNDS
1002
{
1070
    19
1002
}
  0
LINE
  5
EBE5
  8
0
  6
CONTINUOUS
 10
231.1978694456497
 20
128.39378635667231
 30
0.0
 11
207.6978694456497
 21
128.39378635667231
 31
0.0
1001
ACAD
1000
ASC_BOUNDS
1002
{
1070
    19
1002
}
  0
LINE
  5
EBE6
  8
0
  6
CONTINUOUS
 10
205.89786944564969
 20
131.89378635667231
 30
0.0
 11
199.1978694456497
 21
131.89378635667231
 31
0.0
1001
ACAD
1000
ASC_BOUNDS
1002
{
1070
    19
1002
}
  0
LINE
  5
EBE7
  8
0
  6
CONTINUOUS
 62
     3
 10
235.0634753502886
 20
99.393786356672322
 30
0.0
 11
235.35155749403751
 21
104.52386994673201
 31
0.0
  0
LINE
  5
EBE8
  8
0
  6
CONTINUOUS
 10
205.3228694456497
 20
105.89378635667219
 30
0.0
 11
205.3228694456497
 21
96.996191092480728
 31
0.0
  0
LINE
  5
EBE9
  8
0
  6
CONTINUOUS
 10
189.1978694456497
 20
125.89378635667229
 30
0.0
 11
189.1978694456497
 21
94.893786356672365
 31
0.0
  0
LINE
  5
EBEA
  8
CT
  6
CENTER
 10
207.19786944564979
 20
97.600564559271447
 30
0.0
 11
207.19786944564979
 21
125.89378635667229
 31
0.0
1001
ACAD
1000
ASC_BOUNDS
1002
{
1070
    19
1002
}
  0
LINE
  5
EBEB
  8
0
  6
CONTINUOUS
 62
     2
 10
189.69786944564979
 20
94.393786356672365
 30
0.0
 11
189.69786944564979
 21
125.89378635667229
 31
0.0
  0
LINE
  5
EBEC
  8
0
  6
CONTINUOUS
 10
209.07286944564979
 20
105.89378635667219
 30
0.0
 11
209.07286944564979
 21
96.996191092480728
 31
0.0
  0
LINE
  5
EBED
  8
0
  6
CONTINUOUS
 10
215.19786944564979
 20
95.393786356672365
 30
0.0
 11
215.19786944564979
 21
125.89378635667229
 31
0.0
  0
LINE
  5
EBEE
  8
0
  6
CONTINUOUS
 62
     2
 10
206.39786944564969
 20
93.243786356672331
 30
0.0
 11
203.2978694456497
 21
93.243786356672331
 31
0.0
  0
LINE
  5
EBEF
  8
0
  6
CONTINUOUS
 10
205.3228694456497
 20
96.996191092480728
 30
0.0
 11
203.82037037089049
 21
94.393786356672365
 31
0.0
  0
CIRCLE
  5
EBF0
  8
0
  6
CONTINUOUS
 62
     4
 10
207.19786944564979
 20
93.243786356672331
 30
0.0
 40
3.4999999999999769
  0
DIMENSION
  5
EBF1
  8
0
  6
CONTINUOUS
  2
*D46
 10
215.19786944564979
 20
71.449838280092521
 30
0.0
 11
202.1978694456497
 21
74.29149182339961
 31
0.0
 12
-3.0000006434083839
 22
-1.500000649507228
 32
0.0
  3
ISO-25
 13
189.1978694456497
 23
94.393786356672365
 33
0.0
 14
215.19786944564979
 24
94.393786356672365
 34
0.0
1001
ACAD
1000
DSTYLE
1002
{
1070
   284
1070
     8
1070
   140
1040
3.0
1070
   283
1070
     0
1070
    71
1070
     1
1070
    48
1040
0.1
1070
    73
1070
     0
1070
   146
1040
0.7
1070
   272
1070
     8
1070
   147
1040
0.6
1070
    42
1040
0.6
1070
    44
1040
1.0
1070
    43
1040
1.0
1070
   271
1070
     8
1070
   178
1070
     3
1070
   141
1040
0.0
1070
   275
1070
     1
1002
}
  0
DIMENSION
  5
EBF2
  8
0
  6
CONTINUOUS
  2
*D47
 10
207.19786944564979
 20
79.033171613425836
 30
0.0
 11
198.1978694456497
 21
81.133171613425844
 31
0.0
 12
-3.0000006434083839
 22
-1.500000649507228
 32
0.0
  3
ISO-25
 13
189.1978694456497
 23
94.893786356672365
 33
0.0
 14
207.19786944564979
 24
89.343786356672354
 34
0.0
1001
ACAD
1000
DSTYLE
1002
{
1070
   284
1070
     8
1070
   140
1040
3.0
1070
   283
1070
     0
1070
    48
1040
0.3
1070
    73
1070
     0
1070
   146
1040
0.7
1070
   272
1070
     8
1070
     3
1000
%%p0.1
1070
   147
1040
0.6
1070
    42
1040
0.6
1070
    44
1040
1.0
1070
    43
1040
1.0
1070
   271
1070
     8
1070
   178
1070
     3
1070
   141
1040
0.0
1070
   275
1070
     1
1002
}
  0
LINE
  5
EBF3
  8
0
  6
CONTINUOUS
 10
189.69786944564979
 20
94.393786356672365
 30
0.0
 11
203.82037037089049
 21
94.393786356672365
 31
0.0
  0
LINE
  5
EBF4
  8
0
  6
CONTINUOUS
 10
189.69786944564979
 20
94.393786356672365
 30
0.0
 11
189.1978694456497
 21
94.893786356672365
 31
0.0
  0
LINE
  5
EBF5
  8
0
  6
CONTINUOUS
 10
203.82037037089049
 20
94.393786356672365
 30
0.0
 11
203.82037037088989
 21
125.89378635667229
 31
0.0
  0
DIMENSION
  5
EBF6
  8
0
  6
CONTINUOUS
  2
*D48
 10
214.1978694456497
 20
95.393786356672379
 30
0.0
 11
221.1453440731475
 21
90.729818485827394
 31
0.0
 12
-3.0000006434083839
 22
-1.500000649507228
 32
0.0
 70
     4
  3
ISO-25
 15
214.8616828126014
 25
94.645888092296644
 35
0.0
 40
0.0
1001
ACAD
1000
DSTYLE
1002
{
1070
   284
1070
     8
1070
   140
1040
5.25
1070
   283
1070
     0
1070
    48
1040
0.1
1070
    73
1070
     0
1070
   146
1040
0.7
1070
   272
1070
     8
1070
   147
1040
0.6
1070
    42
1040
0.6
1070
    44
1040
1.0
1070
    43
1040
1.0
1070
   271
1070
     8
1070
   178
1070
     3
1070
   141
1040
0.0
1070
   275
1070
     1
1002
}
  0
LINE
  5
EBF7
  8
0
  6
CONTINUOUS
 10
231.1978694456497
 20
99.393786356672322
 30
0.0
 11
215.69786944564979
 21
99.393786356672322
 31
0.0
  0
LINE
  5
EBF8
  8
0
  6
CONTINUOUS
 62
     2
 10
207.19786944564979
 20
92.443786356672305
 30
0.0
 11
207.19786944564979
 21
89.343786356672354
 31
0.0
  0
LINE
  5
EBF9
  8
0
  6
CONTINUOUS
 10
210.575368520409
 20
94.393786356672365
 30
0.0
 11
214.19786944564979
 21
94.393786356672365
 31
0.0
  0
LINE
  5
EBFA
  8
0
  6
CONTINUOUS
 10
210.575368520409
 20
94.393786356672365
 30
0.0
 11
210.575368520409
 21
125.89378635667229
 31
0.0
  0
LINE
  5
EBFB
  8
0
  6
CONTINUOUS
 62
     2
 10
207.19786944564979
 20
94.043786356672328
 30
0.0
 11
207.19786944564979
 21
97.143786356672294
 31
0.0
  0
LINE
  5
EBFC
  8
0
  6
CONTINUOUS
 10
209.07286944564979
 20
96.996191092480728
 30
0.0
 11
210.575368520409
 21
94.393786356672365
 31
0.0
  0
LINE
  5
EBFD
  8
0
  6
CONTINUOUS
 62
     2
 10
207.99786944564971
 20
93.243786356672331
 30
0.0
 11
211.09786944564959
 21
93.243786356672331
 31
0.0
  0
LINE
  5
EBFE
  8
0
  6
CONTINUOUS
 62
     2
 10
206.7978694456497
 20
93.243786356672331
 30
0.0
 11
207.59786944564959
 21
93.243786356672331
 31
0.0
  0
LINE
  5
EBFF
  8
0
  6
CONTINUOUS
 62
     2
 10
207.19786944564979
 20
92.843786356672297
 30
0.0
 11
207.19786944564979
 21
93.643786356672308
 31
0.0
  0
ARC
  5
EC00
  8
0
  6
CONTINUOUS
 10
208.07286944564979
 20
97.393786356672308
 30
0.0
 40
1.0
 50
359.99999999999841
 51
90.0
  0
LINE
  5
EC01
  8
0
  6
CONTINUOUS
 10
206.32286944564979
 20
98.393786356672294
 30
0.0
 11
207.19786944564979
 21
98.393786356672294
 31
0.0
  0
LINE
  5
EC02
  8
0
  6
CONTINUOUS
 10
208.07286944564979
 20
98.393786356672294
 30
0.0
 11
207.19786944564979
 21
98.393786356672294
 31
0.0
  0
ARC
  5
EC03
  8
0
  6
CONTINUOUS
 10
206.32286944564979
 20
97.393786356672308
 30
0.0
 40
1.0
 50
90.0
 51
180.00000000000159
  0
ARC
  5
EC04
  8
0
  6
CONTINUOUS
 10
214.19786944564979
 20
95.393786356672365
 30
0.0
 40
1.0
 50
270.0
 51
0.0
  0
ARC
  5
EC05
  8
0
  6
CONTINUOUS
 10
215.69786944564979
 20
98.893786356672308
 30
0.0
 40
0.5
 50
90.0
 51
180.0
  0
LINE
  5
EC06
  8
0
  6
CONTINUOUS
 10
235.0634753502886
 20
99.393786356672322
 30
0.0
 11
231.1978694456497
 21
99.393786356672322
 31
0.0
  0
LINE
  5
EC07
  8
0
  6
CONTINUOUS
 10
203.82037037089049
 20
105.89378635667229
 30
0.0
 11
203.82037037089049
 21
125.89378635667229
 31
0.0
  0
LINE
  5
EC08
  8
0
  6
CONTINUOUS
 62
     3
 10
235.35155749403751
 20
122.81007492435469
 30
0.0
 11
235.35155749403751
 21
125.89378635667229
 31
0.0
  0
LINE
  5
EC09
  8
0
  6
CONTINUOUS
 10
215.19786944564979
 20
125.89378635667229
 30
0.0
 11
215.19786944564979
 21
119.4445811438348
 31
0.0
  0
LINE
  5
EC0A
  8
0
  6
CONTINUOUS
 10
210.575368520409
 20
105.89378635667229
 30
0.0
 11
210.575368520409
 21
125.89378635667229
 31
0.0
  0
LINE
  5
EC0B
  8
0
  6
CONTINUOUS
 10
205.3228694456497
 20
125.89378635667229
 30
0.0
 11
205.3228694456497
 21
105.89378635667229
 31
0.0
  0
LINE
  5
EC0C
  8
0
  6
CONTINUOUS
 10
209.07286944564979
 20
125.89378635667229
 30
0.0
 11
209.07286944564979
 21
105.89378635667229
 31
0.0
  0
LINE
  5
EC0D
  8
0
  6
CONTINUOUS
 62
     3
 10
234.3432731664673
 20
111.4351920407683
 30
0.0
 11
234.48731360323151
 21
115.466795664835
 31
0.0
  0
LINE
  5
EC0E
  8
0
  6
CONTINUOUS
 62
     3
 10
234.63135403999581
 20
107.25960207434851
 30
0.0
 11
234.3432731664673
 21
111.4351920407683
 31
0.0
  0
LINE
  5
EC0F
  8
0
  6
CONTINUOUS
 62
     3
 10
235.35155749403751
 20
104.52386994673201
 30
0.0
 11
234.63135403999581
 21
107.25960207434851
 31
0.0
  0
LINE
  5
EC10
  8
0
  6
CONTINUOUS
 62
     3
 10
234.48731360323151
 20
115.466795664835
 30
0.0
 11
234.63135403999581
 21
119.4984002196895
 31
0.0
  0
LINE
  5
EC11
  8
0
  6
CONTINUOUS
 62
     3
 10
234.63135403999581
 20
119.4984002196895
 30
0.0
 11
235.35155749403751
 21
122.81007492435469
 31
0.0
  0
POINT
  5
EC12
  8
DEFPOINTS
  6
BYBLOCK
 62
     0
 10
235.10879364980499
 20
121.69378635667231
 30
0.0
  0
LINE
  5
EC13
  8
0
  6
CONTINUOUS
 62
     3
 10
234.3432731664673
 20
140.3523806725764
 30
0.0
 11
234.48731360323151
 21
136.3207770485096
 31
0.0
  0
LINE
  5
EC14
  8
0
  6
CONTINUOUS
 62
     3
 10
234.63135403999581
 20
132.28917249365509
 30
0.0
 11
235.35155749403751
 21
128.97749778898989
 31
0.0
  0
POINT
  5
EC15
  8
DEFPOINTS
  6
BYBLOCK
 62
     0
 10
235.10879364980499
 20
130.0937863566723
 30
0.0
  0
LINE
  5
EC16
  8
0
  6
CONTINUOUS
 62
     3
 10
235.35155749403751
 20
128.97749778898989
 30
0.0
 11
235.35155749403751
 21
125.89378635667229
 31
0.0
  0
LINE
  5
EC17
  8
0
  6
CONTINUOUS
 62
     3
 10
234.48731360323151
 20
136.3207770485096
 30
0.0
 11
234.63135403999581
 21
132.28917249365509
 31
0.0
  0
LINE
  5
EC18
  8
0
  6
CONTINUOUS
 62
     3
 10
234.63135403999581
 20
144.52797063899601
 30
0.0
 11
234.3432731664673
 21
140.3523806725764
 31
0.0
  0
LINE
  5
EC19
  8
0
  6
CONTINUOUS
 62
     3
 10
235.35155749403751
 20
147.2637027666126
 30
0.0
 11
234.63135403999581
 21
144.52797063899601
 31
0.0
  0
TEXT
  5
EC1A
  8
0
  6
CONTINUOUS
 62
     3
 10
71.024599488656349
 20
256.75777437212952
 30
0.0
 40
3.0
  1
%%P0.25
  0
LINE
  5
EC1B
  8
0
  6
CONTINUOUS
 62
     2
 10
0.9999993565916157
 20
255.12385005195691
 30
0.0
 11
100.9999993565916
 21
255.12385005195691
 31
0.0
  0
TEXT
  5
EC1C
  8
0
  6
CONTINUOUS
 62
     3
 10
72.382420026862292
 20
264.79696124840939
 30
0.0
 40
2.0
  1
+0.0
  0
TEXT
  5
EC1D
  8
0
  6
CONTINUOUS
 62
     3
 10
72.382420026862292
 20
262.2912407657484
 30
0.0
 40
2.0
  1
-0.25
  0
TEXT
  5
EC1E
  8
0
  6
CONTINUOUS
 62
     3
 10
72.173524559445923
 20
271.06126336265652
 30
0.0
 40
2.0
  1
+0.25
  0
TEXT
  5
EC1F
  8
0
  6
CONTINUOUS
 62
     7
 10
66.265655588340678
 20
275.656503641781
 30
0.0
 40
3.0
  1
 100-250
  0
LINE
  5
EC20
  8
0
  6
CONTINUOUS
 62
     2
 10
10.99999935659161
 20
261.29999935049273
 30
0.0
 11
100.9999993565916
 21
261.29999935049273
 31
0.0
  0
LINE
  5
EC21
  8
0
  6
CONTINUOUS
 62
     2
 10
10.99999935659161
 20
267.69999935049282
 30
0.0
 11
100.9999993565916
 21
267.69999935049259
 31
0.0
  0
LINE
  5
EC22
  8
0
  6
CONTINUOUS
 62
     2
 10
10.99999935659161
 20
274.09999935049268
 30
0.0
 11
100.9999993565916
 21
274.09999935049268
 31
0.0
  0
TEXT
  5
EC23
  8
0
  6
CONTINUOUS
 62
     3
 10
72.173524559445923
 20
268.55554287999553
 30
0.0
 40
2.0
  1
-0.0
  0
TEXT
  5
EC24
  8
0
  6
CONTINUOUS
 10
3.6647669647618382
 20
257.27421730393007
 30
0.0
 40
3.0
  1
mm
  0
TEXT
  5
EC25
  8
0
  6
CONTINUOUS
 10
4.7159313481931804
 20
261.24618987654799
 30
0.0
 40
3.0
  1
Â÷
  0
TEXT
  5
EC26
  8
0
  6
CONTINUOUS
 10
4.7159313481931804
 20
274.74618987654799
 30
0.0
 40
3.0
  1
±â
  0
TEXT
  5
EC27
  8
0
  6
CONTINUOUS
 10
4.7159313481931804
 20
270.24618987654799
 30
0.0
 40
3.0
  1
º»
  0
TEXT
  5
EC28
  8
0
  6
CONTINUOUS
 10
4.7159313481931804
 20
265.74618987654799
 30
0.0
 40
3.0
  1
°ø
  0
TEXT
  5
EC29
  8
0
  6
CONTINUOUS
 62
     3
 10
38.780952472549423
 20
268.55554287999553
 30
0.0
 40
2.0
  1
-0.0
  0
TEXT
  5
EC2A
  8
0
  6
CONTINUOUS
 62
     3
 10
38.780952472549423
 20
264.69255640477542
 30
0.0
 40
2.0
  1
+0.0
  0
TEXT
  5
EC2B
  8
0
  6
CONTINUOUS
 62
     7
 10
37.078552265791807
 20
275.656503641781
 30
0.0
 40
3.0
  1
1-50
  0
TEXT
  5
EC2C
  8
0
  6
CONTINUOUS
 62
     3
 10
37.736475973658337
 20
256.75777437212952
 30
0.0
 40
3.0
  1
%%P0.1
  0
LINE
  5
EC2D
  8
0
  6
CONTINUOUS
 62
     2
 10
10.99999935659161
 20
255.12385005195691
 30
0.0
 11
10.99999935659161
 21
280.49999935049283
 31
0.0
  0
LINE
  5
EC2E
  8
0
  6
CONTINUOUS
 62
     2
 10
32.999999356591623
 20
280.49999935049283
 30
0.0
 11
32.999999356591623
 21
255.12385005195691
 31
0.0
  0
TEXT
  5
EC2F
  8
0
  6
CONTINUOUS
 62
     7
 10
15.45459525074989
 20
262.97830043714453
 30
0.0
 40
3.0
  1
¿Ü   °æ
  0
TEXT
  5
EC30
  8
0
  6
CONTINUOUS
 62
     7
 10
15.45459525074989
 20
256.81044537697539
 30
0.0
 40
3.0
  1
Àü   Àå
  0
TEXT
  5
EC31
  8
0
  6
CONTINUOUS
 62
     3
 10
38.780952472549423
 20
262.18683592211408
 30
0.0
 40
2.0
  1
-0.1
  0
TEXT
  5
EC32
  8
0
  6
CONTINUOUS
 62
     7
 10
15.45459525074989
 20
269.21940503817768
 30
0.0
 40
3.0
  1
³»   °æ
  0
TEXT
  5
EC33
  8
0
  6
CONTINUOUS
 10
15.400203648974641
 20
275.50445492153329
 30
0.0
 40
3.0
  1
±¸   ºÐ 
  0
TEXT
  5
EC34
  8
0
  6
CONTINUOUS
 62
     3
 10
38.676504738841231
 20
271.06126336265652
 30
0.0
 40
2.0
  1
+0.1
  0
TEXT
  5
EC35
  8
0
  6
CONTINUOUS
 62
     3
 10
55.07682384959503
 20
264.69255640477542
 30
0.0
 40
2.0
  1
+0.0
  0
LINE
  5
EC36
  8
0
  6
CONTINUOUS
 62
     2
 10
66.999999356591616
 20
280.49999935049283
 30
0.0
 11
66.999999356591616
 21
255.12385005195691
 31
0.0
  0
LINE
  5
EC37
  8
0
  6
CONTINUOUS
 62
     2
 10
49.999999356591609
 20
280.49999935049283
 30
0.0
 11
49.999999356591609
 21
255.12385005195691
 31
0.0
  0
TEXT
  5
EC38
  8
0
  6
CONTINUOUS
 62
     3
 10
53.823451883287589
 20
256.75777437212952
 30
0.0
 40
3.0
  1
%%P0.15
  0
TEXT
  5
EC39
  8
0
  6
CONTINUOUS
 62
     3
 10
55.07682384959503
 20
262.18683592211408
 30
0.0
 40
2.0
  1
-0.15
  0
TEXT
  5
EC3A
  8
0
  6
CONTINUOUS
 62
     3
 10
55.07682384959503
 20
268.55554287999553
 30
0.0
 40
2.0
  1
-0.0
  0
TEXT
  5
EC3B
  8
0
  6
CONTINUOUS
 62
     3
 10
55.07682384959503
 20
271.06126336265652
 30
0.0
 40
2.0
  1
+0.15
  0
TEXT
  5
EC3C
  8
0
  6
CONTINUOUS
 62
     7
 10
52.274841800227357
 20
275.656503641781
 30
0.0
 40
3.0
  1
50-100
  0
LINE
  5
EC3D
  8
0
  6
CONTINUOUS
 62
     2
 10
206.39786944564969
 20
158.54378635667231
 30
0.0
 11
203.2978694456497
 21
158.54378635667231
 31
0.0
  0
LINE
  5
EC3E
  8
0
  6
CONTINUOUS
 10
205.3228694456497
 20
154.79138162086389
 30
0.0
 11
203.82037037089049
 21
157.39378635667231
 31
0.0
  0
CIRCLE
  5
EC3F
  8
0
  6
CONTINUOUS
 62
     4
 10
207.19786944564979
 20
158.54378635667231
 30
0.0
 40
3.4999999999999769
  0
CIRCLE
  5
EC40
  8
0
  6
PHANTOM2
 62
     4
 10
210.9027618972375
 20
157.47173634627191
 30
0.0
 40
8.2889121349918646
  0
LINE
  5
EC41
  8
0
  6
CONTINUOUS
 10
189.69786944564979
 20
157.39378635667231
 30
0.0
 11
203.82037037089049
 21
157.39378635667231
 31
0.0
  0
LINE
  5
EC42
  8
0
  6
CONTINUOUS
 10
189.1978694456497
 20
156.89378635667231
 30
0.0
 11
189.1978694456497
 21
152.79378635667231
 31
0.0
1001
ACAD
1000
ASC_BOUNDS
1002
{
1070
    19
1002
}
  0
LINE
  5
EC43
  8
0
  6
CONTINUOUS
 10
189.1978694456497
 20
144.8715727755586
 30
0.0
 11
189.1978694456497
 21
156.89378635667231
 31
0.0
1001
ACAD
1000
ASC_BOUNDS
1002
{
1070
    19
1002
}
  0
LINE
  5
EC44
  8
0
  6
CONTINUOUS
 10
189.1978694456497
 20
156.89378635667231
 30
0.0
 11
189.1978694456497
 21
150.71942669254361
 31
0.0
  0
LINE
  5
EC45
  8
0
  6
CONTINUOUS
 10
189.1978694456497
 20
156.89378635667231
 30
0.0
 11
189.69786944564979
 21
157.39378635667231
 31
0.0
  0
LINE
  5
EC46
  8
0
  6
CONTINUOUS
 10
231.1978694456497
 20
152.39378635667239
 30
0.0
 11
215.69786944564979
 21
152.39378635667239
 31
0.0
  0
LINE
  5
EC47
  8
0
  6
CONTINUOUS
 62
     2
 10
207.19786944564979
 20
159.3437863566723
 30
0.0
 11
207.19786944564979
 21
162.44378635667229
 31
0.0
  0
LINE
  5
EC48
  8
0
  6
CONTINUOUS
 10
210.575368520409
 20
157.39378635667231
 30
0.0
 11
214.19786944564979
 21
157.39378635667231
 31
0.0
  0
LINE
  5
EC49
  8
0
  6
CONTINUOUS
 10
205.3228694456497
 20
153.89378635667231
 30
0.0
 11
205.3228694456497
 21
154.79138162086389
 31
0.0
  0
LINE
  5
EC4A
  8
0
  6
CONTINUOUS
 10
209.07286944564979
 20
153.89378635667231
 30
0.0
 11
209.07286944564979
 21
154.79138162086389
 31
0.0
  0
LINE
  5
EC4B
  8
0
  6
CONTINUOUS
 10
208.57286944564979
 20
153.39378635667231
 30
0.0
 11
207.19786944564979
 21
153.39378635667231
 31
0.0
  0
LINE
  5
EC4C
  8
0
  6
CONTINUOUS
 10
205.82286944564979
 20
153.39378635667231
 30
0.0
 11
207.19786944564979
 21
153.39378635667231
 31
0.0
  0
ARC
  5
EC4D
  8
0
  6
CONTINUOUS
 10
205.82286944564979
 20
153.89378635667231
 30
0.0
 40
0.5
 50
180.0
 51
270.0
  0
ARC
  5
EC4E
  8
0
  6
CONTINUOUS
 10
208.57286944564979
 20
153.89378635667231
 30
0.0
 40
0.5
 50
270.0
 51
0.0
  0
LINE
  5
EC4F
  8
0
  6
CONTINUOUS
 62
     2
 10
207.99786944564971
 20
158.54378635667231
 30
0.0
 11
211.09786944564959
 21
158.54378635667231
 31
0.0
  0
LINE
  5
EC50
  8
0
  6
CONTINUOUS
 62
     2
 10
207.19786944564979
 20
158.14378635667231
 30
0.0
 11
207.19786944564979
 21
158.94378635667229
 31
0.0
  0
LINE
  5
EC51
  8
0
  6
CONTINUOUS
 62
     2
 10
206.7978694456497
 20
158.54378635667231
 30
0.0
 11
207.59786944564959
 21
158.54378635667231
 31
0.0
  0
LINE
  5
EC52
  8
0
  6
CONTINUOUS
 62
     2
 10
207.19786944564979
 20
157.7437863566723
 30
0.0
 11
207.19786944564979
 21
154.64378635667231
 31
0.0
  0
LINE
  5
EC53
  8
0
  6
CONTINUOUS
 10
209.07286944564979
 20
154.79138162086389
 30
0.0
 11
210.575368520409
 21
157.39378635667231
 31
0.0
  0
LINE
  5
EC54
  8
0
  6
CONTINUOUS
 10
215.19786944564979
 20
156.39378635667231
 30
0.0
 11
215.19786944564979
 21
152.89378635667231
 31
0.0
  0
ARC
  5
EC55
  8
0
  6
CONTINUOUS
 10
215.69786944564979
 20
152.89378635667231
 30
0.0
 40
0.5
 50
180.0
 51
270.0
  0
ARC
  5
EC56
  8
0
  6
CONTINUOUS
 10
214.19786944564979
 20
156.39378635667231
 30
0.0
 40
1.0
 50
0.0
 51
90.0
  0
POLYLINE
  5
EC57
  8
0
  6
CONTINUOUS
 66
     1
 10
0.0
 20
0.0
 30
0.0
 70
     1
 40
0.35
 41
0.35
  0
VERTEX
  5
10FC4
  8
0
  6
CONTINUOUS
 10
216.8113696743406
 20
163.10163694894561
 30
0.0
 42
1.0
  0
VERTEX
  5
10FC5
  8
0
  6
CONTINUOUS
 10
217.1613696743407
 20
163.10163694894561
 30
0.0
 42
1.0
  0
SEQEND
  5
10FC6
  8
0
  6
CONTINUOUS
  0
LINE
  5
EC58
  8
0
  6
CONTINUOUS
 10
235.0634753502886
 20
152.39378635667239
 30
0.0
 11
231.1978694456497
 21
152.39378635667239
 31
0.0
  0
TEXT
  5
EC59
  8
0
  6
CONTINUOUS
 62
     3
 10
180.99908146235879
 20
194.6152115125858
 30
0.0
 40
3.0
  1
0.05
  0
LINE
  5
EC5A
  8
0
  6
CONTINUOUS
 62
     3
 10
195.07597585217849
 20
193.60337421407931
 30
0.0
 11
174.16988914888751
 21
193.60337421407931
 31
0.0
  0
LINE
  5
EC5B
  8
0
  6
CONTINUOUS
 62
     3
 10
174.16988914888751
 20
198.97105211515429
 30
0.0
 11
195.07597585217849
 21
198.97105211515429
 31
0.0
  0
LINE
  5
EC5C
  8
0
  6
CONTINUOUS
 62
     3
 10
179.26937114978571
 20
198.97105211515429
 30
0.0
 11
179.26937114978571
 21
193.60337421407931
 31
0.0
  0
LINE
  5
EC5D
  8
0
  6
CONTINUOUS
 62
     3
 10
174.16988914888751
 20
193.60337421407931
 30
0.0
 11
174.16988914888751
 21
198.97105211515429
 31
0.0
  0
LINE
  5
EC5E
  8
0
  6
BYBLOCK
 62
     3
 10
176.30369119601141
 20
195.62980245314429
 30
0.0
 11
175.3203261166752
 21
194.63331205141321
 31
0.0
  0
SOLID
  5
EC5F
  8
0
  6
BYBLOCK
 62
     3
 10
176.635854663255
 20
195.3020140933657
 30
0.0
 11
175.9715277287678
 21
195.95759081292309
 31
0.0
 12
178.270421354684
 22
197.62278325660651
 32
0.0
 13
178.270421354684
 23
197.62278325660651
 33
0.0
  0
LINE
  5
EC60
  8
0
  6
BYBLOCK
 62
     2
 10
195.07597585217849
 20
196.28721316461679
 30
0.0
 11
196.6978694456497
 21
196.28721316461679
 31
0.0
  0
LINE
  5
EC61
  8
0
  6
CONTINUOUS
 62
     3
 10
195.07597585217849
 20
198.97105211515429
 30
0.0
 11
195.07597585217849
 21
193.60337421407931
 31
0.0
  0
LINE
  5
EC62
  8
0
  6
CONTINUOUS
 62
     3
 10
189.97649385128059
 20
198.97105211515429
 30
0.0
 11
189.97649385128059
 21
193.60337421407931
 31
0.0
  0
TEXT
  5
EC63
  8
0
  6
CONTINUOUS
 62
     3
 10
191.00714691544809
 20
194.76015316196029
 30
0.0
 40
3.0
  1
A
  0
LINE
  5
EC64
  8
0
  6
CONTINUOUS
 62
     2
 10
199.1978694456497
 20
184.39378635667231
 30
0.0
 11
199.1978694456497
 21
197.88556257771299
 31
0.0
  0
SOLID
  5
EC65
  8
0
  6
BYBLOCK
 62
     2
 10
196.6978694456497
 20
196.70387983128359
 30
0.0
 11
196.6978694456497
 21
195.87054649795019
 31
0.0
 12
199.1978694456497
 22
196.28721316461679
 32
0.0
 13
199.1978694456497
 23
196.28721316461679
 33
0.0
  0
TEXT
  5
EC66
  8
0
  6
CONTINUOUS
 62
     3
 10
211.6591873740611
 20
217.84822705845531
 30
0.0
 40
3.0
  1
0.1
  0
LINE
  5
EC67
  8
0
  6
CONTINUOUS
 62
     3
 10
223.92398654932711
 20
216.8363897599487
 30
0.0
 11
203.83027469248719
 21
216.8363897599487
 31
0.0
  0
LINE
  5
EC68
  8
0
  6
CONTINUOUS
 62
     3
 10
203.83027469248719
 20
222.2040676610238
 30
0.0
 11
223.92398654932711
 21
222.2040676610238
 31
0.0
  0
SOLID
  5
EC69
  8
0
  6
BYBLOCK
 62
     3
 10
206.29624020685489
 20
218.53502963923509
 30
0.0
 11
205.6319132723674
 21
219.19060635879251
 31
0.0
 12
207.93080689828361
 22
220.85579880247599
 32
0.0
 13
207.93080689828361
 23
220.85579880247599
 33
0.0
  0
LINE
  5
EC6A
  8
0
  6
CONTINUOUS
 62
     3
 10
203.83027469248719
 20
216.8363897599487
 30
0.0
 11
203.83027469248719
 21
222.2040676610238
 31
0.0
  0
LINE
  5
EC6B
  8
0
  6
CONTINUOUS
 62
     3
 10
208.92975669338529
 20
222.2040676610238
 30
0.0
 11
208.92975669338529
 21
216.8363897599487
 31
0.0
  0
LINE
  5
EC6C
  8
0
  6
BYBLOCK
 62
     3
 10
205.9640767396111
 20
218.86281799901391
 30
0.0
 11
204.98071166027489
 21
217.8663275972828
 31
0.0
  0
TEXT
  5
EC6D
  8
0
  6
CONTINUOUS
 62
     3
 10
219.85515761259671
 20
217.9931687078298
 30
0.0
 40
3.0
  1
A
  0
LINE
  5
EC6E
  8
0
  6
CONTINUOUS
 62
     3
 10
223.92398654932711
 20
222.2040676610238
 30
0.0
 11
223.92398654932711
 21
216.8363897599487
 31
0.0
  0
LINE
  5
EC6F
  8
0
  6
CONTINUOUS
 62
     3
 10
218.8245045484291
 20
222.2040676610238
 30
0.0
 11
218.8245045484291
 21
216.8363897599487
 31
0.0
  0
SOLID
  5
EC70
  8
0
  6
BYBLOCK
 62
     2
 10
230.69559382670241
 20
214.95146294861209
 30
0.0
 11
229.86226049336909
 21
214.95146294861209
 31
0.0
 12
230.27892716003589
 22
212.45146294861209
 32
0.0
 13
230.27892716003589
 23
212.45146294861209
 33
0.0
  0
LINE
  5
EC71
  8
0
  6
BYBLOCK
 62
     2
 10
230.27892716003569
 20
219.52022871048629
 30
0.0
 11
230.27892716003589
 21
214.95146294861209
 31
0.0
  0
TEXT
  5
EC72
  8
0
  6
CONTINUOUS
 62
     3
 10
89.013165562174322
 20
264.79696124840939
 30
0.0
 40
2.0
  1
+0.0
  0
LINE
  5
EC73
  8
0
  6
CONTINUOUS
 62
     2
 10
83.999999356591616
 20
280.49999935049283
 30
0.0
 11
83.999999356591616
 21
255.12385005195691
 31
0.0
  0
LINE
  5
EC74
  8
0
  6
CONTINUOUS
 62
     2
 10
100.9999993565916
 20
280.49999935049283
 30
0.0
 11
100.9999993565916
 21
255.12385005195691
 31
0.0
  0
TEXT
  5
EC75
  8
0
  6
CONTINUOUS
 62
     3
 10
87.550898128450513
 20
256.75777437212952
 30
0.0
 40
3.0
  1
%%P0.35
  0
TEXT
  5
EC76
  8
0
  6
CONTINUOUS
 62
     3
 10
89.013165562174322
 20
262.2912407657484
 30
0.0
 40
2.0
  1
-0.35
  0
TEXT
  5
EC77
  8
0
  6
CONTINUOUS
 62
     3
 10
88.947527085513343
 20
271.06126336265652
 30
0.0
 40
2.0
  1
+0.35
  0
TEXT
  5
EC78
  8
0
  6
CONTINUOUS
 62
     3
 10
88.947527085513343
 20
268.55554287999553
 30
0.0
 40
2.0
  1
-0.0
  0
TEXT
  5
EC79
  8
0
  6
CONTINUOUS
 62
     7
 10
85.193078420542875
 20
275.656503641781
 30
0.0
 40
3.0
  1
250-500
  0
POLYLINE
  5
EC7A
  8
0
 66
     1
 10
0.0
 20
0.0
 30
0.0
 40
1.0
 41
1.0
  0
VERTEX
  5
10FC7
  8
0
 10
402.98172533115797
 20
0.4999993504927716
 30
0.0
  0
VERTEX
  5
10FC8
  8
0
 10
402.98172533115797
 20
280.49999935049283
 30
0.0
  0
SEQEND
  5
10FC9
  8
0
  0
LINE
  5
EC7B
  8
0
 62
     2
 10
402.48172533115797
 20
6.9999993504927707
 30
0.0
 11
231.24086002711829
 21
6.9999993504927707
 31
0.0
  0
TEXT
  5
EC7C
  8
0
 62
     7
 10
320.8212831602084
 20
2.7574107883257279
 30
0.0
 40
2.0
  1
CUTTING SIZE :
  0
TEXT
  5
EC7D
  8
0
  6
CONTINUOUS
 62
     7
 10
259.3228157939659
 20
18.15898287427456
 30
0.0
 40
4.0
  1
SSK CONTROL NUMBER
  0
LINE
  5
EC7E
  8
0
 62
     2
 10
231.24086002711829
 20
24.499999350492772
 30
0.0
 11
231.24086002711829
 21
0.4999993504927716
 31
0.0
  0
TEXT
  5
EC7F
  8
0
 62
     7
 10
233.3462608975961
 20
2.7574107883257279
 30
0.0
 40
2.0
  1
Q'TY
  0
TEXT
  5
EC80
  8
0
  6
CONTINUOUS
 62
     7
 10
292.97860850743768
 20
1.8247611320749679
 30
0.0
 40
4.0
  1
1  :  1
  0
TEXT
  5
EC81
  8
0
 62
     7
 10
280.1529443384664
 20
2.7699543509235118
 30
0.0
 40
2.0
  1
SCALE
  0
LINE
  5
EC82
  8
0
 62
     2
 10
278.49086234387482
 20
6.9999993504927707
 30
0.0
 11
278.49086234387482
 21
0.4999993504927716
 31
0.0
  0
LINE
  5
EC83
  8
0
 62
     2
 10
318.49086234387482
 20
6.9999993504927707
 30
0.0
 11
318.49086234387482
 21
0.4999993504927716
 31
0.0
  0
TEXT
  5
EC84
  8
0
  6
CONTINUOUS
 62
     3
 10
275.61659102050862
 20
9.7624524018783632
 30
0.0
 40
4.0
  1
 HSK63F
  0
LINE
  5
EC85
  8
0
 62
     2
 10
342.48172533115809
 20
24.749999350492772
 30
0.0
 11
342.48172533115809
 21
7.2499993504927707
 31
0.0
  0
LINE
  5
EC86
  8
0
 62
     2
 10
362.48172533115797
 20
24.749999350492772
 30
0.0
 11
362.48172533115797
 21
7.2499993504927707
 31
0.0
  0
LINE
  5
EC87
  8
0
 62
     2
 10
382.48172533115797
 20
24.749999350492772
 30
0.0
 11
382.48172533115797
 21
7.2499993504927707
 31
0.0
  0
TEXT
  5
EC88
  8
0
 62
     7
 10
344.01895195986748
 20
21.246941257708951
 30
0.0
 40
2.0
  1
DESIGN
  0
TEXT
  5
EC89
  8
0
 62
     7
 10
363.45110681801498
 20
21.383892671541961
 30
0.0
 40
2.0
  1
CHECK
  0
TEXT
  5
EC8A
  8
0
 62
     7
 10
383.6720600412018
 20
21.383892671541961
 30
0.0
 40
2.0
  1
APPROVE
  0
TEXT
  5
EC8B
  8
0
 62
     7
 10
327.12748014588442
 20
275.54016582157459
 30
0.0
 40
2.5
  1
REVISIONS
  0
LINE
  5
EC8C
  8
0
  6
CONTINUOUS
 62
     2
 10
302.48172533115797
 20
261.29999935049273
 30
0.0
 11
402.48172533115797
 21
261.29999935049273
 31
0.0
  0
LINE
  5
EC8D
  8
0
  6
CONTINUOUS
 62
     2
 10
302.48172533115797
 20
267.69999935049191
 30
0.0
 11
402.48172533115797
 21
267.69999935049168
 31
0.0
  0
LINE
  5
EC8E
  8
0
  6
CONTINUOUS
 62
     2
 10
302.48172533115797
 20
274.09999935049268
 30
0.0
 11
402.48172533115797
 21
274.09999935049268
 31
0.0
  0
LINE
  5
EC8F
  8
0
  6
CONTINUOUS
 62
     2
 10
302.48172533115797
 20
255.12385005195691
 30
0.0
 11
402.48172533115797
 21
255.12385005195691
 31
0.0
  0
TEXT
  5
EC90
  8
0
 62
     3
 10
330.89638455227828
 20
212.76749476981419
 30
0.0
 40
3.0
  1
2.BREAK SHARP CORNERS  0.5*45%%D
  0
LINE
  5
EC91
  8
0
  6
CONTINUOUS
 62
     2
 10
279.99563168611547
 20
230.0254411271701
 30
0.0
 11
284.99563168611547
 21
238.68569516501461
 31
0.0
  0
LINE
  5
EC92
  8
0
  6
CONTINUOUS
 62
     2
 10
247.57859396888691
 20
230.0254411271701
 30
0.0
 11
242.57859396888691
 21
238.68569516501461
 31
0.0
  0
DIMENSION
  5
EC93
  8
0
  6
CONTINUOUS
  2
*D49
 10
260.40961375274202
 20
207.80146294861211
 30
0.0
 11
263.78711282750203
 21
235.46850066584051
 31
0.0
 12
-3.0000006434083839
 22
-1.500000649507228
 32
0.0
 70
     2
  1
60%%d%%p15'
  3
ISO-25
 13
265.66211282750118
 23
205.19905821280381
 33
0.0
 14
267.16461190226067
 24
207.80146294861211
 34
0.0
 15
261.91211282750118
 25
205.19905821280381
 35
0.0
 16
269.24262417479213
 26
232.89120526921539
 36
0.0
1001
ACAD
1000
DSTYLE
1002
{
1070
   271
1070
     8
1070
    42
1040
0.6
1070
    43
1040
1.0
1070
    44
1040
1.0
1070
    47
1040
-0.005
1070
    48
1040
0.008
1070
    73
1070
     0
1070
    79
1070
     2
1070
   140
1040
3.0
1070
   141
1040
-1.0
1070
   146
1040
0.7
1070
   147
1040
0.6
1070
   178
1070
     3
1070
   179
1070
     8
1070
   271
1070
     8
1070
   272
1070
     8
1070
   275
1070
     1
1070
   283
1070
     0
1070
   284
1070
     8
1002
}
  0
DIMENSION
  5
EC94
  8
0
  6
CONTINUOUS
  2
*D50
 10
265.66211282750118
 20
177.97404441337011
 30
0.0
 11
277.41060525155041
 21
180.85877699489961
 31
0.0
 12
-3.0000006434083839
 22
-1.500000649507228
 32
0.0
  3
ISO-25
 13
261.91211282750152
 23
198.90276082000281
 33
0.0
 14
265.66211282750118
 24
198.1265231239754
 34
0.0
1001
ACAD
1000
DSTYLE
1002
{
1070
   284
1070
     8
1070
   140
1040
3.0
1070
    47
1040
0.15
1070
   283
1070
     0
1070
    71
1070
     1
1070
    73
1070
     0
1070
   146
1040
0.7
1070
   272
1070
     8
1070
   147
1040
0.6
1070
    42
1040
0.6
1070
    44
1040
1.0
1070
    43
1040
1.0
1070
   271
1070
     8
1070
   178
1070
     3
1070
   141
1040
0.0
1070
   275
1070
     1
1002
}
  0
DIMENSION
  5
EC95
  8
0
  6
CONTINUOUS
  2
*D51
 10
246.04922246959109
 20
148.80146294861211
 30
0.0
 11
246.04922246959109
 21
188.58732558152579
 31
0.0
 12
-3.0000006434083839
 22
-1.500000649507228
 32
0.0
 70
   128
  3
ISO-25
 13
262.41211282750152
 23
203.80146294861211
 33
0.0
 14
262.41211282750152
 24
148.80146294861211
 34
0.0
 50
90.0
1001
ACAD
1000
DSTYLE
1002
{
1070
   284
1070
     8
1070
   140
1040
3.0
1070
   283
1070
     0
1070
    71
1070
     1
1070
    48
1040
0.1
1070
    73
1070
     0
1070
   146
1040
0.7
1070
   272
1070
     8
1070
    76
1070
     1
1070
   282
1070
     1
1070
     3
1000
%%c<>
1070
   147
1040
0.6
1070
    42
1040
0.6
1070
    44
1040
1.0
1070
    43
1040
1.0
1070
   271
1070
     8
1070
   178
1070
     3
1070
   141
1040
0.0
1070
   275
1070
     1
1002
}
  0
DIMENSION
  5
EC96
  8
0
  6
CONTINUOUS
  2
*D52
 10
238.10734692431649
 20
144.80146294861211
 30
0.0
 11
238.10734692431649
 21
188.75204541798911
 31
0.0
 12
-3.0000006434083839
 22
-1.500000649507228
 32
0.0
 70
   128
  3
ISO-25
 13
256.08932071998578
 23
207.80146294861211
 33
0.0
 14
256.08932071998578
 24
144.80146294861211
 34
0.0
 50
90.0
1001
ACAD
1000
DSTYLE
1002
{
1070
   284
1070
     8
1070
   140
1040
3.0
1070
   283
1070
     0
1070
    71
1070
     1
1070
    48
1040
0.1
1070
    73
1070
     0
1070
   146
1040
0.7
1070
   272
1070
     8
1070
    76
1070
     1
1070
   282
1070
     1
1070
     3
1000
%%c<>
1070
   147
1040
0.6
1070
    42
1040
0.6
1070
    44
1040
1.0
1070
    43
1040
1.0
1070
   271
1070
     8
1070
   178
1070
     3
1070
   141
1040
0.0
1070
   275
1070
     1
1002
}
  0
DIMENSION
  5
EC97
  8
0
  6
CONTINUOUS
  2
*D53
 10
292.33813973545222
 20
149.8014629486122
 30
0.0
 11
292.33813973545222
 21
187.1048470533554
 31
0.0
 12
-3.0000006434083839
 22
-1.500000649507228
 32
0.0
 70
   128
  3
ISO-25
 13
278.41989594578541
 23
202.8014629486122
 33
0.0
 14
278.41989594578541
 24
149.8014629486122
 34
0.0
 50
90.0
1001
ACAD
1000
DSTYLE
1002
{
1070
   284
1070
     8
1070
   140
1040
3.0
1070
   283
1070
     0
1070
    48
1040
0.1
1070
    73
1070
     0
1070
   146
1040
0.7
1070
   272
1070
     8
1070
    76
1070
     1
1070
   282
1070
     1
1070
     3
1000
%%c<>max
1070
   147
1040
0.6
1070
    42
1040
0.6
1070
    44
1040
1.0
1070
    43
1040
1.0
1070
   271
1070
     8
1070
   178
1070
     3
1070
   141
1040
0.0
1070
   275
1070
     1
1002
}
  0
LINE
  5
EC98
  8
0
  6
CONTINUOUS
 62
     3
 10
260.69634882377932
 20
159.9646651268416
 30
0.0
 11
262.18064637379069
 21
157.39378635667231
 31
0.0
  0
LINE
  5
EC99
  8
0
  6
CONTINUOUS
 62
     3
 10
263.66494392380167
 20
159.9646651268416
 30
0.0
 11
260.69634882377932
 21
159.9646651268416
 31
0.0
  0
LINE
  5
EC9A
  8
0
  6
CONTINUOUS
 62
     3
 10
257.72775372375742
 20
159.9646651268416
 30
0.0
 11
254.75915862373489
 21
159.96466512684151
 31
0.0
  0
LINE
  5
EC9B
  8
0
  6
CONTINUOUS
 62
     3
 10
256.24345617374593
 20
157.39378635667231
 30
0.0
 11
257.72775372375742
 21
159.9646651268416
 31
0.0
  0
LINE
  5
EC9C
  8
0
  6
CONTINUOUS
 62
     3
 10
254.75915862373489
 20
159.96466512684151
 30
0.0
 11
256.24345617374593
 21
157.39378635667231
 31
0.0
  0
LINE
  5
EC9D
  8
0
  6
CONTINUOUS
 62
     3
 10
259.21205127376828
 20
157.39378635667231
 30
0.0
 11
260.69634882377932
 21
159.9646651268416
 31
0.0
  0
LINE
  5
EC9E
  8
0
  6
CONTINUOUS
 62
     3
 10
257.72775372375742
 20
159.9646651268416
 30
0.0
 11
259.21205127376828
 21
157.39378635667231
 31
0.0
  0
LINE
  5
EC9F
  8
0
  6
CONTINUOUS
 62
     3
 10
260.69634882377932
 20
159.9646651268416
 30
0.0
 11
257.72775372375742
 21
159.9646651268416
 31
0.0
  0
LINE
  5
ECA0
  8
0
  6
CONTINUOUS
 62
     3
 10
262.18064637379069
 20
157.39378635667231
 30
0.0
 11
263.66494392380167
 21
159.9646651268416
 31
0.0
  0
TEXT
  5
ECA1
  8
0
  6
CONTINUOUS
 62
     3
 10
257.7934572237686
 20
160.38075780778931
 30
0.0
 40
3.0
  1
G
  0
LINE
  5
ECA2
  8
0
  6
CONTINUOUS
 62
     2
 10
263.38711282750143
 20
208.9514629486122
 30
0.0
 11
264.18711282750132
 21
208.9514629486122
 31
0.0
  0
LINE
  5
ECA3
  8
0
  6
CONTINUOUS
 10
265.16211282750118
 20
203.80146294861211
 30
0.0
 11
263.78711282750118
 21
203.80146294861211
 31
0.0
1001
ACAD
1000
ASC_BOUNDS
1002
{
1070
    19
1002
}
  0
LINE
  5
ECA4
  8
0
  6
CONTINUOUS
 62
     3
 10
261.18965473357639
 20
199.06073841233399
 30
0.0
 11
265.39856922092258
 21
198.14038859186681
 31
0.0
  0
CIRCLE
  5
ECA5
  8
0
  6
PHANTOM2
 62
     4
 10
267.6597671352888
 20
205.01945221320409
 30
0.0
 40
12.92083523720772
  0
DIMENSION
  5
ECA6
  8
0
  6
CONTINUOUS
  2
*D54
 10
260.58685943430578
 20
207.5342903340931
 30
0.0
 11
279.1914930804972
 21
215.7730058566386
 31
0.0
 12
-3.0000006434083839
 22
-1.500000649507228
 32
0.0
 70
   131
  3
ISO-25
 15
266.98736622069418
 25
210.36863556313619
 35
0.0
 40
0.0
1001
ACAD
1000
DSTYLE
1002
{
1070
   284
1070
     8
1070
   140
1040
3.0
1070
    47
1040
-0.005
1070
   283
1070
     0
1070
    48
1040
0.008
1070
    73
1070
     0
1070
   146
1040
0.7
1070
   272
1070
     8
1070
   147
1040
0.6
1070
    42
1040
0.6
1070
    44
1040
1.0
1070
    43
1040
1.0
1070
   271
1070
     8
1070
   178
1070
     3
1070
   141
1040
-1.0
1070
   275
1070
     1
1002
}
  0
CIRCLE
  5
ECA7
  8
0
  6
CONTINUOUS
 62
     4
 10
263.78711282750118
 20
208.9514629486122
 30
0.0
 40
3.4999999999999769
  0
LINE
  5
ECA8
  8
0
  6
CONTINUOUS
 62
     2
 10
263.78711282750118
 20
208.55146294861211
 30
0.0
 11
263.78711282750118
 21
209.35146294861221
 31
0.0
  0
LINE
  5
ECA9
  8
0
  6
CONTINUOUS
 62
     3
 10
248.8683833572527
 20
207.80146294861211
 30
0.0
 11
250.3526809072637
 21
210.3723417187814
 31
0.0
  0
LINE
  5
ECAA
  8
0
  6
CONTINUOUS
 62
     3
 10
250.3526809072637
 20
210.3723417187814
 30
0.0
 11
251.83697845727491
 21
207.80146294861211
 31
0.0
  0
LINE
  5
ECAB
  8
0
  6
CONTINUOUS
 62
     3
 10
245.89978825723031
 20
207.80146294861211
 30
0.0
 11
247.38408580724149
 21
210.3723417187814
 31
0.0
  0
LINE
  5
ECAC
  8
0
  6
CONTINUOUS
 62
     3
 10
244.41549070721911
 20
210.3723417187814
 30
0.0
 11
245.89978825723031
 21
207.80146294861211
 31
0.0
  0
LINE
  5
ECAD
  8
0
  6
CONTINUOUS
 62
     3
 10
247.38408580724149
 20
210.3723417187814
 30
0.0
 11
248.8683833572527
 21
207.80146294861211
 31
0.0
  0
SOLID
  5
ECAE
  8
0
  6
BYBLOCK
 62
     2
 10
238.52401359098329
 20
210.30146294861211
 30
0.0
 11
237.69068025765
 21
210.30146294861211
 31
0.0
 12
238.10734692431649
 22
207.80146294861211
 32
0.0
 13
238.10734692431649
 23
207.80146294861211
 33
0.0
  0
LINE
  5
ECAF
  8
0
  6
CONTINUOUS
 62
     3
 10
251.83697845727491
 20
207.80146294861211
 30
0.0
 11
253.32127600728589
 21
210.3723417187814
 31
0.0
  0
DIMENSION
  5
ECB0
  8
0
  6
CONTINUOUS
  2
*D55
 10
260.40961375274168
 20
207.8014629486124
 30
0.0
 11
257.13847126598682
 21
226.76453105749721
 31
0.0
 12
-3.0000006434083839
 22
-1.500000649507228
 32
0.0
 70
     2
  1
30%%d
  3
ISO-25
 13
263.78711282750118
 23
209.75146294861219
 33
0.0
 14
263.78711282750118
 24
212.8514629486121
 34
0.0
 15
261.91211282750118
 25
205.19905821280389
 35
0.0
 16
259.69103390838688
 26
225.181480854304
 36
0.0
1001
ACAD
1000
DSTYLE
1002
{
1070
   271
1070
     8
1070
    42
1040
0.6
1070
    43
1040
1.0
1070
    44
1040
1.0
1070
    47
1040
-0.005
1070
    48
1040
0.008
1070
    73
1070
     0
1070
    79
1070
     2
1070
   140
1040
3.0
1070
   141
1040
-1.0
1070
   146
1040
0.7
1070
   147
1040
0.6
1070
   178
1070
     3
1070
   179
1070
     8
1070
   271
1070
     8
1070
   272
1070
     8
1070
   275
1070
     1
1070
   283
1070
     0
1070
   284
1070
     8
1002
}
  0
DIMENSION
  5
ECB1
  8
0
  6
CONTINUOUS
  2
*D56
 10
262.41211282750191
 20
204.3014629486112
 30
0.0
 11
253.76418749303099
 21
194.19199437194999
 31
0.0
 12
-3.0000006434083839
 22
-1.500000649507228
 32
0.0
 70
   132
  3
ISO-25
 15
262.08709284343581
 25
203.92151293879709
 35
0.0
 40
0.0
1001
ACAD
1000
DSTYLE
1002
{
1070
   284
1070
     8
1070
   140
1040
3.0
1070
    47
1040
0.5
1070
   283
1070
     0
1070
    71
1070
     1
1070
    73
1070
     0
1070
   146
1040
0.7
1070
   272
1070
     8
1070
   147
1040
0.6
1070
    42
1040
0.6
1070
    44
1040
1.0
1070
    43
1040
1.0
1070
   271
1070
     8
1070
   178
1070
     3
1070
   141
1040
0.0
1070
   275
1070
     1
1002
}
  0
POLYLINE
  5
ECB2
  8
0
  6
CONTINUOUS
 66
     1
 10
0.0
 20
0.0
 30
0.0
 70
     1
 40
0.35
 41
0.35
  0
VERTEX
  5
10FCA
  8
0
  6
CONTINUOUS
 10
258.00158134979688
 20
196.2435094954719
 30
0.0
 42
1.0
  0
VERTEX
  5
10FCB
  8
0
  6
CONTINUOUS
 10
258.35158134979702
 20
196.2435094954719
 30
0.0
 42
1.0
  0
SEQEND
  5
10FCC
  8
0
  6
CONTINUOUS
  0
LINE
  5
ECB3
  8
0
  6
CONTINUOUS
 10
261.91211282750152
 20
198.90276082000281
 30
0.0
 11
261.91211282750152
 21
205.19905821280381
 31
0.0
1001
ACAD
1000
ASC_BOUNDS
1002
{
1070
    19
1002
}
  0
LINE
  5
ECB4
  8
0
  6
CONTINUOUS
 62
     3
 10
256.84921283867311
 20
204.0569230431276
 30
0.0
 11
258.29602680364081
 21
200.90143805326841
 31
0.0
  0
LINE
  5
ECB5
  8
0
  6
CONTINUOUS
 10
260.40961375274202
 20
207.80146294861211
 30
0.0
 11
260.40961375274202
 21
199.556939440283
 31
0.0
  0
LINE
  5
ECB6
  8
0
  6
CONTINUOUS
 62
     3
 10
258.29602680364081
 20
200.90143805326841
 30
0.0
 11
261.18965473357639
 21
199.06073841233399
 31
0.0
  0
LINE
  5
ECB7
  8
0
  6
CONTINUOUS
 10
256.08932071998578
 20
207.80146294861211
 30
0.0
 11
260.40961375274202
 21
207.80146294861211
 31
0.0
1001
ACAD
1000
ASC_BOUNDS
1002
{
1070
    19
1002
}
  0
LINE
  5
ECB8
  8
0
  6
CONTINUOUS
 62
     3
 10
256.08932071998578
 20
207.80146294861211
 30
0.0
 11
256.84921283867311
 21
204.0569230431276
 31
0.0
  0
LINE
  5
ECB9
  8
0
  6
CONTINUOUS
 10
262.41211282750152
 20
203.80146294861211
 30
0.0
 11
263.78711282750118
 21
203.80146294861211
 31
0.0
1001
ACAD
1000
ASC_BOUNDS
1002
{
1070
    19
1002
}
  0
ARC
  5
ECBA
  8
0
  6
CONTINUOUS
 10
262.41211282750152
 20
204.30146294861211
 30
0.0
 40
0.5
 50
180.0
 51
270.0
1001
ACAD
1000
ASC_BOUNDS
1002
{
1070
    19
1002
}
  0
LINE
  5
ECBB
  8
0
  6
CONTINUOUS
 62
     2
 10
263.78711282750118
 20
208.15146294861219
 30
0.0
 11
263.78711282750118
 21
205.0514629486122
 31
0.0
  0
LINE
  5
ECBC
  8
0
  6
CONTINUOUS
 10
261.91211282750118
 20
205.19905821280381
 30
0.0
 11
260.40961375274202
 21
207.80146294861211
 31
0.0
1001
ACAD
1000
ASC_BOUNDS
1002
{
1070
    19
1002
}
  0
LINE
  5
ECBD
  8
0
  6
CONTINUOUS
 62
     3
 10
250.3526809072637
 20
210.3723417187814
 30
0.0
 11
247.38408580724149
 21
210.3723417187814
 31
0.0
  0
LINE
  5
ECBE
  8
0
  6
BYBLOCK
 62
     2
 10
238.10734692431649
 20
219.52022871048629
 30
0.0
 11
238.10734692431649
 21
210.30146294861211
 31
0.0
  0
LINE
  5
ECBF
  8
0
  6
CONTINUOUS
 62
     3
 10
247.38408580724149
 20
210.3723417187814
 30
0.0
 11
244.41549070721911
 21
210.3723417187814
 31
0.0
  0
LINE
  5
ECC0
  8
0
  6
CONTINUOUS
 62
     3
 10
255.4620466256049
 20
221.80462938655131
 30
0.0
 11
253.92729383618891
 21
219.263548761452
 31
0.0
  0
LINE
  5
ECC1
  8
0
  6
CONTINUOUS
 62
     3
 10
256.89531060529771
 20
219.20495416983829
 30
0.0
 11
255.4620466256049
 21
221.80462938655131
 31
0.0
  0
TEXT
  5
ECC2
  8
0
  6
CONTINUOUS
 62
     3
 10
257.95703623521371
 20
217.51329808840609
 30
0.0
 40
3.0
  1
G
  0
LINE
  5
ECC3
  8
0
  6
CONTINUOUS
 62
     3
 10
253.92729383618891
 20
219.263548761452
 30
0.0
 11
256.89531060529771
 21
219.20495416983829
 31
0.0
  0
LINE
  5
ECC4
  8
0
  6
CONTINUOUS
 62
     3
 10
256.89531060529771
 20
219.20495416983829
 30
0.0
 11
255.36055781588169
 21
216.66387354473881
 31
0.0
  0
LINE
  5
ECC5
  8
0
  6
CONTINUOUS
 62
     3
 10
255.36055781588169
 20
216.66387354473881
 30
0.0
 11
258.32857458499029
 21
216.60527895312541
 31
0.0
  0
LINE
  5
ECC6
  8
0
  6
CONTINUOUS
 62
     3
 10
253.32127600728589
 20
210.3723417187814
 30
0.0
 11
250.3526809072637
 21
210.3723417187814
 31
0.0
  0
TEXT
  5
ECC7
  8
0
  6
CONTINUOUS
 62
     3
 10
247.49321578507971
 20
211.1098696257564
 30
0.0
 40
3.0
  1
G
  0
LINE
  5
ECC8
  8
0
  6
CONTINUOUS
 62
     3
 10
258.32857458499029
 20
216.60527895312541
 30
0.0
 11
256.7938217955741
 21
214.0641983280259
 31
0.0
  0
LINE
  5
ECC9
  8
0
  6
CONTINUOUS
 62
     3
 10
259.76183856468288
 20
214.00560373641241
 30
0.0
 11
258.32857458499029
 21
216.60527895312541
 31
0.0
  0
LINE
  5
ECCA
  8
0
  6
CONTINUOUS
 62
     2
 10
262.98711282750128
 20
208.9514629486122
 30
0.0
 11
259.88711282750143
 21
208.9514629486122
 31
0.0
  0
LINE
  5
ECCB
  8
0
  6
CONTINUOUS
 62
     3
 10
256.7938217955741
 20
214.0641983280259
 30
0.0
 11
259.76183856468288
 21
214.0056037364123
 31
0.0
  0
LINE
  5
ECCC
  8
0
  6
CONTINUOUS
 62
     2
 10
263.78711282750118
 20
209.75146294861219
 30
0.0
 11
263.78711282750118
 21
212.8514629486121
 31
0.0
  0
LINE
  5
ECCD
  8
0
  6
CONTINUOUS
 62
     3
 10
258.32857458499029
 20
216.60527895312541
 30
0.0
 11
256.89531060529771
 21
219.20495416983829
 31
0.0
  0
DIMENSION
  5
ECCE
  8
0
  6
CONTINUOUS
  2
*D57
 10
265.1621128275014
 20
204.30146294861251
 30
0.0
 11
277.76225266707598
 21
190.72868345554579
 31
0.0
 12
-3.0000006434083839
 22
-1.500000649507228
 32
0.0
 70
   132
  3
ISO-25
 15
265.50229262872188
 25
203.9350237274017
 35
0.0
 40
0.0
1001
ACAD
1000
DSTYLE
1002
{
1070
   284
1070
     8
1070
   140
1040
3.0
1070
    47
1040
0.5
1070
   283
1070
     0
1070
    71
1070
     1
1070
    73
1070
     0
1070
   146
1040
0.7
1070
   272
1070
     8
1070
   147
1040
0.6
1070
    42
1040
0.6
1070
    44
1040
1.0
1070
    43
1040
1.0
1070
   271
1070
     8
1070
   178
1070
     3
1070
   141
1040
0.0
1070
   275
1070
     1
1002
}
  0
LINE
  5
ECCF
  8
0
  6
CONTINUOUS
 62
     3
 10
270.39665335437758
 20
197.87743106476171
 30
0.0
 11
274.73709628943431
 21
198.0089098283143
 31
0.0
  0
LINE
  5
ECD0
  8
0
  6
CONTINUOUS
 10
278.41989594578541
 20
202.8014629486122
 30
0.0
 11
272.28711282750152
 21
202.8014629486122
 31
0.0
1001
ACAD
1000
ASC_BOUNDS
1002
{
1070
    19
1002
}
  0
ARC
  5
ECD1
  8
0
  6
CONTINUOUS
 10
272.28711282750152
 20
203.30146294861211
 30
0.0
 40
0.5
 50
180.0
 51
270.0
1001
ACAD
1000
ASC_BOUNDS
1002
{
1070
    19
1002
}
  0
LINE
  5
ECD2
  8
0
  6
CONTINUOUS
 10
271.78711282750152
 20
206.80146294861211
 30
0.0
 11
271.78711282750118
 21
197.91955024361781
 31
0.0
1001
ACAD
1000
ASC_BOUNDS
1002
{
1070
    19
1002
}
  0
LINE
  5
ECD3
  8
0
  6
CONTINUOUS
 10
267.16461190226067
 20
207.80146294861211
 30
0.0
 11
267.1646119022605
 21
198.0474741462819
 31
0.0
  0
LINE
  5
ECD4
  8
0
  6
CONTINUOUS
 10
265.66211282750118
 20
198.1265231239754
 30
0.0
 11
265.66211282750118
 21
205.19905821280381
 31
0.0
1001
ACAD
1000
ASC_BOUNDS
1002
{
1070
    19
1002
}
  0
LINE
  5
ECD5
  8
0
  6
CONTINUOUS
 62
     3
 10
265.39856922092258
 20
198.14038859186681
 30
0.0
 11
270.39665335437758
 21
197.87743106476171
 31
0.0
  0
LINE
  5
ECD6
  8
0
  6
CONTINUOUS
 10
267.16461190226067
 20
207.80146294861211
 30
0.0
 11
270.7871128275014
 21
207.80146294861211
 31
0.0
1001
ACAD
1000
ASC_BOUNDS
1002
{
1070
    19
1002
}
  0
LINE
  5
ECD7
  8
0
  6
CONTINUOUS
 10
265.66211282750118
 20
205.19905821280381
 30
0.0
 11
267.16461190226067
 21
207.80146294861211
 31
0.0
1001
ACAD
1000
ASC_BOUNDS
1002
{
1070
    19
1002
}
  0
ARC
  5
ECD8
  8
0
  6
CONTINUOUS
 10
265.16211282750118
 20
204.30146294861211
 30
0.0
 40
0.5
 50
270.0
 51
0.0
1001
ACAD
1000
ASC_BOUNDS
1002
{
1070
    19
1002
}
  0
ARC
  5
ECD9
  8
0
  6
CONTINUOUS
 10
270.7871128275014
 20
206.80146294861211
 30
0.0
 40
1.0
 50
0.0
 51
90.0
1001
ACAD
1000
ASC_BOUNDS
1002
{
1070
    19
1002
}
  0
LINE
  5
ECDA
  8
0
  6
CONTINUOUS
 62
     3
 10
278.02530956250069
 20
201.032916816821
 30
0.0
 11
278.41989594578541
 21
202.8014629486122
 31
0.0
  0
LINE
  5
ECDB
  8
0
  6
CONTINUOUS
 62
     3
 10
274.73709628943431
 20
198.0089098283143
 30
0.0
 11
277.36766732394881
 21
199.58665270434381
 31
0.0
  0
LINE
  5
ECDC
  8
0
  6
CONTINUOUS
 62
     3
 10
277.36766732394881
 20
199.58665270434381
 30
0.0
 11
278.02530956250069
 21
201.032916816821
 31
0.0
  0
LINE
  5
ECDD
  8
0
  6
CONTINUOUS
 62
     3
 10
272.23897212426567
 20
221.7322702093702
 30
0.0
 11
270.75467457425452
 21
219.16139143920091
 31
0.0
  0
LINE
  5
ECDE
  8
0
  6
CONTINUOUS
 62
     3
 10
273.72326967427688
 20
219.16139143920091
 30
0.0
 11
272.23897212426567
 21
221.7322702093702
 31
0.0
  0
LINE
  5
ECDF
  8
0
  6
CONTINUOUS
 62
     3
 10
270.75467457425452
 20
219.16139143920091
 30
0.0
 11
273.72326967427688
 21
219.16139143920091
 31
0.0
  0
LINE
  5
ECE0
  8
0
  6
CONTINUOUS
 62
     3
 10
269.27037702424349
 20
216.59051266903171
 30
0.0
 11
267.78607947423262
 21
214.01963389886231
 31
0.0
  0
LINE
  5
ECE1
  8
0
  6
CONTINUOUS
 62
     3
 10
270.75467457425469
 20
214.01963389886231
 30
0.0
 11
269.27037702424349
 21
216.59051266903171
 31
0.0
  0
LINE
  5
ECE2
  8
0
  6
CONTINUOUS
 62
     3
 10
267.78607947423262
 20
214.01963389886231
 30
0.0
 11
270.75467457425469
 21
214.01963389886231
 31
0.0
  0
LINE
  5
ECE3
  8
0
  6
CONTINUOUS
 62
     2
 10
264.58711282750141
 20
208.9514629486122
 30
0.0
 11
267.68711282750132
 21
208.9514629486122
 31
0.0
  0
TEXT
  5
ECE4
  8
0
  6
CONTINUOUS
 62
     3
 10
267.14023029405303
 20
217.26026694903899
 30
0.0
 40
3.0
  1
G
  0
LINE
  5
ECE5
  8
0
  6
CONTINUOUS
 62
     3
 10
272.23897212426567
 20
216.5905126690316
 30
0.0
 11
270.75467457425452
 21
219.16139143920091
 31
0.0
  0
LINE
  5
ECE6
  8
0
  6
CONTINUOUS
 62
     3
 10
269.27037702424349
 20
216.59051266903171
 30
0.0
 11
272.23897212426567
 21
216.5905126690316
 31
0.0
  0
LINE
  5
ECE7
  8
0
  6
CONTINUOUS
 62
     3
 10
270.75467457425452
 20
219.16139143920091
 30
0.0
 11
269.27037702424349
 21
216.59051266903171
 31
0.0
  0
TEXT
  5
ECE8
  8
0
 62
     3
 10
330.89638455227828
 20
206.11749476981419
 30
0.0
 40
3.0
  1
3.ANGLES  %%P0%%D15'
  0
TEXT
  5
ECE9
  8
0
 62
     3
 10
330.89638455227828
 20
219.4174947698142
 30
0.0
 40
3.0
  1
1.ROUND  R=0.5
  0
TEXT
  5
ECEA
  8
0
  6
CONTINUOUS
 62
     3
 10
261.56916958065523
 20
240.38471030883511
 30
0.0
 40
3.0
  1
0.1
  0
LINE
  5
ECEB
  8
0
  6
CONTINUOUS
 62
     3
 10
273.83396875592121
 20
239.3728730103287
 30
0.0
 11
253.74025689908129
 21
239.3728730103287
 31
0.0
  0
LINE
  5
ECEC
  8
0
  6
CONTINUOUS
 62
     3
 10
253.74025689908129
 20
244.7405509114036
 30
0.0
 11
273.83396875592121
 21
244.7405509114036
 31
0.0
  0
LINE
  5
ECED
  8
0
  6
BYBLOCK
 62
     2
 10
253.74025689908129
 20
242.05671196086621
 30
0.0
 11
247.7465070320745
 21
242.05671196086621
 31
0.0
  0
SOLID
  5
ECEE
  8
0
  6
BYBLOCK
 62
     2
 10
245.0785778549735
 20
238.26905640846491
 30
0.0
 11
245.80026569146051
 21
237.85238974179819
 31
0.0
 12
244.18942177321699
 22
235.8956595656704
 32
0.0
 13
244.18942177321699
 23
235.8956595656704
 33
0.0
  0
LINE
  5
ECEF
  8
0
  6
BYBLOCK
 62
     2
 10
247.7465070320745
 20
242.05671196086621
 30
0.0
 11
245.43942177321699
 21
238.06072307513151
 31
0.0
  0
LINE
  5
ECF0
  8
0
  6
CONTINUOUS
 62
     3
 10
253.74025689908129
 20
239.3728730103287
 30
0.0
 11
253.74025689908129
 21
244.7405509114036
 31
0.0
  0
LINE
  5
ECF1
  8
0
  6
CONTINUOUS
 62
     3
 10
258.83973889997952
 20
244.7405509114036
 30
0.0
 11
258.83973889997952
 21
239.3728730103287
 31
0.0
  0
SOLID
  5
ECF2
  8
0
  6
BYBLOCK
 62
     3
 10
256.2062224134491
 20
241.07151288961489
 30
0.0
 11
255.54189547896161
 21
241.7270896091724
 31
0.0
 12
257.84078910487779
 22
243.39228205285579
 32
0.0
 13
257.84078910487779
 23
243.39228205285579
 33
0.0
  0
LINE
  5
ECF3
  8
0
  6
BYBLOCK
 62
     3
 10
255.8740589462052
 20
241.39930124939369
 30
0.0
 11
254.89069386686899
 21
240.40281084766261
 31
0.0
  0
LINE
  5
ECF4
  8
0
  6
BYBLOCK
 62
     2
 10
279.82771862292788
 20
242.05671196086621
 30
0.0
 11
282.1348038817855
 21
238.06072307513151
 31
0.0
  0
LINE
  5
ECF5
  8
0
  6
CONTINUOUS
 62
     3
 10
273.83396875592121
 20
244.7405509114036
 30
0.0
 11
273.83396875592121
 21
239.3728730103287
 31
0.0
  0
LINE
  5
ECF6
  8
0
  6
CONTINUOUS
 62
     3
 10
268.73448675502323
 20
244.7405509114036
 30
0.0
 11
268.73448675502323
 21
239.3728730103287
 31
0.0
  0
POINT
  5
ECF7
  8
DEFPOINTS
  6
BYBLOCK
 62
     0
 10
266.06088061016948
 20
242.9859617362774
 30
0.0
  0
TEXT
  5
ECF8
  8
0
  6
CONTINUOUS
 62
     3
 10
269.76513981919078
 20
240.5296519582096
 30
0.0
 40
3.0
  1
A
  0
LINE
  5
ECF9
  8
0
  6
BYBLOCK
 62
     2
 10
273.83396875592121
 20
242.05671196086621
 30
0.0
 11
279.82771862292788
 21
242.05671196086621
 31
0.0
  0
SOLID
  5
ECFA
  8
0
  6
BYBLOCK
 62
     2
 10
282.49564780002919
 20
238.26905640846491
 30
0.0
 11
281.77395996354221
 21
237.85238974179819
 31
0.0
 12
283.3848038817855
 22
235.8956595656704
 32
0.0
 13
283.3848038817855
 23
235.8956595656704
 33
0.0
  0
TEXT
  5
ECFB
  8
0
 62
     7
 10
304.54221959972568
 20
257.24007192103522
 30
0.0
 40
2.5
  1
3.
  0
TEXT
  5
ECFC
  8
0
 62
     7
 10
304.54221959972568
 20
263.08559234956579
 30
0.0
 40
2.5
  1
2.
  0
TEXT
  5
ECFD
  8
0
 62
     7
 10
303.52870321926139
 20
275.7501481032632
 30
0.0
 40
2.5
  1
NO.
  0
TEXT
  5
ECFE
  8
0
 62
     7
 10
304.54221959972568
 20
269.79486742604149
 30
0.0
 40
2.5
  1
1.
  0
LINE
  5
ECFF
  8
0
 62
     2
 10
302.48172533115797
 20
280.49999935049283
 30
0.0
 11
302.48172533115797
 21
255.12385005195691
 31
0.0
  0
LINE
  5
ED00
  8
0
 62
     2
 10
308.48172533115797
 20
280.49999935049283
 30
0.0
 11
308.48172533115758
 21
255.12385005195691
 31
0.0
  0
TEXT
  5
ED01
  8
0
 62
     3
 10
329.50372817256931
 20
226.95093497028341
 30
0.0
 40
4.0
  1
NOTE
  0
TEXT
  5
ED02
  8
0
 62
     7
 10
366.3657440244383
 20
275.54016582157459
 30
0.0
 40
2.5
  1
DATE
  0
LINE
  5
ED03
  8
0
 62
     2
 10
360.48172533115797
 20
280.49999935049283
 30
0.0
 11
360.48172533115797
 21
255.12385005195691
 31
0.0
  0
LINE
  5
ED04
  8
0
 62
     2
 10
379.48172533115797
 20
280.49999935049283
 30
0.0
 11
379.48172533115797
 21
255.12385005195691
 31
0.0
  0
TEXT
  5
ED05
  8
0
 62
     7
 10
384.62169158365577
 20
275.64515532691553
 30
0.0
 40
2.5
  1
DEVISER
  0
LINE
  5
ED06
  8
0
  6
CONTINUOUS
 10
186.6978694456497
 20
145.01878637105861
 30
0.0
 11
165.14793182297299
 21
143.941289365915
 31
0.0
  0
LINE
  5
ED07
  8
0
  6
CONTINUOUS
 10
164.1978694456497
 20
125.89378635667229
 30
0.0
 11
164.1978694456497
 21
142.94253702732379
 31
0.0
  0
ARC
  5
ED08
  8
0
  6
CONTINUOUS
 10
165.1978694456497
 20
142.94253702732379
 30
0.0
 40
1.0
 50
92.862405554999654
 51
180.0
  0
ARC
  5
ED09
  8
0
  6
CONTINUOUS
 10
181.6978694456497
 20
125.89378635667229
 30
0.0
 40
3.0
 50
180.0
 51
0.0
  0
LINE
  5
ED0A
  8
0
  6
CONTINUOUS
 10
196.1978694456497
 20
125.89378635667229
 30
0.0
 11
196.1978694456497
 21
125.89378635667229
 31
0.0
  0
LINE
  5
ED0B
  8
0
  6
CONTINUOUS
 62
     3
 10
173.33703136990491
 20
98.846537495921396
 30
0.0
 11
173.33703136990491
 21
93.478859594846369
 31
0.0
  0
TEXT
  5
ED0C
  8
0
  6
CONTINUOUS
 62
     3
 10
173.97348646121421
 20
94.124874237406573
 30
0.0
 40
4.0
  1
A
  0
LINE
  5
ED0D
  8
0
  6
BYBLOCK
 62
     2
 10
175.88677237035401
 20
98.846537495921396
 30
0.0
 11
175.88677237035401
 21
103.2010079247224
 31
0.0
  0
SOLID
  5
ED0E
  8
0
  6
BYBLOCK
 62
     2
 10
178.0534390370205
 20
107.2010079247224
 30
0.0
 11
173.792362231602
 21
107.41406176499341
 31
0.0
 12
175.88677237035401
 22
103.2010079247224
 32
0.0
 13
175.88677237035401
 23
103.2010079247224
 33
0.0
  0
LINE
  5
ED0F
  8
0
  6
CONTINUOUS
 62
     3
 10
173.33703136990491
 20
98.846537495921396
 30
0.0
 11
178.43651337080311
 21
98.846537495921396
 31
0.0
  0
LINE
  5
ED10
  8
0
  6
CONTINUOUS
 62
     3
 10
178.43651337080311
 20
98.846537495921396
 30
0.0
 11
178.43651337080311
 21
93.478859594846369
 31
0.0
  0
LINE
  5
ED11
  8
0
  6
CONTINUOUS
 62
     3
 10
178.43651337080311
 20
93.478859594846369
 30
0.0
 11
173.33703136990491
 21
93.478859594846369
 31
0.0
  0
LINE
  5
ED12
  8
0
  6
BYBLOCK
 62
     2
 10
114.0039498436613
 20
191.63990439672989
 30
0.0
 11
125.49282549347799
 21
211.53922074405239
 31
0.0
  0
LINE
  5
ED13
  8
0
  6
BYBLOCK
 62
     2
 10
113.85299909493961
 20
191.69895923213741
 30
0.0
 11
113.85299909494
 21
214.65810282757931
 31
0.0
  0
ARC
  5
ED14
  8
0
  6
BYBLOCK
 62
     2
 10
113.85299909493961
 20
191.3784500305033
 30
0.0
 40
22.279652797075929
 50
66.432537537335733
 51
83.567462462651989
  0
SOLID
  5
ED15
  8
0
  6
BYBLOCK
 62
     2
 10
122.9488010105615
 20
212.17171962246991
 30
0.0
 11
122.5732809451401
 21
211.42779145059421
 31
0.0
 12
124.99282549347799
 22
210.67319534026791
 32
0.0
 13
124.99282549347799
 23
210.67319534026791
 33
0.0
  0
SOLID
  5
ED16
  8
0
  6
BYBLOCK
 62
     2
 10
116.3256841945517
 20
213.1018299545496
 30
0.0
 11
116.3724383642043
 21
213.93385068269549
 31
0.0
 12
113.85299909494
 22
213.65810282757931
 32
0.0
 13
113.85299909494
 23
213.65810282757931
 33
0.0
  0
POINT
  5
ED17
  8
DEFPOINTS
  6
BYBLOCK
 62
     0
 10
117.721820202204
 20
213.31962483948379
 30
0.0
  0
POINT
  5
ED18
  8
DEFPOINTS
  6
BYBLOCK
 62
     0
 10
118.18415015492469
 20
217.79781209465111
 30
0.0
  0
POINT
  5
ED19
  8
DEFPOINTS
  6
BYBLOCK
 62
     0
 10
125.49282549347799
 20
211.53922074405239
 30
0.0
  0
TEXT
  5
ED1A
  8
0
  6
CONTINUOUS
 62
     3
 10
114.11370567763009
 20
215.7629434378527
 30
0.0
 40
3.0
  1
30%%D
 50
344.78946118586992
  0
TEXT
  5
ED1B
  8
0
  6
CONTINUOUS
 62
     3
 10
120.4237790301199
 20
216.53993141555881
 30
0.0
 40
2.1000000000000001
  1
 0¡Æ
 50
339.7894611858722
  0
TEXT
  5
ED1C
  8
0
  6
CONTINUOUS
 62
     3
 10
119.337619124049
 20
214.1741800147542
 30
0.0
 40
2.1000000000000001
  1
-0¡Æ30'
 50
339.7894611858722
  0
LINE
  5
ED1D
  8
0
  6
CONTINUOUS
 62
     3
 10
180.2418540330452
 20
147.27008591812469
 30
0.0
 11
181.85268324194359
 21
144.7765370159299
 31
0.0
  0
LINE
  5
ED1E
  8
0
  6
CONTINUOUS
 62
     3
 10
181.85268324194359
 20
144.7765370159299
 30
0.0
 11
183.20674533237391
 21
147.41833048309121
 31
0.0
  0
LINE
  5
ED1F
  8
0
  6
CONTINUOUS
 62
     3
 10
177.2769627337168
 20
147.12184135315849
 30
0.0
 11
178.88779194261491
 21
144.6282924509637
 31
0.0
  0
LINE
  5
ED20
  8
0
  6
CONTINUOUS
 62
     3
 10
174.31207143438809
 20
146.97359678819171
 30
0.0
 11
175.92290064328631
 21
144.48004788599721
 31
0.0
  0
LINE
  5
ED21
  8
0
  6
CONTINUOUS
 62
     3
 10
175.92290064328631
 20
144.48004788599721
 30
0.0
 11
177.2769627337168
 21
147.12184135315849
 31
0.0
  0
LINE
  5
ED22
  8
0
  6
CONTINUOUS
 62
     3
 10
178.88779194261491
 20
144.6282924509637
 30
0.0
 11
180.2418540330452
 21
147.27008591812469
 31
0.0
  0
LINE
  5
ED23
  8
0
  6
CONTINUOUS
 62
     3
 10
183.2067453323736
 20
147.41833048309121
 30
0.0
 11
180.2418540330452
 21
147.27008591812469
 31
0.0
  0
TEXT
  5
ED24
  8
0
  6
CONTINUOUS
 62
     3
 10
177.34912616822061
 20
147.86389876626771
 30
0.0
 40
3.0
  1
G
 50
2.862405226112398
  0
LINE
  5
ED25
  8
0
  6
CONTINUOUS
 62
     3
 10
177.2769627337168
 20
147.12184135315849
 30
0.0
 11
174.31207143438809
 21
146.97359678819171
 31
0.0
  0
LINE
  5
ED26
  8
0
  6
CONTINUOUS
 62
     3
 10
180.2418540330452
 20
147.27008591812469
 30
0.0
 11
177.2769627337168
 21
147.12184135315849
 31
0.0
  0
TEXT
  5
ED27
  8
0
  6
CONTINUOUS
 62
     3
 10
183.7979328792396
 20
156.15175153509139
 30
0.0
 40
3.0
  1
G
  0
LINE
  5
ED28
  8
0
  6
CONTINUOUS
 62
     3
 10
186.62699067548081
 20
156.18877057886911
 30
0.0
 11
186.62699067548081
 21
153.22017547884661
 31
0.0
  0
LINE
  5
ED29
  8
0
  6
CONTINUOUS
 62
     3
 10
189.19786944565001
 20
154.70447302885759
 30
0.0
 11
186.62699067548081
 21
156.18877057886911
 31
0.0
  0
LINE
  5
ED2A
  8
0
  6
CONTINUOUS
 62
     3
 10
186.62699067548081
 20
153.22017547884661
 30
0.0
 11
189.19786944565001
 21
154.70447302885759
 31
0.0
  0
LINE
  5
ED2B
  8
0
  6
CONTINUOUS
 62
     3
 10
189.19786944565001
 20
157.67306812888
 30
0.0
 11
186.62699067548081
 21
159.15736567889101
 31
0.0
  0
LINE
  5
ED2C
  8
0
  6
CONTINUOUS
 62
     3
 10
186.62699067548081
 20
156.18877057886911
 30
0.0
 11
189.19786944565001
 21
157.67306812888
 31
0.0
  0
LINE
  5
ED2D
  8
0
  6
CONTINUOUS
 62
     3
 10
189.19786944565001
 20
160.64166322890219
 30
0.0
 11
186.62699067548081
 21
162.1259607789134
 31
0.0
  0
LINE
  5
ED2E
  8
0
  6
CONTINUOUS
 62
     3
 10
186.62699067548081
 20
159.15736567889101
 30
0.0
 11
189.19786944565001
 21
160.64166322890219
 31
0.0
  0
LINE
  5
ED2F
  8
0
  6
CONTINUOUS
 62
     3
 10
186.62699067548081
 20
162.1259607789132
 30
0.0
 11
186.62699067548081
 21
159.15736567889101
 31
0.0
  0
LINE
  5
ED30
  8
0
  6
CONTINUOUS
 62
     3
 10
186.62699067548081
 20
159.15736567889101
 30
0.0
 11
186.62699067548081
 21
156.18877057886911
 31
0.0
  0
DIMENSION
  5
ED31
  8
0
  6
CONTINUOUS
  2
*D18
 10
87.903819687749987
 20
159.5619534495759
 30
0.0
 11
85.015453546017696
 21
175.56195344957601
 31
0.0
 12
-3.0000006434083839
 22
-1.500000649507228
 32
0.0
  3
ISO-25
 13
114.4303493641291
 23
191.56195344957601
 33
0.0
 14
113.3333838526691
 24
159.5619534495759
 34
0.0
 50
90.0
1001
ACAD
1000
DSTYLE
1002
{
1070
   284
1070
     8
1070
   140
1040
5.25
1070
    47
1040
0.16
1070
   283
1070
     0
1070
    71
1070
     1
1070
    73
1070
     0
1070
   146
1040
0.7
1070
   272
1070
     8
1070
    76
1070
     1
1070
   282
1070
     1
1070
     3
1000
%%c<>
1070
   147
1040
0.6
1070
    42
1040
0.6
1070
    44
1040
1.0
1070
    43
1040
1.0
1070
   271
1070
     8
1070
   178
1070
     3
1070
   141
1040
-0.5
1070
   275
1070
     1
1002
}
  0
DIMENSION
  5
ED32
  8
0
  6
CONTINUOUS
  2
*D19
 10
95.903819687750044
 20
159.5619534495759
 30
0.0
 11
95.903819687750001
 21
170.06195344957609
 31
0.0
 12
-3.0000006434083839
 22
-1.500000649507228
 32
0.0
 70
   128
  3
ISO-25
 13
112.12094828737069
 23
188.5619534495759
 33
0.0
 14
112.12094828737069
 24
159.5619534495759
 34
0.0
 50
90.0
1001
ACAD
1000
DSTYLE
1002
{
1070
   284
1070
     8
1070
   140
1040
5.25
1070
    47
1040
0.16
1070
   283
1070
     0
1070
    73
1070
     0
1070
   146
1040
0.7
1070
   272
1070
     8
1070
    76
1070
     1
1070
   282
1070
     1
1070
     3
1000
%%c<>
1070
   147
1040
0.6
1070
    42
1040
0.6
1070
    44
1040
1.0
1070
    43
1040
1.0
1070
   271
1070
     8
1070
   178
1070
     3
1070
   141
1040
-0.5
1070
   275
1070
     1
1002
}
  0
TEXT
  5
ED33
  8
0
  6
CONTINUOUS
 62
     3
 10
145.97065466666109
 20
206.83307296571749
 30
0.0
 40
3.0
  1
0.05
  0
LINE
  5
ED34
  8
0
  6
CONTINUOUS
 62
     3
 10
159.0475490564809
 20
205.8212356672108
 30
0.0
 11
140.14146235318981
 21
205.8212356672108
 31
0.0
  0
LINE
  5
ED35
  8
0
  6
CONTINUOUS
 62
     3
 10
140.14146235318981
 20
211.18891356828581
 30
0.0
 11
159.0475490564809
 21
211.18891356828581
 31
0.0
  0
LINE
  5
ED36
  8
0
  6
CONTINUOUS
 62
     3
 10
140.14146235318981
 20
205.8212356672108
 30
0.0
 11
140.14146235318981
 21
211.18891356828581
 31
0.0
  0
LINE
  5
ED37
  8
0
  6
CONTINUOUS
 62
     3
 10
145.24094435408799
 20
211.18891356828581
 30
0.0
 11
145.24094435408799
 21
205.8212356672108
 31
0.0
  0
SOLID
  5
ED38
  8
0
  6
BYBLOCK
 62
     3
 10
142.60742786755731
 20
207.5198755464973
 30
0.0
 11
141.9431009330701
 21
208.17545226605461
 31
0.0
 12
144.24199455898631
 22
209.84064470973809
 32
0.0
 13
144.24199455898631
 23
209.84064470973809
 33
0.0
  0
LINE
  5
ED39
  8
0
  6
BYBLOCK
 62
     3
 10
142.27526440031369
 20
207.8476639062759
 30
0.0
 11
141.29189932097751
 21
206.8511735045449
 31
0.0
  0
LINE
  5
ED3A
  8
0
  6
CONTINUOUS
 62
     3
 10
153.9480670555831
 20
211.18891356828581
 30
0.0
 11
153.9480670555831
 21
205.8212356672108
 31
0.0
  0
TEXT
  5
ED3B
  8
0
  6
CONTINUOUS
 62
     3
 10
154.97872011975051
 20
206.97801461509189
 30
0.0
 40
3.0
  1
A
  0
SOLID
  5
ED3C
  8
0
  6
BYBLOCK
 62
     2
 10
126.8998680117147
 20
209.00382421773449
 30
0.0
 11
127.3382022937128
 21
209.71256077081321
 31
0.0
 12
124.99282549347799
 22
210.67319534026791
 32
0.0
 13
124.99282549347799
 23
210.67319534026791
 33
0.0
  0
LINE
  5
ED3D
  8
0
  6
CONTINUOUS
 62
     3
 10
159.0475490564809
 20
211.18891356828581
 30
0.0
 11
159.0475490564809
 21
205.8212356672108
 31
0.0
  0
LINE
  5
ED3E
  8
0
  6
BYBLOCK
 62
     2
 10
128.49842948259041
 20
208.50507461774839
 30
0.0
 11
127.11903515271381
 21
209.35819249427391
 31
0.0
  0
LINE
  5
ED3F
  8
0
  6
CONTINUOUS
 62
     2
 10
128.49842948259041
 20
208.50507461774839
 30
0.0
 11
140.14146235318981
 21
208.50507461774839
 31
0.0
  0
INSERT
  5
ED40
  8
0
  6
CONTINUOUS
  2
*U118
 10
0.0
 20
0.0
 30
0.0
1001
ACAD
1000
DSTYLE
1002
{
1070
   284
1070
     8
1070
   140
1040
5.25
1070
    47
1040
0.07
1070
   283
1070
     0
1070
    73
1070
     0
1070
   146
1040
0.7
1070
   272
1070
     8
1070
     3
1000
%%p0.02
1070
   147
1040
0.6
1070
    42
1040
0.6
1070
    44
1040
1.0
1070
    43
1040
1.0
1070
   271
1070
     8
1070
   178
1070
     3
1070
   141
1040
0.0
1070
   275
1070
     1
1002
}
  0
TEXT
  5
ED41
  8
0
  6
CONTINUOUS
 62
     3
 10
123.95245053792991
 20
94.732393082967803
 30
0.0
 40
3.0
  1
2%%D51'44.66"(Q/2)
  0
POLYLINE
  5
ED42
  8
0
  6
CONTINUOUS
 66
     1
 10
0.0
 20
0.0
 30
0.0
 70
     1
 40
0.5
 41
0.5
  0
VERTEX
  5
10FD7
  8
0
  6
CONTINUOUS
 10
258.61424991389822
 20
66.812336621336556
 30
0.0
 42
1.0
  0
VERTEX
  5
10FD8
  8
0
  6
CONTINUOUS
 10
259.11424991389822
 20
66.812336621336556
 30
0.0
 42
1.0
  0
SEQEND
  5
10FD9
  8
0
  6
CONTINUOUS
  0
DIMENSION
  5
ED43
  8
0
  6
CONTINUOUS
 62
     7
  2
*D20
 10
280.16168549446809
 20
51.810363088096302
 30
0.0
 11
276.06719711969748
 21
63.883512550246017
 31
0.0
 12
-3.0000006434083839
 22
-1.500000649507228
 32
0.0
 70
     4
  1
R0.6
  3
ISO-25
 15
278.4596674775176
 25
54.982607509633482
 35
0.0
 40
0.0
1001
ACAD
1000
DSTYLE
1002
{
1070
   284
1070
     8
1070
   140
1040
3.0
1070
    47
1040
0.1
1070
   283
1070
     0
1070
    48
1040
0.1
1070
    73
1070
     0
1070
   146
1040
0.7
1070
   272
1070
     1
1070
   147
1040
0.6
1070
    42
1040
0.6
1070
    44
1040
1.0
1070
    43
1040
1.0
1070
   271
1070
     8
1070
   178
1070
     3
1070
   141
1040
0.0
1070
   275
1070
     1
1002
}
  0
DIMENSION
  5
ED44
  8
0
  6
CONTINUOUS
 62
     7
  2
*D21
 10
293.78959923599808
 20
54.461885223287652
 30
0.0
 11
291.68930396040759
 21
60.761885223287749
 31
0.0
 12
-3.0000006434083839
 22
-1.500000649507228
 32
0.0
  1
2.1
  3
ISO-25
 13
278.99471472685769
 23
67.061885223287788
 33
0.0
 14
276.5947147268576
 24
54.461885223287652
 34
0.0
 50
90.0
1001
ACAD
1000
DSTYLE
1002
{
1070
   284
1070
     8
1070
   140
1040
3.0
1070
    47
1040
0.1
1070
   283
1070
     0
1070
    48
1040
0.1
1070
    73
1070
     0
1070
   146
1040
0.7
1070
   272
1070
     1
1070
   147
1040
0.6
1070
    42
1040
0.6
1070
    44
1040
1.0
1070
    43
1040
1.0
1070
   271
1070
     8
1070
   178
1070
     3
1070
   141
1040
0.0
1070
   275
1070
     1
1002
}
  0
DIMENSION
  5
ED45
  8
0
  6
CONTINUOUS
 62
     7
  2
*D22
 10
271.87849283627901
 20
54.461885223287652
 30
0.0
 11
271.87849283627901
 21
64.025198360006073
 31
0.0
 12
-3.0000006434083839
 22
-1.500000649507228
 32
0.0
 70
   128
  1
0.3
  3
ISO-25
 13
263.99471472685718
 23
56.26188522328772
 33
0.0
 14
270.71240618048159
 24
54.461885223287652
 34
0.0
 50
90.0
1001
ACAD
1000
DSTYLE
1002
{
1070
   284
1070
     8
1070
   140
1040
3.0
1070
    47
1040
0.1
1070
   283
1070
     0
1070
    48
1040
0.1
1070
    73
1070
     0
1070
   146
1040
0.7
1070
   272
1070
     1
1070
   147
1040
0.6
1070
    42
1040
0.6
1070
    44
1040
1.0
1070
    43
1040
1.0
1070
   271
1070
     8
1070
   178
1070
     3
1070
   141
1040
0.0
1070
   275
1070
     1
1002
}
  0
LINE
  5
ED46
  8
0
  6
CONTINUOUS
 10
258.46915382421679
 20
55.985607178155703
 30
0.0
 11
263.99471472685718
 21
56.26188522328772
 31
0.0
1001
ACAD
1000
ASC_BOUNDS
1002
{
1070
    19
1005
ED93
1002
}
  0
LINE
  5
ED47
  8
0
  6
CONTINUOUS
 10
278.99471472685741
 20
55.378603650287971
 30
0.0
 11
278.99471472685741
 21
75.059163498682949
 31
0.0
1001
ACAD
1000
ASC_BOUNDS
1002
{
1070
    19
1005
ED93
1002
}
  0
LINE
  5
ED48
  8
0
  6
CONTINUOUS
 62
     7
 10
278.99471472685769
 20
67.061885223287788
 30
0.0
 11
280.1947147268574
 21
58.52344155642794
 31
0.0
1001
ACAD
1000
ASC_BOUNDS
1002
{
1070
    19
1005
ED93
1002
}
  0
ARC
  5
ED49
  8
0
  6
CONTINUOUS
 62
     7
 10
276.5947147268576
 20
58.061885223287788
 30
0.0
 40
3.5999999999999992
 50
270.0
 51
0.0
1001
ACAD
1000
ASC_BOUNDS
1002
{
1070
    19
1005
ED93
1002
}
  0
LINE
  5
ED4A
  8
0
  6
CONTINUOUS
 62
     7
 10
263.99471472685758
 20
56.26188522328772
 30
0.0
 11
270.71240618048159
 21
54.461885223287652
 31
0.0
1001
ACAD
1000
ASC_BOUNDS
1002
{
1070
    19
1005
ED93
1002
}
  0
LINE
  5
ED4B
  8
0
  6
CONTINUOUS
 62
     7
 10
270.71240618048159
 20
54.461885223287652
 30
0.0
 11
276.5947147268576
 21
54.461885223287652
 31
0.0
1001
ACAD
1000
ASC_BOUNDS
1002
{
1070
    19
1005
ED93
1002
}
  0
LINE
  5
ED4C
  8
0
  6
CONTINUOUS
 10
280.1947147268574
 20
58.061885223287788
 30
0.0
 11
280.1947147268574
 21
58.523441556427599
 31
0.0
1001
ACAD
1000
ASC_BOUNDS
1002
{
1070
    19
1005
ED93
1002
}
  0
CIRCLE
  5
ED4D
  8
0
  6
PHANTOM2
 62
     4
 10
273.05145518970562
 20
60.874034076385499
 30
0.0
 40
15.3798644549708
1001
ACAD
1000
ASC_BOUNDS
1002
{
1070
    19
1005
ED93
1002
}
  0
DIMENSION
  5
ED4E
  8
0
  6
CONTINUOUS
 62
     7
  2
*D23
 10
270.71240618048182
 20
54.461885223287531
 30
0.0
 11
244.11817800213561
 21
57.963081784375731
 31
0.0
 12
-3.0000006434083839
 22
-1.500000649507228
 32
0.0
 70
     2
  3
ISO-25
 13
270.71240618048159
 23
54.461885223287652
 33
0.0
 14
276.5947147268576
 24
54.461885223287652
 34
0.0
 15
263.99471472685758
 25
56.261885223287493
 35
0.0
 16
246.36430614492889
 26
58.755112188544018
 36
0.0
1001
ACAD
1000
DSTYLE
1002
{
1070
   271
1070
     0
1070
    42
1040
0.6
1070
    43
1040
1.0
1070
    44
1040
1.0
1070
    47
1040
0.1
1070
    48
1040
0.1
1070
    73
1070
     0
1070
    79
1070
     2
1070
   140
1040
3.0
1070
   141
1040
0.0
1070
   146
1040
0.7
1070
   147
1040
0.6
1070
   178
1070
     3
1070
   271
1070
     0
1070
   272
1070
     1
1070
   275
1070
     1
1070
   283
1070
     0
1070
   284
1070
     8
1002
}
  0
DIMENSION
  5
ED4F
  8
0
  6
CONTINUOUS
 62
     7
  2
*D24
 10
278.99471472685769
 20
75.059163498683063
 30
0.0
 11
281.00627049777069
 21
38.295297486693357
 31
0.0
 12
-3.0000006434083839
 22
-1.500000649507228
 32
0.0
 70
     2
  3
ISO-25
 13
278.99471472685769
 23
67.061885223287788
 33
0.0
 14
280.1947147268574
 24
58.52344155642794
 34
0.0
 15
278.99471472685741
 25
55.378603650288092
 35
0.0
 16
280.43406053184458
 26
36.158553556771551
 36
0.0
1001
ACAD
1000
DSTYLE
1002
{
1070
   271
1070
     0
1070
    42
1040
0.6
1070
    43
1040
1.0
1070
    44
1040
1.0
1070
    47
1040
0.1
1070
    48
1040
0.1
1070
    73
1070
     0
1070
    79
1070
     2
1070
   140
1040
3.0
1070
   141
1040
0.0
1070
   146
1040
0.7
1070
   147
1040
0.6
1070
   178
1070
     3
1070
   271
1070
     0
1070
   272
1070
     1
1070
   275
1070
     1
1070
   283
1070
     0
1070
   284
1070
     8
1002
}
  0
DIMENSION
  5
ED50
  8
0
  6
CONTINUOUS
 62
     7
  2
*D25
 10
278.99471472685741
 20
80.578920195835323
 30
0.0
 11
271.49471472685752
 21
82.679215471425906
 31
0.0
 12
-3.0000006434083839
 22
-1.500000649507228
 32
0.0
  1
2.5
  3
ISO-25
 13
263.99471472685758
 23
56.26188522328772
 33
0.0
 14
278.99471472685741
 24
75.059163498682949
 34
0.0
1001
ACAD
1000
DSTYLE
1002
{
1070
   284
1070
     8
1070
   140
1040
3.0
1070
    47
1040
0.1
1070
   283
1070
     0
1070
    48
1040
0.1
1070
    73
1070
     0
1070
   146
1040
0.7
1070
   272
1070
     1
1070
   147
1040
0.6
1070
    42
1040
0.6
1070
    44
1040
1.0
1070
    43
1040
1.0
1070
   271
1070
     8
1070
   178
1070
     3
1070
   141
1040
0.0
1070
   275
1070
     1
1002
}
  0
DIMENSION
  5
ED51
  8
0
  6
CONTINUOUS
 62
     7
  2
*D26
 10
280.1947147268574
 20
80.578920195835323
 30
0.0
 11
287.98598441189682
 21
82.679215471425906
 31
0.0
 12
-3.0000006434083839
 22
-1.500000649507228
 32
0.0
  1
0.2
  3
ISO-25
 13
278.99471472685741
 23
75.059163498682949
 33
0.0
 14
280.1947147268574
 24
58.52344155642794
 34
0.0
1001
ACAD
1000
DSTYLE
1002
{
1070
   284
1070
     8
1070
   140
1040
3.0
1070
    47
1040
0.1
1070
   283
1070
     0
1070
    48
1040
0.1
1070
    73
1070
     0
1070
   146
1040
0.7
1070
   272
1070
     1
1070
   147
1040
0.6
1070
    42
1040
0.6
1070
    44
1040
1.0
1070
    43
1040
1.0
1070
   271
1070
     8
1070
   178
1070
     3
1070
   141
1040
0.0
1070
   275
1070
     1
1002
}
  0
LINE
  5
ED52
  8
0
  6
CONTINUOUS
 62
     4
 10
190.1918580850483
 20
105.6225272672698
 30
0.0
 11
258.86424991389822
 21
66.812336621336556
 31
0.0
  0
LINE
  5
ED53
  8
0
  6
CONTINUOUS
 10
187.81748468792051
 20
144.71878637105871
 30
0.0
 11
188.79786944564989
 21
144.71878637105871
 31
0.0
1001
ACAD
1000
ASC_BOUNDS
1002
{
1070
    19
1002
}
  0
LINE
  5
ED54
  8
0
  6
CONTINUOUS
 10
186.6978694456497
 20
145.01878637105861
 30
0.0
 11
187.81748468792051
 21
144.71878637105871
 31
0.0
1001
ACAD
1000
ASC_BOUNDS
1002
{
1070
    19
1002
}
  0
LINE
  5
ED55
  8
0
  6
CONTINUOUS
 10
189.3978694456498
 20
145.31878637105871
 30
0.0
 11
189.3978694456498
 21
145.39571242658181
 31
0.0
1001
ACAD
1000
ASC_BOUNDS
1002
{
1070
    19
1002
}
  0
LINE
  5
ED56
  8
0
  6
CONTINUOUS
 10
189.1978694456497
 20
146.81878637105871
 30
0.0
 11
189.3978694456498
 21
145.39571242658181
 31
0.0
1001
ACAD
1000
ASC_BOUNDS
1002
{
1070
    19
1002
}
  0
ARC
  5
ED57
  8
0
  6
CONTINUOUS
 10
188.79786944564989
 20
145.31878637105871
 30
0.0
 40
0.6
 50
270.0
 51
0.0
1001
ACAD
1000
ASC_BOUNDS
1002
{
1070
    19
1002
}
  0
LINE
  5
ED58
  8
0
  6
CONTINUOUS
 10
187.81748468792051
 20
107.0687863422859
 30
0.0
 11
187.81748468792051
 21
125.89378635667229
 31
0.0
  0
LINE
  5
ED59
  8
0
  6
CONTINUOUS
 10
186.6978694456497
 20
106.76878634228591
 30
0.0
 11
186.6978694456497
 21
125.89378635667229
 31
0.0
  0
LINE
  5
ED5A
  8
0
  6
PHANTOM2
 62
     4
 10
173.1978694456497
 20
125.89378635667229
 30
0.0
 11
173.19786944565001
 21
105.4412879799474
 31
0.0
  0
ARC
  5
ED5B
  8
0
  6
CONTINUOUS
 10
188.79786944564989
 20
106.46878634228599
 30
0.0
 40
0.6
 50
48.189685104215577
 51
90.0
1001
ACAD
1000
ASC_BOUNDS
1002
{
1070
    19
1002
}
  0
LINE
  5
ED5C
  8
0
  6
CONTINUOUS
 10
186.6978694456497
 20
106.76878634228591
 30
0.0
 11
187.81748468792051
 21
107.0687863422859
 31
0.0
1001
ACAD
1000
ASC_BOUNDS
1002
{
1070
    19
1002
}
  0
LINE
  5
ED5D
  8
0
  6
CONTINUOUS
 10
187.81748468792051
 20
107.0687863422859
 30
0.0
 11
188.79786944564989
 21
107.0687863422859
 31
0.0
1001
ACAD
1000
ASC_BOUNDS
1002
{
1070
    19
1002
}
  0
ARC
  5
ED5E
  8
0
  6
CONTINUOUS
 10
165.1978694456497
 20
108.84503568602091
 30
0.0
 40
1.0
 50
180.0
 51
267.13759444500027
  0
LINE
  5
ED5F
  8
0
  6
CONTINUOUS
 10
164.1978694456497
 20
125.89378635667229
 30
0.0
 11
164.1978694456497
 21
108.84503568602091
 31
0.0
  0
LINE
  5
ED60
  8
0
  6
CONTINUOUS
 10
186.6978694456497
 20
106.76878634228591
 30
0.0
 11
165.14793182297299
 21
107.8462833474297
 31
0.0
  0
LINE
  5
ED61
  8
0
  6
PHANTOM2
 62
     4
 10
184.1978694456497
 20
125.89378635667229
 30
0.0
 11
184.1978694456497
 21
104.8912879166474
 31
0.0
  0
LINE
  5
ED62
  8
0
  6
PHANTOM2
 62
     4
 10
173.1978694456497
 20
125.89378635667229
 30
0.0
 11
173.19786944565001
 21
146.3462847333972
 31
0.0
  0
LINE
  5
ED63
  8
0
  6
CONTINUOUS
 10
165.1978694456497
 20
138.89378635667239
 30
0.0
 11
174.2018440418656
 21
138.89378635667239
 31
0.0
  0
LINE
  5
ED64
  8
0
  6
CONTINUOUS
 10
165.1978694456497
 20
125.89378635667229
 30
0.0
 11
165.1978694456497
 21
138.89378635667239
 31
0.0
  0
LINE
  5
ED65
  8
0
  6
CONTINUOUS
 10
165.1978694456497
 20
138.89378635667239
 30
0.0
 11
164.1978694456497
 21
139.4711366258619
 31
0.0
  0
LINE
  5
ED66
  8
0
  6
CONTINUOUS
 10
176.22256998402921
 20
141.89378635667231
 30
0.0
 11
184.1868815191028
 21
141.89378635667231
 31
0.0
  0
LINE
  5
ED67
  8
0
  6
CONTINUOUS
 10
174.2018440418656
 20
138.89378635667239
 30
0.0
 11
175.78955728213691
 21
141.64378635667231
 31
0.0
  0
LINE
  5
ED68
  8
0
  6
CONTINUOUS
 10
175.93389484943421
 20
141.8020346471362
 30
0.0
 11
175.93389484943421
 21
125.89378635667229
 31
0.0
  0
LINE
  5
ED69
  8
0
  6
CONTINUOUS
 10
174.2018440418656
 20
138.89378635667239
 30
0.0
 11
174.2018440418656
 21
125.89378635667229
 31
0.0
  0
LINE
  5
ED6A
  8
0
  6
PHANTOM2
 62
     4
 10
175.06786944564979
 20
140.39378635667219
 30
0.0
 11
175.06786944564979
 21
125.89378635667229
 31
0.0
  0
LINE
  5
ED6B
  8
0
  6
CONTINUOUS
 10
189.1978694456497
 20
139.19378635667221
 30
0.0
 11
189.1978694456497
 21
125.89378635667229
 31
0.0
  0
LINE
  5
ED6C
  8
0
  6
CONTINUOUS
 10
189.1978694456497
 20
139.19378635667229
 30
0.0
 11
197.6978694456497
 21
139.19378635667229
 31
0.0
  0
LINE
  5
ED6D
  8
0
  6
CONTINUOUS
 10
199.1978694456497
 20
137.69378635667229
 30
0.0
 11
199.1978694456497
 21
125.89378635667229
 31
0.0
  0
ARC
  5
ED6E
  8
0
  6
CONTINUOUS
 10
184.1868815191028
 20
135.89378635667231
 30
0.0
 40
6.0
 50
33.367012969228782
 51
90.0
  0
ARC
  5
ED6F
  8
0
  6
CONTINUOUS
 10
176.22256998402921
 20
141.39378635667231
 30
0.0
 40
0.5
 50
90.0
 51
150.00000000000341
  0
ARC
  5
ED70
  8
0
  6
CONTINUOUS
 10
197.6978694456497
 20
137.69378635667229
 30
0.0
 40
1.5
 50
0.0
 51
90.0
  0
LINE
  5
ED71
  8
0
  6
CONTINUOUS
 10
206.1978694456497
 20
131.5937863566723
 30
0.0
 11
206.1978694456497
 21
125.89378635667229
 31
0.0
  0
LINE
  5
ED72
  8
0
  6
CONTINUOUS
 10
206.19786944564979
 20
130.99186256802571
 30
0.0
 11
207.69786944564979
 21
128.39378635667231
 31
0.0
  0
CIRCLE
  5
ED73
  8
0
  6
PHANTOM2
 62
     4
 10
188.02260581956691
 20
106.39763330015271
 30
0.0
 40
2.3035721724111791
  0
POLYLINE
  5
ED74
  8
0
  6
CONTINUOUS
 66
     1
 10
0.0
 20
0.0
 30
0.0
 70
     1
 40
0.5
 41
0.5
  0
VERTEX
  5
10FDA
  8
0
  6
CONTINUOUS
 10
189.9418580850483
 20
105.6225272672698
 30
0.0
 42
1.0
  0
VERTEX
  5
10FDB
  8
0
  6
CONTINUOUS
 10
190.4418580850483
 20
105.6225272672698
 30
0.0
 42
1.0
  0
SEQEND
  5
10FDC
  8
0
  6
CONTINUOUS
  0
CIRCLE
  5
ED75
  8
0
  6
PHANTOM2
 62
     4
 10
173.51452202284051
 20
143.17311250618971
 30
0.0
 40
6.24999982038885
  0
CIRCLE
  5
ED76
  8
0
  6
PHANTOM2
 62
     4
 10
109.0142534417518
 20
194.1206057486109
 30
0.0
 40
12.4999996407777
1001
ACAD
1000
ASC_BOUNDS
1002
{
1070
    19
1005
ED94
1002
}
  0
LINE
  5
ED77
  8
0
  6
CONTINUOUS
 10
121.15384307205881
 20
197.1005981357128
 30
0.0
 11
96.637954274539425
 21
195.8748035547593
 31
0.0
1001
ACAD
1000
ASC_BOUNDS
1002
{
1070
    19
1005
ED94
1002
}
  0
LINE
  5
ED78
  8
0
  6
CONTINUOUS
 10
113.85299909493961
 20
191.37845003050381
 30
0.0
 11
113.85299909493961
 21
182.59513259028901
 31
0.0
  0
LINE
  5
ED79
  8
0
  6
CONTINUOUS
 10
99.903849397821205
 20
185.56195344957601
 30
0.0
 11
110.3888974798019
 21
185.56195344957601
 31
0.0
1001
ACAD
1000
ASC_BOUNDS
1002
{
1070
    19
1005
ED94
1002
}
  0
LINE
  5
ED7A
  8
0
  6
CONTINUOUS
 10
110.3888974798019
 20
185.56195344957601
 30
0.0
 11
110.3888974798019
 21
181.6964218805214
 31
0.0
  0
LINE
  5
ED7B
  8
0
  6
CONTINUOUS
 10
110.3888974798019
 20
185.56195344957601
 30
0.0
 11
113.56432396034479
 21
191.06195344957601
 31
0.0
1001
ACAD
1000
ASC_BOUNDS
1002
{
1070
    19
1005
ED94
1002
}
  0
LINE
  5
ED7C
  8
0
  6
PHANTOM2
 62
     4
 10
112.12094828737069
 20
188.5619534495759
 30
0.0
 11
112.12094828737069
 21
182.01282155183699
 31
0.0
  0
LINE
  5
ED7D
  8
0
  6
CONTINUOUS
 10
114.4303493641291
 20
191.56195344957601
 30
0.0
 11
121.24958300135449
 21
191.56195344957601
 31
0.0
1001
ACAD
1000
ASC_BOUNDS
1002
{
1070
    19
1005
ED94
1002
}
  0
ARC
  5
ED7E
  8
0
  6
CONTINUOUS
 10
114.4303493641291
 20
190.56195344957601
 30
0.0
 40
1.0
 50
90.0
 51
150.00000000000341
1001
ACAD
1000
ASC_BOUNDS
1002
{
1070
    19
1005
ED94
1002
}
  0
DIMENSION
  5
ED7F
  8
0
  6
CONTINUOUS
  2
*D27
 10
149.8643586206249
 20
138.89378635667239
 30
0.0
 11
147.0227050773178
 21
125.89378635667239
 31
0.0
 12
-3.0000006434083839
 22
-1.500000649507228
 32
0.0
  3
ISO-25
 13
165.1978694456497
 23
112.89378635667229
 33
0.0
 14
165.19786944565001
 24
138.89378635667239
 34
0.0
 50
90.0
1001
ACAD
1000
DSTYLE
1002
{
1070
   287
1070
     2
1070
    72
1070
     0
1070
    71
1070
     1
1070
    75
1070
     1
1070
   281
1070
     1
1070
     3
1000
%%c<>
1070
    42
1040
0.6
1070
    43
1040
1.0
1070
    44
1040
1.0
1070
    47
1040
0.084
1070
    48
1040
0.0
1070
    73
1070
     0
1070
   140
1040
3.0
1070
   141
1040
-1.0
1070
   146
1040
0.7
1070
   147
1040
0.6
1070
   178
1070
     3
1070
   271
1070
     8
1070
   272
1070
     8
1070
   275
1070
     1
1070
   283
1070
     0
1070
   284
1070
     8
1070
   289
1070
     2
1002
}
  0
DIMENSION
  5
ED80
  8
0
  6
CONTINUOUS
  2
*D28
 10
141.8643586206249
 20
144.34378629337249
 30
0.0
 11
141.8643586206249
 21
125.89378635667239
 31
0.0
 12
-3.0000006434083839
 22
-1.500000649507228
 32
0.0
 70
   128
  3
ISO-25
 13
173.19786944565001
 23
107.4437864199722
 33
0.0
 14
173.19786944565001
 24
144.34378629337249
 34
0.0
 50
90.0
1001
ACAD
1000
DSTYLE
1002
{
1070
   287
1070
     2
1070
    72
1070
     0
1070
    71
1070
     1
1070
    75
1070
     1
1070
   281
1070
     1
1070
     3
1000
%%c<>
1070
    42
1040
0.6
1070
    43
1040
1.0
1070
    44
1040
1.0
1070
    47
1040
0.006
1070
    48
1040
-0.003
1070
    73
1070
     0
1070
   140
1040
3.0
1070
   141
1040
-1.0
1070
   146
1040
0.7
1070
   147
1040
0.6
1070
   178
1070
     3
1070
   271
1070
     5
1070
   272
1070
     8
1070
   275
1070
     1
1070
   283
1070
     0
1070
   284
1070
     8
1070
   289
1070
     2
1002
}
  0
DIMENSION
  5
ED81
  8
0
  6
CONTINUOUS
  2
*D29
 10
133.8643586206249
 20
144.89378635667231
 30
0.0
 11
133.8643586206249
 21
125.89378635667239
 31
0.0
 12
-3.0000006434083839
 22
-1.500000649507228
 32
0.0
 70
   128
  3
ISO-25
 13
184.1978694456497
 23
106.89378635667229
 33
0.0
 14
184.1978694456497
 24
144.89378635667231
 34
0.0
 50
90.0
1001
ACAD
1000
DSTYLE
1002
{
1070
   287
1070
     2
1070
    72
1070
     0
1070
    71
1070
     1
1070
    75
1070
     1
1070
   281
1070
     1
1070
     3
1000
%%c<>
1070
    42
1040
0.6
1070
    43
1040
1.0
1070
    44
1040
1.0
1070
    47
1040
0.009
1070
    48
1040
-0.006
1070
    73
1070
     0
1070
   140
1040
3.0
1070
   141
1040
-1.0
1070
   146
1040
0.7
1070
   147
1040
0.6
1070
   178
1070
     3
1070
   271
1070
     8
1070
   272
1070
     8
1070
   275
1070
     1
1070
   283
1070
     0
1070
   284
1070
     8
1070
   289
1070
     2
1002
}
  0
DIMENSION
  5
ED82
  8
0
  6
CONTINUOUS
  2
*D30
 10
164.1978694456497
 20
131.58148871744231
 30
0.0
 11
155.82437702160061
 21
134.46622129897179
 31
0.0
 12
-3.0000006434083839
 22
-1.500000649507228
 32
0.0
  3
ISO-25
 13
165.1978694456497
 23
135.0287863566723
 33
0.0
 14
164.1978694456497
 24
135.0287863566723
 34
0.0
1001
ACAD
1000
DSTYLE
1002
{
1070
   287
1070
     2
1070
    72
1070
     0
1070
    71
1070
     1
1070
    42
1040
0.6
1070
    43
1040
1.0
1070
    44
1040
1.0
1070
    47
1040
0.3
1070
    48
1040
0.0
1070
    73
1070
     0
1070
   140
1040
3.0
1070
   141
1040
-1.0
1070
   146
1040
0.7
1070
   147
1040
0.6
1070
   178
1070
     3
1070
   179
1070
     8
1070
   271
1070
     8
1070
   272
1070
     8
1070
   275
1070
     1
1070
   283
1070
     0
1070
   284
1070
     8
1070
   289
1070
     2
1002
}
  0
DIMENSION
  5
ED83
  8
0
  6
CONTINUOUS
  2
*D31
 10
165.19786944565081
 20
142.94253702732439
 30
0.0
 11
160.48018362542709
 21
149.8536469600094
 31
0.0
 12
-3.0000006434083839
 22
-1.500000649507228
 32
0.0
 70
     4
  3
ISO-25
 15
164.44484765184271
 25
143.6005326033351
 35
0.0
 40
0.0
1001
ACAD
1000
DSTYLE
1002
{
1070
   287
1070
     2
1070
    42
1040
0.6
1070
    43
1040
1.0
1070
    44
1040
1.0
1070
    47
1040
0.1
1070
    48
1040
0.1
1070
    73
1070
     0
1070
   140
1040
3.0
1070
   141
1040
-1.0
1070
   146
1040
0.7
1070
   147
1040
0.6
1070
   178
1070
     3
1070
   271
1070
     8
1070
   272
1070
     8
1070
   275
1070
     1
1070
   283
1070
     0
1070
   284
1070
     8
1070
   289
1070
     2
1002
}
  0
DIMENSION
  5
ED84
  8
0
  6
CONTINUOUS
  2
*D32
 10
181.6978694456497
 20
79.033171613425836
 30
0.0
 11
185.44786944564979
 21
79.033171613425836
 31
0.0
 12
-3.0000006434083839
 22
-1.500000649507228
 32
0.0
 70
   128
  3
ISO-25
 13
189.19786944565001
 23
101.39378635667251
 33
0.0
 14
181.6978694456497
 24
122.39378635667229
 34
0.0
1001
ACAD
1000
DSTYLE
1002
{
1070
   287
1070
     2
1070
    72
1070
     0
1070
    71
1070
     1
1070
    42
1040
0.6
1070
    43
1040
1.0
1070
    44
1040
1.0
1070
    47
1040
0.1
1070
    48
1040
0.1
1070
    73
1070
     0
1070
   140
1040
3.0
1070
   141
1040
-1.0
1070
   146
1040
0.7
1070
   147
1040
0.6
1070
   178
1070
     3
1070
   271
1070
     8
1070
   272
1070
     8
1070
   275
1070
     1
1070
   283
1070
     0
1070
   284
1070
     8
1070
   289
1070
     2
1002
}
  0
DIMENSION
  5
ED85
  8
0
  6
CONTINUOUS
  2
*D33
 10
189.19786944565001
 20
71.03317161342585
 30
0.0
 11
176.69786944564979
 21
73.927118463819554
 31
0.0
 12
-3.0000006434083839
 22
-1.500000649507228
 32
0.0
  3
ISO-25
 13
164.1978694456497
 23
108.84503568602091
 33
0.0
 14
189.19786944565001
 24
101.39378635667251
 34
0.0
1001
ACAD
1000
DSTYLE
1002
{
1070
   287
1070
     2
1070
    72
1070
     0
1070
    71
1070
     1
1070
    42
1040
0.6
1070
    43
1040
1.0
1070
    44
1040
1.0
1070
    47
1040
0.0
1070
    48
1040
0.2
1070
    73
1070
     0
1070
   140
1040
3.0
1070
   141
1040
-1.0
1070
   146
1040
0.7
1070
   147
1040
0.6
1070
   178
1070
     3
1070
   271
1070
     8
1070
   272
1070
     8
1070
   275
1070
     1
1070
   283
1070
     0
1070
   284
1070
     8
1070
   289
1070
     2
1002
}
  0
DIMENSION
  5
ED86
  8
0
  6
CONTINUOUS
  2
*D34
 10
184.18688151910339
 20
135.8937863566733
 30
0.0
 11
183.3875008383626
 21
138.50788094701551
 31
0.0
 12
-3.0000006434083839
 22
-1.500000649507228
 32
0.0
 70
     4
  3
ISO-25
 15
187.47147097250431
 25
140.91488903662261
 35
0.0
 40
0.0
1001
ACAD
1000
DSTYLE
1002
{
1070
   287
1070
     2
1070
    42
1040
0.6
1070
    43
1040
1.0
1070
    44
1040
1.0
1070
    47
1040
0.1
1070
    48
1040
0.1
1070
    73
1070
     0
1070
   140
1040
3.0
1070
   141
1040
-0.5
1070
   146
1040
0.7
1070
   147
1040
0.6
1070
   178
1070
     3
1070
   271
1070
     8
1070
   272
1070
     8
1070
   275
1070
     1
1070
   283
1070
     0
1070
   284
1070
     8
1070
   289
1070
     2
1002
}
  0
DIMENSION
  5
ED87
  8
0
  6
CONTINUOUS
  2
*D35
 10
197.69786944564919
 20
137.69378635667221
 30
0.0
 11
193.49190108885611
 21
131.8967211112911
 31
0.0
 12
-3.0000006434083839
 22
-1.500000649507228
 32
0.0
 70
   132
  3
ISO-25
 15
198.57874576919741
 25
138.9078938076882
 35
0.0
 40
0.0
1001
ACAD
1000
DSTYLE
1002
{
1070
   287
1070
     4
1070
    42
1040
0.6
1070
    43
1040
1.0
1070
    44
1040
1.0
1070
    47
1040
0.1
1070
    48
1040
0.1
1070
    73
1070
     0
1070
   140
1040
3.0
1070
   141
1040
-0.5
1070
   146
1040
0.7
1070
   147
1040
0.6
1070
   178
1070
     3
1070
   271
1070
     8
1070
   272
1070
     8
1070
   275
1070
     1
1070
   279
1070
     1
1070
   283
1070
     0
1070
   284
1070
     8
1070
   289
1070
     2
1002
}
  0
DIMENSION
  5
ED88
  8
0
  6
CONTINUOUS
  2
*D36
 10
184.1978694456497
 20
163.35234990108779
 30
0.0
 11
186.69786944564979
 21
163.35234990108779
 31
0.0
 12
-3.0000006434083839
 22
-1.500000649507228
 32
0.0
 70
   128
  3
ISO-25
 13
189.19786944565001
 23
150.39378635667219
 33
0.0
 14
184.1978694456497
 24
146.89628479669719
 34
0.0
1001
ACAD
1000
DSTYLE
1002
{
1070
   287
1070
     2
1070
    42
1040
0.6
1070
    43
1040
1.0
1070
    44
1040
1.0
1070
    47
1040
0.1
1070
    48
1040
0.1
1070
    73
1070
     0
1070
   140
1040
3.0
1070
   141
1040
-0.5
1070
   146
1040
0.7
1070
   147
1040
0.6
1070
   178
1070
     3
1070
   271
1070
     8
1070
   272
1070
     8
1070
   275
1070
     1
1070
   283
1070
     0
1070
   284
1070
     8
1070
   289
1070
     2
1002
}
  0
DIMENSION
  5
ED89
  8
0
  6
CONTINUOUS
  2
*D37
 10
173.19786944565001
 20
163.35234990108779
 30
0.0
 11
178.69786944564979
 21
165.45234990108781
 31
0.0
 12
-3.0000006434083839
 22
-1.500000649507228
 32
0.0
  3
ISO-25
 13
184.1978694456497
 23
146.89628479669719
 33
0.0
 14
173.19786944565001
 24
146.3462847333972
 34
0.0
1001
ACAD
1000
DSTYLE
1002
{
1070
   287
1070
     2
1070
    42
1040
0.6
1070
    43
1040
1.0
1070
    44
1040
1.0
1070
    47
1040
0.1
1070
    48
1040
0.1
1070
    73
1070
     0
1070
   140
1040
3.0
1070
   141
1040
-0.5
1070
   146
1040
0.7
1070
   147
1040
0.6
1070
   178
1070
     3
1070
   271
1070
     8
1070
   272
1070
     8
1070
   275
1070
     1
1070
   283
1070
     0
1070
   284
1070
     8
1070
   289
1070
     2
1002
}
  0
DIMENSION
  5
ED8A
  8
0
  6
CONTINUOUS
  2
*D38
 10
189.19786944565001
 20
171.35234990108779
 30
0.0
 11
164.1168770216006
 21
171.35234990108779
 31
0.0
 12
-3.0000006434083839
 22
-1.500000649507228
 32
0.0
 70
   128
  3
ISO-25
 13
175.06786944564979
 23
140.39378635667219
 33
0.0
 14
189.19786944565001
 24
150.39378635667219
 34
0.0
1001
ACAD
1000
DSTYLE
1002
{
1070
   287
1070
     2
1070
    72
1070
     0
1070
    71
1070
     1
1070
    42
1040
0.6
1070
    43
1040
1.0
1070
    44
1040
1.0
1070
    47
1040
0.035
1070
    48
1040
0.035
1070
    73
1070
     0
1070
   140
1040
3.0
1070
   141
1040
-0.5
1070
   146
1040
0.7
1070
   147
1040
0.6
1070
   178
1070
     3
1070
   271
1070
     8
1070
   272
1070
     8
1070
   275
1070
     1
1070
   283
1070
     0
1070
   284
1070
     8
1070
   289
1070
     2
1002
}
  0
DIMENSION
  5
ED8B
  8
0
  6
CONTINUOUS
  2
*D39
 10
199.1978694456497
 20
179.35234990108779
 30
0.0
 11
194.19786944564979
 21
179.35234990108779
 31
0.0
 12
-3.0000006434083839
 22
-1.500000649507228
 32
0.0
 70
   128
  3
ISO-25
 13
189.19786944565001
 23
150.9937863566723
 33
0.0
 14
199.1978694456497
 24
137.69378635667229
 34
0.0
1001
ACAD
1000
DSTYLE
1002
{
1070
   287
1070
     2
1070
    42
1040
0.6
1070
    43
1040
1.0
1070
    44
1040
1.0
1070
    47
1040
-0.02
1070
    48
1040
0.1000000001
1070
    71
1070
     1
1070
    73
1070
     0
1070
   140
1040
3.0
1070
   141
1040
-0.35
1070
   146
1040
0.7
1070
   147
1040
0.6
1070
   178
1070
     3
1070
   179
1070
     8
1070
   271
1070
     8
1070
   272
1070
     8
1070
   275
1070
     1
1070
   283
1070
     0
1070
   284
1070
     8
1070
   289
1070
     2
1002
}
  0
ARC
  5
ED8C
  8
0
  6
CONTINUOUS
 10
181.6978694456497
 20
125.89378635667229
 30
0.0
 40
3.0
 50
0.0
 51
180.0
  0
LINE
  5
ED8D
  8
0
  6
CONTINUOUS
 62
     2
 10
181.6978694456497
 20
125.39378635667229
 30
0.0
 11
181.6978694456497
 21
126.39378635667229
 31
0.0
  0
LINE
  5
ED8E
  8
0
  6
CONTINUOUS
 62
     2
 10
181.6978694456497
 20
124.89378635667229
 30
0.0
 11
181.6978694456497
 21
122.39378635667229
 31
0.0
  0
LINE
  5
ED8F
  8
0
  6
CONTINUOUS
 62
     2
 10
181.6978694456497
 20
126.89378635667229
 30
0.0
 11
181.6978694456497
 21
129.39378635667231
 31
0.0
  0
INSERT
  5
ED90
  8
0
  6
CONTINUOUS
  2
*U119
 10
0.0
 20
0.0
 30
0.0
1001
ACAD
1000
DSTYLE
1002
{
1070
   284
1070
     8
1070
   140
1040
3.0
1070
   283
1070
     0
1070
    48
1040
0.5
1070
    73
1070
     0
1070
   146
1040
0.7
1070
   272
1070
     8
1070
   147
1040
0.6
1070
    42
1040
0.6
1070
    44
1040
1.0
1070
    43
1040
1.0
1070
   271
1070
     8
1070
   178
1070
     3
1070
   141
1040
0.0
1070
   275
1070
     1
1002
}
  0
TEXT
  5
ED91
  8
0
  6
CONTINUOUS
 62
     3
 10
161.4065216310866
 20
164.0010447164903
 30
0.0
 40
3.0
  1
%%C6
  0
DIMENSION
  5
ED92
  8
0
  6
CONTINUOUS
  2
*D40
 10
114.4303493641292
 20
190.56195344957681
 30
0.0
 11
119.5597753549301
 21
184.47224610542401
 31
0.0
 12
-3.0000006434083839
 22
-1.500000649507228
 32
0.0
 70
   132
  3
ISO-25
 15
113.7861216662382
 25
191.32678720489159
 35
0.0
 40
0.0
1001
ACAD
1000
DSTYLE
1002
{
1070
   287
1070
     4
1070
    42
1040
0.6
1070
    43
1040
1.0
1070
    44
1040
1.0
1070
    47
1040
0.1
1070
    48
1040
0.1
1070
    73
1070
     0
1070
   140
1040
3.0
1070
   141
1040
-0.5
1070
   144
1040
0.5
1070
   146
1040
0.7
1070
   147
1040
0.6
1070
   178
1070
     3
1070
   271
1070
     8
1070
   272
1070
     8
1070
   275
1070
     1
1070
   279
1070
     1
1070
   283
1070
     0
1070
   284
1070
     8
1070
   289
1070
     2
1002
}
  0
INSERT
  5
ED93
  8
0
  6
CONTINUOUS
 62
     2
  2
*X120
 10
0.0
 20
0.0
 30
0.0
1001
ACAD
1000
HATCH
1002
{
1070
    19
1000
ANSI31
1040
20.0
1040
0.0
1000
ASC_BOUNDS
1070
     1
1070
     1
1070
     8
1005
ED46
1005
ED4A
1005
ED4B
1005
ED49
1005
ED4C
1005
ED48
1005
ED47
1005
ED4D
1000
ASC_SEEDPOINT
1011
276.30960577042202
1021
0.0
1031
-0.0
1021
49.394547825310333
1031
0.0
1000
R14_HATCH_DATA
1000
ED93
1011
1.0
1021
0.0
1031
-0.0
1021
0.0
1031
0.0
1011
0.0
1021
0.0
1031
-0.0
1021
1.0
1031
0.0
1011
0.0
1021
0.0
1031
-0.0
1021
0.0
1031
1.0
1040
0.0
1010
0.0
1020
0.0
1030
1.0
1000
ANSI31
1070
     0
1070
     1
1071
        1
1071
        7
1070
     1
1070
     1
1071
        9
1040
288.43131964467642
1040
60.874034076385499
1040
0.302238629352912
1040
278.99471472685741
1040
75.059163498682949
1040
0.0
1040
278.99471472685741
1040
67.061885223289366
1040
0.0
1040
280.1947147268574
1040
58.52344155642772
1040
0.0
1040
280.1947147268574
1040
58.061885223287788
1040
-0.4142135623730969
1040
276.5947147268576
1040
54.461885223287652
1040
0.0
1040
270.71240618048171
1040
54.461885223287659
1040
0.0
1040
263.99471472685758
1040
56.261885223287742
1040
0.0
1040
258.46915382421679
1040
55.985607178155703
1040
0.8500687691008541
1071
        8
1005
ED4D
1005
ED47
1005
ED48
1005
ED4C
1005
ED49
1005
ED4B
1005
ED4A
1005
ED46
1070
     0
1070
     1
1040
0.0
1040
20.0
1070
     0
1070
     1
1040
0.7853981633974483
1040
-1474.9036086593021
1040
-725.09651077668468
1040
-1.767766952966368
1040
1.767766952966368
1070
     0
1040
0.0997665404307097
1071
        1
1040
276.30960577042202
1040
49.394547825310333
1040
0.0
1002
}
  0
INSERT
  5
ED94
  8
0
  6
CONTINUOUS
 62
     2
  2
*X121
 10
0.0
 20
0.0
 30
0.0
1001
ACAD
1000
HATCH
1002
{
1070
    19
1000
ANSI31
1040
20.0
1040
0.0
1000
ASC_BOUNDS
1070
     1
1070
     1
1070
     6
1005
ED77
1005
ED7D
1005
ED7E
1005
ED7B
1005
ED79
1005
ED76
1000
ASC_SEEDPOINT
1011
107.2348556342949
1021
0.0
1031
-0.0
1021
193.62417658117511
1031
0.0
1000
R14_HATCH_DATA
1000
ED94
1011
1.0
1021
0.0
1031
-0.0
1021
0.0
1031
0.0
1011
0.0
1021
0.0
1031
-0.0
1021
1.0
1031
0.0
1011
0.0
1021
0.0
1031
-0.0
1021
0.0
1031
1.0
1040
0.0
1010
0.0
1020
0.0
1030
1.0
1000
ANSI31
1070
     0
1070
     1
1071
        1
1071
        7
1070
     1
1070
     1
1071
        9
1040
96.637954274539283
1040
195.8748035547593
1040
0.0352146933809632
1040
96.51425380097416
1040
194.1206057486109
1040
0.1908117796032332
1040
99.903849397821205
1040
185.56195344957601
1040
0.0
1040
110.3888974798019
1040
185.56195344957601
1040
0.0
1040
113.56432396034479
1040
191.06195344957601
1040
-0.2679491924310882
1040
114.4303493641291
1040
191.56195344957601
1040
0.0
1040
121.24958300135449
1040
191.56195344957601
1040
0.0515829849127894
1040
121.51425308252951
1040
194.1206057486109
1040
0.060252101630724
1040
121.15384307205881
1040
197.1005981357128
1040
0.0
1071
        6
1005
ED76
1005
ED79
1005
ED7B
1005
ED7E
1005
ED7D
1005
ED77
1070
     0
1070
     1
1040
0.0
1040
20.0
1070
     0
1070
     1
1040
0.7853981633974483
1040
10.217363673434191
1040
-1.2783762248345161
1040
-1.767766952966368
1040
1.767766952966368
1070
     0
1040
0.0746321921033955
1071
        1
1040
107.2348556342949
1040
193.62417658117511
1040
0.0
1002
}
  0
LINE
  5
ED95
  8
0
  6
PHANTOM2
 62
     6
 10
165.1978694456497
 20
137.89378635667231
 30
0.0
 11
174.77919431105519
 21
137.89378635667231
 31
0.0
  0
LINE
  5
ED96
  8
0
  6
PHANTOM2
 62
     6
 10
174.77919431105519
 20
137.89378635667231
 30
0.0
 11
176.51124511862389
 21
140.89378635667231
 31
0.0
  0
LINE
  5
ED97
  8
0
  6
PHANTOM2
 62
     6
 10
176.51124511862389
 20
140.89378635667231
 30
0.0
 11
184.1868815191028
 21
140.89378635667231
 31
0.0
  0
ARC
  5
ED98
  8
0
  6
PHANTOM2
 62
     6
 10
184.1868815191028
 20
135.89378635667231
 30
0.0
 40
5.0
 50
27.38710750265388
 51
90.0
  0
LINE
  5
ED99
  8
0
  6
PHANTOM2
 62
     6
 10
188.62647609518751
 20
138.19378635667229
 30
0.0
 11
197.6978694456497
 21
138.19378635667229
 31
0.0
  0
ARC
  5
ED9A
  8
0
  6
PHANTOM2
 62
     6
 10
197.6978694456497
 20
137.69378635667229
 30
0.0
 40
0.5
 50
0.0
 51
90.0
  0
LINE
  5
ED9B
  8
0
  6
PHANTOM2
 62
     6
 10
198.1978694456497
 20
137.69378635667229
 30
0.0
 11
198.1978694456497
 21
125.89378635667229
 31
0.0
  0
LINE
  5
ED9C
  8
0
  6
CONTINUOUS
 62
     3
 10
195.6269906754805
 20
131.87817507506179
 30
0.0
 11
198.1978694456497
 21
133.362472625073
 31
0.0
  0
LINE
  5
ED9D
  8
0
  6
CONTINUOUS
 62
     3
 10
198.1978694456497
 20
133.362472625073
 30
0.0
 11
195.6269906754805
 21
134.8467701750842
 31
0.0
  0
LINE
  5
ED9E
  8
0
  6
CONTINUOUS
 62
     3
 10
195.6269906754805
 20
128.90957997503989
 30
0.0
 11
198.1978694456497
 21
130.39387752505081
 31
0.0
  0
LINE
  5
ED9F
  8
0
  6
CONTINUOUS
 62
     3
 10
198.1978694456497
 20
130.39387752505081
 30
0.0
 11
195.6269906754805
 21
131.87817507506179
 31
0.0
  0
LINE
  5
EDA0
  8
0
  6
CONTINUOUS
 62
     3
 10
195.6269906754805
 20
125.94098487501751
 30
0.0
 11
198.1978694456497
 21
127.4252824250284
 31
0.0
  0
LINE
  5
EDA1
  8
0
  6
CONTINUOUS
 62
     3
 10
198.1978694456497
 20
127.4252824250284
 30
0.0
 11
195.6269906754805
 21
128.90957997503989
 31
0.0
  0
LINE
  5
EDA2
  8
0
  6
CONTINUOUS
 62
     3
 10
195.6269906754805
 20
134.846770175084
 30
0.0
 11
195.6269906754805
 21
131.87817507506179
 31
0.0
  0
LINE
  5
EDA3
  8
0
  6
CONTINUOUS
 62
     3
 10
195.6269906754805
 20
128.90957997503989
 30
0.0
 11
195.6269906754805
 21
125.94098487501751
 31
0.0
  0
LINE
  5
EDA4
  8
0
  6
CONTINUOUS
 62
     3
 10
195.6269906754805
 20
131.87817507506179
 30
0.0
 11
195.6269906754805
 21
128.90957997503989
 31
0.0
  0
TEXT
  5
EDA5
  8
0
  6
CONTINUOUS
 62
     3
 10
192.7979328792394
 20
128.8725609312622
 30
0.0
 40
3.0
  1
L
  0
LINE
  5
EDA6
  8
0
  6
PHANTOM2
 62
     4
 10
184.1978694456497
 20
125.89378635667229
 30
0.0
 11
184.1978694456497
 21
146.89628479669719
 31
0.0
  0
LINE
  5
EDA7
  8
0
  6
CONTINUOUS
 10
207.6978694456497
 20
128.39378635667231
 30
0.0
 11
207.6978694456497
 21
125.89378635667229
 31
0.0
  0
DIMENSION
  5
EDA8
  8
0
  6
CONTINUOUS
  2
*D58
 10
246.05096704227921
 20
123.39378635667229
 30
0.0
 11
246.0509670422791
 21
125.89378635667229
 31
0.0
 12
-3.0000006434083839
 22
-1.500000649507228
 32
0.0
 70
   128
  3
ISO-25
 13
231.19786944564979
 23
128.39378635667231
 33
0.0
 14
231.19786944564979
 24
123.39378635667229
 34
0.0
 50
90.0
1001
ACAD
1000
DSTYLE
1002
{
1070
   287
1070
     2
1070
     3
1000
%%c<>max
1070
    42
1040
0.6
1070
    43
1040
1.0
1070
    44
1040
1.0
1070
    47
1040
0.1
1070
    48
1040
0.1
1070
    73
1070
     0
1070
    76
1070
     1
1070
   140
1040
3.0
1070
   141
1040
-0.35
1070
   146
1040
0.7
1070
   147
1040
0.6
1070
   178
1070
     3
1070
   179
1070
     8
1070
   271
1070
     8
1070
   272
1070
     8
1070
   275
1070
     1
1070
   282
1070
     1
1070
   283
1070
     0
1070
   284
1070
     8
1070
   289
1070
     2
1002
}
  0
ARC
  5
EDA9
  8
0
  6
CONTINUOUS
 10
205.89786944564969
 20
131.5937863566723
 30
0.0
 40
0.3
 50
0.0
 51
90.0
  0
DIMENSION
  5
EDAA
  8
0
  6
CONTINUOUS
  2
*D59
 10
199.1978694456497
 20
179.35234990108779
 30
0.0
 11
202.69786944564979
 21
179.35234990108779
 31
0.0
 12
-3.0000006434083839
 22
-1.500000649507228
 32
0.0
 70
   128
  3
ISO-25
 13
206.1978694456497
 23
131.5937863566723
 33
0.0
 14
199.1978694456497
 24
135.79378635667231
 34
0.0
1001
ACAD
1000
DSTYLE
1002
{
1070
   287
1070
     2
1070
    72
1070
     0
1070
    71
1070
     1
1070
    42
1040
0.6
1070
    43
1040
1.0
1070
    44
1040
1.0
1070
    47
1040
0.2
1070
    48
1040
0.0
1070
    73
1070
     0
1070
   140
1040
3.0
1070
   141
1040
-0.35
1070
   146
1040
0.7
1070
   147
1040
0.6
1070
   178
1070
     3
1070
   179
1070
     8
1070
   271
1070
     8
1070
   272
1070
     8
1070
   275
1070
     1
1070
   283
1070
     0
1070
   284
1070
     8
1070
   289
1070
     2
1002
}
  0
DIMENSION
  5
EDAB
  8
0
  6
CONTINUOUS
  2
*D60
 10
207.69786944564979
 20
179.35234990108779
 30
0.0
 11
215.16000148000569
 21
181.45234990108781
 31
0.0
 12
-3.0000006434083839
 22
-1.500000649507228
 32
0.0
  3
ISO-25
 13
206.1978694456497
 23
131.5937863566723
 33
0.0
 14
207.69786944564979
 24
128.39378635667211
 34
0.0
1001
ACAD
1000
DSTYLE
1002
{
1070
   287
1070
     2
1070
    42
1040
0.6
1070
    43
1040
1.0
1070
    44
1040
1.0
1070
    47
1040
0.1
1070
    48
1040
0.1
1070
    73
1070
     0
1070
   140
1040
3.0
1070
   141
1040
-0.35
1070
   146
1040
0.7
1070
   147
1040
0.6
1070
   178
1070
     3
1070
   179
1070
     8
1070
   271
1070
     8
1070
   272
1070
     8
1070
   275
1070
     1
1070
   283
1070
     0
1070
   284
1070
     8
1070
   289
1070
     2
1002
}
  0
DIMENSION
  5
EDAC
  8
0
  6
CONTINUOUS
  2
*D61
 10
205.89786944564969
 20
131.59378635667241
 30
0.0
 11
201.8320355898959
 21
126.190507286749
 31
0.0
 12
-3.0000006434083839
 22
-1.500000649507228
 32
0.0
 70
   132
  3
ISO-25
 15
205.71748992177621
 25
131.3540714690094
 35
0.0
 40
0.0
1001
ACAD_DSTYLE_DIMRADIAL_EXTENSION
1070
   387
1070
     3
1070
   388
1040
0.0
1070
   390
1040
1.5707963267948959
1001
ACAD
1000
DSTYLE
1002
{
1070
   287
1070
     2
1070
    75
1070
     1
1070
    42
1040
0.6
1070
    43
1040
1.0
1070
    44
1040
1.0
1070
    47
1040
0.1
1070
    48
1040
0.1
1070
    73
1070
     0
1070
   140
1040
3.0
1070
   141
1040
-0.35
1070
   146
1040
0.7
1070
   147
1040
0.6
1070
   178
1070
     3
1070
   179
1070
     8
1070
   271
1070
     8
1070
   272
1070
     8
1070
   275
1070
     1
1070
   283
1070
     0
1070
   284
1070
     8
1070
   289
1070
     2
1002
}
  0
DIMENSION
  5
EDAD
  8
0
  6
CONTINUOUS
  2
*D62
 10
207.69786944564979
 20
128.39378635667231
 30
0.0
 11
216.27171001075271
 21
135.64512564852791
 31
0.0
 12
-3.0000006434083839
 22
-1.500000649507228
 32
0.0
 70
     2
  3
ISO-25
 13
207.6978694456497
 23
128.39378635667231
 33
0.0
 14
207.6978694456497
 24
125.89378635667229
 34
0.0
 15
206.19786944564979
 25
130.99186256802571
 35
0.0
 16
204.7297412206984
 26
136.5486516327725
 36
0.0
1001
ACAD
1000
DSTYLE
1002
{
1070
   287
1070
     2
1070
   271
1070
     0
1070
    42
1040
0.6
1070
    43
1040
1.0
1070
    44
1040
1.0
1070
    47
1040
0.1
1070
    48
1040
0.1
1070
    73
1070
     0
1070
   140
1040
3.0
1070
   141
1040
-0.5
1070
   146
1040
0.7
1070
   147
1040
0.6
1070
   178
1070
     3
1070
   271
1070
     8
1070
   272
1070
     8
1070
   275
1070
     1
1070
   283
1070
     0
1070
   284
1070
     8
1070
   289
1070
     2
1002
}
  0
POLYLINE
  5
EDAE
  8
0
  6
CONTINUOUS
 66
     1
 10
0.0
 20
0.0
 30
0.0
 70
     1
 40
0.5
 41
0.5
  0
VERTEX
  5
11005
  8
0
  6
CONTINUOUS
 10
115.6108651332047
 20
183.8827691954354
 30
0.0
 42
1.0
  0
VERTEX
  5
11006
  8
0
  6
CONTINUOUS
 10
116.1108651332047
 20
183.8827691954354
 30
0.0
 42
1.0
  0
SEQEND
  5
11007
  8
0
  6
CONTINUOUS
  0
POLYLINE
  5
EDAF
  8
0
  6
CONTINUOUS
 66
     1
 10
0.0
 20
0.0
 30
0.0
 70
     1
 40
0.35
 41
0.35
  0
VERTEX
  5
11008
  8
0
  6
CONTINUOUS
 10
169.1907577078411
 20
147.73448080311559
 30
0.0
 42
1.0
  0
VERTEX
  5
11009
  8
0
  6
CONTINUOUS
 10
169.54075770784129
 20
147.73448080311559
 30
0.0
 42
1.0
  0
SEQEND
  5
1100A
  8
0
  6
CONTINUOUS
  0
LINE
  5
EDB0
  8
0
  6
CONTINUOUS
 62
     4
 10
169.3657577078412
 20
147.73448080311559
 30
0.0
 11
115.8608651332047
 21
183.8827691954354
 31
0.0
  0
DIMENSION
  5
EDB1
  8
0
  6
CONTINUOUS
  2
*D63
 10
254.05096704227921
 20
119.89378635667229
 30
0.0
 11
254.05096704227921
 21
124.0923030339311
 31
0.0
 12
-3.0000006434083839
 22
-1.500000649507228
 32
0.0
 70
   128
  3
ISO-25
 13
205.89786944564969
 23
131.89378635667231
 33
0.0
 14
236.6479226951362
 24
119.89378635667229
 34
0.0
 50
90.0
1001
ACAD
1000
DSTYLE
1002
{
1070
    47
1040
0.027
1070
     3
1000
%%c<>
1070
    42
1040
0.6
1070
    43
1040
1.0
1070
    44
1040
1.0
1070
    48
1040
0.0
1070
    71
1070
     1
1070
    73
1070
     0
1070
    76
1070
     1
1070
   140
1040
5.25
1070
   141
1040
0.0
1070
   146
1040
0.7
1070
   147
1040
0.6
1070
   178
1070
     3
1070
   271
1070
     8
1070
   272
1070
     8
1070
   275
1070
     1
1070
   282
1070
     1
1070
   283
1070
     0
1070
   284
1070
     8
1002
}
  0
TEXT
  5
EDB2
  8
0
 62
     3
 10
310.19256693060868
 20
269.57507336076583
 30
0.0
 40
3.0
  1
ATC ¹®Á¦·Î °øÂ÷¿µ¿ª ¼öÁ¤
  0
TEXT
  5
EDB3
  8
0
 62
     3
 10
360.84412683690482
 20
269.57507336076583
 30
0.0
 40
3.0
  1
2010.06.09
  0
TEXT
  5
EDB4
  8
0
 62
     3
 10
385.60663388527229
 20
269.57507336076583
 30
0.0
 40
3.0
  1
¹ÚÁØ¼º
  0
TEXT
  5
EDB5
  8
0
 62
     3
 10
187.27638284355339
 20
18.7686715017735
 30
0.0
 40
4.0
  1
2010.06.09.WED
  0
LINE
  5
EDB6
  8
0
  6
CONTINUOUS
 62
     3
 10
180.6968708482886
 20
179.25442751013449
 30
0.0
 11
187.6968708482886
 21
179.25442751013449
 31
0.0
  0
LINE
  5
EDB7
  8
0
  6
CONTINUOUS
 62
     3
 10
187.6968708482886
 20
179.25442751013449
 30
0.0
 11
184.1968708482886
 21
185.31660533662551
 31
0.0
  0
LINE
  5
EDB8
  8
0
  6
CONTINUOUS
 62
     3
 10
184.1968708482886
 20
185.31660533662551
 30
0.0
 11
180.6968708482886
 21
179.25442751013449
 31
0.0
  0
TEXT
  5
EDB9
  8
0
 62
     3
 10
183.23321887940151
 20
179.95934742575909
 30
0.0
 40
3.0
  1
1
  0
ENDBLK
  5
EDBD
  8
0
  0
BLOCK
  8
0
  2
*X66
 70
     1
 10
0.0
 20
0.0
 30
0.0
  3
*X66
  1

  0
ENDBLK
  5
10E2A
  8
0
  0
BLOCK
  8
0
  2
*U67
 70
     1
 10
0.0
 20
0.0
 30
0.0
  3
*U67
  1

  0
TEXT
  5
10E2F
  8
0
  6
CONTINUOUS
 62
     3
 10
318.54112939102163
 20
201.10627229884969
 30
0.0
 40
3.0
  1
2
  0
ENDBLK
  5
10E31
  8
0
  0
BLOCK
  8
0
  2
*U68
 70
     1
 10
0.0
 20
0.0
 30
0.0
  3
*U68
  1

  0
TEXT
  5
10E33
  8
0
  6
CONTINUOUS
 62
     3
 10
308.03099538816173
 20
201.10627229884969
 30
0.0
 40
3.0
  1
5
  0
ENDBLK
  5
10E35
  8
0
  0
BLOCK
  8
0
  2
*U69
 70
     1
 10
0.0
 20
0.0
 30
0.0
  3
*U69
  1

  0
TEXT
  5
10E37
  8
0
  6
CONTINUOUS
 62
     3
 10
297.54112939102163
 20
200.70627229884971
 30
0.0
 40
3.0
  1
2
  0
ENDBLK
  5
10E39
  8
0
  0
BLOCK
  8
0
  2
*X70
 70
     1
 10
0.0
 20
0.0
 30
0.0
  3
*X70
  1

  0
LINE
  5
10E3E
  8
0
  6
CONTINUOUS
 62
     0
 10
321.7755324779119
 20
187.42524405246769
 30
0.0
 11
325.2106607424098
 21
190.86037231696571
 31
0.0
  0
LINE
  5
10E3F
  8
0
  6
CONTINUOUS
 62
     0
 10
325.2106607424098
 20
190.86037231696571
 30
0.0
 11
327.80079999473969
 21
193.45051156929571
 31
0.0
  0
LINE
  5
10E40
  8
0
  6
CONTINUOUS
 62
     0
 10
320.83264584821552
 20
186.4823574227714
 30
0.0
 11
321.77553247791172
 21
187.4252440524676
 31
0.0
  0
LINE
  5
10E41
  8
0
  6
CONTINUOUS
 62
     0
 10
318.05971604579207
 20
187.2449615262808
 30
0.0
 11
322.78142122589691
 21
191.96666670638561
 31
0.0
  0
LINE
  5
10E42
  8
0
  6
CONTINUOUS
 62
     0
 10
323.29589814385218
 20
192.4811436243408
 30
0.0
 11
324.21924539089781
 21
193.40449087138651
 31
0.0
  0
LINE
  5
10E43
  8
0
  6
CONTINUOUS
 62
     0
 10
316.27656621865719
 20
185.4618116991459
 30
0.0
 11
318.05971604579207
 21
187.24496152628069
 31
0.0
  0
LINE
  5
10E44
  8
0
  6
CONTINUOUS
 62
     0
 10
315.75358604541958
 20
188.47436543184091
 30
0.0
 11
319.2297321828745
 21
191.95051156929591
 31
0.0
  0
LINE
  5
10E45
  8
0
  6
CONTINUOUS
 62
     0
 10
312.52515369395582
 20
185.24593308037711
 30
0.0
 11
315.75358604541952
 21
188.47436543184091
 31
0.0
  0
LINE
  5
10E46
  8
0
  6
CONTINUOUS
 62
     0
 10
314.23250926333651
 20
190.4888225556906
 30
0.0
 11
316.07618000657442
 21
192.33249329892851
 31
0.0
  0
LINE
  5
10E47
  8
0
  6
CONTINUOUS
 62
     0
 10
308.8893681271378
 20
185.14568141949189
 30
0.0
 11
314.2325092633364
 21
190.48882255569049
 31
0.0
  0
LINE
  5
10E48
  8
0
  6
CONTINUOUS
 62
     0
 10
305.46536560350449
 20
185.25721280179141
 30
0.0
 11
313.65866437100908
 21
193.45051156929591
 31
0.0
  0
LINE
  5
10E49
  8
0
  6
CONTINUOUS
 62
     0
 10
302.04136307987147
 20
185.3687441840911
 30
0.0
 11
310.12313046507631
 21
193.45051156929591
 31
0.0
  0
LINE
  5
10E4A
  8
0
  6
CONTINUOUS
 62
     0
 10
298.6173605562384
 20
185.4802755663907
 30
0.0
 11
306.58759655914361
 21
193.45051156929591
 31
0.0
  0
LINE
  5
10E4B
  8
0
  6
CONTINUOUS
 62
     0
 10
302.67524185671112
 20
193.0736907727962
 30
0.0
 11
302.7252041073433
 21
193.1236530234284
 31
0.0
  0
LINE
  5
10E4C
  8
0
  6
CONTINUOUS
 62
     0
 10
295.45038022605922
 20
185.8488291421443
 30
0.0
 11
301.55206265321078
 21
191.95051156929591
 31
0.0
  0
LINE
  5
10E4D
  8
0
  6
CONTINUOUS
 62
     0
 10
292.67613782715682
 20
186.6101206491746
 30
0.0
 11
298.01652874727807
 21
191.95051156929591
 31
0.0
  0
LINE
  5
10E4E
  8
0
  6
CONTINUOUS
 62
     0
 10
289.90189542825448
 20
187.37141215620511
 30
0.0
 11
294.99814213297202
 21
192.46765886092251
 31
0.0
  0
LINE
  5
10E4F
  8
0
  6
CONTINUOUS
 62
     0
 10
287.63915709745061
 20
188.64420773133389
 30
0.0
 11
292.44546093541271
 21
193.450511569296
 31
0.0
  0
LINE
  5
10E50
  8
0
  6
CONTINUOUS
 62
     0
 10
285.96431848301302
 20
190.50490302282901
 30
0.0
 11
288.90992702948
 21
193.450511569296
 31
0.0
  0
LINE
  5
10E51
  8
0
  6
CONTINUOUS
 62
     0
 10
284.95235707577291
 20
193.02847552152161
 30
0.0
 11
285.37439312354718
 21
193.45051156929591
 31
0.0
  0
ENDBLK
  5
10E53
  8
0
  0
BLOCK
  8
0
  2
*U71
 70
     1
 10
0.0
 20
0.0
 30
0.0
  3
*U71
  1

  0
TEXT
  5
10EB2
  8
0
  6
CONTINUOUS
 62
     3
 10
90.303820331158363
 20
170.60486748490999
 30
0.0
 40
3.0
  1
\U+220532
 50
90.0
  0
TEXT
  5
10EB3
  8
0
  6
CONTINUOUS
 62
     3
 10
87.712166787851274
 20
177.18986748491
 30
0.0
 40
2.1000000000000001
  1
+0.16
 50
90.0
  0
TEXT
  5
10EB4
  8
0
  6
CONTINUOUS
 62
     3
 10
90.303820331158363
 20
177.18986748491
 30
0.0
 40
2.1000000000000001
  1
-0
 50
90.0
  0
ENDBLK
  5
10EB6
  8
0
  0
BLOCK
  8
0
  2
*U72
 70
     1
 10
0.0
 20
0.0
 30
0.0
  3
*U72
  1

  0
TEXT
  5
10EB8
  8
0
  6
CONTINUOUS
 62
     3
 10
98.303820331158391
 20
168.00456388058069
 30
0.0
 40
3.0
  1
\U+220529
 50
90.0
  0
ENDBLK
  5
10EBA
  8
0
  0
BLOCK
  8
0
  2
*U73
 70
     1
 10
0.0
 20
0.0
 30
0.0
  3
*U73
  1

  0
TEXT
  5
10EBC
  8
0
  6
CONTINUOUS
 62
     3
 10
275.93731431355252
 20
68.044328342604658
 30
0.0
 40
3.0
  1
R0.6
 50
298.21508512053771
  0
ENDBLK
  5
10EBE
  8
0
  0
BLOCK
  8
0
  2
*U74
 70
     1
 10
0.0
 20
0.0
 30
0.0
  3
*U74
  1

  0
TEXT
  5
10EC0
  8
0
  6
CONTINUOUS
 62
     3
 10
296.18959987940661
 20
60.049976423976076
 30
0.0
 40
3.0
  1
2.1
 50
90.0
  0
ENDBLK
  5
10EC2
  8
0
  0
BLOCK
  8
0
  2
*U75
 70
     1
 10
0.0
 20
0.0
 30
0.0
  3
*U75
  1

  0
TEXT
  5
10EC4
  8
0
  6
CONTINUOUS
 62
     3
 10
274.27849347968743
 20
62.914248077519552
 30
0.0
 40
3.0
  1
0.3
 50
90.0
  0
ENDBLK
  5
10EC6
  8
0
  0
BLOCK
  8
0
  2
*U76
 70
     1
 10
0.0
 20
0.0
 30
0.0
  3
*U76
  1

  0
TEXT
  5
10EC8
  8
0
  6
CONTINUOUS
 62
     3
 10
248.2529252186107
 20
56.590392019843641
 30
0.0
 40
3.0
  1
15¡Æ
 50
82.500000000000426
  0
ENDBLK
  5
10ECA
  8
0
  0
BLOCK
  8
0
  2
*U77
 70
     1
 10
0.0
 20
0.0
 30
0.0
  3
*U77
  1

  0
TEXT
  5
10ECC
  8
0
  6
CONTINUOUS
 62
     3
 10
282.1656559537887
 20
38.162926937009821
 30
0.0
 40
3.0
  1
8¡Æ
 50
3.9999999999997522
  0
ENDBLK
  5
10ECE
  8
0
  0
BLOCK
  8
0
  2
*U78
 70
     1
 10
0.0
 20
0.0
 30
0.0
  3
*U78
  1

  0
TEXT
  5
10ED0
  8
0
  6
CONTINUOUS
 62
     3
 10
271.92067388709103
 20
82.67892084534256
 30
0.0
 40
3.0
  1
2.5
  0
ENDBLK
  5
10ED2
  8
0
  0
BLOCK
  8
0
  2
*U79
 70
     1
 10
0.0
 20
0.0
 30
0.0
  3
*U79
  1

  0
TEXT
  5
10ED4
  8
0
  6
CONTINUOUS
 62
     3
 10
288.34707757499029
 20
82.67892084534256
 30
0.0
 40
3.0
  1
0.2
  0
ENDBLK
  5
10ED6
  8
0
  0
BLOCK
  8
0
  2
*U80
 70
     1
 10
0.0
 20
0.0
 30
0.0
  3
*U80
  1

  0
TEXT
  5
10ED8
  8
0
  6
CONTINUOUS
 62
     3
 10
152.2643592640332
 20
119.9387870061796
 30
0.0
 40
3.0
  1
\U+220526
 50
90.0
  0
TEXT
  5
10ED9
  8
0
  6
CONTINUOUS
 62
     3
 10
149.67270572072621
 20
126.5237870061796
 30
0.0
 40
2.1000000000000001
  1
+0.084
 50
90.0
  0
TEXT
  5
10EDA
  8
0
  6
CONTINUOUS
 62
     3
 10
152.2643592640332
 20
126.5237870061796
 30
0.0
 40
2.1000000000000001
  1
-0
 50
90.0
  0
ENDBLK
  5
10EDC
  8
0
  0
BLOCK
  8
0
  2
*U81
 70
     1
 10
0.0
 20
0.0
 30
0.0
  3
*U81
  1

  0
TEXT
  5
10EDE
  8
0
  6
CONTINUOUS
 62
     3
 10
144.2643592640332
 20
118.48645889626501
 30
0.0
 40
3.0
  1
\U+220536.9
 50
90.0
  0
TEXT
  5
10EDF
  8
0
  6
CONTINUOUS
 62
     3
 10
141.58654764428141
 20
128.08194188774789
 30
0.0
 40
2.1000000000000001
  1
+0.006
 50
90.0
  0
TEXT
  5
10EE0
  8
0
  6
CONTINUOUS
 62
     3
 10
144.2643592640332
 20
128.08194188774789
 30
0.0
 40
2.1000000000000001
  1
+0.003
 50
90.0
  0
ENDBLK
  5
10EE2
  8
0
  0
BLOCK
  8
0
  2
*U82
 70
     1
 10
0.0
 20
0.0
 30
0.0
  3
*U82
  1

  0
TEXT
  5
10EE4
  8
0
  6
CONTINUOUS
 62
     3
 10
136.26435926403329
 20
119.96861385322779
 30
0.0
 40
3.0
  1
\U+220538
 50
90.0
  0
TEXT
  5
10EE5
  8
0
  6
CONTINUOUS
 62
     3
 10
133.57928052387581
 20
126.5536138532278
 30
0.0
 40
2.1000000000000001
  1
+0.009
 50
90.0
  0
TEXT
  5
10EE6
  8
0
  6
CONTINUOUS
 62
     3
 10
136.26435926403329
 20
126.5536138532278
 30
0.0
 40
2.1000000000000001
  1
+0.006
 50
90.0
  0
ENDBLK
  5
10EE8
  8
0
  0
BLOCK
  8
0
  2
*U83
 70
     1
 10
0.0
 20
0.0
 30
0.0
  3
*U83
  1

  0
TEXT
  5
10EEA
  8
0
  6
CONTINUOUS
 62
     3
 10
155.6008852409598
 20
133.68148936694951
 30
0.0
 40
3.0
  1
1
  0
TEXT
  5
10EEB
  8
0
  6
CONTINUOUS
 62
     3
 10
156.7858852409598
 20
136.27314291025661
 30
0.0
 40
2.1000000000000001
  1
+0.3
  0
TEXT
  5
10EEC
  8
0
  6
CONTINUOUS
 62
     3
 10
156.7858852409598
 20
133.68148936694951
 30
0.0
 40
2.1000000000000001
  1
-0
  0
ENDBLK
  5
10EEE
  8
0
  0
BLOCK
  8
0
  2
*U84
 70
     1
 10
0.0
 20
0.0
 30
0.0
  3
*U84
  1

  0
TEXT
  5
10EF0
  8
0
  6
CONTINUOUS
 62
     3
 10
161.0247984068931
 20
151.50720629202539
 30
0.0
 40
3.0
  1
R1
 50
318.85281740237042
  0
ENDBLK
  5
10EF2
  8
0
  0
BLOCK
  8
0
  2
*U85
 70
     1
 10
0.0
 20
0.0
 30
0.0
  3
*U85
  1

  0
TEXT
  5
10EF4
  8
0
  6
CONTINUOUS
 62
     3
 10
183.5203700890583
 20
81.133172262933073
 30
0.0
 40
3.0
  1
7.5
  0
TEXT
  5
10EF5
  8
0
  6
CONTINUOUS
 62
     3
 10
188.62037008905821
 20
81.133172262933073
 30
0.0
 40
2.1000000000000001
  1
¡¾0.1
  0
ENDBLK
  5
10EF7
  8
0
  0
BLOCK
  8
0
  2
*U86
 70
     1
 10
0.0
 20
0.0
 30
0.0
  3
*U86
  1

  0
TEXT
  5
10EF9
  8
0
  6
CONTINUOUS
 62
     3
 10
175.1428986323653
 20
73.133172262933073
 30
0.0
 40
3.0
  1
25
  0
TEXT
  5
10EFA
  8
0
  6
CONTINUOUS
 62
     3
 10
179.02789863236529
 20
75.829412420413391
 30
0.0
 40
2.1000000000000001
  1
+0
  0
TEXT
  5
10EFB
  8
0
  6
CONTINUOUS
 62
     3
 10
179.02789863236529
 20
73.133172262933073
 30
0.0
 40
2.1000000000000001
  1
-0.2
  0
ENDBLK
  5
10EFD
  8
0
  0
BLOCK
  8
0
  2
*U87
 70
     1
 10
0.0
 20
0.0
 30
0.0
  3
*U87
  1

  0
TEXT
  5
10EFF
  8
0
  6
CONTINUOUS
 62
     3
 10
186.37032202492901
 20
137.24155114771131
 30
0.0
 40
3.0
  1
R6
 50
56.80901386709057
  0
ENDBLK
  5
10F01
  8
0
  0
BLOCK
  8
0
  2
*U88
 70
     1
 10
0.0
 20
0.0
 30
0.0
  3
*U88
  1

  0
TEXT
  5
10F03
  8
0
  6
CONTINUOUS
 62
     3
 10
193.94375611569879
 20
130.906335175642
 30
0.0
 40
3.0
  1
R1.5
 50
54.03783579453556
  0
ENDBLK
  5
10F05
  8
0
  0
BLOCK
  8
0
  2
*U89
 70
     1
 10
0.0
 20
0.0
 30
0.0
  3
*U89
  1

  0
TEXT
  5
10F07
  8
0
  6
CONTINUOUS
 62
     3
 10
188.58573805470229
 20
165.4523505505951
 30
0.0
 40
3.0
  1
5
  0
ENDBLK
  5
10F09
  8
0
  0
BLOCK
  8
0
  2
*U90
 70
     1
 10
0.0
 20
0.0
 30
0.0
  3
*U90
  1

  0
TEXT
  5
10F0B
  8
0
  6
CONTINUOUS
 62
     3
 10
180.1978700890582
 20
165.4523505505951
 30
0.0
 40
3.0
  1
11
  0
ENDBLK
  5
10F0D
  8
0
  0
BLOCK
  8
0
  2
*U91
 70
     1
 10
0.0
 20
0.0
 30
0.0
  3
*U91
  1

  0
TEXT
  5
10F0F
  8
0
  6
CONTINUOUS
 62
     3
 10
158.81588524095989
 20
173.45235055059501
 30
0.0
 40
3.0
  1
14.13
  0
TEXT
  5
10F10
  8
0
  6
CONTINUOUS
 62
     3
 10
167.21588524095981
 20
173.45235055059501
 30
0.0
 40
2.1000000000000001
  1
¡¾0.035
  0
ENDBLK
  5
10F12
  8
0
  0
BLOCK
  8
0
  2
*U92
 70
     1
 10
0.0
 20
0.0
 30
0.0
  3
*U92
  1

  0
TEXT
  5
10F14
  8
0
  6
CONTINUOUS
 62
     3
 10
192.16980808118419
 20
181.4523505505951
 30
0.0
 40
3.0
  1
10
  0
TEXT
  5
10F15
  8
0
  6
CONTINUOUS
 62
     3
 10
195.45480808118421
 20
184.04400409390209
 30
0.0
 40
2.1000000000000001
  1
-0.02
  0
TEXT
  5
10F16
  8
0
  6
CONTINUOUS
 62
     3
 10
195.45480808118421
 20
181.4523505505951
 30
0.0
 40
2.1000000000000001
  1
-0.1
  0
ENDBLK
  5
10F18
  8
0
  0
BLOCK
  8
0
  2
*U93
 70
     1
 10
0.0
 20
0.0
 30
0.0
  3
*U93
  1

  0
TEXT
  5
10F1A
  8
0
  6
CONTINUOUS
 62
     3
 10
120.5627952069765
 20
189.27443063326001
 30
0.0
 40
3.0
  1
R0.5
 50
310.10779558035392
  0
ENDBLK
  5
10F1C
  8
0
  0
BLOCK
  8
0
  2
*U94
 70
     1
 10
0.0
 20
0.0
 30
0.0
  3
*U94
  1

  0
TEXT
  5
10F1E
  8
0
  6
CONTINUOUS
 62
     3
 10
232.67892780344431
 20
182.91732623103309
 30
0.0
 40
3.0
  1
\U+220572.3
 50
90.0
  0
TEXT
  5
10F1F
  8
0
  6
CONTINUOUS
 62
     3
 10
230.08727426013721
 20
192.50232623103301
 30
0.0
 40
2.1000000000000001
  1
+0
 50
90.0
  0
TEXT
  5
10F20
  8
0
  6
CONTINUOUS
 62
     3
 10
232.67892780344431
 20
192.50232623103301
 30
0.0
 40
2.1000000000000001
  1
-0.1
 50
90.0
  0
ENDBLK
  5
10F22
  8
0
  0
BLOCK
  8
0
  2
*U95
 70
     1
 10
0.0
 20
0.0
 30
0.0
  3
*U95
  1

  0
TEXT
  5
10F24
  8
0
  6
CONTINUOUS
 62
     3
 10
272.45096768568749
 20
120.4937870061796
 30
0.0
 40
3.0
  1
\U+220553max
 50
90.0
  0
ENDBLK
  5
10F26
  8
0
  0
BLOCK
  8
0
  2
*U96
 70
     1
 10
0.0
 20
0.0
 30
0.0
  3
*U96
  1

  0
TEXT
  5
10F28
  8
0
  6
CONTINUOUS
 62
     3
 10
264.45096768568749
 20
120.22378700617951
 30
0.0
 40
3.0
  1
\U+220526.6
 50
90.0
  0
TEXT
  5
10F29
  8
0
  6
CONTINUOUS
 62
     3
 10
261.85931414238041
 20
129.80878700617961
 30
0.0
 40
2.1000000000000001
  1
+0
 50
90.0
  0
TEXT
  5
10F2A
  8
0
  6
CONTINUOUS
 62
     3
 10
264.45096768568749
 20
129.80878700617961
 30
0.0
 40
2.1000000000000001
  1
-0.1
 50
90.0
  0
ENDBLK
  5
10F2C
  8
0
  0
BLOCK
  8
0
  2
*U97
 70
     1
 10
0.0
 20
0.0
 30
0.0
  3
*U97
  1

  0
TEXT
  5
10F2E
  8
0
  6
CONTINUOUS
 62
     3
 10
280.45096768568749
 20
120.9257249983056
 30
0.0
 40
3.0
  1
\U+220563
 50
90.0
  0
TEXT
  5
10F2F
  8
0
  6
CONTINUOUS
 62
     3
 10
277.75472752820718
 20
127.51072499830561
 30
0.0
 40
2.1000000000000001
  1
+0
 50
90.0
  0
TEXT
  5
10F30
  8
0
  6
CONTINUOUS
 62
     3
 10
280.45096768568749
 20
127.51072499830561
 30
0.0
 40
2.1000000000000001
  1
-0.12
 50
90.0
  0
ENDBLK
  5
10F32
  8
0
  0
BLOCK
  8
0
  2
*U98
 70
     1
 10
0.0
 20
0.0
 30
0.0
  3
*U98
  1

  0
TEXT
  5
10F34
  8
0
  6
CONTINUOUS
 62
     3
 10
208.04350455899669
 20
65.549838929599744
 30
0.0
 40
3.0
  1
42min
  0
ENDBLK
  5
10F36
  8
0
  0
BLOCK
  8
0
  2
*U99
 70
     1
 10
0.0
 20
0.0
 30
0.0
  3
*U99
  1

  0
TEXT
  5
10F38
  8
0
  6
CONTINUOUS
 62
     3
 10
200.91596064023929
 20
73.549838929599744
 30
0.0
 40
3.0
  1
26
  0
TEXT
  5
10F39
  8
0
  6
CONTINUOUS
 62
     3
 10
204.80096064023931
 20
76.141492472906833
 30
0.0
 40
2.1000000000000001
  1
+0
  0
TEXT
  5
10F3A
  8
0
  6
CONTINUOUS
 62
     3
 10
204.80096064023931
 20
73.549838929599744
 30
0.0
 40
2.1000000000000001
  1
-0.1
  0
ENDBLK
  5
10F3C
  8
0
  0
BLOCK
  8
0
  2
*U100
 70
     1
 10
0.0
 20
0.0
 30
0.0
  3
*U100
  1

  0
TEXT
  5
10F3E
  8
0
  6
CONTINUOUS
 62
     3
 10
196.09787008905809
 20
81.133172262933073
 30
0.0
 40
3.0
  1
18¡¾0.1
  0
ENDBLK
  5
10F40
  8
0
  0
BLOCK
  8
0
  2
*U101
 70
     1
 10
0.0
 20
0.0
 30
0.0
  3
*U101
  1

  0
TEXT
  5
10F42
  8
0
  6
CONTINUOUS
 62
     3
 10
221.72906125443649
 20
92.692500700439794
 30
0.0
 40
3.0
  1
R1
 50
311.59135441850327
  0
ENDBLK
  5
10F44
  8
0
  0
BLOCK
  8
0
  2
*U102
 70
     1
 10
0.0
 20
0.0
 30
0.0
  3
*U102
  1

  0
TEXT
  5
10F46
  8
0
  6
CONTINUOUS
 62
     3
 10
260.50187725043787
 20
235.46850131534771
 30
0.0
 40
3.0
  1
60¡Æ¡¾15'
  0
ENDBLK
  5
10F48
  8
0
  0
BLOCK
  8
0
  2
*U103
 70
     1
 10
0.0
 20
0.0
 30
0.0
  3
*U103
  1

  0
TEXT
  5
10F4A
  8
0
  6
CONTINUOUS
 62
     3
 10
273.81211347090959
 20
180.0740450628773
 30
0.0
 40
3.0
  1
3.75
  0
TEXT
  5
10F4B
  8
0
  6
CONTINUOUS
 62
     3
 10
280.6971134709097
 20
182.66569860618429
 30
0.0
 40
2.1000000000000001
  1
+0.15
  0
TEXT
  5
10F4C
  8
0
  6
CONTINUOUS
 62
     3
 10
280.6971134709097
 20
180.0740450628773
 30
0.0
 40
2.1000000000000001
  1
-0
  0
ENDBLK
  5
10F4E
  8
0
  0
BLOCK
  8
0
  2
*U104
 70
     1
 10
0.0
 20
0.0
 30
0.0
  3
*U104
  1

  0
TEXT
  5
10F50
  8
0
  6
CONTINUOUS
 62
     3
 10
248.4492231129995
 20
184.417326231033
 30
0.0
 40
3.0
  1
\U+220555
 50
90.0
  0
TEXT
  5
10F51
  8
0
  6
CONTINUOUS
 62
     3
 10
245.8575695696924
 20
191.00232623103301
 30
0.0
 40
2.1000000000000001
  1
+0
 50
90.0
  0
TEXT
  5
10F52
  8
0
  6
CONTINUOUS
 62
     3
 10
248.4492231129995
 20
191.00232623103301
 30
0.0
 40
2.1000000000000001
  1
-0.1
 50
90.0
  0
ENDBLK
  5
10F54
  8
0
  0
BLOCK
  8
0
  2
*U105
 70
     1
 10
0.0
 20
0.0
 30
0.0
  3
*U105
  1

  0
TEXT
  5
10F56
  8
0
  6
CONTINUOUS
 62
     3
 10
240.50734756772491
 20
184.58204606749629
 30
0.0
 40
3.0
  1
\U+220563
 50
90.0
  0
TEXT
  5
10F57
  8
0
  6
CONTINUOUS
 62
     3
 10
237.91569402441789
 20
191.1670460674963
 30
0.0
 40
2.1000000000000001
  1
+0
 50
90.0
  0
TEXT
  5
10F58
  8
0
  6
CONTINUOUS
 62
     3
 10
240.50734756772491
 20
191.1670460674963
 30
0.0
 40
2.1000000000000001
  1
-0.1
 50
90.0
  0
ENDBLK
  5
10F5A
  8
0
  0
BLOCK
  8
0
  2
*U106
 70
     1
 10
0.0
 20
0.0
 30
0.0
  3
*U106
  1

  0
TEXT
  5
10F5C
  8
0
  6
CONTINUOUS
 62
     3
 10
294.73814037886052
 20
181.70484770286259
 30
0.0
 40
3.0
  1
\U+220553max
 50
90.0
  0
ENDBLK
  5
10F5E
  8
0
  0
BLOCK
  8
0
  2
*U107
 70
     1
 10
0.0
 20
0.0
 30
0.0
  3
*U107
  1

  0
TEXT
  5
10F60
  8
0
  6
CONTINUOUS
 62
     3
 10
279.7540903775116
 20
216.8498458664501
 30
0.0
 40
3.0
  1
\U+22057
 50
23.885265657726158
  0
ENDBLK
  5
10F62
  8
0
  0
BLOCK
  8
0
  2
*U108
 70
     1
 10
0.0
 20
0.0
 30
0.0
  3
*U108
  1

  0
TEXT
  5
10F64
  8
0
  6
CONTINUOUS
 62
     3
 10
257.62892299818168
 20
226.0391858322632
 30
0.0
 40
3.0
  1
30¡Æ
 50
15.000000000000981
  0
ENDBLK
  5
10F66
  8
0
  0
BLOCK
  8
0
  2
*U109
 70
     1
 10
0.0
 20
0.0
 30
0.0
  3
*U109
  1

  0
TEXT
  5
10F68
  8
0
  6
CONTINUOUS
 62
     3
 10
252.2627293076626
 20
191.3527869871466
 30
0.0
 40
3.0
  1
R0.5
 50
49.455384632986508
  0
TEXT
  5
10F69
  8
0
  6
CONTINUOUS
 62
     3
 10
254.9638689002644
 20
198.49734701487509
 30
0.0
 40
2.1000000000000001
  1
+0.5
 50
49.455384632986508
  0
TEXT
  5
10F6A
  8
0
  6
CONTINUOUS
 62
     3
 10
256.93326647869247
 20
196.81266862817401
 30
0.0
 40
2.1000000000000001
  1
-0
 50
49.455384632986508
  0
ENDBLK
  5
10F6C
  8
0
  0
BLOCK
  8
0
  2
*U110
 70
     1
 10
0.0
 20
0.0
 30
0.0
  3
*U110
  1

  0
TEXT
  5
10F6E
  8
0
  6
CONTINUOUS
 62
     3
 10
276.96776754451668
 20
197.1979633006776
 30
0.0
 40
3.0
  1
R0.5
 50
312.87175004109042
  0
TEXT
  5
10F6F
  8
0
  6
CONTINUOUS
 62
     3
 10
283.75551830017059
 20
193.69548806626739
 30
0.0
 40
2.1000000000000001
  1
+0.5
 50
312.87175004109042
  0
TEXT
  5
10F70
  8
0
  6
CONTINUOUS
 62
     3
 10
281.85615128805529
 20
191.9322316918782
 30
0.0
 40
2.1000000000000001
  1
-0
 50
312.87175004109042
  0
ENDBLK
  5
10F72
  8
0
  0
BLOCK
  8
0
  2
*U111
 70
     1
 10
0.0
 20
0.0
 30
0.0
  3
*U111
  1

  0
TEXT
  5
10F74
  8
0
  6
CONTINUOUS
 62
     3
 10
248.45096768568749
 20
121.5437870061796
 30
0.0
 40
3.0
  1
\U+22055max
 50
90.0
  0
ENDBLK
  5
10F76
  8
0
  0
BLOCK
  8
0
  2
*U112
 70
     1
 10
0.0
 20
0.0
 30
0.0
  3
*U112
  1

  0
TEXT
  5
10F78
  8
0
  6
CONTINUOUS
 62
     3
 10
202.15480808118409
 20
181.4523505505951
 30
0.0
 40
3.0
  1
7
  0
TEXT
  5
10F79
  8
0
  6
CONTINUOUS
 62
     3
 10
203.93980808118411
 20
184.04400409390209
 30
0.0
 40
2.1000000000000001
  1
+0.2
  0
TEXT
  5
10F7A
  8
0
  6
CONTINUOUS
 62
     3
 10
203.93980808118411
 20
181.4523505505951
 30
0.0
 40
2.1000000000000001
  1
-0
  0
ENDBLK
  5
10F7C
  8
0
  0
BLOCK
  8
0
  2
*U113
 70
     1
 10
0.0
 20
0.0
 30
0.0
  3
*U113
  1

  0
TEXT
  5
10F7E
  8
0
  6
CONTINUOUS
 62
     3
 10
215.8478700890582
 20
181.4523505505951
 30
0.0
 40
3.0
  1
1.5
  0
ENDBLK
  5
10F80
  8
0
  0
BLOCK
  8
0
  2
*U114
 70
     1
 10
0.0
 20
0.0
 30
0.0
  3
*U114
  1

  0
TEXT
  5
10F82
  8
0
  6
CONTINUOUS
 62
     3
 10
202.0605045869799
 20
125.0051843094311
 30
0.0
 40
3.0
  1
R0.3
 50
53.039443872662538
  0
ENDBLK
  5
10F84
  8
0
  0
BLOCK
  8
0
  2
*U115
 70
     1
 10
0.0
 20
0.0
 30
0.0
  3
*U115
  1

  0
TEXT
  5
10F86
  8
0
  6
CONTINUOUS
 62
     3
 10
215.94204718319421
 20
137.5492811818464
 30
0.0
 40
3.0
  1
30¡Æ
 50
326.51423679902558
  0
ENDBLK
  5
10F88
  8
0
  0
BLOCK
  8
0
  2
*U116
 70
     1
 10
0.0
 20
0.0
 30
0.0
  3
*U116
  1

  0
TEXT
  5
10F8A
  8
0
  6
CONTINUOUS
 62
     3
 10
256.4509676856876
 20
118.54230368343831
 30
0.0
 40
3.0
  1
\U+220512
 50
90.0
  0
TEXT
  5
10F8B
  8
0
  6
CONTINUOUS
 62
     3
 10
253.85931414238061
 20
124.5273036834383
 30
0.0
 40
2.1000000000000001
  1
+0.027
 50
90.0
  0
TEXT
  5
10F8C
  8
0
  6
CONTINUOUS
 62
     3
 10
256.4509676856876
 20
124.5273036834383
 30
0.0
 40
2.1000000000000001
  1
-0
 50
90.0
  0
ENDBLK
  5
10F8E
  8
0
  0
BLOCK
  8
0
  2
*X117
 70
     1
 10
0.0
 20
0.0
 30
0.0
  3
*X117
  1

  0
LINE
  5
10F99
  8
0
  6
CONTINUOUS
 62
     0
 10
229.2532864206762
 20
128.39378635667219
 30
0.0
 11
231.1978694456497
 21
130.3383693816458
 31
0.0
  0
LINE
  5
10F9A
  8
0
  6
CONTINUOUS
 62
     0
 10
225.71775251474349
 20
128.39378635667231
 30
0.0
 11
231.19786944564979
 21
133.8739032875786
 31
0.0
  0
LINE
  5
10F9B
  8
0
  6
CONTINUOUS
 62
     0
 10
222.1822186088107
 20
128.39378635667219
 30
0.0
 11
231.19786944564979
 21
137.40943719351131
 31
0.0
  0
LINE
  5
10F9C
  8
0
  6
CONTINUOUS
 62
     0
 10
218.64668470287799
 20
128.39378635667231
 30
0.0
 11
231.19786944564979
 21
140.9449710994441
 31
0.0
  0
LINE
  5
10F9D
  8
0
  6
CONTINUOUS
 62
     0
 10
215.1111507969452
 20
128.39378635667219
 30
0.0
 11
231.19786944564979
 21
144.48050500537681
 31
0.0
  0
LINE
  5
10F9E
  8
0
  6
CONTINUOUS
 62
     0
 10
211.5756168910126
 20
128.39378635667231
 30
0.0
 11
231.19786944564979
 21
148.01603891130949
 31
0.0
  0
LINE
  5
10F9F
  8
0
  6
CONTINUOUS
 62
     0
 10
208.04008298507981
 20
128.39378635667231
 30
0.0
 11
231.19786944564979
 21
151.55157281724229
 31
0.0
  0
LINE
  5
10FA0
  8
0
  6
CONTINUOUS
 62
     0
 10
206.5290330690876
 20
130.4182703466127
 30
0.0
 11
228.5045490791471
 21
152.39378635667231
 31
0.0
  0
LINE
  5
10FA1
  8
0
  6
CONTINUOUS
 62
     0
 10
204.4690151732143
 20
131.89378635667231
 30
0.0
 11
224.96901517321439
 21
152.39378635667239
 31
0.0
  0
LINE
  5
10FA2
  8
0
  6
CONTINUOUS
 62
     0
 10
200.93348126728159
 20
131.89378635667231
 30
0.0
 11
221.43348126728171
 21
152.39378635667231
 31
0.0
  0
LINE
  5
10FA3
  8
0
  6
CONTINUOUS
 62
     0
 10
199.1978694456497
 20
133.69370844097321
 30
0.0
 11
217.89794736134891
 21
152.39378635667239
 31
0.0
  0
LINE
  5
10FA4
  8
0
  6
CONTINUOUS
 62
     0
 10
211.15529921566809
 20
149.1866721169242
 30
0.0
 11
215.19786944564979
 21
153.22924234690589
 31
0.0
  0
LINE
  5
10FA5
  8
0
  6
CONTINUOUS
 62
     0
 10
199.19786944564979
 20
137.22924234690589
 30
0.0
 11
211.15529921566809
 21
149.1866721169242
 31
0.0
  0
LINE
  5
10FA6
  8
0
  6
CONTINUOUS
 62
     0
 10
208.1030540702954
 20
149.6699608774843
 30
0.0
 11
215.14568845787281
 21
156.71259526506171
 31
0.0
  0
LINE
  5
10FA7
  8
0
  6
CONTINUOUS
 62
     0
 10
197.62687954948339
 20
139.19378635667229
 30
0.0
 11
208.1030540702954
 21
149.6699608774843
 31
0.0
  0
LINE
  5
10FA8
  8
0
  6
CONTINUOUS
 62
     0
 10
205.8209318708021
 20
150.92337258392359
 30
0.0
 11
208.2913456435507
 21
153.39378635667231
 31
0.0
  0
LINE
  5
10FA9
  8
0
  6
CONTINUOUS
 62
     0
 10
209.07286944564979
 20
154.1753101587714
 30
0.0
 11
212.2913456435507
 21
157.39378635667231
 31
0.0
  0
LINE
  5
10FAA
  8
0
  6
CONTINUOUS
 62
     0
 10
194.0913456435506
 20
139.19378635667229
 30
0.0
 11
205.8209318708021
 21
150.92337258392359
 31
0.0
  0
LINE
  5
10FAB
  8
0
  6
CONTINUOUS
 62
     0
 10
204.0991334755615
 20
152.73710809461591
 30
0.0
 11
205.3228694456497
 21
153.9608440647041
 31
0.0
  0
LINE
  5
10FAC
  8
0
  6
CONTINUOUS
 62
     0
 10
190.55581173761789
 20
139.19378635667229
 30
0.0
 11
204.0991334755615
 21
152.73710809461591
 31
0.0
  0
LINE
  5
10FAD
  8
0
  6
CONTINUOUS
 62
     0
 10
202.95264757727239
 20
155.1261561022595
 30
0.0
 11
204.33277206448869
 21
156.50628058947581
 31
0.0
  0
LINE
  5
10FAE
  8
0
  6
CONTINUOUS
 62
     0
 10
188.18980089833801
 20
140.36330942332509
 30
0.0
 11
202.95264757727239
 21
155.1261561022595
 31
0.0
  0
LINE
  5
10FAF
  8
0
  6
CONTINUOUS
 62
     0
 10
189.32715559357661
 20
145.03619802449651
 30
0.0
 11
201.6847439257524
 21
157.39378635667231
 31
0.0
  0
LINE
  5
10FB0
  8
0
  6
CONTINUOUS
 62
     0
 10
185.92689861705401
 20
141.63594104797389
 30
0.0
 11
189.08045779221189
 21
144.78950022313171
 31
0.0
  0
LINE
  5
10FB1
  8
0
  6
CONTINUOUS
 62
     0
 10
184.19786944564979
 20
143.4424457825024
 30
0.0
 11
185.72559637508269
 21
144.97017271193531
 31
0.0
  0
LINE
  5
10FB2
  8
0
  6
CONTINUOUS
 62
     0
 10
189.1978694456497
 20
148.4424457825024
 30
0.0
 11
198.14921001981969
 21
157.39378635667231
 31
0.0
  0
LINE
  5
10FB3
  8
0
  6
CONTINUOUS
 62
     0
 10
182.64921001981969
 20
141.89378635667231
 30
0.0
 11
184.1978694456497
 21
143.44244578250229
 31
0.0
  0
LINE
  5
10FB4
  8
0
  6
CONTINUOUS
 62
     0
 10
179.72916774815991
 20
142.50927799094529
 30
0.0
 11
182.00398171471539
 21
144.78409195750069
 31
0.0
  0
LINE
  5
10FB5
  8
0
  6
CONTINUOUS
 62
     0
 10
189.1978694456497
 20
151.97797968843511
 30
0.0
 11
194.61367611388701
 21
157.39378635667231
 31
0.0
  0
LINE
  5
10FB6
  8
0
  6
CONTINUOUS
 62
     0
 10
179.1136761138869
 20
141.89378635667231
 30
0.0
 11
179.72916774815991
 21
142.50927799094529
 31
0.0
  0
LINE
  5
10FB7
  8
0
  6
CONTINUOUS
 62
     0
 10
173.1978694456499
 20
139.51351359436799
 30
0.0
 11
178.28236705434821
 21
144.59801120306631
 31
0.0
  0
LINE
  5
10FB8
  8
0
  6
CONTINUOUS
 62
     0
 10
189.1978694456497
 20
155.51351359436779
 30
0.0
 11
191.07814220795419
 21
157.39378635667231
 31
0.0
  0
LINE
  5
10FB9
  8
0
  6
CONTINUOUS
 62
     0
 10
172.57814220795419
 20
138.89378635667239
 30
0.0
 11
173.1978694456499
 21
139.51351359436799
 31
0.0
  0
LINE
  5
10FBA
  8
0
  6
CONTINUOUS
 62
     0
 10
173.19786944565001
 20
143.04904750030079
 30
0.0
 11
174.56075239398089
 21
144.41193044863181
 31
0.0
  0
LINE
  5
10FBB
  8
0
  6
CONTINUOUS
 62
     0
 10
169.04260830202151
 20
138.89378635667239
 30
0.0
 11
173.1978694456499
 21
143.0490475003007
 31
0.0
  0
LINE
  5
10FBC
  8
0
  6
CONTINUOUS
 62
     0
 10
167.64340170890179
 20
141.0301136694853
 30
0.0
 11
170.83913773361371
 21
144.22584969419719
 31
0.0
  0
LINE
  5
10FBD
  8
0
  6
CONTINUOUS
 62
     0
 10
165.5070743960888
 20
138.89378635667239
 30
0.0
 11
167.64340170890179
 21
141.0301136694853
 31
0.0
  0
LINE
  5
10FBE
  8
0
  6
CONTINUOUS
 62
     0
 10
164.1978694456497
 20
141.12011531216609
 30
0.0
 11
167.11752307324639
 21
144.03976893976269
 31
0.0
  0
ENDBLK
  5
10FC0
  8
0
  0
BLOCK
  8
0
  2
*U118
 70
     1
 10
0.0
 20
0.0
 30
0.0
  3
*U118
  1

  0
SOLID
  5
10FCE
  8
0
  6
CONTINUOUS
 62
     2
 10
165.6917944207444
 20
106.3055802983347
 30
0.0
 11
167.79910074178181
 21
107.713724886233
 31
0.0
 12
166.26239841255131
 22
105.6982455232901
 32
0.0
 13
166.26239841255131
 23
105.6982455232901
 33
0.0
  0
POLYLINE
  5
10FCF
  8
0
  6
CONTINUOUS
 62
     2
 66
     1
 10
0.0
 20
0.0
 30
0.0
  0
VERTEX
  5
10FD0
  8
0
  6
CONTINUOUS
 62
     2
 10
165.9770964166479
 20
106.00191291081239
 30
0.0
  0
VERTEX
  5
10FD1
  8
0
  6
CONTINUOUS
 62
     2
 10
153.573254959173
 20
94.348238956683005
 30
0.0
  0
VERTEX
  5
10FD2
  8
0
  6
CONTINUOUS
 62
     2
 10
125.9946059481244
 20
94.348238956683005
 30
0.0
  0
VERTEX
  5
10FD3
  8
0
  6
CONTINUOUS
 62
     2
 10
123.2946059481244
 20
94.348238956683005
 30
0.0
  0
SEQEND
  5
10FD4
  8
0
  6
CONTINUOUS
 62
     2
  0
ENDBLK
  5
10FD6
  8
0
  0
BLOCK
  8
0
  2
*U119
 70
     1
 10
0.0
 20
0.0
 30
0.0
  3
*U119
  1

  0
SOLID
  5
10FDE
  8
0
  6
CONTINUOUS
 62
     2
 10
179.46172810516379
 20
130.79642594790479
 30
0.0
 11
179.90833613439941
 21
128.3016008279148
 31
0.0
 12
178.676736608369
 22
130.51672468869381
 32
0.0
 13
178.676736608369
 23
130.51672468869381
 33
0.0
  0
POLYLINE
  5
10FDF
  8
0
  6
CONTINUOUS
 62
     2
 66
     1
 10
0.0
 20
0.0
 30
0.0
  0
VERTEX
  5
10FE0
  8
0
  6
CONTINUOUS
 62
     2
 10
179.06923235676641
 20
130.6565753182993
 30
0.0
  0
VERTEX
  5
10FE1
  8
0
  6
CONTINUOUS
 62
     2
 10
167.41936180527091
 20
163.35234990108779
 30
0.0
  0
VERTEX
  5
10FE2
  8
0
  6
CONTINUOUS
 62
     2
 10
163.42651372035081
 20
163.35234990108779
 30
0.0
  0
VERTEX
  5
10FE3
  8
0
  6
CONTINUOUS
 62
     2
 10
161.51778266022791
 20
163.35234990108779
 30
0.0
  0
SEQEND
  5
10FE4
  8
0
  6
CONTINUOUS
 62
     2
  0
ENDBLK
  5
10FE6
  8
0
  0
BLOCK
  8
0
  2
*X120
 70
     1
 10
0.0
 20
0.0
 30
0.0
  3
*X120
  1

  0
LINE
  5
10FE8
  8
0
  6
CONTINUOUS
 62
     0
 10
280.4766079235269
 20
47.405279956842598
 30
0.0
 11
286.52020930924868
 21
53.448881342564391
 31
0.0
  0
LINE
  5
10FE9
  8
0
  6
CONTINUOUS
 62
     0
 10
275.17763949028648
 20
45.641845429535117
 30
0.0
 11
288.283643836556
 21
58.747849775804752
 31
0.0
  0
LINE
  5
10FEA
  8
0
  6
CONTINUOUS
 62
     0
 10
271.56630424776938
 20
45.566044092950733
 30
0.0
 11
288.35944517314073
 21
62.359185018322023
 31
0.0
  0
LINE
  5
10FEB
  8
0
  6
CONTINUOUS
 62
     0
 10
280.17777379332819
 20
57.713047544442126
 30
0.0
 11
287.77701537489861
 21
65.312289126012502
 31
0.0
  0
LINE
  5
10FEC
  8
0
  6
CONTINUOUS
 62
     0
 10
268.61320014007879
 20
46.14847389119268
 30
0.0
 11
276.9435524057028
 21
54.478826156816687
 31
0.0
  0
LINE
  5
10FED
  8
0
  6
CONTINUOUS
 62
     0
 10
279.85682736974633
 20
60.927635026793041
 30
0.0
 11
286.76530538379569
 21
67.83611304084252
 31
0.0
  0
LINE
  5
10FEE
  8
0
  6
CONTINUOUS
 62
     0
 10
266.08937622524883
 20
47.160183882295541
 30
0.0
 11
273.39107756624088
 21
54.461885223287709
 31
0.0
  0
LINE
  5
10FEF
  8
0
  6
CONTINUOUS
 62
     0
 10
279.42116836382559
 20
64.027509926805124
 30
0.0
 11
285.4152267697217
 21
70.021568332701236
 31
0.0
  0
LINE
  5
10FF0
  8
0
  6
CONTINUOUS
 62
     0
 10
263.90392093339022
 20
48.510262496369698
 30
0.0
 11
270.03662001705459
 21
54.642961580034132
 31
0.0
  0
LINE
  5
10FF1
  8
0
  6
CONTINUOUS
 62
     0
 10
278.99471472685769
 20
67.136590195769713
 30
0.0
 11
283.76584146492149
 21
71.907716933833626
 31
0.0
  0
LINE
  5
10FF2
  8
0
  6
CONTINUOUS
 62
     0
 10
262.01777233225761
 20
50.159647801169733
 30
0.0
 11
267.24823233792858
 21
55.39010780684066
 31
0.0
  0
LINE
  5
10FF3
  8
0
  6
CONTINUOUS
 62
     0
 10
278.99471472685769
 20
70.672124101702593
 30
0.0
 11
281.82708557775589
 21
73.504494952600893
 31
0.0
  0
LINE
  5
10FF4
  8
0
  6
CONTINUOUS
 62
     0
 10
260.42099431349038
 20
52.098403688335338
 30
0.0
 11
264.45984465880252
 21
56.13725403364743
 31
0.0
  0
LINE
  5
10FF5
  8
0
  6
CONTINUOUS
 62
     0
 10
278.99471472685741
 20
74.207658007635246
 30
0.0
 11
279.58445679317811
 21
74.797400073956169
 31
0.0
  0
LINE
  5
10FF6
  8
0
  6
CONTINUOUS
 62
     0
 10
259.12808919213512
 20
54.341032472912957
 30
0.0
 11
260.8939012696494
 21
56.10684455042724
 31
0.0
  0
ENDBLK
  5
10FF8
  8
0
  0
BLOCK
  8
0
  2
*X121
 70
     1
 10
0.0
 20
0.0
 30
0.0
  3
*X121
  1

  0
LINE
  5
10FFA
  8
0
  6
CONTINUOUS
 62
     0
 10
118.204879605459
 20
191.56195344957601
 30
0.0
 11
121.4929527433341
 21
194.850026587451
 31
0.0
  0
LINE
  5
10FFB
  8
0
  6
CONTINUOUS
 62
     0
 10
114.6693456995263
 20
191.56195344957601
 30
0.0
 11
120.1582086592955
 21
197.0508164093452
 31
0.0
  0
LINE
  5
10FFC
  8
0
  6
CONTINUOUS
 62
     0
 10
108.6693456995263
 20
185.56195344957601
 30
0.0
 11
112.7378488947811
 21
189.63045664483079
 31
0.0
  0
LINE
  5
10FFD
  8
0
  6
CONTINUOUS
 62
     0
 10
105.13381179359349
 20
185.56195344957601
 30
0.0
 11
116.4365939989282
 21
196.8647356549107
 31
0.0
  0
LINE
  5
10FFE
  8
0
  6
CONTINUOUS
 62
     0
 10
101.5982778876608
 20
185.56195344957601
 30
0.0
 11
112.71497933856099
 21
196.67865490047609
 31
0.0
  0
LINE
  5
10FFF
  8
0
  6
CONTINUOUS
 62
     0
 10
99.060339253989923
 20
186.55954872183781
 30
0.0
 11
108.9933646781937
 21
196.49257414604159
 31
0.0
  0
LINE
  5
11000
  8
0
  6
CONTINUOUS
 62
     0
 10
97.723081245111786
 20
188.75782461889241
 30
0.0
 11
105.27175001782651
 21
196.30649339160709
 31
0.0
  0
LINE
  5
11001
  8
0
  6
CONTINUOUS
 62
     0
 10
96.816801919985664
 20
191.387079199699
 30
0.0
 11
101.5501353574592
 21
196.12041263717259
 31
0.0
  0
LINE
  5
11002
  8
0
  6
CONTINUOUS
 62
     0
 10
96.524656497613137
 20
194.63046768325921
 30
0.0
 11
97.828520697092003
 21
195.93433188273809
 31
0.0
  0
ENDBLK
  5
11004
  8
0
  0
BLOCK
  8
0
  2
*U122
 70
     1
 10
0.0
 20
0.0
 30
0.0
  3
*U122
  1

  0
TEXT
  5
1100C
  8
0
  6
CONTINUOUS
 10
-0.4499997731258647
 20
19.86158147375167
 30
0.0
 40
3.0
  1
Techniks Inc.
  0
TEXT
  5
1100D
  8
0
  6
CONTINUOUS
 10
0.0000002268741355
 20
14.86158147375167
 30
0.0
 40
3.0
  1
     9930 East 56th Street
  0
TEXT
  5
1100E
  8
0
  6
CONTINUOUS
 10
0.0000002268741355
 20
9.85349092257057
 30
0.0
 40
3.0
  1
     Indianapolis, IN 46236
  0
TEXT
  5
1100F
  8
0
  6
CONTINUOUS
 10
0.0000002268741355
 20
4.8500002172713206
 30
0.0
 40
3.0
  1
     800.597.3921
  0
TEXT
  5
11010
  8
0
  6
CONTINUOUS
 10
0.0000002268741355
 20
-0.1499997827286785
 30
0.0
 40
3.0
  1
     www.techniksusa.com
  0
ENDBLK
  5
11012
  8
0
  0
BLOCK
  8
0
  2
*U123
 70
     1
 10
0.0
 20
0.0
 30
0.0
  3
*U123
  1

  0
TEXT
  5
11014
  8
0
  6
CONTINUOUS
 10
140.18698665372909
 20
52.065895333965521
 30
0.0
 40
3.0
  1
Techniks Inc.
  0
TEXT
  5
11015
  8
0
  6
CONTINUOUS
 10
140.63698665372911
 20
47.065895333965521
 30
0.0
 40
3.0
  1
     9930 East 56th Street
  0
TEXT
  5
11016
  8
0
  6
CONTINUOUS
 10
140.63698665372911
 20
42.05780478278443
 30
0.0
 40
3.0
  1
     Indianapolis, IN 46236
  0
TEXT
  5
11017
  8
0
  6
CONTINUOUS
 10
140.63698665372911
 20
37.054314077485181
 30
0.0
 40
3.0
  1
     800.597.3921
  0
TEXT
  5
11018
  8
0
  6
CONTINUOUS
 10
140.63698665372911
 20
32.054314077485181
 30
0.0
 40
3.0
  1
     www.techniksusa.com
  0
ENDBLK
  5
1101A
  8
0
  0
ENDSEC
  0
SECTION
  2
ENTITIES
  0
INSERT
  5
2BA2
  8
0
  6
CONTINUOUS
  2
*X66
 10
0.0
 20
0.0
 30
0.0
1001
ACAD
1000
HATCH
1002
{
1070
    19
1000
ANSI31
1040
40.0
1040
0.0
1000
R14_HATCH_DATA
1000
2BA2
1011
1.0
1021
0.0
1031
-0.0
1021
0.0
1031
0.0
1011
0.0
1021
0.0
1031
-0.0
1021
1.0
1031
0.0
1011
0.0
1021
0.0
1031
-0.0
1021
0.0
1031
1.0
1040
0.0
1010
0.0
1020
0.0
1030
1.0
1000
ANSI31
1070
     0
1070
     0
1071
        1
1071
       23
1070
     0
1070
     1
1071
        4
1040
633.58085651325541
1040
154.7453124477766
1040
628.68085651325521
1040
154.7453124477764
1040
629.58085651325484
1040
153.84531244777671
1040
632.68085651325521
1040
153.84531244777671
1071
        0
1070
     0
1070
     1
1040
0.0
1040
40.0
1070
     0
1070
     1
1040
0.7853981633974483
1040
0.0
1040
0.0
1040
-3.5355339059327369
1040
3.5355339059327369
1070
     0
1040
0.1598156746001089
1071
        3
1040
598.82957828025565
1040
178.22173486614631
1040
0.0
1040
631.34627023350811
1040
154.30091430843231
1040
0.0
1040
666.39617853044945
1040
109.05371597272141
1040
0.0
1002
}
  0
LINE
  5
B267
  8
0
 62
     2
 10
150.9402968419158
 20
16.5
 30
0.0
 11
198.8597031580839
 21
16.5
 31
0.0
  0
TEXT
  5
B268
  8
0
 62
     3
 10
174.46751640440169
 20
18.216456455239491
 30
0.0
 40
4.0
  1
-
  0
TEXT
  5
B26B
  8
0
 62
     7
 10
175.07945746630139
 20
7.1066780875048599
 30
0.0
 40
3.0
  1
-
  0
POLYLINE
  5
B26E
  8
0
 66
     1
 10
0.0
 20
0.0
 30
0.0
 40
1.0
 41
1.0
1001
ACAD
1000
ASC_BOUNDS
1002
{
1070
    19
1002
}
  0
VERTEX
  5
10E57
  8
0
 10
9.9498014649834658
 20
241.00000000000031
 30
0.0
  0
VERTEX
  5
10E58
  8
0
 10
341.5
 20
241.00000000000031
 30
0.0
  0
SEQEND
  5
10E59
  8
0
  0
POLYLINE
  5
B26F
  8
0
 66
     1
 10
0.0
 20
0.0
 30
0.0
 40
1.0
 41
1.0
  0
VERTEX
  5
10E5A
  8
0
 10
0.0
 20
0.0
 30
0.0
  0
VERTEX
  5
10E5B
  8
0
 10
349.80000000000001
 20
0.0
 30
0.0
  0
SEQEND
  5
10E5C
  8
0
  0
POLYLINE
  5
B270
  8
0
 66
     1
 10
0.0
 20
0.0
 30
0.0
 40
0.5
 41
0.5
  0
VERTEX
  5
10E5D
  8
0
 10
349.2999999999999
 20
24.0
 30
0.0
  0
VERTEX
  5
10E5E
  8
0
 10
0.5
 20
24.0
 30
0.0
  0
SEQEND
  5
10E5F
  8
0
  0
POLYLINE
  5
B271
  8
0
 66
     1
 10
0.0
 20
0.0
 30
0.0
 40
1.0
 41
1.0
  0
VERTEX
  5
10E60
  8
0
 10
0.0
 20
241.00000000000011
 30
0.0
  0
VERTEX
  5
10E61
  8
0
 10
349.78500327820348
 20
241.00000000000031
 30
0.0
  0
SEQEND
  5
10E62
  8
0
  0
POLYLINE
  5
B279
  8
0
 66
     1
 10
0.0
 20
0.0
 30
0.0
 40
1.0
 41
1.0
  0
VERTEX
  5
10E63
  8
0
 10
0.5
 20
241.50000000000031
 30
0.0
  0
VERTEX
  5
10E64
  8
0
 10
0.5
 20
-0.5
 30
0.0
  0
SEQEND
  5
10E65
  8
0
  0
LINE
  5
B27A
  8
0
 62
     2
 10
150.9402968419158
 20
12.5
 30
0.0
 11
0.5
 21
12.5
 31
0.0
  0
TEXT
  5
B27B
  8
0
 62
     7
 10
1.6906758171485301
 20
20.70213863111508
 30
0.0
 40
2.0
  1
DESCRIPTION
  0
TEXT
  5
B27C
  8
0
 62
     7
 10
1.7756180239680359
 20
9.4939908967098745
 30
0.0
 40
2.0
  1
KIND
  0
TEXT
  5
B27E
  8
0
  6
CONTINUOUS
 62
     3
 10
19.488127647663081
 20
15.53735654761635
 30
0.0
 40
4.0
  1
HYDRAULIC CHUCK
  0
TEXT
  5
B27F
  8
0
 62
     7
 10
107.4355084051569
 20
9.4608489407828529
 30
0.0
 40
2.0
  1
ORDER MAKER
  0
TEXT
  5
B280
  8
0
 62
     7
 10
107.6221638096294
 20
20.57165332765112
 30
0.0
 40
2.0
  1
SURFACE TREATMENT
  0
LINE
  5
B282
  8
0
 62
     2
 10
106.5
 20
24.0
 30
0.0
 11
106.5
 21
0.0
 31
0.0
  0
LINE
  5
B283
  8
0
 62
     2
 10
79.5
 20
24.0
 30
0.0
 11
79.5
 21
0.0
 31
0.0
  0
TEXT
  5
B284
  8
0
  6
CONTINUOUS
 62
     3
 10
83.953051788190564
 20
15.03976123407665
 30
0.0
 40
4.0
  1
-
  0
TEXT
  5
B285
  8
0
 62
     7
 10
80.326115960252537
 20
9.6268716546485393
 30
0.0
 40
2.0
  1
HARDNESS
  0
TEXT
  5
B286
  8
0
 62
     7
 10
80.390774020364447
 20
20.753906392070579
 30
0.0
 40
2.0
  1
MATERIAL
  0
LINE
  5
B287
  8
0
 62
     2
 10
150.9402968419158
 20
24.0
 30
0.0
 11
150.9402968419158
 21
0.0
 31
0.0
  0
TEXT
  5
B288
  8
0
 62
     7
 10
151.84057408933469
 20
19.15847313115523
 30
0.0
 40
2.0
  1
DATE
  0
TEXT
  5
B2CB
  8
0
  6
CONTINUOUS
 62
     3
 10
63.438554281229251
 20
229.0555435295031
 30
0.0
 40
2.0
  1
-0.0
  0
TEXT
  5
B2CC
  8
0
  6
CONTINUOUS
 62
     3
 10
63.438554281229251
 20
231.56126401216429
 30
0.0
 40
2.0
  1
+0.35
  0
TEXT
  5
B2CD
  8
0
  6
CONTINUOUS
 62
     7
 10
58.864606803455438
 20
236.15650429128829
 30
0.0
 40
3.0
  1
250-500
  0
TEXT
  5
B2CE
  8
0
  6
CONTINUOUS
 62
     3
 10
63.504192757890003
 20
222.79124141525591
 30
0.0
 40
2.0
  1
-0.35
  0
TEXT
  5
B2CF
  8
0
  6
CONTINUOUS
 62
     3
 10
62.041925324166407
 20
217.257775021637
 30
0.0
 40
3.0
  1
%%P0.35
  0
TEXT
  5
B2D0
  8
0
  6
CONTINUOUS
 62
     3
 10
63.504192757890003
 20
225.2969618979169
 30
0.0
 40
2.0
  1
+0.0
  0
LINE
  5
B2D1
  8
0
  6
CONTINUOUS
 62
     2
 10
6.6647981867797617
 20
234.60000000000019
 30
0.0
 11
74.993438436643828
 21
234.60000000000019
 31
0.0
  0
LINE
  5
B2D2
  8
0
  6
CONTINUOUS
 62
     2
 10
6.6647981867797617
 20
228.2000000000001
 30
0.0
 11
74.993438436643828
 21
228.2000000000001
 31
0.0
  0
LINE
  5
B2D3
  8
0
  6
CONTINUOUS
 62
     2
 10
6.6647981867797617
 20
221.8000000000003
 30
0.0
 11
74.993438436643828
 21
221.8000000000003
 31
0.0
  0
LINE
  5
B2D4
  8
0
  6
CONTINUOUS
 62
     2
 10
74.993438436643828
 20
241.00000000000031
 30
0.0
 11
6.6647981867797617
 21
241.00000000000031
 31
0.0
  0
LINE
  5
B2D5
  8
0
  6
CONTINUOUS
 62
     2
 10
0.0
 20
215.62385070146439
 30
0.0
 11
74.993438436643828
 21
215.62385070146439
 31
0.0
  0
LINE
  5
B2D6
  8
0
  6
CONTINUOUS
 62
     2
 10
6.664798186779989
 20
221.8000000000003
 30
0.0
 11
6.664798186779989
 21
241.00000000000031
 31
0.0
  0
LINE
  5
B2D7
  8
0
  6
CONTINUOUS
 62
     2
 10
0.0
 20
241.00000000000031
 30
0.0
 11
0.0
 21
215.62385070146439
 31
0.0
  0
LINE
  5
B2D8
  8
0
  6
CONTINUOUS
 62
     2
 10
6.664798186779989
 20
215.62385070146439
 30
0.0
 11
6.664798186779989
 21
221.8000000000003
 31
0.0
  0
TEXT
  5
B2D9
  8
0
  6
CONTINUOUS
 10
1.2378468086309331
 20
217.77421795343761
 30
0.0
 40
3.0
  1
mm
  0
TEXT
  5
B2DA
  8
0
  6
CONTINUOUS
 10
2.289011192062389
 20
221.7461905260555
 30
0.0
 40
3.0
  1
Â÷
  0
TEXT
  5
B2DB
  8
0
  6
CONTINUOUS
 10
2.289011192062389
 20
235.2461905260555
 30
0.0
 40
3.0
  1
±â
  0
TEXT
  5
B2DC
  8
0
  6
CONTINUOUS
 10
2.289011192062389
 20
226.2461905260555
 30
0.0
 40
3.0
  1
°ø
  0
TEXT
  5
B2DD
  8
0
  6
CONTINUOUS
 10
2.289011192062389
 20
230.7461905260555
 30
0.0
 40
3.0
  1
º»
  0
LINE
  5
B2DE
  8
0
  6
CONTINUOUS
 62
     2
 10
6.6647981867797617
 20
241.00000000000031
 30
0.0
 11
0.0
 21
241.00000000000031
 31
0.0
  0
TEXT
  5
B2DF
  8
0
  6
CONTINUOUS
 62
     7
 10
28.853706141723482
 20
236.15650429128829
 30
0.0
 40
3.0
  1
50-100
  0
TEXT
  5
B2E0
  8
0
  6
CONTINUOUS
 62
     3
 10
32.065439160974158
 20
229.0555435295031
 30
0.0
 40
2.0
  1
-0.0
  0
TEXT
  5
B2E1
  8
0
  6
CONTINUOUS
 62
     3
 10
32.065439160974158
 20
231.56126401216429
 30
0.0
 40
2.0
  1
+0.15
  0
TEXT
  5
B2E2
  8
0
  6
CONTINUOUS
 62
     3
 10
32.065439160974158
 20
222.6868365716216
 30
0.0
 40
2.0
  1
-0.15
  0
TEXT
  5
B2E3
  8
0
  6
CONTINUOUS
 62
     3
 10
30.812067194666952
 20
217.257775021637
 30
0.0
 40
3.0
  1
%%P0.15
  0
TEXT
  5
B2E4
  8
0
  6
CONTINUOUS
 62
     3
 10
32.065439160974158
 20
225.1925570542829
 30
0.0
 40
2.0
  1
+0.0
  0
LINE
  5
B2E5
  8
0
  6
CONTINUOUS
 62
     2
 10
28.096426956445612
 20
241.00000000000031
 30
0.0
 11
28.096426956445612
 21
215.62385070146439
 31
0.0
  0
TEXT
  5
B2E6
  8
0
  6
CONTINUOUS
 62
     3
 10
20.993984417053071
 20
225.1925570542829
 30
0.0
 40
2.0
  1
+0.0
  0
TEXT
  5
B2E7
  8
0
  6
CONTINUOUS
 10
9.1748491995331278
 20
223.52224636897429
 30
0.0
 40
3.0
  1
¿Ü°æ
  0
LINE
  5
B2E8
  8
0
  6
CONTINUOUS
 62
     2
 10
18.664798186779759
 20
241.00000000000031
 30
0.0
 11
18.664798186779759
 21
221.8000000000003
 31
0.0
  0
LINE
  5
B2E9
  8
0
  6
CONTINUOUS
 62
     2
 10
18.664798186779759
 20
228.4238507014646
 30
0.0
 11
18.664798186779759
 21
215.62385070146439
 31
0.0
  0
TEXT
  5
B2EA
  8
0
  6
CONTINUOUS
 62
     3
 10
20.993984417053071
 20
222.6868365716216
 30
0.0
 40
2.0
  1
-0.1
  0
TEXT
  5
B2EB
  8
0
  6
CONTINUOUS
 62
     3
 10
19.949507918161999
 20
217.257775021637
 30
0.0
 40
3.0
  1
%%P0.1
  0
TEXT
  5
B2EC
  8
0
  6
CONTINUOUS
 10
9.1748491995331278
 20
217.35439130880519
 30
0.0
 40
3.0
  1
ÀüÀå
  0
TEXT
  5
B2ED
  8
0
  6
CONTINUOUS
 62
     3
 10
20.88953668334489
 20
231.56126401216429
 30
0.0
 40
2.0
  1
+0.1
  0
TEXT
  5
B2EE
  8
0
  6
CONTINUOUS
 62
     3
 10
20.993984417053071
 20
229.0555435295031
 30
0.0
 40
2.0
  1
-0.0
  0
TEXT
  5
B2EF
  8
0
  6
CONTINUOUS
 62
     7
 10
19.291584210295241
 20
236.15650429128829
 30
0.0
 40
3.0
  1
1-50
  0
TEXT
  5
B2F0
  8
0
  6
CONTINUOUS
 10
9.1748491995331278
 20
229.76335097000751
 30
0.0
 40
3.0
  1
³»°æ
  0
TEXT
  5
B2F1
  8
0
  6
CONTINUOUS
 10
9.1748491995331278
 20
236.00445557104089
 30
0.0
 40
3.0
  1
±¸ºÐ 
  0
LINE
  5
B2F2
  8
0
  6
CONTINUOUS
 62
     2
 10
57.968465385929441
 20
241.00000000000031
 30
0.0
 11
57.968465385929441
 21
215.62385070146439
 31
0.0
  0
LINE
  5
B2F3
  8
0
  6
CONTINUOUS
 62
     2
 10
42.092417406004408
 20
241.00000000000031
 30
0.0
 11
42.092417406004408
 21
215.62385070146439
 31
0.0
  0
TEXT
  5
B2F4
  8
0
  6
CONTINUOUS
 62
     3
 10
46.688116012782068
 20
225.2969618979169
 30
0.0
 40
2.0
  1
+0.0
  0
TEXT
  5
B2F5
  8
0
  6
CONTINUOUS
 62
     3
 10
46.688116012782068
 20
222.79124141525591
 30
0.0
 40
2.0
  1
-0.25
  0
TEXT
  5
B2F6
  8
0
  6
CONTINUOUS
 62
     3
 10
45.33029547457636
 20
217.257775021637
 30
0.0
 40
3.0
  1
%%P0.25
  0
TEXT
  5
B2F7
  8
0
  6
CONTINUOUS
 62
     7
 10
40.571351574260689
 20
236.15650429128829
 30
0.0
 40
3.0
  1
 100-250
  0
TEXT
  5
B2F8
  8
0
  6
CONTINUOUS
 62
     3
 10
46.479220545365934
 20
229.0555435295031
 30
0.0
 40
2.0
  1
-0.0
  0
TEXT
  5
B2F9
  8
0
  6
CONTINUOUS
 62
     3
 10
46.479220545365934
 20
231.56126401216429
 30
0.0
 40
2.0
  1
+0.25
  0
LINE
  5
B2FD
  8
0
  6
CONTINUOUS
 62
     2
 10
74.993438436643828
 20
241.00000000000031
 30
0.0
 11
74.993438436643828
 21
215.62385070146439
 31
0.0
  0
POLYLINE
  5
B2FE
  8
0
 66
     1
 10
0.0
 20
0.0
 30
0.0
 40
1.0
 41
1.0
  0
VERTEX
  5
10E66
  8
0
 10
349.2999999999999
 20
0.0
 30
0.0
  0
VERTEX
  5
10E67
  8
0
 10
349.2999999999999
 20
241.50000000000031
 30
0.0
  0
SEQEND
  5
10E68
  8
0
  0
LINE
  5
B306
  8
0
 62
     2
 10
281.30000000000001
 20
6.5
 30
0.0
 11
349.2999999999999
 21
6.5
 31
0.0
  0
LINE
  5
B308
  8
0
 62
     2
 10
198.8597031580841
 20
16.5
 30
0.0
 11
289.30000000000001
 21
16.5
 31
0.0
  0
LINE
  5
B309
  8
0
 62
     2
 10
281.30000000000001
 20
6.5
 30
0.0
 11
198.8597031580841
 21
6.5
 31
0.0
  0
TEXT
  5
B30A
  8
0
  6
CONTINUOUS
 62
     7
 10
215.70863579561251
 20
17.658983523781899
 30
0.0
 40
4.0
  1
SSK CONTROL NUMBER
  0
LINE
  5
B30C
  8
0
 62
     2
 10
198.8597031580839
 20
24.0
 30
0.0
 11
198.8597031580839
 21
0.0
 31
0.0
  0
TEXT
  5
B30D
  8
0
 62
     7
 10
199.72929511267941
 20
2.2574114378330701
 30
0.0
 40
2.0
  1
Q'TY
  0
TEXT
  5
B327
  8
0
 62
     7
 10
234.13498021523631
 20
2.269955000430854
 30
0.0
 40
2.0
  1
SCALE
  0
LINE
  5
B328
  8
0
 62
     2
 10
233.8597031580839
 20
6.5
 30
0.0
 11
233.8597031580839
 21
0.0
 31
0.0
  0
TEXT
  5
B329
  8
0
 62
     7
 10
249.69651417353521
 20
0.9519807885211548
 30
0.0
 40
4.0
  1
1 : 1
  0
TEXT
  5
B32A
  8
0
 62
     7
 10
270.10520091895279
 20
2.2574114378329559
 30
0.0
 40
2.0
  1
CUTTING SIZE :
  0
LINE
  5
B32B
  8
0
 62
     2
 10
268.8597031580839
 20
6.5
 30
0.0
 11
268.8597031580839
 21
0.0
 31
0.0
  0
LINE
  5
B32C
  8
0
 62
     2
 10
289.30000000000001
 20
24.25
 30
0.0
 11
289.30000000000001
 21
6.75
 31
0.0
  0
TEXT
  5
B32D
  8
0
 62
     7
 10
319.46335799005368
 20
0.9519807885211548
 30
0.0
 40
4.0
  1
-
  0
TEXT
  5
B32E
  8
0
 62
     7
 10
290.83722662870952
 20
20.7469419072163
 30
0.0
 40
2.0
  1
DESIGN
  0
LINE
  5
B32F
  8
0
 62
     2
 10
309.2999999999999
 20
24.25
 30
0.0
 11
309.2999999999999
 21
6.75
 31
0.0
  0
TEXT
  5
B330
  8
0
 62
     7
 10
310.26938148685667
 20
20.8838933210493
 30
0.0
 40
2.0
  1
CHECK
  0
TEXT
  5
B331
  8
0
 62
     7
 10
330.49033471004373
 20
20.8838933210493
 30
0.0
 40
2.0
  1
APPROVE
  0
LINE
  5
B332
  8
0
 62
     2
 10
329.30000000000001
 20
24.25
 30
0.0
 11
329.30000000000001
 21
6.75
 31
0.0
  0
TEXT
  5
B333
  8
0
 62
     7
 10
287.87643544357428
 20
236.0401664710821
 30
0.0
 40
2.5
  1
REVISIONS
  0
LINE
  5
B334
  8
0
  6
CONTINUOUS
 62
     2
 10
269.30000000000001
 20
221.8000000000003
 30
0.0
 11
349.2999999999999
 21
221.80000000000001
 31
0.0
  0
LINE
  5
B335
  8
0
  6
CONTINUOUS
 62
     2
 10
269.30000000000001
 20
228.19999999999939
 30
0.0
 11
349.2999999999999
 21
228.19999999999919
 31
0.0
  0
LINE
  5
B336
  8
0
  6
CONTINUOUS
 62
     2
 10
269.30000000000001
 20
234.60000000000019
 30
0.0
 11
349.2999999999999
 21
234.60000000000019
 31
0.0
  0
LINE
  5
B337
  8
0
  6
CONTINUOUS
 62
     2
 10
269.30000000000001
 20
215.62385070146439
 30
0.0
 11
349.2999999999999
 21
215.62385070146439
 31
0.0
  0
LINE
  5
B33B
  8
0
 62
     2
 10
275.30000000000001
 20
241.00000000000031
 30
0.0
 11
275.29999999999973
 21
215.62385070146439
 31
0.0
  0
TEXT
  5
B33C
  8
0
 62
     7
 10
271.36049426856789
 20
223.5855929990733
 30
0.0
 40
2.5
  1
2.
  0
LINE
  5
B33D
  8
0
 62
     2
 10
269.30000000000001
 20
241.00000000000031
 30
0.0
 11
269.30000000000001
 21
215.62385070146439
 31
0.0
  0
TEXT
  5
B33E
  8
0
 62
     7
 10
271.36049426856789
 20
217.74007257054271
 30
0.0
 40
2.5
  1
3.
  0
TEXT
  5
B33F
  8
0
 62
     7
 10
271.36049426856789
 20
230.294868075549
 30
0.0
 40
2.5
  1
1.
  0
TEXT
  5
B340
  8
0
 62
     7
 10
270.34697788810348
 20
236.25014875277051
 30
0.0
 40
2.5
  1
NO.
  0
TEXT
  5
B341
  8
0
 62
     7
 10
333.83882714560201
 20
236.14515597642301
 30
0.0
 40
2.5
  1
DEVISER
  0
LINE
  5
B342
  8
0
 62
     2
 10
317.30000000000001
 20
241.00000000000031
 30
0.0
 11
317.30000000000001
 21
215.62385070146439
 31
0.0
  0
LINE
  5
B343
  8
0
 62
     2
 10
331.30000000000001
 20
241.00000000000031
 30
0.0
 11
331.30000000000001
 21
215.62385070146439
 31
0.0
  0
TEXT
  5
B344
  8
0
 62
     7
 10
320.14935744422269
 20
236.0401664710821
 30
0.0
 40
2.5
  1
DATE
  0
TEXT
  5
B771
  8
0
  6
CONTINUOUS
 62
     3
 10
29.30904621766501
 20
3.619081300548828
 30
0.0
 40
4.0
  1
DIN69893/F
  0
TEXT
  5
B772
  8
0
  6
CONTINUOUS
 62
     3
 10
83.953051788190564
 20
3.9519170139899411
 30
0.0
 40
4.0
  1
-
  0
TEXT
  5
B773
  8
0
  6
CONTINUOUS
 62
     3
 10
126.2099792736237
 20
3.9519170139899411
 30
0.0
 40
4.0
  1
-
  0
TEXT
  5
B774
  8
0
  6
CONTINUOUS
 62
     3
 10
114.1225862605331
 20
14.771462832083101
 30
0.0
 40
4.0
  1
SHOT BLAST
  0
TEXT
  5
B775
  8
0
  6
CONTINUOUS
 62
     3
 10
213.81238595977791
 20
8.7620669107711802
 30
0.0
 40
4.0
  1
HSK63F-HC19.05-85-PB25
  0
LINE
  5
B776
  8
CT
  6
CENTER
 10
224.95922032106839
 20
128.97872852852501
 30
0.0
 11
110.9592203210684
 21
128.97872852852501
 31
0.0
1001
ACAD
1000
ASC_BOUNDS
1002
{
1070
    19
1002
}
  0
LINE
  5
B778
  8
0
  6
HIDDEN
 62
     3
 10
172.45922032106751
 20
131.47872852852501
 30
0.0
 11
154.95922032106839
 21
131.47872852852501
 31
0.0
1001
ACAD
1000
ASC_BOUNDS
1002
{
1070
    19
1002
}
  0
LINE
  5
B779
  8
0
  6
HIDDEN
 62
     3
 10
154.6592203210684
 20
134.97872852852501
 30
0.0
 11
147.95922032106839
 21
134.97872852852501
 31
0.0
1001
ACAD
1000
ASC_BOUNDS
1002
{
1070
    19
1002
}
  0
LINE
  5
B77A
  8
0
  6
CONTINUOUS
 10
154.08422032106839
 20
108.978728528525
 30
0.0
 11
154.08422032106839
 21
100.0811332643334
 31
0.0
  0
LINE
  5
B77B
  8
0
  6
CONTINUOUS
 10
137.95922032106839
 20
128.9787285285251
 30
0.0
 11
137.95922032106839
 21
97.978728528525096
 31
0.0
  0
LINE
  5
B77D
  8
0
  6
CONTINUOUS
 10
138.45922032106839
 20
97.478728528525096
 30
0.0
 11
138.45922032106839
 21
128.97872852852501
 31
0.0
  0
LINE
  5
B77E
  8
0
  6
CONTINUOUS
 10
157.83422032106839
 20
108.978728528525
 30
0.0
 11
157.83422032106839
 21
100.0811332643334
 31
0.0
  0
LINE
  5
B77F
  8
0
  6
CONTINUOUS
 10
163.95922032106839
 20
98.47872852852511
 30
0.0
 11
163.95922032106839
 21
128.97872852852501
 31
0.0
  0
LINE
  5
B780
  8
0
  6
CONTINUOUS
 10
154.08422032106839
 20
100.0811332643334
 30
0.0
 11
152.58172124630909
 21
97.478728528525096
 31
0.0
  0
LINE
  5
B781
  8
0
  6
CONTINUOUS
 10
138.45922032106839
 20
97.478728528525096
 30
0.0
 11
152.58172124630909
 21
97.478728528525096
 31
0.0
  0
LINE
  5
B782
  8
0
  6
CONTINUOUS
 10
138.45922032106839
 20
97.478728528525096
 30
0.0
 11
137.95922032106839
 21
97.978728528525096
 31
0.0
  0
LINE
  5
B783
  8
0
  6
CONTINUOUS
 10
152.58172124630909
 20
97.478728528525096
 30
0.0
 11
152.5817212463086
 21
128.97872852852501
 31
0.0
  0
LINE
  5
B784
  8
0
  6
CONTINUOUS
 10
159.33671939582771
 20
97.478728528525096
 30
0.0
 11
162.95922032106839
 21
97.478728528525096
 31
0.0
  0
LINE
  5
B785
  8
0
  6
CONTINUOUS
 10
159.33671939582771
 20
97.478728528525096
 30
0.0
 11
159.33671939582771
 21
128.97872852852501
 31
0.0
  0
LINE
  5
B786
  8
0
  6
CONTINUOUS
 10
157.83422032106839
 20
100.0811332643334
 30
0.0
 11
159.33671939582771
 21
97.478728528525096
 31
0.0
  0
ARC
  5
B787
  8
0
  6
CONTINUOUS
 10
156.83422032106839
 20
100.478728528525
 30
0.0
 40
1.0
 50
359.99999999999682
 51
90.0
  0
LINE
  5
B788
  8
0
  6
CONTINUOUS
 10
155.08422032106839
 20
101.478728528525
 30
0.0
 11
155.95922032106839
 21
101.478728528525
 31
0.0
  0
LINE
  5
B789
  8
0
  6
CONTINUOUS
 10
156.83422032106839
 20
101.478728528525
 30
0.0
 11
155.95922032106839
 21
101.478728528525
 31
0.0
  0
ARC
  5
B78A
  8
0
  6
CONTINUOUS
 10
155.08422032106839
 20
100.478728528525
 30
0.0
 40
1.0
 50
90.0
 51
180.0
  0
ARC
  5
B78B
  8
0
  6
CONTINUOUS
 10
162.95922032106839
 20
98.47872852852511
 30
0.0
 40
1.0
 50
270.0
 51
0.0
  0
LINE
  5
B78C
  8
0
  6
CONTINUOUS
 10
152.58172124630909
 20
108.978728528525
 30
0.0
 11
152.58172124630909
 21
128.97872852852501
 31
0.0
  0
LINE
  5
B78D
  8
0
  6
CONTINUOUS
 10
163.95922032106839
 20
128.97872852852501
 30
0.0
 11
163.95922032106839
 21
122.5295233156876
 31
0.0
  0
LINE
  5
B78E
  8
0
  6
CONTINUOUS
 10
159.33671939582771
 20
108.978728528525
 30
0.0
 11
159.33671939582771
 21
128.97872852852501
 31
0.0
  0
LINE
  5
B78F
  8
0
  6
CONTINUOUS
 10
154.08422032106839
 20
128.97872852852501
 30
0.0
 11
154.08422032106839
 21
108.978728528525
 31
0.0
  0
LINE
  5
B790
  8
0
  6
CONTINUOUS
 10
157.83422032106839
 20
128.97872852852501
 30
0.0
 11
157.83422032106839
 21
108.978728528525
 31
0.0
  0
LINE
  5
B792
  8
0
  6
CONTINUOUS
 10
154.08422032106839
 20
157.8763237927167
 30
0.0
 11
152.58172124630909
 21
160.47872852852501
 31
0.0
  0
LINE
  5
B793
  8
0
  6
CONTINUOUS
 10
138.45922032106839
 20
160.47872852852501
 30
0.0
 11
152.58172124630909
 21
160.47872852852501
 31
0.0
  0
LINE
  5
B794
  8
0
  6
CONTINUOUS
 10
137.95922032106839
 20
159.97872852852501
 30
0.0
 11
137.95922032106839
 21
155.87872852852499
 31
0.0
1001
ACAD
1000
ASC_BOUNDS
1002
{
1070
    19
1002
}
  0
LINE
  5
B795
  8
0
  6
CONTINUOUS
 10
137.95922032106839
 20
128.97872852852501
 30
0.0
 11
137.95922032106839
 21
159.97872852852501
 31
0.0
1001
ACAD
1000
ASC_BOUNDS
1002
{
1070
    19
1002
}
  0
LINE
  5
B796
  8
0
  6
CONTINUOUS
 10
137.95922032106839
 20
159.97872852852501
 30
0.0
 11
137.95922032106839
 21
153.80436886439639
 31
0.0
  0
LINE
  5
B797
  8
0
  6
CONTINUOUS
 10
137.95922032106839
 20
159.97872852852501
 30
0.0
 11
138.45922032106839
 21
160.47872852852501
 31
0.0
  0
LINE
  5
B798
  8
0
  6
CONTINUOUS
 10
159.33671939582771
 20
160.47872852852501
 30
0.0
 11
162.95922032106839
 21
160.47872852852501
 31
0.0
  0
LINE
  5
B799
  8
0
  6
CONTINUOUS
 10
154.08422032106839
 20
128.97872852852501
 30
0.0
 11
154.08422032106839
 21
157.87632379271659
 31
0.0
  0
LINE
  5
B79A
  8
0
  6
CONTINUOUS
 10
157.83422032106839
 20
128.97872852852501
 30
0.0
 11
157.83422032106839
 21
157.87632379271659
 31
0.0
  0
LINE
  5
B79B
  8
0
  6
CONTINUOUS
 10
157.33422032106839
 20
156.4787285285251
 30
0.0
 11
155.95922032106839
 21
156.4787285285251
 31
0.0
  0
LINE
  5
B79C
  8
0
  6
CONTINUOUS
 10
154.58422032106839
 20
156.4787285285251
 30
0.0
 11
155.95922032106839
 21
156.4787285285251
 31
0.0
  0
ARC
  5
B79D
  8
0
  6
CONTINUOUS
 10
154.58422032106839
 20
156.9787285285251
 30
0.0
 40
0.5
 50
180.0
 51
270.0
  0
ARC
  5
B79E
  8
0
  6
CONTINUOUS
 10
157.33422032106839
 20
156.9787285285251
 30
0.0
 40
0.5
 50
270.0
 51
0.0
  0
LINE
  5
B79F
  8
0
  6
CONTINUOUS
 10
157.83422032106839
 20
157.8763237927167
 30
0.0
 11
159.33671939582771
 21
160.47872852852501
 31
0.0
  0
LINE
  5
B7A0
  8
0
  6
CONTINUOUS
 10
163.95922032106839
 20
159.47872852852501
 30
0.0
 11
163.9592203210687
 21
128.97872852852501
 31
0.0
  0
ARC
  5
B7A2
  8
0
  6
CONTINUOUS
 10
162.95922032106839
 20
159.47872852852501
 30
0.0
 40
1.0
 50
0.0
 51
90.0
  0
LINE
  5
B7A4
  8
0
  6
CONTINUOUS
 10
135.45922032106839
 20
148.10372854291131
 30
0.0
 11
113.90928269839171
 21
147.0262315377677
 31
0.0
  0
LINE
  5
B7A5
  8
0
  6
CONTINUOUS
 10
112.9592203210684
 20
128.97872852852501
 30
0.0
 11
112.9592203210684
 21
146.0274791991765
 31
0.0
  0
ARC
  5
B7A6
  8
0
  6
CONTINUOUS
 10
113.9592203210684
 20
146.0274791991765
 30
0.0
 40
1.0
 50
92.862405554999654
 51
180.0
  0
ARC
  5
B7A7
  8
0
  6
CONTINUOUS
 10
130.45922032106839
 20
128.9787285285251
 30
0.0
 40
3.0
 50
180.0
 51
0.0
  0
LINE
  5
B7A8
  8
0
  6
CONTINUOUS
 10
144.95922032106839
 20
128.9787285285251
 30
0.0
 11
144.95922032106839
 21
128.9787285285251
 31
0.0
  0
LINE
  5
B7B0
  8
0
  6
CONTINUOUS
 10
136.5788355633392
 20
147.80372854291139
 30
0.0
 11
137.55922032106849
 21
147.80372854291139
 31
0.0
1001
ACAD
1000
ASC_BOUNDS
1002
{
1070
    19
1002
}
  0
LINE
  5
B7B1
  8
0
  6
CONTINUOUS
 10
135.45922032106839
 20
148.10372854291131
 30
0.0
 11
136.5788355633392
 21
147.80372854291139
 31
0.0
1001
ACAD
1000
ASC_BOUNDS
1002
{
1070
    19
1002
}
  0
ARC
  5
B7B4
  8
0
  6
CONTINUOUS
 10
137.55922032106849
 20
148.40372854291141
 30
0.0
 40
0.6
 50
270.0
 51
311.81031489575952
1001
ACAD
1000
ASC_BOUNDS
1002
{
1070
    19
1002
}
  0
LINE
  5
B7B5
  8
0
  6
CONTINUOUS
 10
136.5788355633392
 20
110.15372851413861
 30
0.0
 11
136.5788355633392
 21
128.9787285285251
 31
0.0
  0
LINE
  5
B7B6
  8
0
  6
CONTINUOUS
 10
135.45922032106839
 20
109.85372851413869
 30
0.0
 11
135.45922032106839
 21
128.9787285285251
 31
0.0
  0
ARC
  5
B7B7
  8
0
  6
CONTINUOUS
 10
137.55922032106849
 20
109.5537285141387
 30
0.0
 40
0.6
 50
48.189685104215663
 51
90.0
1001
ACAD
1000
ASC_BOUNDS
1002
{
1070
    19
1002
}
  0
LINE
  5
B7B8
  8
0
  6
CONTINUOUS
 10
135.45922032106839
 20
109.85372851413869
 30
0.0
 11
136.5788355633392
 21
110.15372851413861
 31
0.0
1001
ACAD
1000
ASC_BOUNDS
1002
{
1070
    19
1002
}
  0
LINE
  5
B7B9
  8
0
  6
CONTINUOUS
 10
136.5788355633392
 20
110.15372851413861
 30
0.0
 11
137.55922032106849
 21
110.15372851413861
 31
0.0
1001
ACAD
1000
ASC_BOUNDS
1002
{
1070
    19
1002
}
  0
ARC
  5
B7BA
  8
0
  6
CONTINUOUS
 10
113.9592203210684
 20
111.9299778578736
 30
0.0
 40
1.0
 50
180.0
 51
267.13759444500027
  0
LINE
  5
B7BB
  8
0
  6
CONTINUOUS
 10
112.9592203210684
 20
128.97872852852501
 30
0.0
 11
112.9592203210684
 21
111.9299778578736
 31
0.0
  0
LINE
  5
B7BC
  8
0
  6
CONTINUOUS
 10
135.45922032106839
 20
109.85372851413869
 30
0.0
 11
113.90928269839171
 21
110.93122551928241
 31
0.0
  0
LINE
  5
B7BD
  8
0
  6
PHANTOM2
 62
     4
 10
132.95922032106839
 20
128.9787285285251
 30
0.0
 11
132.95922032106839
 21
107.9762300885001
 31
0.0
  0
LINE
  5
B7BE
  8
0
  6
HIDDEN
 62
     3
 10
113.9592203210684
 20
141.9787285285251
 30
0.0
 11
122.9631949172842
 21
141.9787285285251
 31
0.0
  0
LINE
  5
B7BF
  8
0
  6
HIDDEN
 62
     3
 10
113.9592203210684
 20
128.97872852852501
 30
0.0
 11
113.9592203210684
 21
141.9787285285251
 31
0.0
  0
LINE
  5
B7C0
  8
0
  6
HIDDEN
 62
     3
 10
113.9592203210684
 20
141.9787285285251
 30
0.0
 11
112.9592203210684
 21
142.5560787977146
 31
0.0
  0
LINE
  5
B7C1
  8
0
  6
HIDDEN
 62
     3
 10
124.98392085944781
 20
144.9787285285251
 30
0.0
 11
132.94823239452151
 21
144.9787285285251
 31
0.0
  0
LINE
  5
B7C2
  8
0
  6
HIDDEN
 62
     3
 10
122.9631949172842
 20
141.9787285285251
 30
0.0
 11
124.5509081575555
 21
144.7287285285251
 31
0.0
  0
LINE
  5
B7C3
  8
0
  6
HIDDEN
 62
     3
 10
124.6952457248528
 20
144.88697681898901
 30
0.0
 11
124.6952457248528
 21
128.9787285285251
 31
0.0
  0
LINE
  5
B7C4
  8
0
  6
HIDDEN
 62
     3
 10
122.9631949172842
 20
141.9787285285251
 30
0.0
 11
122.9631949172842
 21
128.9787285285251
 31
0.0
  0
LINE
  5
B7C5
  8
0
  6
PHANTOM2
 62
     4
 10
123.8292203210685
 20
143.47872852852501
 30
0.0
 11
123.8292203210685
 21
128.9787285285251
 31
0.0
  0
LINE
  5
B7C6
  8
0
  6
HIDDEN
 62
     3
 10
137.95922032106839
 20
142.27872852852491
 30
0.0
 11
137.95922032106839
 21
128.9787285285251
 31
0.0
  0
LINE
  5
B7C7
  8
0
  6
HIDDEN
 62
     3
 10
137.95922032106839
 20
142.27872852852499
 30
0.0
 11
146.45922032106839
 21
142.27872852852499
 31
0.0
  0
LINE
  5
B7C8
  8
0
  6
HIDDEN
 62
     3
 10
147.95922032106839
 20
140.77872852852499
 30
0.0
 11
147.95922032106839
 21
128.9787285285251
 31
0.0
  0
ARC
  5
B7C9
  8
0
  6
HIDDEN
 62
     3
 10
132.94823239452151
 20
138.9787285285251
 30
0.0
 40
6.0
 50
33.367012969231013
 51
90.0
  0
ARC
  5
B7CA
  8
0
  6
HIDDEN
 62
     3
 10
124.98392085944781
 20
144.4787285285251
 30
0.0
 40
0.5
 50
90.0
 51
150.00000000000111
  0
ARC
  5
B7CB
  8
0
  6
HIDDEN
 62
     3
 10
146.45922032106839
 20
140.77872852852499
 30
0.0
 40
1.5
 50
0.0
 51
90.0
  0
LINE
  5
B7CC
  8
0
  6
HIDDEN
 62
     3
 10
154.95922032106839
 20
134.67872852852511
 30
0.0
 11
154.95922032106839
 21
128.9787285285251
 31
0.0
  0
ARC
  5
B7CE
  8
0
  6
CONTINUOUS
 10
130.45922032106839
 20
128.9787285285251
 30
0.0
 40
3.0
 50
0.0
 51
180.0
  0
LINE
  5
B7CF
  8
0
  6
CONTINUOUS
 62
     2
 10
130.45922032106839
 20
128.4787285285251
 30
0.0
 11
130.45922032106839
 21
129.4787285285251
 31
0.0
  0
LINE
  5
B7D0
  8
0
  6
CONTINUOUS
 62
     2
 10
130.45922032106839
 20
127.9787285285251
 30
0.0
 11
130.45922032106839
 21
125.4787285285251
 31
0.0
  0
LINE
  5
B7D1
  8
0
  6
CONTINUOUS
 62
     2
 10
130.45922032106839
 20
129.9787285285251
 30
0.0
 11
130.45922032106839
 21
132.4787285285251
 31
0.0
  0
LINE
  5
B7D2
  8
0
  6
PHANTOM2
 62
     6
 10
113.9592203210684
 20
140.9787285285251
 30
0.0
 11
123.54054518647391
 21
140.9787285285251
 31
0.0
  0
LINE
  5
B7D3
  8
0
  6
PHANTOM2
 62
     6
 10
123.54054518647391
 20
140.9787285285251
 30
0.0
 11
125.2725959940426
 21
143.97872852852501
 31
0.0
  0
LINE
  5
B7D4
  8
0
  6
PHANTOM2
 62
     6
 10
125.2725959940426
 20
143.97872852852501
 30
0.0
 11
132.94823239452151
 21
143.9787285285251
 31
0.0
  0
ARC
  5
B7D5
  8
0
  6
PHANTOM2
 62
     6
 10
132.94823239452151
 20
138.9787285285251
 30
0.0
 40
5.0
 50
27.387107502653549
 51
90.0
  0
LINE
  5
B7D6
  8
0
  6
PHANTOM2
 62
     6
 10
137.38782697060611
 20
141.27872852852499
 30
0.0
 11
146.45922032106839
 21
141.27872852852499
 31
0.0
  0
ARC
  5
B7D7
  8
0
  6
PHANTOM2
 62
     6
 10
146.45922032106839
 20
140.77872852852499
 30
0.0
 40
0.5
 50
0.0
 51
90.0
  0
LINE
  5
B7D8
  8
0
  6
PHANTOM2
 62
     6
 10
146.95922032106839
 20
140.77872852852499
 30
0.0
 11
146.95922032106839
 21
128.9787285285251
 31
0.0
  0
LINE
  5
B7D9
  8
0
  6
PHANTOM2
 62
     4
 10
132.95922032106839
 20
128.9787285285251
 30
0.0
 11
132.95922032106839
 21
149.98122696854989
 31
0.0
  0
ARC
  5
B7DB
  8
0
  6
HIDDEN
 62
     3
 10
154.6592203210684
 20
134.67872852852511
 30
0.0
 40
0.3
 50
0.0
 51
90.0
  0
ARC
  5
B7DC
  8
0
  6
CONTINUOUS
 10
164.9592203210685
 20
154.97872852852259
 30
0.0
 40
1.0
 50
180.0
 51
270.0
  0
DIMENSION
  5
B7DD
  8
0
  6
CONTINUOUS
  2
*D10
 10
222.9592203210677
 20
82.411957344624653
 30
0.0
 11
201.4592203210662
 21
84.511957344624633
 31
0.0
 70
     0
 13
179.95922032106481
 23
107.7034733999167
 33
0.0
 14
222.9592203210677
 24
111.237377975291
 34
0.0
1001
ACAD
1000
DSTYLE
1002
{
1070
   287
1070
     2
1070
    42
1040
0.6
1070
    43
1040
1.0
1070
    44
1040
1.0
1070
    47
1040
0.1
1070
    48
1040
0.1
1070
    73
1070
     0
1070
   140
1040
3.0
1070
   141
1040
-1.0
1070
   146
1040
0.7
1070
   147
1040
0.6
1070
   178
1070
     3
1070
   179
1070
     8
1070
   271
1070
     8
1070
   272
1070
     8
1070
   275
1070
     1
1070
   283
1070
     0
1070
   284
1070
     8
1070
   289
1070
     2
1002
}
  0
DIMENSION
  5
B7DE
  8
0
  6
CONTINUOUS
  2
*D11
 10
222.9592203210677
 20
66.411957344624653
 30
0.0
 11
167.95922032106799
 21
68.511957344624633
 31
0.0
 70
     0
 13
112.9592203210684
 23
111.92997785787369
 33
0.0
 14
222.9592203210677
 24
111.237377975291
 34
0.0
1001
ACAD
1000
DSTYLE
1002
{
1070
   287
1070
     2
1070
    42
1040
0.6
1070
    43
1040
1.0
1070
    44
1040
1.0
1070
    47
1040
0.1
1070
    48
1040
0.1
1070
    73
1070
     0
1070
   140
1040
3.0
1070
   141
1040
-0.5
1070
   146
1040
0.7
1070
   147
1040
0.6
1070
   178
1070
     3
1070
   271
1070
     8
1070
   272
1070
     8
1070
   275
1070
     1
1070
   283
1070
     0
1070
   284
1070
     8
1070
   289
1070
     2
1002
}
  0
DIMENSION
  5
B7DF
  8
0
  6
CONTINUOUS
  2
*D12
 10
222.9592203210677
 20
74.411957344624653
 30
0.0
 11
180.45922032106799
 21
76.511957344624648
 31
0.0
 70
     0
 13
137.95922032106839
 23
97.978728528525096
 33
0.0
 14
222.9592203210677
 24
111.237377975291
 34
0.0
1001
ACAD
1000
DSTYLE
1002
{
1070
   287
1070
     2
1070
    42
1040
0.6
1070
    43
1040
1.0
1070
    44
1040
1.0
1070
    47
1040
0.1
1070
    48
1040
0.1
1070
    73
1070
     0
1070
   140
1040
3.0
1070
   141
1040
-0.5
1070
   146
1040
0.7
1070
   147
1040
0.6
1070
   178
1070
     3
1070
   271
1070
     8
1070
   272
1070
     8
1070
   275
1070
     1
1070
   283
1070
     0
1070
   284
1070
     8
1070
   289
1070
     2
1002
}
  0
LINE
  5
B7E0
  8
0
  6
CONTINUOUS
 10
177.6498192443062
 20
104.3457353666696
 30
0.0
 11
177.6498192443062
 21
128.9787285285251
 31
0.0
  0
LINE
  5
B7E2
  8
0
  6
CONTINUOUS
 10
179.95922032106469
 20
107.7034733999169
 30
0.0
 11
179.95922032106469
 21
128.97872852852541
 31
0.0
  0
ARC
  5
B7E4
  8
0
  6
CONTINUOUS
 10
181.11392085944399
 20
105.97872852852529
 30
0.0
 40
2.0
 50
90.0
 51
150.0000000000089
1001
ACAD
1000
ASC_BOUNDS
1002
{
1070
    19
1002
}
  0
LINE
  5
B7E6
  8
0
 10
164.95922032106591
 20
103.978728528525
 30
0.0
 11
176.49511870592701
 21
103.9787285285251
 31
0.0
1001
ACAD
1000
ASC_BOUNDS
1002
{
1070
    19
1002
}
  0
ARC
  5
B7E7
  8
0
  6
CONTINUOUS
 10
176.49511870592701
 20
105.9787285285251
 30
0.0
 40
2.0
 50
270.0
 51
330.00000000000898
1001
ACAD
1000
ASC_BOUNDS
1002
{
1070
    19
1002
}
  0
LINE
  5
B7E8
  8
0
  6
CONTINUOUS
 10
179.38187005187501
 20
106.97872852852529
 30
0.0
 11
178.22716951349591
 21
104.97872852852529
 31
0.0
  0
LINE
  5
B7F1
  8
0
 10
164.9592203210652
 20
153.9787285285251
 30
0.0
 11
176.49511870592701
 21
153.97872852852501
 31
0.0
1001
ACAD
1000
ASC_BOUNDS
1002
{
1070
    19
1002
}
  0
ARC
  5
B7F3
  8
0
  6
CONTINUOUS
 10
176.49511870592701
 20
151.97872852852501
 30
0.0
 40
2.0
 50
30.000000000003048
 51
90.0
1001
ACAD
1000
ASC_BOUNDS
1002
{
1070
    19
1002
}
  0
LINE
  5
B7F8
  8
0
  6
CONTINUOUS
 10
179.3818700518751
 20
150.97872852852521
 30
0.0
 11
178.2271695134958
 21
152.9787285285251
 31
0.0
  0
ARC
  5
B7FA
  8
0
  6
CONTINUOUS
 10
181.11392085944399
 20
151.97872852852541
 30
0.0
 40
2.0
 50
210.00000000000301
 51
270.0
  0
ARC
  5
B7FF
  8
0
  6
CONTINUOUS
 10
169.95922032106691
 20
114.478728528525
 30
0.0
 40
5.25
 50
0.0
 51
180.0
  0
ARC
  5
B800
  8
0
  6
CONTINUOUS
 62
     2
 10
169.95922032106691
 20
114.478728528525
 30
0.0
 40
5.0
 50
248.7297010972386
 51
160.4265504068066
  0
CIRCLE
  5
B801
  8
0
  6
CONTINUOUS
 10
169.95922032106691
 20
114.478728528525
 30
0.0
 40
4.2999999999999989
  0
CIRCLE
  5
B802
  8
0
  6
CONTINUOUS
 10
169.95922032106691
 20
114.478728528525
 30
0.0
 40
3.0499999999999989
  0
LINE
  5
B803
  8
0
  6
CONTINUOUS
 10
175.20922032106679
 20
109.2926097937834
 30
0.0
 11
164.70922032106691
 21
109.2926097937834
 31
0.0
  0
LINE
  5
B804
  8
0
  6
CONTINUOUS
 10
164.70922032106691
 20
114.478728528525
 30
0.0
 11
164.70922032106691
 21
109.2926097937834
 31
0.0
  0
LINE
  5
B805
  8
0
  6
CONTINUOUS
 10
175.20922032106691
 20
114.478728528525
 30
0.0
 11
175.20922032106679
 21
109.2926097937834
 31
0.0
  0
LINE
  5
B806
  8
0
  6
CONTINUOUS
 62
     2
 10
169.45922032106691
 20
114.478728528525
 30
0.0
 11
170.45922032106691
 21
114.478728528525
 31
0.0
  0
LINE
  5
B807
  8
0
  6
CONTINUOUS
 62
     2
 10
169.95922032106691
 20
113.978728528525
 30
0.0
 11
169.95922032106691
 21
114.978728528525
 31
0.0
  0
LINE
  5
B808
  8
0
  6
CONTINUOUS
 62
     2
 10
168.95922032106691
 20
114.478728528525
 30
0.0
 11
164.20922032106691
 21
114.478728528525
 31
0.0
  0
LINE
  5
B809
  8
0
  6
CONTINUOUS
 62
     2
 10
170.95922032106691
 20
114.478728528525
 30
0.0
 11
175.70922032106691
 21
114.478728528525
 31
0.0
  0
LINE
  5
B80A
  8
0
  6
CONTINUOUS
 62
     2
 10
169.95922032106691
 20
114.478728528525
 30
0.0
 11
169.95922032106691
 21
109.728728528525
 31
0.0
  0
LINE
  5
B80B
  8
0
  6
CONTINUOUS
 62
     2
 10
169.95922032106691
 20
115.478728528525
 30
0.0
 11
169.95922032106691
 21
120.228728528525
 31
0.0
  0
DIMENSION
  5
B81A
  8
0
  6
CONTINUOUS
  2
*D13
 10
247.2090274010861
 20
149.97872852852529
 30
0.0
 11
245.10873212549549
 21
128.97872852852529
 31
0.0
 70
     0
 13
210.4824003179107
 23
107.97872852852529
 33
0.0
 14
210.48240031790721
 24
149.97872852852529
 34
0.0
 50
90.0
1001
ACAD
1000
DSTYLE
1002
{
1070
   287
1070
     2
1070
     3
1000
%%c<>
1070
    42
1040
0.6
1070
    43
1040
1.0
1070
    44
1040
1.0
1070
    47
1040
0.1
1070
    48
1040
0.1
1070
    73
1070
     0
1070
   140
1040
3.0
1070
   141
1040
-1.0
1070
   146
1040
0.7
1070
   147
1040
0.6
1070
   178
1070
     3
1070
   179
1070
     8
1070
   271
1070
     8
1070
   272
1070
     8
1070
   275
1070
     1
1070
   283
1070
     0
1070
   284
1070
     8
1070
   289
1070
     2
1002
}
  0
LINE
  5
B836
  8
CT
  6
BYBLOCK
 62
     0
 10
196.32413502495859
 20
149.97872852852521
 30
0.0
 11
181.11392085944399
 21
149.97872852852521
 31
0.0
1001
ACAD
1000
ASC_BOUNDS
1002
{
1070
    19
1002
}
  0
LINE
  5
B837
  8
0
  6
CONTINUOUS
 10
196.95922032106719
 20
149.47872852852561
 30
0.0
 11
198.95922032106719
 21
149.47872852852561
 31
0.0
  0
LINE
  5
B838
  8
0
  6
CONTINUOUS
 10
203.95922032106731
 20
149.47872852852561
 30
0.0
 11
205.95922032106731
 21
149.47872852852561
 31
0.0
  0
ARC
  5
B839
  8
0
  6
CONTINUOUS
 62
     7
 10
203.95922032106731
 20
149.67872852852571
 30
0.0
 40
0.2
 50
209.99999999998889
 51
270.0
  0
LINE
  5
B83A
  8
0
  6
CONTINUOUS
 62
     7
 10
203.78601524031049
 20
149.5787285285256
 30
0.0
 11
203.6705451864722
 21
149.77872852852559
 31
0.0
  0
ARC
  5
B83B
  8
0
  6
CONTINUOUS
 62
     7
 10
203.32413502495859
 20
149.57872852852569
 30
0.0
 40
0.4
 50
29.99999999998893
 51
90.0
  0
LINE
  5
B83C
  8
0
  6
CONTINUOUS
 62
     7
 10
199.59430561717591
 20
149.97872852852561
 30
0.0
 11
203.32413502495859
 21
149.97872852852561
 31
0.0
  0
ARC
  5
B83D
  8
0
  6
CONTINUOUS
 62
     7
 10
199.59430561717591
 20
149.57872852852569
 30
0.0
 40
0.4
 50
90.0
 51
149.99999999998479
  0
LINE
  5
B83E
  8
0
  6
CONTINUOUS
 62
     7
 10
199.13242540182401
 20
149.5787285285256
 30
0.0
 11
199.24789545566219
 21
149.7787285285257
 31
0.0
  0
ARC
  5
B83F
  8
0
  6
CONTINUOUS
 62
     7
 10
198.95922032106719
 20
149.67872852852571
 30
0.0
 40
0.2
 50
270.0
 51
329.99999999998482
  0
ARC
  5
B840
  8
0
  6
CONTINUOUS
 10
206.59430561717591
 20
149.5787285285254
 30
0.0
 40
0.4
 50
90.000000000065128
 51
149.99999999998479
  0
LINE
  5
B841
  8
0
  6
CONTINUOUS
 62
     7
 10
206.13242540182409
 20
149.5787285285256
 30
0.0
 11
206.2478954556623
 21
149.77872852852559
 31
0.0
  0
ARC
  5
B842
  8
0
  6
CONTINUOUS
 62
     7
 10
205.95922032106731
 20
149.67872852852571
 30
0.0
 40
0.2
 50
270.0
 51
329.99999999998482
  0
LINE
  5
B843
  8
CT
  6
BYBLOCK
 62
     0
 10
210.48240031790721
 20
149.97872852852529
 30
0.0
 11
206.59430561717591
 21
149.97872852852549
 31
0.0
1001
ACAD
1000
ASC_BOUNDS
1002
{
1070
    19
1002
}
  0
LINE
  5
B845
  8
0
  6
CONTINUOUS
 10
222.95922032106751
 20
146.9396288973478
 30
0.0
 11
222.95922032106839
 21
128.97872852852501
 31
0.0
  0
ARC
  5
B846
  8
0
  6
CONTINUOUS
 10
221.95922032106751
 20
146.93962889734769
 30
0.0
 40
1.0
 50
0.0000000000032569
 51
80.000000000001464
  0
LINE
  5
B84C
  8
0
  6
CONTINUOUS
 10
222.13286849873441
 20
147.92443665036001
 30
0.0
 11
210.4824003179107
 21
149.97872852852461
 31
0.0
  0
LINE
  5
B84D
  8
0
  6
HIDDEN
 62
     3
 10
184.57165588636551
 20
140.97872852852501
 30
0.0
 11
217.45922032106819
 21
140.97872852852501
 31
0.0
1001
ACAD
1000
ASC_BOUNDS
1002
{
1070
    19
1005
0
1005
0
1002
}
  0
LINE
  5
B850
  8
0
  6
HIDDEN
 62
     3
 10
177.02620761917521
 20
139.97872852852501
 30
0.0
 11
177.02620761917521
 21
128.97872852852501
 31
0.0
  0
LINE
  5
B852
  8
0
  6
HIDDEN
 62
     3
 10
174.45922032106751
 20
128.97872852852501
 30
0.0
 11
174.45922032106751
 21
139.47872852852501
 31
0.0
1001
ACAD
1000
ASC_BOUNDS
1002
{
1070
    19
1002
}
  0
LINE
  5
B853
  8
0
  6
HIDDEN
 62
     3
 10
172.45922032106751
 20
138.67872852852491
 30
0.0
 11
174.45922032106751
 21
138.67872852852491
 31
0.0
  0
LINE
  5
B855
  8
0
  6
HIDDEN
 62
     3
 10
177.45922032106819
 20
139.86270312474031
 30
0.0
 11
177.02620761917521
 21
139.97872852852501
 31
0.0
1001
ACAD
1000
ASC_BOUNDS
1002
{
1070
    19
1002
}
  0
ARC
  5
B856
  8
0
  6
HIDDEN
 62
     3
 10
174.95922032106739
 20
139.47872852852501
 30
0.0
 40
0.5
 50
90.0
 51
180.0
1001
ACAD
1000
ASC_BOUNDS
1002
{
1070
    19
1002
}
  0
LINE
  5
B857
  8
0
  6
HIDDEN
 62
     3
 10
174.95922032106739
 20
139.97872852852501
 30
0.0
 11
177.02620761917521
 21
139.97872852852501
 31
0.0
1001
ACAD
1000
ASC_BOUNDS
1002
{
1070
    19
1002
}
  0
LINE
  5
B85B
  8
0
  6
HIDDEN
 62
     3
 10
184.57165588636551
 20
140.97872852852501
 30
0.0
 11
184.57165588636551
 21
140.60372852852501
 31
0.0
  0
LINE
  5
B861
  8
0
  6
CONTINUOUS
 10
206.39430561717629
 20
108.03231836701021
 30
0.0
 11
206.39430561717629
 21
128.97872852852461
 31
0.0
  0
LINE
  5
B862
  8
0
  6
CONTINUOUS
 10
206.0592203210675
 20
108.4519336092808
 30
0.0
 11
206.0592203210675
 21
128.97872852852461
 31
0.0
  0
LINE
  5
B863
  8
0
  6
CONTINUOUS
 10
203.8592203210674
 20
108.4519336092808
 30
0.0
 11
203.8592203210674
 21
128.97872852852461
 31
0.0
  0
LINE
  5
B864
  8
0
  6
CONTINUOUS
 10
203.5241350249587
 20
108.03231836701021
 30
0.0
 11
203.5241350249587
 21
128.97872852852461
 31
0.0
  0
LINE
  5
B865
  8
0
  6
CONTINUOUS
 10
199.3943056171758
 20
108.032318367011
 30
0.0
 11
199.3943056171758
 21
128.97872852852461
 31
0.0
  0
LINE
  5
B866
  8
0
  6
CONTINUOUS
 10
199.0592203210675
 20
108.4519336092808
 30
0.0
 11
199.0592203210675
 21
128.97872852852461
 31
0.0
  0
LINE
  5
B867
  8
0
  6
CONTINUOUS
 10
196.8901604287426
 20
108.466427040165
 30
0.0
 11
196.8901604287426
 21
128.97872852852461
 31
0.0
  0
LINE
  5
B868
  8
0
  6
CONTINUOUS
 10
196.5550751326343
 20
108.0521298961531
 30
0.0
 11
196.5550751326343
 21
128.97872852852461
 31
0.0
  0
LINE
  5
B874
  8
CT
  6
BYBLOCK
 62
     0
 10
196.32413502495859
 20
107.9787285285248
 30
0.0
 11
181.11392085944399
 21
107.9787285285247
 31
0.0
1001
ACAD
1000
ASC_BOUNDS
1002
{
1070
    19
1002
}
  0
LINE
  5
B875
  8
0
  6
CONTINUOUS
 10
196.95922032106719
 20
108.4787285285243
 30
0.0
 11
198.95922032106719
 21
108.4787285285243
 31
0.0
  0
LINE
  5
B876
  8
0
  6
CONTINUOUS
 10
203.95922032106731
 20
108.4787285285243
 30
0.0
 11
205.95922032106731
 21
108.4787285285243
 31
0.0
  0
ARC
  5
B877
  8
0
  6
CONTINUOUS
 62
     7
 10
203.95922032106731
 20
108.2787285285243
 30
0.0
 40
0.2
 50
90.0
 51
150.00000000001111
  0
LINE
  5
B878
  8
0
  6
CONTINUOUS
 62
     7
 10
203.78601524031049
 20
108.37872852852441
 30
0.0
 11
203.6705451864722
 21
108.1787285285244
 31
0.0
  0
ARC
  5
B879
  8
0
  6
CONTINUOUS
 62
     7
 10
203.32413502495859
 20
108.37872852852431
 30
0.0
 40
0.4
 50
270.0
 51
330.00000000001108
  0
LINE
  5
B87A
  8
0
  6
CONTINUOUS
 62
     7
 10
199.59430561717591
 20
107.9787285285243
 30
0.0
 11
203.32413502495859
 21
107.9787285285243
 31
0.0
  0
ARC
  5
B87B
  8
0
  6
CONTINUOUS
 62
     7
 10
199.59430561717591
 20
108.37872852852431
 30
0.0
 40
0.4
 50
210.00000000001509
 51
270.0
  0
LINE
  5
B87C
  8
0
  6
CONTINUOUS
 62
     7
 10
199.13242540182401
 20
108.37872852852441
 30
0.0
 11
199.24789545566219
 21
108.1787285285243
 31
0.0
  0
ARC
  5
B87D
  8
0
  6
CONTINUOUS
 62
     7
 10
198.95922032106719
 20
108.2787285285243
 30
0.0
 40
0.2
 50
30.00000000001512
 51
90.0
  0
ARC
  5
B87E
  8
0
  6
CONTINUOUS
 10
206.59430561717591
 20
108.3787285285245
 30
0.0
 40
0.4
 50
210.00000000001509
 51
269.99999999993491
  0
LINE
  5
B87F
  8
0
  6
CONTINUOUS
 62
     7
 10
206.13242540182409
 20
108.37872852852441
 30
0.0
 11
206.2478954556623
 21
108.1787285285244
 31
0.0
  0
ARC
  5
B880
  8
0
  6
CONTINUOUS
 62
     7
 10
205.95922032106731
 20
108.2787285285243
 30
0.0
 40
0.2
 50
30.00000000001512
 51
90.0
  0
LINE
  5
B881
  8
CT
  6
BYBLOCK
 62
     0
 10
210.48240031790689
 20
107.9787285285247
 30
0.0
 11
206.59430561717591
 21
107.9787285285245
 31
0.0
1001
ACAD
1000
ASC_BOUNDS
1002
{
1070
    19
1002
}
  0
LINE
  5
B882
  8
0
  6
CONTINUOUS
 10
222.95922032106751
 20
111.0178281597022
 30
0.0
 11
222.95922032106839
 21
128.97872852852501
 31
0.0
  0
ARC
  5
B883
  8
0
  6
CONTINUOUS
 10
221.95922032106751
 20
111.0178281597022
 30
0.0
 40
1.0
 50
279.99999999999858
 51
359.99999999999682
  0
LINE
  5
B884
  8
0
  6
CONTINUOUS
 10
222.13286849873441
 20
110.03302040669
 30
0.0
 11
210.48240031790689
 21
107.9787285285247
 31
0.0
  0
LINE
  5
B885
  8
0
  6
CONTINUOUS
 10
210.48240031790689
 20
107.9787285285247
 30
0.0
 11
210.48240031790689
 21
128.97872852852501
 31
0.0
  0
ARC
  5
B888
  8
0
  6
CONTINUOUS
 62
     7
 10
196.95922032106719
 20
149.67872852852571
 30
0.0
 40
0.2
 50
209.99999999998889
 51
270.0
  0
LINE
  5
B889
  8
0
  6
CONTINUOUS
 62
     7
 10
196.78601524031041
 20
149.5787285285256
 30
0.0
 11
196.6705451864722
 21
149.77872852852559
 31
0.0
  0
ARC
  5
B88A
  8
0
  6
CONTINUOUS
 62
     7
 10
196.32413502495859
 20
149.57872852852569
 30
0.0
 40
0.4
 50
29.99999999998893
 51
90.0
  0
ARC
  5
B88B
  8
0
  6
CONTINUOUS
 62
     7
 10
196.95922032106719
 20
108.2787285285243
 30
0.0
 40
0.2
 50
90.0
 51
150.00000000001111
  0
LINE
  5
B88C
  8
0
  6
CONTINUOUS
 62
     7
 10
196.78601524031041
 20
108.37872852852441
 30
0.0
 11
196.6705451864722
 21
108.1787285285244
 31
0.0
  0
ARC
  5
B88D
  8
0
  6
CONTINUOUS
 62
     7
 10
196.32413502495859
 20
108.37872852852431
 30
0.0
 40
0.4
 50
270.0
 51
330.00000000001108
  0
ARC
  5
B88E
  8
0
  6
CONTINUOUS
 10
164.9592203210685
 20
102.9787285285274
 30
0.0
 40
1.0
 50
90.0
 51
180.0
  0
LINE
  5
BA66
  8
0
  6
HIDDEN
 62
     3
 10
181.08912413163611
 20
138.50372852852499
 30
0.0
 11
221.4592203210683
 21
138.50372852852499
 31
0.0
1001
ACAD
1000
ASC_BOUNDS
1002
{
1070
    19
1005
0
1005
0
1005
0
1002
}
  0
LINE
  5
BA68
  8
0
  6
HIDDEN
 62
     3
 10
181.08912413163611
 20
138.50372852852499
 30
0.0
 11
181.08912413163611
 21
128.97872852852501
 31
0.0
  0
LINE
  5
BA69
  8
0
  6
HIDDEN
 62
     3
 10
180.9592203210683
 20
138.72872852852501
 30
0.0
 11
180.9592203210683
 21
128.97872852852501
 31
0.0
  0
LINE
  5
BA6A
  8
0
  6
HIDDEN
 62
     3
 10
177.45922032106819
 20
139.86270312474031
 30
0.0
 11
177.45922032106819
 21
128.97872852852501
 31
0.0
  0
LINE
  5
BA6B
  8
0
  6
HIDDEN
 62
     3
 10
177.75922032106811
 20
138.72872852852501
 30
0.0
 11
177.7592203210682
 21
128.97872852852501
 31
0.0
  0
LINE
  5
BA6D
  8
0
  6
HIDDEN
 62
     3
 10
177.7592203210682
 20
138.72872852852501
 30
0.0
 11
180.95922032106839
 21
138.72872852852501
 31
0.0
  0
POINT
  5
BA6F
  8
DEFPOINTS
  6
HIDDEN
 62
     3
 10
177.45922032106819
 20
139.52872852852499
 30
0.0
  0
LINE
  5
BA71
  8
0
  6
HIDDEN
 62
     3
 10
207.38422032106831
 20
140.47872852852501
 30
0.0
 11
208.25922032106831
 21
139.60372852852501
 31
0.0
  0
LINE
  5
BA74
  8
0
  6
HIDDEN
 62
     3
 10
217.45922032106819
 20
140.97872852852501
 30
0.0
 11
217.45922032106819
 21
140.60372852852501
 31
0.0
  0
LINE
  5
BA75
  8
0
  6
CONTINUOUS
 62
     7
 10
222.95922032106819
 20
145.97872852852501
 30
0.0
 11
222.95922032106839
 21
128.97872852852501
 31
0.0
1001
ACAD
1000
ASC_BOUNDS
1002
{
1070
    19
1005
0
1005
0
1005
0
1002
}
  0
ARC
  5
BA83
  8
0
  6
HIDDEN
 62
     3
 10
221.4592203210683
 20
140.00372852852499
 30
0.0
 40
1.5
 50
270.0
 51
0.0
1001
ACAD
1000
ASC_BOUNDS
1002
{
1070
    19
1005
0
1005
0
1005
0
1002
}
  0
DIMENSION
  5
BAB5
  8
0
  6
CONTINUOUS
  2
*D14
 10
239.2090274010861
 20
138.50372852852499
 30
0.0
 11
239.2090274010861
 21
128.97872852852501
 31
0.0
 70
   128
 13
221.4592203210683
 23
119.45372852852501
 33
0.0
 14
221.4592203210683
 24
138.50372852852499
 34
0.0
 50
90.0
1001
ACAD
1000
DSTYLE
1002
{
1070
   287
1070
     2
1070
    72
1070
     0
1070
    71
1070
     0
1070
     3
1000
%%C<>
1070
    42
1040
0.6
1070
    43
1040
1.0
1070
    44
1040
1.0
1070
    47
1040
0.009
1070
    48
1040
-0.002
1070
    73
1070
     0
1070
   140
1040
3.0
1070
   141
1040
-0.2
1070
   144
1040
1.0
1070
   146
1040
0.7
1070
   147
1040
0.6
1070
   178
1070
     3
1070
   271
1070
     5
1070
   272
1070
     5
1070
   275
1070
     1
1070
   283
1070
     0
1070
   284
1070
     8
1070
   289
1070
     2
1002
}
  0
LINE
  5
BACD
  8
0
  6
HIDDEN
 62
     3
 10
193.60922032106819
 20
140.47872852852501
 30
0.0
 11
207.38422032106831
 21
140.47872852852501
 31
0.0
  0
LINE
  5
BACE
  8
0
  6
HIDDEN
 62
     3
 10
180.95922032106839
 20
138.72872852852501
 30
0.0
 11
181.08912413163611
 21
138.50372852852499
 31
0.0
  0
LINE
  5
BACF
  8
0
  6
HIDDEN
 62
     3
 10
177.7592203210682
 20
138.72872852852501
 30
0.0
 11
177.45922032106819
 21
138.90193360928191
 31
0.0
  0
LINE
  5
BAD1
  8
0
  6
HIDDEN
 62
     3
 10
208.25922032106831
 20
139.60372852852501
 30
0.0
 11
216.45922032106839
 21
139.60372852852501
 31
0.0
  0
LINE
  5
BAF4
  8
0
  6
HIDDEN
 62
     3
 10
185.57165588636551
 20
139.60372852852501
 30
0.0
 11
192.73422032106851
 21
139.60372852852501
 31
0.0
1001
ACAD
1000
ASC_BOUNDS
1002
{
1070
    19
1005
0
1005
0
1005
0
1002
}
  0
LINE
  5
BAF6
  8
0
  6
HIDDEN
 62
     3
 10
193.60922032106819
 20
140.47872852852501
 30
0.0
 11
192.73422032106851
 21
139.60372852852501
 31
0.0
  0
ARC
  5
BD22
  8
0
  6
HIDDEN
 62
     3
 10
216.45922032106839
 20
140.60372852852501
 30
0.0
 40
1.0
 50
270.0
 51
0.0
  0
ARC
  5
BD23
  8
0
  6
HIDDEN
 62
     3
 10
185.57165588636551
 20
140.60372852852501
 30
0.0
 40
1.0
 50
180.0
 51
270.0
  0
LINE
  5
BD32
  8
0
  6
HIDDEN
 62
     3
 10
172.45922032106751
 20
126.47872852852571
 30
0.0
 11
154.95922032106839
 21
126.47872852852571
 31
0.0
1001
ACAD
1000
ASC_BOUNDS
1002
{
1070
    19
1002
}
  0
LINE
  5
BD33
  8
0
  6
HIDDEN
 62
     3
 10
154.6592203210684
 20
122.97872852852571
 30
0.0
 11
147.95922032106839
 21
122.97872852852571
 31
0.0
1001
ACAD
1000
ASC_BOUNDS
1002
{
1070
    19
1002
}
  0
LINE
  5
BD34
  8
0
  6
CONTINUOUS
 10
138.45922032106839
 20
160.47872852852561
 30
0.0
 11
138.45922032106839
 21
128.97872852852569
 31
0.0
  0
LINE
  5
BD35
  8
0
  6
CONTINUOUS
 10
152.58172124630909
 20
160.47872852852561
 30
0.0
 11
152.5817212463086
 21
128.97872852852569
 31
0.0
  0
LINE
  5
BD36
  8
0
  6
CONTINUOUS
 10
159.33671939582771
 20
160.47872852852561
 30
0.0
 11
159.33671939582771
 21
128.97872852852569
 31
0.0
  0
LINE
  5
BD37
  8
0
  6
CONTINUOUS
 10
152.58172124630909
 20
148.97872852852569
 30
0.0
 11
152.58172124630909
 21
128.97872852852569
 31
0.0
  0
LINE
  5
BD38
  8
0
  6
CONTINUOUS
 10
159.33671939582771
 20
148.97872852852569
 30
0.0
 11
159.33671939582771
 21
128.97872852852569
 31
0.0
  0
LINE
  5
BD39
  8
0
  6
CONTINUOUS
 10
136.5788355633392
 20
147.8037285429121
 30
0.0
 11
136.5788355633392
 21
128.97872852852561
 31
0.0
  0
LINE
  5
BD3A
  8
0
  6
CONTINUOUS
 10
135.45922032106839
 20
148.10372854291199
 30
0.0
 11
135.45922032106839
 21
128.97872852852561
 31
0.0
  0
LINE
  5
BD3B
  8
0
  6
HIDDEN
 62
     3
 10
113.9592203210684
 20
115.97872852852559
 30
0.0
 11
122.9631949172842
 21
115.97872852852559
 31
0.0
  0
LINE
  5
BD3C
  8
0
  6
HIDDEN
 62
     3
 10
113.9592203210684
 20
128.97872852852569
 30
0.0
 11
113.9592203210684
 21
115.97872852852559
 31
0.0
  0
LINE
  5
BD3D
  8
0
  6
HIDDEN
 62
     3
 10
113.9592203210684
 20
115.97872852852559
 30
0.0
 11
112.9592203210684
 21
115.4013782593361
 31
0.0
  0
LINE
  5
BD3E
  8
0
  6
HIDDEN
 62
     3
 10
124.98392085944781
 20
112.97872852852559
 30
0.0
 11
132.94823239452151
 21
112.97872852852559
 31
0.0
  0
LINE
  5
BD3F
  8
0
  6
HIDDEN
 62
     3
 10
122.9631949172842
 20
115.97872852852559
 30
0.0
 11
124.5509081575555
 21
113.22872852852559
 31
0.0
  0
LINE
  5
BD40
  8
0
  6
HIDDEN
 62
     3
 10
124.6952457248528
 20
113.07048023806171
 30
0.0
 11
124.6952457248528
 21
128.97872852852561
 31
0.0
  0
LINE
  5
BD41
  8
0
  6
HIDDEN
 62
     3
 10
122.9631949172842
 20
115.97872852852559
 30
0.0
 11
122.9631949172842
 21
128.97872852852561
 31
0.0
  0
LINE
  5
BD42
  8
0
  6
HIDDEN
 62
     3
 10
137.95922032106839
 20
115.6787285285258
 30
0.0
 11
137.95922032106839
 21
128.97872852852561
 31
0.0
  0
LINE
  5
BD43
  8
0
  6
HIDDEN
 62
     3
 10
137.95922032106839
 20
115.6787285285257
 30
0.0
 11
146.45922032106839
 21
115.6787285285257
 31
0.0
  0
LINE
  5
BD44
  8
0
  6
HIDDEN
 62
     3
 10
147.95922032106839
 20
117.1787285285257
 30
0.0
 11
147.95922032106839
 21
128.97872852852561
 31
0.0
  0
ARC
  5
BD45
  8
0
  6
HIDDEN
 62
     3
 10
132.94823239452151
 20
118.97872852852559
 30
0.0
 40
6.0
 50
270.0
 51
326.63298703076902
  0
ARC
  5
BD46
  8
0
  6
HIDDEN
 62
     3
 10
124.98392085944781
 20
113.47872852852559
 30
0.0
 40
0.5
 50
209.99999999999881
 51
270.0
  0
ARC
  5
BD47
  8
0
  6
HIDDEN
 62
     3
 10
146.45922032106839
 20
117.1787285285257
 30
0.0
 40
1.5
 50
270.0
 51
0.0
  0
LINE
  5
BD48
  8
0
  6
HIDDEN
 62
     3
 10
154.95922032106839
 20
123.2787285285257
 30
0.0
 11
154.95922032106839
 21
128.97872852852561
 31
0.0
  0
ARC
  5
BD4A
  8
0
  6
HIDDEN
 62
     3
 10
154.6592203210684
 20
123.2787285285257
 30
0.0
 40
0.3
 50
270.0
 51
0.0
  0
LINE
  5
BD4B
  8
0
  6
CONTINUOUS
 10
177.6498192443062
 20
153.6117216903811
 30
0.0
 11
177.6498192443062
 21
128.97872852852561
 31
0.0
  0
LINE
  5
BD4C
  8
0
  6
CONTINUOUS
 10
179.95922032106469
 20
150.2539836571338
 30
0.0
 11
179.95922032106469
 21
128.97872852852541
 31
0.0
  0
LINE
  5
BD63
  8
0
  6
HIDDEN
 62
     3
 10
184.57165588636551
 20
116.97872852852539
 30
0.0
 11
217.45922032106819
 21
116.97872852852539
 31
0.0
1001
ACAD
1000
ASC_BOUNDS
1002
{
1070
    19
1005
0
1005
0
1002
}
  0
LINE
  5
BD64
  8
0
  6
HIDDEN
 62
     3
 10
177.02620761917521
 20
117.97872852852539
 30
0.0
 11
177.02620761917521
 21
128.97872852852541
 31
0.0
  0
LINE
  5
BD65
  8
0
  6
HIDDEN
 62
     3
 10
174.45922032106751
 20
128.97872852852541
 30
0.0
 11
174.45922032106751
 21
118.47872852852549
 31
0.0
1001
ACAD
1000
ASC_BOUNDS
1002
{
1070
    19
1002
}
  0
LINE
  5
BD67
  8
0
  6
HIDDEN
 62
     3
 10
177.45922032106819
 20
118.0947539323101
 30
0.0
 11
177.02620761917521
 21
117.97872852852539
 31
0.0
1001
ACAD
1000
ASC_BOUNDS
1002
{
1070
    19
1002
}
  0
ARC
  5
BD68
  8
0
  6
HIDDEN
 62
     3
 10
174.95922032106739
 20
118.47872852852549
 30
0.0
 40
0.5
 50
180.0
 51
270.0
1001
ACAD
1000
ASC_BOUNDS
1002
{
1070
    19
1002
}
  0
LINE
  5
BD69
  8
0
  6
HIDDEN
 62
     3
 10
174.95922032106739
 20
117.97872852852539
 30
0.0
 11
177.02620761917521
 21
117.97872852852539
 31
0.0
1001
ACAD
1000
ASC_BOUNDS
1002
{
1070
    19
1002
}
  0
LINE
  5
BD6A
  8
0
  6
HIDDEN
 62
     3
 10
184.57165588636551
 20
116.97872852852539
 30
0.0
 11
184.57165588636551
 21
117.35372852852539
 31
0.0
  0
ARC
  5
BD6B
  8
0
  6
HIDDEN
 62
     3
 10
185.57165588636551
 20
117.35372852852539
 30
0.0
 40
1.0
 50
90.0
 51
180.0
  0
LINE
  5
BD6C
  8
0
  6
CONTINUOUS
 10
206.39430561717629
 20
149.9251386900402
 30
0.0
 11
206.39430561717629
 21
128.97872852852581
 31
0.0
  0
LINE
  5
BD6D
  8
0
  6
CONTINUOUS
 10
206.0592203210675
 20
149.5055234477696
 30
0.0
 11
206.0592203210675
 21
128.97872852852581
 31
0.0
  0
LINE
  5
BD6E
  8
0
  6
CONTINUOUS
 10
203.8592203210674
 20
149.5055234477696
 30
0.0
 11
203.8592203210674
 21
128.97872852852581
 31
0.0
  0
LINE
  5
BD6F
  8
0
  6
CONTINUOUS
 10
203.5241350249587
 20
149.9251386900402
 30
0.0
 11
203.5241350249587
 21
128.97872852852581
 31
0.0
  0
LINE
  5
BD70
  8
0
  6
CONTINUOUS
 10
199.3943056171758
 20
149.9251386900394
 30
0.0
 11
199.3943056171758
 21
128.97872852852581
 31
0.0
  0
LINE
  5
BD71
  8
0
  6
CONTINUOUS
 10
199.0592203210675
 20
149.5055234477696
 30
0.0
 11
199.0592203210675
 21
128.97872852852581
 31
0.0
  0
LINE
  5
BD72
  8
0
  6
CONTINUOUS
 10
196.8901604287426
 20
149.4910300168855
 30
0.0
 11
196.8901604287426
 21
128.97872852852581
 31
0.0
  0
LINE
  5
BD73
  8
0
  6
CONTINUOUS
 10
196.5550751326343
 20
149.90532716089729
 30
0.0
 11
196.5550751326343
 21
128.97872852852581
 31
0.0
  0
LINE
  5
BD74
  8
0
  6
CONTINUOUS
 10
210.48240031790689
 20
149.97872852852581
 30
0.0
 11
210.48240031790689
 21
128.97872852852541
 31
0.0
  0
LINE
  5
BD75
  8
0
  6
HIDDEN
 62
     3
 10
181.08912413163611
 20
119.4537285285255
 30
0.0
 11
221.4592203210683
 21
119.4537285285255
 31
0.0
1001
ACAD
1000
ASC_BOUNDS
1002
{
1070
    19
1005
0
1005
0
1005
0
1002
}
  0
LINE
  5
BD76
  8
0
  6
HIDDEN
 62
     3
 10
181.08912413163611
 20
119.4537285285255
 30
0.0
 11
181.08912413163611
 21
128.97872852852541
 31
0.0
  0
LINE
  5
BD77
  8
0
  6
HIDDEN
 62
     3
 10
180.9592203210683
 20
119.22872852852539
 30
0.0
 11
180.9592203210683
 21
128.97872852852541
 31
0.0
  0
LINE
  5
BD78
  8
0
  6
HIDDEN
 62
     3
 10
177.45922032106819
 20
118.0947539323101
 30
0.0
 11
177.45922032106819
 21
128.97872852852541
 31
0.0
  0
LINE
  5
BD79
  8
0
  6
HIDDEN
 62
     3
 10
177.75922032106811
 20
119.22872852852539
 30
0.0
 11
177.7592203210682
 21
128.97872852852541
 31
0.0
  0
LINE
  5
BD7A
  8
0
  6
HIDDEN
 62
     3
 10
177.7592203210682
 20
119.22872852852539
 30
0.0
 11
180.95922032106839
 21
119.22872852852539
 31
0.0
  0
POINT
  5
BD7B
  8
DEFPOINTS
  6
HIDDEN
 62
     3
 10
167.4592203210683
 20
117.9287285285256
 30
0.0
  0
LINE
  5
BD7C
  8
0
  6
HIDDEN
 62
     3
 10
207.38422032106831
 20
117.47872852852549
 30
0.0
 11
208.25922032106831
 21
118.35372852852539
 31
0.0
  0
LINE
  5
BD7D
  8
0
  6
HIDDEN
 62
     3
 10
217.45922032106819
 20
116.97872852852539
 30
0.0
 11
217.45922032106819
 21
117.35372852852539
 31
0.0
  0
ARC
  5
BD7E
  8
0
  6
HIDDEN
 62
     3
 10
216.45922032106839
 20
117.35372852852539
 30
0.0
 40
1.0
 50
0.0
 51
90.0
  0
ARC
  5
BD7F
  8
0
  6
HIDDEN
 62
     3
 10
221.4592203210683
 20
117.9537285285255
 30
0.0
 40
1.5
 50
0.0
 51
90.0
1001
ACAD
1000
ASC_BOUNDS
1002
{
1070
    19
1005
0
1005
0
1005
0
1002
}
  0
LINE
  5
BD80
  8
0
  6
HIDDEN
 62
     3
 10
193.60922032106819
 20
117.47872852852549
 30
0.0
 11
207.38422032106831
 21
117.47872852852549
 31
0.0
  0
LINE
  5
BD81
  8
0
  6
HIDDEN
 62
     3
 10
180.95922032106839
 20
119.22872852852539
 30
0.0
 11
181.08912413163611
 21
119.4537285285255
 31
0.0
  0
LINE
  5
BD82
  8
0
  6
HIDDEN
 62
     3
 10
177.7592203210682
 20
119.22872852852539
 30
0.0
 11
177.45922032106819
 21
119.05552344776861
 31
0.0
  0
LINE
  5
BD83
  8
0
  6
HIDDEN
 62
     3
 10
208.25922032106831
 20
118.35372852852539
 30
0.0
 11
216.45922032106839
 21
118.35372852852539
 31
0.0
  0
LINE
  5
BD84
  8
0
  6
HIDDEN
 62
     3
 10
185.57165588636551
 20
118.35372852852539
 30
0.0
 11
192.73422032106851
 21
118.35372852852539
 31
0.0
1001
ACAD
1000
ASC_BOUNDS
1002
{
1070
    19
1005
0
1005
0
1005
0
1002
}
  0
LINE
  5
BD85
  8
0
  6
HIDDEN
 62
     3
 10
193.60922032106819
 20
117.47872852852549
 30
0.0
 11
192.73422032106851
 21
118.35372852852539
 31
0.0
  0
DIMENSION
  5
BD86
  8
0
  6
CONTINUOUS
  2
*D15
 10
99.347969012632575
 20
97.478728528525096
 30
0.0
 11
97.247969012632566
 21
128.9787285285251
 31
0.0
 70
     0
 13
138.2211892268999
 23
160.47872852852501
 33
0.0
 14
138.45922032106839
 24
97.478728528525096
 34
0.0
 50
90.0
1001
ACAD
1000
DSTYLE
1002
{
1070
   287
1070
     2
1070
     3
1000
HSK<>F
1070
    42
1040
0.6
1070
    43
1040
1.0
1070
    44
1040
1.0
1070
    47
1040
0.1
1070
    48
1040
0.1
1070
    73
1070
     0
1070
   140
1040
3.0
1070
   141
1040
-0.5
1070
   146
1040
0.7
1070
   147
1040
0.6
1070
   178
1070
     3
1070
   271
1070
     8
1070
   272
1070
     8
1070
   275
1070
     1
1070
   283
1070
     0
1070
   284
1070
     8
1070
   289
1070
     2
1002
}
  0
DIMENSION
  5
BDB1
  8
0
  6
CONTINUOUS
  2
*D16
 10
255.2090274010861
 20
103.978728528525
 30
0.0
 11
253.10902740108611
 21
128.9787285285249
 31
0.0
 70
     0
 13
176.4951187059269
 23
153.9787285285249
 33
0.0
 14
176.49511870592741
 24
103.978728528525
 34
0.0
 50
90.0
1001
ACAD
1000
DSTYLE
1002
{
1070
   287
1070
     2
1070
     3
1000
%%c<>
1070
    42
1040
0.6
1070
    43
1040
1.0
1070
    44
1040
1.0
1070
    47
1040
0.1
1070
    48
1040
0.1
1070
    73
1070
     0
1070
   140
1040
3.0
1070
   141
1040
-1.0
1070
   146
1040
0.7
1070
   147
1040
0.6
1070
   178
1070
     3
1070
   179
1070
     8
1070
   271
1070
     8
1070
   272
1070
     8
1070
   275
1070
     1
1070
   283
1070
     0
1070
   284
1070
     8
1070
   289
1070
     2
1002
}
  0
DIMENSION
  5
BE06
  8
0
  6
CONTINUOUS
  2
*D17
 10
222.95922032106751
 20
164.43544888638991
 30
0.0
 11
201.9592203210679
 21
166.53574416198049
 31
0.0
 70
     0
 13
180.9592203210683
 23
138.72872852852501
 33
0.0
 14
222.95922032106751
 24
146.93962889734769
 34
0.0
1001
ACAD
1000
DSTYLE
1002
{
1070
   287
1070
     2
1070
    42
1040
0.6
1070
    43
1040
1.0
1070
    44
1040
1.0
1070
    47
1040
0.1
1070
    48
1040
0.1
1070
    73
1070
     0
1070
   140
1040
3.0
1070
   141
1040
-0.5
1070
   146
1040
0.7
1070
   147
1040
0.6
1070
   178
1070
     3
1070
   271
1070
     8
1070
   272
1070
     8
1070
   275
1070
     1
1070
   283
1070
     0
1070
   284
1070
     8
1070
   289
1070
     2
1002
}
  0
TEXT
  5
EDC9
  8
0
 62
     3
 10
276.45285191717761
 20
33.772340757280013
 30
0.0
 40
3.0
  1
2.BREAK SHARP CORNERS  0.5*45%%D
  0
TEXT
  5
EDCA
  8
0
 62
     3
 10
274.820354417673
 20
47.141220080395833
 30
0.0
 40
4.0
  1
NOTE
  0
TEXT
  5
EDCB
  8
0
 62
     3
 10
276.45285191717761
 20
27.272340757280009
 30
0.0
 40
3.0
  1
3.ANGLES  %%P0%%D15'
  0
TEXT
  5
EDCC
  8
0
 62
     3
 10
276.45285191717761
 20
40.272340757279999
 30
0.0
 40
3.0
  1
1.ROUND  R=1.0
  0
LINE
  5
F311
  8
0
  6
HIDDEN
 62
     3
 10
172.45922032106751
 20
119.27872852852541
 30
0.0
 11
174.45922032106711
 21
119.27872852852531
 31
0.0
  0
LINE
  5
F377
  8
0
  6
HIDDEN
 62
     3
 10
172.45922032106751
 20
119.27872852852541
 30
0.0
 11
172.45922032106751
 21
138.67872852852491
 31
0.0
1001
ACAD
1000
ASC_BOUNDS
1002
{
1070
    19
1002
}
  0
TEXT
  5
10DFE
  8
0
 62
     7
 10
140.32674050085549
 20
57.140475540456741
 30
0.0
 40
4.0
  1
CODE : 160750
  0
INSERT
  5
10DFF
  8
0
  6
CONTINUOUS
  2
*U123
 10
0.0
 20
0.0
 30
0.0
  0
ENDSEC
  0
EOF
