  0
SECTION
  2
HEADER
  9
$ACADVER
  1
AC1009
  9
$INSBASE
 10
0.0
 20
0.0
 30
0.0
  9
$EXTMIN
 10
-0.0491140923547846
 20
-0.5218648345653492
 30
-0.0000000000000053
  9
$EXTMAX
 10
349.85142630941641
 20
242.00310485754801
 30
0.0000000000000099
  9
$LIMMIN
 10
0.0
 20
0.0
  9
$LIMMAX
 10
420.0
 20
300.0
  9
$ORTHOMODE
 70
     1
  9
$REGENMODE
 70
     1
  9
$FILLMODE
 70
     1
  9
$QTEXTMODE
 70
     0
  9
$MIRRTEXT
 70
     1
  9
$DRAGMODE
 70
     2
  9
$LTSCALE
 40
7.0
  9
$OSMODE
 70
   951
  9
$ATTMODE
 70
     1
  9
$TEXTSIZE
 40
3.0
  9
$TRACEWID
 40
1.0
  9
$TEXTSTYLE
  7
STANDARD
  9
$CLAYER
  8
0
  9
$CELTYPE
  6
CONTINUOUS
  9
$CECOLOR
 62
   256
  9
$DIMSCALE
 40
1.0
  9
$DIMASZ
 40
2.5
  9
$DIMEXO
 40
0.6
  9
$DIMDLI
 40
1.0
  9
$DIMRND
 40
0.0
  9
$DIMDLE
 40
0.0
  9
$DIMEXE
 40
1.0
  9
$DIMTP
 40
0.1
  9
$DIMTM
 40
0.1
  9
$DIMTXT
 40
3.0
  9
$DIMCEN
 40
-0.5
  9
$DIMTSZ
 40
0.0
  9
$DIMTOL
 70
     0
  9
$DIMLIM
 70
     0
  9
$DIMTIH
 70
     0
  9
$DIMTOH
 70
     0
  9
$DIMSE1
 70
     0
  9
$DIMSE2
 70
     0
  9
$DIMTAD
 70
     1
  9
$DIMZIN
 70
     8
  9
$DIMBLK
  1

  9
$DIMASO
 70
     1
  9
$DIMSHO
 70
     1
  9
$DIMPOST
  1

  9
$DIMAPOST
  1

  9
$DIMALT
 70
     0
  9
$DIMALTD
 70
     2
  9
$DIMALTF
 40
0.0394
  9
$DIMLFAC
 40
1.0
  9
$DIMTOFL
 70
     1
  9
$DIMTVP
 40
1.0
  9
$DIMTIX
 70
     0
  9
$DIMSOXD
 70
     0
  9
$DIMSAH
 70
     0
  9
$DIMBLK1
  1

  9
$DIMBLK2
  1

  9
$DIMSTYLE
  2
ISO-25
  9
$DIMCLRD
 70
     2
  9
$DIMCLRE
 70
     2
  9
$DIMCLRT
 70
     3
  9
$DIMTFAC
 40
0.7
  9
$DIMGAP
 40
0.6
  9
$LUNITS
 70
     2
  9
$LUPREC
 70
     4
  9
$SKETCHINC
 40
1.0
  9
$FILLETRAD
 40
0.0
  9
$AUNITS
 70
     0
  9
$AUPREC
 70
     0
  9
$MENU
  1
acad
  9
$ELEVATION
 40
0.0
  9
$PELEVATION
 40
0.0
  9
$THICKNESS
 40
0.0
  9
$LIMCHECK
 70
     0
  9
$BLIPMODE
 70
     0
  9
$CHAMFERA
 40
0.5
  9
$CHAMFERB
 40
0.5
  9
$SKPOLY
 70
     0
  9
$TDCREATE
 40
2450166.8692156249
  9
$TDUPDATE
 40
2457472.813038229
  9
$TDINDWG
 40
5.3524158911999997
  9
$TDUSRTIMER
 40
5.3524158911999997
  9
$USRTIMER
 70
     1
  9
$ANGBASE
 50
0.0
  9
$ANGDIR
 70
     0
  9
$PDMODE
 70
     0
  9
$PDSIZE
 40
0.0
  9
$PLINEWID
 40
1.0
  9
$COORDS
 70
     0
  9
$SPLFRAME
 70
     0
  9
$SPLINETYPE
 70
     6
  9
$SPLINESEGS
 70
     8
  9
$ATTDIA
 70
     0
  9
$ATTREQ
 70
     1
  9
$HANDLING
 70
     1
  9
$HANDSEED
  5
10F77
  9
$SURFTAB1
 70
     6
  9
$SURFTAB2
 70
     6
  9
$SURFTYPE
 70
     6
  9
$SURFU
 70
     6
  9
$SURFV
 70
     6
  9
$UCSNAME
  2

  9
$UCSORG
 10
0.0
 20
0.0
 30
0.0
  9
$UCSXDIR
 10
1.0
 20
0.0
 30
0.0
  9
$UCSYDIR
 10
0.0
 20
1.0
 30
0.0
  9
$PUCSNAME
  2

  9
$PUCSORG
 10
0.0
 20
0.0
 30
0.0
  9
$PUCSXDIR
 10
1.0
 20
0.0
 30
0.0
  9
$PUCSYDIR
 10
0.0
 20
1.0
 30
0.0
  9
$USERI1
 70
     0
  9
$USERI2
 70
     0
  9
$USERI3
 70
     0
  9
$USERI4
 70
     0
  9
$USERI5
 70
     0
  9
$USERR1
 40
0.0
  9
$USERR2
 40
0.0
  9
$USERR3
 40
0.0
  9
$USERR4
 40
0.0
  9
$USERR5
 40
0.0
  9
$WORLDVIEW
 70
     1
  9
$SHADEDGE
 70
     3
  9
$SHADEDIF
 70
    70
  9
$TILEMODE
 70
     1
  9
$MAXACTVP
 70
    16
  9
$PLIMCHECK
 70
     0
  9
$PEXTMIN
 10
1.0000000000000000E+020
 20
1.0000000000000000E+020
 30
1.0000000000000000E+020
  9
$PEXTMAX
 10
-1.0000000000000000E+020
 20
-1.0000000000000000E+020
 30
-1.0000000000000000E+020
  9
$PLIMMIN
 10
0.0
 20
0.0
  9
$PLIMMAX
 10
420.0
 20
297.0
  9
$UNITMODE
 70
     0
  9
$VISRETAIN
 70
     0
  9
$PLINEGEN
 70
     0
  9
$PSLTSCALE
 70
     1
  0
ENDSEC
  0
SECTION
  2
TABLES
  0
TABLE
  2
VPORT
 70
     1
  0
VPORT
  2
*ACTIVE
 70
     0
 10
0.0
 20
0.0
 11
1.0
 21
1.0
 12
174.90115610853081
 22
120.7406200114913
 13
0.0
 23
0.0
 14
1.0
 24
1.0
 15
2.0
 25
2.0
 16
0.0
 26
0.0
 36
1.0
 17
0.0
 27
0.0
 37
0.0
 40
244.2072238171454
 41
2.1307870370370372
 42
50.0
 43
0.0
 44
0.0
 50
0.0
 51
0.0
 71
     0
 72
   100
 73
     1
 74
     1
 75
     0
 76
     0
 77
     0
 78
     0
  0
ENDTAB
  0
TABLE
  2
LTYPE
 70
     7
  0
LTYPE
  2
CONTINUOUS
 70
     0
  3
Solid line
 72
    65
 73
     0
 40
0.0
  0
LTYPE
  2
CENTER
 70
     0
  3
____ _ ____ _ ____ _ ____ _ ____ _ ____ _ ____ 
 72
    65
 73
     4
 40
2.0
 49
1.25
 49
-0.25
 49
0.25
 49
-0.25
  0
LTYPE
  2
HIDDEN
 70
     0
  3
__ __ __ __ __ __ __ __ __ __ __ __ __ __ __ __
 72
    65
 73
     2
 40
0.375
 49
0.25
 49
-0.125
  0
LTYPE
  2
PHANTOM
 70
     0
  3
Phantom ______  __  __  ______  __  __  ______
 72
    65
 73
     6
 40
2.5
 49
1.25
 49
-0.25
 49
0.25
 49
-0.25
 49
0.25
 49
-0.25
  0
LTYPE
  2
PHANTOM2
 70
     0
  3
___ _ _ ___ _ _ ___ _ _ ___ _ _ ___ _ _ ___ _ _
 72
    65
 73
     6
 40
1.25
 49
0.625
 49
-0.125
 49
0.125
 49
-0.125
 49
0.125
 49
-0.125
  0
LTYPE
  2
CENTER2
 70
     0
  3
___ _ ___ _ ___ _ ___ _ ___ _ ___ _ ___ _ ___ _
 72
    65
 73
     4
 40
1.125
 49
0.75
 49
-0.125
 49
0.125
 49
-0.125
  0
LTYPE
  2
HIDDEN2
 70
     0
  3
_ _ _ _ _ _ _ _ _ _ _ _ _ _ _ _ _ _ _ _ _ _ _ _
 72
    65
 73
     2
 40
0.1875
 49
0.125
 49
-0.0625
  0
ENDTAB
  0
TABLE
  2
LAYER
 70
     2
  0
LAYER
  2
0
 70
     0
 62
     7
  6
CONTINUOUS
  0
LAYER
  2
DEFPOINTS
 70
     0
 62
     7
  6
CONTINUOUS
  0
ENDTAB
  0
TABLE
  2
STYLE
 70
     1
  0
STYLE
  2
STANDARD
 70
     0
 40
3.0
 41
1.0
 50
0.0
 71
     0
 42
3.0
  3
ISOCP
  4
WHGTXT.SHX
  0
ENDTAB
  0
TABLE
  2
VIEW
 70
     0
  0
ENDTAB
  0
TABLE
  2
UCS
 70
     0
  0
ENDTAB
  0
TABLE
  2
APPID
 70
     5
  0
APPID
  2
ACAD
 70
     0
  0
APPID
  2
ACAD_DSTYLE_DIMRADIAL_EXTENSION
 70
     0
  0
APPID
  2
ACAD_MLEADERVER
 70
     0
  0
APPID
  2
ACAD_EXEMPT_FROM_CAD_STANDARDS
 70
     0
  0
APPID
  2
CONTENTBLOCKICON
 70
     0
  0
ENDTAB
  0
TABLE
  2
DIMSTYLE
 70
     2
  0
DIMSTYLE
  2
ISO-25
 70
     0
  3

  4

  5

  6

  7

 40
1.0
 41
2.5
 42
0.625
 43
3.75
 44
1.25
 45
0.0
 46
0.0
 47
0.0
 48
0.0
140
2.5
141
2.5
142
0.0
143
0.0394
144
1.0
145
1.0
146
1.0
147
0.625
 71
     0
 72
     0
 73
     1
 74
     0
 75
     0
 76
     0
 77
     1
 78
     8
170
     0
171
     2
172
     1
173
     0
174
     0
175
     0
176
     2
177
     2
178
     0
  0
DIMSTYLE
  2
KSM
 70
     0
  3

  4

  5

  6

  7

 40
1.0
 41
2.0
 42
0.0
 43
0.1
 44
1.1999999999999991
 45
0.0
 46
0.0
 47
0.25
 48
0.25
140
3.0
141
0.0
142
0.0
143
0.0394
144
1.0
145
1.0
146
1.0
147
1.0
 71
     1
 72
     0
 73
     0
 74
     0
 75
     0
 76
     0
 77
     1
 78
     8
170
     0
171
     2
172
     1
173
     0
174
     0
175
     0
176
     2
177
     2
178
     3
  0
ENDTAB
  0
ENDSEC
  0
SECTION
  2
BLOCKS
  0
BLOCK
  8
0
  2
$MODEL_SPACE
 70
     0
 10
0.0
 20
0.0
 30
0.0
  3
$MODEL_SPACE
  1

  0
ENDBLK
  5
16
  8
0
  0
BLOCK
 67
     1
  8
0
  2
$PAPER_SPACE
 70
     0
 10
0.0
 20
0.0
 30
0.0
  3
$PAPER_SPACE
  1

  0
ENDBLK
  5
1B
 67
     1
  8
0
  0
BLOCK
  8
0
  2
DFG
 70
     0
 10
0.0
 20
0.0
 30
0.0
  3
DFG
  1

  0
LINE
  5
C08
  8
0
  6
CONTINUOUS
 62
     4
 10
86.283570637268895
 20
194.3173600391579
 30
0.0
 11
87.100067218196514
 21
195.13385662008551
 31
0.0
  0
LINE
  5
C09
  8
0
  6
CONTINUOUS
 62
     4
 10
85.827275012060909
 20
196.40664882622119
 30
0.0
 11
85.010778431133076
 21
195.5901522452935
 31
0.0
  0
LINE
  5
C0A
  8
0
  6
CONTINUOUS
 62
     4
 10
85.364331821726182
 20
196.65081241707321
 30
0.0
 11
84.657225040539743
 21
195.94370563588669
 31
0.0
  0
LINE
  5
C0B
  8
0
  6
CONTINUOUS
 62
     4
 10
85.364331821726182
 20
196.65081241707321
 30
0.0
 11
84.248976750075826
 21
196.35195392635069
 31
0.0
  0
LINE
  5
C0C
  8
0
  6
CONTINUOUS
 10
87.953595175868358
 20
196.1995166121132
 30
0.0
 11
84.418061269935833
 21
192.6639827061806
 31
0.0
  0
LINE
  5
C0D
  8
0
  6
CONTINUOUS
 10
84.913036016766455
 20
199.24007577121549
 30
0.0
 11
81.377502110833461
 21
195.70454186528281
 31
0.0
  0
LINE
  5
C0E
  8
0
  6
CONTINUOUS
 10
84.418061269935606
 20
199.24007577121529
 30
0.0
 11
81.377502110833802
 21
196.1995166121134
 31
0.0
  0
LINE
  5
C0F
  8
0
  6
CONTINUOUS
 10
87.953595175868585
 20
195.70454186528261
 30
0.0
 11
84.913036016766227
 21
192.66398270618041
 31
0.0
  0
LINE
  5
C10
  8
0
  6
CONTINUOUS
 10
84.418061269935606
 20
199.24007577121529
 30
0.0
 11
84.913036016766455
 21
199.24007577121549
 31
0.0
  0
LINE
  5
C11
  8
0
  6
CONTINUOUS
 62
     4
 10
85.717885212319516
 20
196.29725902647991
 30
0.0
 11
85.364331821726182
 21
196.65081241707321
 31
0.0
  0
LINE
  5
C12
  8
0
  6
CONTINUOUS
 62
     4
 10
87.100067218196514
 20
195.13385662008551
 30
0.0
 11
85.827275012060909
 21
196.40664882622119
 31
0.0
  0
LINE
  5
C13
  8
0
  6
CONTINUOUS
 62
     4
 10
86.691818927732811
 20
194.72560832962171
 30
0.0
 11
85.419026721596978
 21
195.9984005357575
 31
0.0
  0
LINE
  5
C14
  8
0
  6
CONTINUOUS
 10
87.953595175868585
 20
195.70454186528261
 30
0.0
 11
87.953595175868358
 21
196.1995166121132
 31
0.0
  0
LINE
  5
C15
  8
0
  6
CONTINUOUS
 62
     4
 10
87.100067218196514
 20
195.13385662008551
 30
0.0
 11
87.382909930671289
 21
195.1338566200854
 31
0.0
  0
LINE
  5
C16
  8
0
  6
CONTINUOUS
 10
81.377502110833802
 20
196.1995166121134
 30
0.0
 11
81.377502110833802
 21
195.70454186528269
 31
0.0
  0
LINE
  5
C17
  8
0
  6
CONTINUOUS
 62
     4
 10
85.467074056341076
 20
193.5008634582301
 30
0.0
 11
85.467074056341175
 21
193.21802074575541
 31
0.0
  0
LINE
  5
C18
  8
0
  6
CONTINUOUS
 62
     4
 10
86.283570637268653
 20
194.31736003915771
 30
0.0
 11
85.467074056341076
 21
193.5008634582301
 31
0.0
  0
LINE
  5
C19
  8
0
  6
CONTINUOUS
 62
     4
 10
84.194281850205485
 20
194.7736556643658
 30
0.0
 11
85.010778431133076
 21
195.5901522452935
 31
0.0
  0
LINE
  5
C1A
  8
0
  6
CONTINUOUS
 62
     4
 10
83.950118259353076
 20
195.23659885470019
 30
0.0
 11
84.657225040539743
 21
195.94370563588669
 31
0.0
  0
LINE
  5
C1B
  8
0
  6
CONTINUOUS
 62
     4
 10
83.950118259353076
 20
195.23659885470019
 30
0.0
 11
84.248976750075826
 21
196.35195392635069
 31
0.0
  0
LINE
  5
C1C
  8
0
  6
CONTINUOUS
 62
     4
 10
84.303671649946395
 20
194.88304546410691
 30
0.0
 11
83.950118259353076
 21
195.23659885470019
 31
0.0
  0
LINE
  5
C1D
  8
0
  6
CONTINUOUS
 62
     4
 10
85.467074056341076
 20
193.5008634582301
 30
0.0
 11
84.194281850205485
 21
194.7736556643658
 31
0.0
  0
LINE
  5
C1E
  8
0
  6
CONTINUOUS
 62
     4
 10
85.875322346804978
 20
193.9091117486939
 30
0.0
 11
84.60253014066916
 21
195.18190395482961
 31
0.0
  0
LINE
  5
C1F
  8
0
  6
CONTINUOUS
 10
84.913036016766569
 20
192.66398270618069
 30
0.0
 11
84.418061269935606
 21
192.66398270618069
 31
0.0
  0
LINE
  5
C20
  8
0
  6
CONTINUOUS
 10
81.377502110833461
 20
195.70454186528229
 30
0.0
 11
84.418061269935833
 21
192.66398270618041
 31
0.0
  0
LINE
  5
C21
  8
0
  6
CONTINUOUS
 10
84.913036016766455
 20
199.24007577121549
 30
0.0
 11
87.953595175868713
 21
196.19951661211331
 31
0.0
  0
ENDBLK
  5
C22
  8
0
  0
BLOCK
  8
0
  2
_OBLIQUE
 70
     0
 10
0.0
 20
0.0
 30
0.0
  3
_OBLIQUE
  1

  0
LINE
  5
296E
  8
0
  6
BYBLOCK
 62
     0
 10
-0.5
 20
-0.5
 30
0.0
 11
0.5
 21
0.5
 31
0.0
  0
ENDBLK
  5
296F
  8
0
  0
BLOCK
  8
0
  2
DFGDFG
 70
     0
 10
0.0
 20
0.0
 30
0.0
  3
DFGDFG
  1

  0
LINE
  5
480B
  8
0
  6
PHANTOM
 62
     4
 10
515.12727105287081
 20
144.25623312232949
 30
0.0
 11
525.6272710528707
 21
144.25623312232949
 31
0.0
  0
LINE
  5
480C
  8
0
  6
PHANTOM
 62
     4
 10
515.62727105287081
 20
144.75623312232949
 30
0.0
 11
525.12727105287081
 21
144.75623312232949
 31
0.0
  0
LINE
  5
480D
  8
0
  6
PHANTOM
 62
     4
 10
515.62727105287081
 20
144.75623312232949
 30
0.0
 11
515.62727105287081
 21
136.75623312232949
 31
0.0
  0
LINE
  5
480E
  8
0
  6
PHANTOM
 62
     4
 10
514.62727105287081
 20
143.75623312232949
 30
0.0
 11
514.62727105287081
 21
136.75623312232949
 31
0.0
  0
LINE
  5
480F
  8
0
  6
PHANTOM
 62
     4
 10
515.62727105287081
 20
144.75623312232949
 30
0.0
 11
514.62727105287081
 21
143.75623312232949
 31
0.0
  0
LINE
  5
4810
  8
0
  6
PHANTOM
 62
     4
 10
529.42727105287076
 20
144.75623312232949
 30
0.0
 11
529.42727105287076
 21
136.75623312232949
 31
0.0
  0
LINE
  5
4811
  8
0
  6
PHANTOM
 62
     4
 10
529.6272710528707
 20
144.5562331223295
 30
0.0
 11
529.6272710528707
 21
136.75623312232949
 31
0.0
  0
LINE
  5
4812
  8
0
  6
PHANTOM
 62
     4
 10
529.42727105287076
 20
144.75623312232949
 30
0.0
 11
529.6272710528707
 21
144.5562331223295
 31
0.0
  0
LINE
  5
4813
  8
0
  6
PHANTOM
 62
     4
 10
527.62727105287081
 20
144.75623312232949
 30
0.0
 11
527.62727105287081
 21
136.75623312232949
 31
0.0
  0
LINE
  5
4814
  8
0
  6
PHANTOM
 62
     4
 10
525.87727105287081
 20
144.00623312232949
 30
0.0
 11
527.62727105287081
 21
144.00623312232949
 31
0.0
  0
LINE
  5
4815
  8
0
  6
PHANTOM
 62
     4
 10
525.87727105287081
 20
136.75623312232949
 30
0.0
 11
525.87727105287081
 21
144.00623312232949
 31
0.0
  0
LINE
  5
4816
  8
0
  6
PHANTOM
 62
     4
 10
525.12727105287081
 20
144.75623312232949
 30
0.0
 11
525.12727105287081
 21
136.75623312232949
 31
0.0
  0
LINE
  5
4817
  8
0
  6
PHANTOM
 62
     4
 10
525.12727105287081
 20
144.75623312232949
 30
0.0
 11
525.87727105287081
 21
144.00623312232949
 31
0.0
  0
LINE
  5
4818
  8
0
  6
PHANTOM
 62
     4
 10
527.62727105287081
 20
144.75623312232949
 30
0.0
 11
529.42727105287076
 21
144.75623312232949
 31
0.0
  0
ENDBLK
  5
4819
  8
0
  0
BLOCK
  8
0
  2
*D3
 70
     1
 10
0.0
 20
0.0
 30
0.0
  3
*D3
  1

  0
LINE
  5
1041C
  8
0
  6
CONTINUOUS
 62
     2
 10
76.65740936938721
 20
141.30397940775421
 30
0.0
 11
76.65740936938721
 21
128.61383973461449
 31
0.0
  0
LINE
  5
1041D
  8
0
  6
CONTINUOUS
 62
     2
 10
186.65740936938741
 20
162.48217867010871
 30
0.0
 11
186.65740936938741
 21
128.61383973461449
 31
0.0
  0
LINE
  5
1041E
  8
0
  6
CONTINUOUS
 62
     2
 10
79.15740936938721
 20
129.61383973461449
 30
0.0
 11
184.15740936938741
 21
129.61383973461449
 31
0.0
  0
SOLID
  5
1041F
  8
0
  6
CONTINUOUS
 62
     2
 10
79.15740936938721
 20
130.03050640128109
 30
0.0
 11
79.15740936938721
 21
129.1971730679478
 31
0.0
 12
76.65740936938721
 22
129.61383973461449
 32
0.0
 13
76.65740936938721
 23
129.61383973461449
 33
0.0
  0
SOLID
  5
10420
  8
0
  6
CONTINUOUS
 62
     2
 10
184.15740936938741
 20
130.03050640128109
 30
0.0
 11
184.15740936938741
 21
129.1971730679478
 31
0.0
 12
186.65740936938741
 22
129.61383973461449
 32
0.0
 13
186.65740936938741
 23
129.61383973461449
 33
0.0
  0
INSERT
  5
10421
  8
0
  6
CONTINUOUS
  2
*U167
 10
0.0
 20
0.0
 30
0.0
  0
POINT
  5
10422
  8
DEFPOINTS
  6
CONTINUOUS
 62
     0
 10
76.65740936938721
 20
141.90397940775421
 30
0.0
  0
POINT
  5
10423
  8
DEFPOINTS
  6
CONTINUOUS
 62
     0
 10
186.65740936938741
 20
163.0821786701087
 30
0.0
  0
POINT
  5
10424
  8
DEFPOINTS
  6
CONTINUOUS
 62
     0
 10
186.65740936938741
 20
129.61383973461449
 30
0.0
  0
ENDBLK
  5
726B
  8
0
  0
BLOCK
  8
0
  2
*D4
 70
     1
 10
0.0
 20
0.0
 30
0.0
  3
*D4
  1

  0
LINE
  5
10425
  8
0
  6
CONTINUOUS
 62
     2
 10
26.65740936938721
 20
157.20374455853201
 30
0.0
 11
26.65740936938721
 21
120.6138397346145
 31
0.0
  0
LINE
  5
10426
  8
0
  6
CONTINUOUS
 62
     2
 10
186.65740936938741
 20
162.48217867010871
 30
0.0
 11
186.65740936938741
 21
120.6138397346145
 31
0.0
  0
LINE
  5
10427
  8
0
  6
CONTINUOUS
 62
     2
 10
29.15740936938721
 20
121.6138397346145
 30
0.0
 11
184.15740936938741
 21
121.6138397346145
 31
0.0
  0
SOLID
  5
10428
  8
0
  6
CONTINUOUS
 62
     2
 10
29.15740936938721
 20
122.0305064012812
 30
0.0
 11
29.15740936938721
 21
121.1971730679478
 31
0.0
 12
26.65740936938721
 22
121.6138397346145
 32
0.0
 13
26.65740936938721
 23
121.6138397346145
 33
0.0
  0
SOLID
  5
10429
  8
0
  6
CONTINUOUS
 62
     2
 10
184.15740936938741
 20
122.0305064012812
 30
0.0
 11
184.15740936938741
 21
121.1971730679478
 31
0.0
 12
186.65740936938741
 22
121.6138397346145
 32
0.0
 13
186.65740936938741
 23
121.6138397346145
 33
0.0
  0
INSERT
  5
1042A
  8
0
  6
CONTINUOUS
  2
*U168
 10
0.0
 20
0.0
 30
0.0
  0
POINT
  5
1042B
  8
DEFPOINTS
  6
CONTINUOUS
 62
     0
 10
26.65740936938721
 20
157.803744558532
 30
0.0
  0
POINT
  5
1042C
  8
DEFPOINTS
  6
CONTINUOUS
 62
     0
 10
186.65740936938741
 20
163.0821786701087
 30
0.0
  0
POINT
  5
1042D
  8
DEFPOINTS
  6
CONTINUOUS
 62
     0
 10
186.65740936938741
 20
121.6138397346145
 30
0.0
  0
ENDBLK
  5
7277
  8
0
  0
BLOCK
  8
0
  2
*D5
 70
     1
 10
0.0
 20
0.0
 30
0.0
  3
*D5
  1

  0
LINE
  5
10456
  8
0
  6
CONTINUOUS
 62
     2
 10
105.0574093693843
 20
197.40397940775401
 30
0.0
 11
95.445163544282124
 21
197.40397940775401
 31
0.0
  0
LINE
  5
10457
  8
0
  6
CONTINUOUS
 62
     2
 10
96.445163544282124
 20
194.90397940775401
 30
0.0
 11
96.445163544282124
 21
186.4539794077541
 31
0.0
  0
SOLID
  5
10458
  8
0
  6
CONTINUOUS
 62
     2
 10
96.028496877615467
 20
194.90397940775401
 30
0.0
 11
96.861830210948796
 21
194.90397940775401
 31
0.0
 12
96.445163544282124
 22
197.40397940775401
 32
0.0
 13
96.445163544282124
 23
197.40397940775401
 33
0.0
  0
INSERT
  5
10459
  8
0
  6
CONTINUOUS
  2
*U173
 10
0.0
 20
0.0
 30
0.0
  0
POINT
  5
1045A
  8
DEFPOINTS
  6
CONTINUOUS
 62
     0
 10
105.6574093693872
 20
185.40397940775409
 30
0.0
  0
POINT
  5
1045B
  8
DEFPOINTS
  6
CONTINUOUS
 62
     0
 10
105.6574093693843
 20
197.40397940775401
 30
0.0
  0
POINT
  5
1045C
  8
DEFPOINTS
  6
CONTINUOUS
 62
     0
 10
96.445163544282124
 20
197.40397940775401
 30
0.0
  0
ENDBLK
  5
7CB2
  8
0
  0
BLOCK
  8
0
  2
DRGFDG
 70
     0
 10
0.0
 20
0.0
 30
0.0
  3
DRGFDG
  1

  0
LINE
  5
8809
  8
0
  6
CONTINUOUS
 62
     4
 10
588.86968125608973
 20
-247.61534771967851
 30
0.0
 11
587.36968125608939
 21
-246.74932231589449
 31
0.0
  0
LINE
  5
880A
  8
0
  6
CONTINUOUS
 62
     4
 10
588.86968125608985
 20
-251.11534771967851
 30
0.0
 11
587.36968125608973
 21
-251.9813731234633
 31
0.0
  0
LINE
  5
880B
  8
0
  6
CONTINUOUS
 62
     4
 10
566.36968125609008
 20
-253.36534771967919
 30
0.0
 11
565.86968125608985
 21
-252.86534771967919
 31
0.0
  0
LINE
  5
880C
  8
0
  6
CONTINUOUS
 62
     4
 10
565.86968125608973
 20
-245.86534771967899
 30
0.0
 11
566.36968125609008
 21
-245.36534771967951
 31
0.0
  0
LINE
  5
880D
  8
0
  6
CONTINUOUS
 62
     4
 10
562.86968125608996
 20
-254.36534771967899
 30
0.0
 11
553.86968125608985
 21
-254.36534771967899
 31
0.0
  0
LINE
  5
880E
  8
0
  6
CONTINUOUS
 62
     4
 10
563.68168125609031
 20
-253.5533477196789
 30
0.0
 11
553.05768125608984
 21
-253.5533477196789
 31
0.0
  0
LINE
  5
880F
  8
0
  6
CONTINUOUS
 62
     4
 10
562.86968125609008
 20
-244.36534771967919
 30
0.0
 11
553.86968125609042
 21
-244.36534771967939
 31
0.0
  0
LINE
  5
8810
  8
0
  6
CONTINUOUS
 62
     4
 10
553.05768125609052
 20
-245.17734771967889
 30
0.0
 11
563.68168125609031
 21
-245.17734771967929
 31
0.0
  0
LINE
  5
8811
  8
0
  6
CONTINUOUS
 62
     4
 10
553.86968125608985
 20
-254.36534771967899
 30
0.0
 11
552.86968125609019
 21
-253.36534771967919
 31
0.0
  0
LINE
  5
8812
  8
0
  6
CONTINUOUS
 62
     4
 10
549.36968125608985
 20
-254.61534771967919
 30
0.0
 11
548.86968125608985
 21
-254.11534771967879
 31
0.0
  0
LINE
  5
8813
  8
0
  6
CONTINUOUS
 62
     4
 10
550.86968125609008
 20
-254.61534771967919
 30
0.0
 11
549.36968125608985
 21
-254.61534771967919
 31
0.0
  0
LINE
  5
8814
  8
0
  6
CONTINUOUS
 62
     4
 10
552.86968125609019
 20
-253.36534771967919
 30
0.0
 11
550.86968125608985
 21
-253.36534771967899
 31
0.0
  0
LINE
  5
8815
  8
0
  6
CONTINUOUS
 62
     4
 10
548.8696812560903
 20
-244.61534771967899
 30
0.0
 11
549.36968125609019
 21
-244.11534771967899
 31
0.0
  0
POINT
  5
8816
  8
DEFPOINTS
  6
BYBLOCK
 62
     4
 10
548.8696812560903
 20
-244.61534771967899
 30
0.0
  0
LINE
  5
8817
  8
0
  6
CONTINUOUS
 62
     4
 10
548.86968125608985
 20
-254.11534771967879
 30
0.0
 11
548.8696812560903
 21
-244.61534771967899
 31
0.0
  0
LINE
  5
8818
  8
0
  6
CONTINUOUS
 62
     4
 10
549.36968125608985
 20
-254.61534771967919
 30
0.0
 11
549.36968125609019
 21
-244.11534771967899
 31
0.0
  0
LINE
  5
8819
  8
0
  6
CONTINUOUS
 62
     4
 10
553.86968125609042
 20
-244.36534771967939
 30
0.0
 11
552.8696812560903
 21
-245.36534771967951
 31
0.0
  0
POINT
  5
881A
  8
DEFPOINTS
  6
BYBLOCK
 62
     4
 10
550.86968125609042
 20
-244.11534771967939
 30
0.0
  0
POINT
  5
881B
  8
DEFPOINTS
  6
BYBLOCK
 62
     4
 10
550.86968125609042
 20
-244.11534771967939
 30
0.0
  0
LINE
  5
881C
  8
0
  6
CONTINUOUS
 62
     4
 10
550.86968125609042
 20
-244.11534771967939
 30
0.0
 11
549.36968125609019
 21
-244.11534771967899
 31
0.0
  0
LINE
  5
881D
  8
0
  6
CONTINUOUS
 62
     4
 10
552.86968125608985
 20
-245.36534771967899
 30
0.0
 11
550.86968125608985
 21
-245.36534771967871
 31
0.0
  0
LINE
  5
881E
  8
0
  6
CONTINUOUS
 62
     4
 10
552.86968125609019
 20
-253.36534771967919
 30
0.0
 11
552.8696812560903
 21
-245.36534771967951
 31
0.0
  0
LINE
  5
881F
  8
0
  6
CONTINUOUS
 62
     4
 10
553.86968125608985
 20
-254.36534771967899
 30
0.0
 11
553.86968125609008
 21
-244.3653477196801
 31
0.0
  0
LINE
  5
8820
  8
0
  6
CONTINUOUS
 62
     4
 10
550.86968125609008
 20
-254.61534771967919
 30
0.0
 11
550.86968125609008
 21
-244.11534771967899
 31
0.0
  0
LINE
  5
8821
  8
0
  6
CONTINUOUS
 62
     4
 10
563.86968125609008
 20
-253.36534771967919
 30
0.0
 11
562.86968125608996
 21
-254.36534771967899
 31
0.0
  0
LINE
  5
8822
  8
0
  6
CONTINUOUS
 62
     4
 10
565.36968125609019
 20
-253.36534771967951
 30
0.0
 11
563.86968125609008
 21
-253.36534771967919
 31
0.0
  0
LINE
  5
8823
  8
0
  6
CONTINUOUS
 62
     4
 10
565.36968125609019
 20
-253.36534771967951
 30
0.0
 11
565.86968125608985
 21
-252.86534771967919
 31
0.0
  0
LINE
  5
8824
  8
0
  6
CONTINUOUS
 62
     4
 10
562.86968125609008
 20
-244.36534771967919
 30
0.0
 11
563.86968125608985
 21
-245.36534771967899
 31
0.0
  0
LINE
  5
8825
  8
0
  6
CONTINUOUS
 62
     4
 10
565.36968125609019
 20
-245.36534771967919
 30
0.0
 11
563.86968125608985
 21
-245.36534771967899
 31
0.0
  0
LINE
  5
8826
  8
0
  6
CONTINUOUS
 62
     4
 10
565.36968125609019
 20
-245.36534771967919
 30
0.0
 11
565.86968125608973
 21
-245.86534771967899
 31
0.0
  0
LINE
  5
8827
  8
0
  6
CONTINUOUS
 62
     4
 10
563.86968125609008
 20
-253.36534771967919
 30
0.0
 11
563.86968125608985
 21
-245.36534771967899
 31
0.0
  0
LINE
  5
8828
  8
0
  6
CONTINUOUS
 62
     4
 10
565.86968125608985
 20
-252.86534771967919
 30
0.0
 11
565.86968125608973
 21
-245.86534771967899
 31
0.0
  0
LINE
  5
8829
  8
0
  6
CONTINUOUS
 62
     4
 10
565.86968125608985
 20
-252.86534771967919
 30
0.0
 11
565.86968125608973
 21
-245.86534771967899
 31
0.0
  0
LINE
  5
882A
  8
0
  6
CONTINUOUS
 62
     4
 10
565.36968125609019
 20
-253.36534771967951
 30
0.0
 11
565.36968125609019
 21
-245.36534771967919
 31
0.0
  0
LINE
  5
882B
  8
0
  6
CONTINUOUS
 62
     4
 10
562.86968125609042
 20
-254.36534771967919
 30
0.0
 11
562.86968125609008
 21
-244.36534771967919
 31
0.0
  0
LINE
  5
882C
  8
0
  6
CONTINUOUS
 62
     4
 10
580.36968125608985
 20
-253.36534771967879
 30
0.0
 11
566.36968125609008
 21
-253.36534771967919
 31
0.0
  0
LINE
  5
882D
  8
0
  6
CONTINUOUS
 62
     4
 10
580.36968125609008
 20
-245.36534771967951
 30
0.0
 11
566.36968125609008
 21
-245.36534771967951
 31
0.0
  0
LINE
  5
882E
  8
0
  6
CONTINUOUS
 62
     4
 10
566.36968125609008
 20
-253.36534771967919
 30
0.0
 11
566.36968125609008
 21
-245.36534771967951
 31
0.0
  0
LINE
  5
882F
  8
0
  6
CONTINUOUS
 62
     4
 10
580.86968125608951
 20
-245.44034771967881
 30
0.0
 11
585.36968125608951
 21
-245.44034771967881
 31
0.0
  0
LINE
  5
8830
  8
0
  6
CONTINUOUS
 62
     4
 10
580.36968125609008
 20
-245.36534771967951
 30
0.0
 11
580.86968125608973
 21
-245.86534771967919
 31
0.0
  0
LINE
  5
8831
  8
0
  6
CONTINUOUS
 62
     4
 10
586.94468125609001
 20
-245.3153477196789
 30
0.0
 11
587.36968125608928
 21
-245.74034771967851
 31
0.0
  0
LINE
  5
8832
  8
0
  6
CONTINUOUS
 62
     4
 10
587.36968125608928
 20
-245.74034771967851
 30
0.0
 11
587.36968125608996
 21
-249.36534771967871
 31
0.0
  0
LINE
  5
8833
  8
0
  6
CONTINUOUS
 62
     4
 10
585.36968125608951
 20
-245.44034771967881
 30
0.0
 11
585.36968125608951
 21
-249.36534771967871
 31
0.0
  0
LINE
  5
8834
  8
0
  6
CONTINUOUS
 62
     4
 10
580.86968125608973
 20
-253.29034771967889
 30
0.0
 11
585.36968125608973
 21
-253.29034771967869
 31
0.0
  0
LINE
  5
8835
  8
0
  6
CONTINUOUS
 62
     4
 10
580.36968125608985
 20
-253.36534771967879
 30
0.0
 11
580.86968125608973
 21
-252.86534771967899
 31
0.0
  0
LINE
  5
8836
  8
0
  6
CONTINUOUS
 62
     4
 10
587.36968125608973
 20
-252.99034771967899
 30
0.0
 11
587.36968125608996
 21
-249.36534771967871
 31
0.0
  0
LINE
  5
8837
  8
0
  6
CONTINUOUS
 62
     4
 10
580.86968125608973
 20
-252.86534771967899
 30
0.0
 11
580.86968125608973
 21
-245.86534771967919
 31
0.0
  0
LINE
  5
8838
  8
0
  6
CONTINUOUS
 62
     4
 10
580.36968125608985
 20
-253.36534771967879
 30
0.0
 11
580.36968125609008
 21
-245.36534771967951
 31
0.0
  0
LINE
  5
8839
  8
0
  6
CONTINUOUS
 62
     4
 10
588.86968125608973
 20
-247.61534771967851
 30
0.0
 11
588.86968125608917
 21
-249.36534771967871
 31
0.0
  0
LINE
  5
883A
  8
0
  6
CONTINUOUS
 62
     4
 10
588.86968125608985
 20
-251.11534771967851
 30
0.0
 11
588.86968125608917
 21
-249.36534771967871
 31
0.0
  0
LINE
  5
883B
  8
0
  6
CONTINUOUS
 62
     4
 10
585.36968125608951
 20
-245.44034771967881
 30
0.0
 11
585.69531738917624
 21
-245.3153477196789
 31
0.0
  0
LINE
  5
883C
  8
0
  6
CONTINUOUS
 62
     4
 10
585.69531738917624
 20
-245.3153477196789
 30
0.0
 11
586.94468125608989
 21
-245.3153477196789
 31
0.0
  0
LINE
  5
883D
  8
0
  6
CONTINUOUS
 62
     4
 10
580.86968125608973
 20
-253.29034771967889
 30
0.0
 11
580.86968125608973
 21
-245.44034771967881
 31
0.0
  0
LINE
  5
883E
  8
0
  6
CONTINUOUS
 62
     4
 10
586.94468125609001
 20
-253.41534771967861
 30
0.0
 11
587.36968125608928
 21
-252.99034771967899
 31
0.0
  0
LINE
  5
883F
  8
0
  6
CONTINUOUS
 62
     4
 10
585.36968125608951
 20
-253.29034771967869
 30
0.0
 11
585.69531738917624
 21
-253.41534771967861
 31
0.0
  0
LINE
  5
8840
  8
0
  6
CONTINUOUS
 62
     4
 10
585.69531738917624
 20
-253.41534771967861
 30
0.0
 11
586.94468125608989
 21
-253.41534771967861
 31
0.0
  0
LINE
  5
8841
  8
0
  6
CONTINUOUS
 62
     4
 10
586.94468125609001
 20
-253.41534771967861
 30
0.0
 11
586.94468125609001
 21
-249.36534771967891
 31
0.0
  0
LINE
  5
8842
  8
0
  6
CONTINUOUS
 62
     4
 10
586.94468125609001
 20
-249.36534771967891
 30
0.0
 11
586.94468125608989
 21
-245.3153477196789
 31
0.0
  0
LINE
  5
8843
  8
0
  6
CONTINUOUS
 62
     4
 10
585.69531738917624
 20
-245.3153477196789
 30
0.0
 11
585.69531738917624
 21
-249.36534771967891
 31
0.0
  0
LINE
  5
8844
  8
0
  6
CONTINUOUS
 62
     4
 10
585.69531738917624
 20
-249.36534771967891
 30
0.0
 11
585.69531738917624
 21
-253.41534771967861
 31
0.0
  0
LINE
  5
8845
  8
0
  6
CONTINUOUS
 62
     4
 10
585.36968125608973
 20
-253.29034771967869
 30
0.0
 11
585.36968125608973
 21
-249.36534771967891
 31
0.0
  0
ENDBLK
  5
8846
  8
0
  0
BLOCK
  8
0
  2
*D7
 70
     1
 10
0.0
 20
0.0
 30
0.0
  3
*D7
  1

  0
LINE
  5
10437
  8
0
  6
CONTINUOUS
 62
     2
 10
362.92516733533648
 20
193.7509779739099
 30
0.0
 11
362.92516733533648
 21
197.76271308932851
 31
0.0
  0
LINE
  5
10438
  8
0
  6
CONTINUOUS
 62
     2
 10
374.92516733533648
 20
193.7509779739099
 30
0.0
 11
374.92516733533648
 21
197.76271308932851
 31
0.0
  0
LINE
  5
10439
  8
0
  6
CONTINUOUS
 62
     2
 10
365.42516733533648
 20
196.5627130893285
 30
0.0
 11
372.42516733533648
 21
196.5627130893285
 31
0.0
  0
SOLID
  5
1043A
  8
0
  6
CONTINUOUS
 62
     2
 10
365.42516733533648
 20
196.97937975599521
 30
0.0
 11
365.42516733533648
 21
196.1460464226619
 31
0.0
 12
362.92516733533648
 22
196.5627130893285
 32
0.0
 13
362.92516733533648
 23
196.5627130893285
 33
0.0
  0
SOLID
  5
1043B
  8
0
  6
CONTINUOUS
 62
     2
 10
372.42516733533648
 20
196.97937975599521
 30
0.0
 11
372.42516733533648
 21
196.1460464226619
 31
0.0
 12
374.92516733533648
 22
196.5627130893285
 32
0.0
 13
374.92516733533648
 23
196.5627130893285
 33
0.0
  0
INSERT
  5
1043C
  8
0
  6
CONTINUOUS
  2
*U170
 10
0.0
 20
0.0
 30
0.0
  0
POINT
  5
1043D
  8
DEFPOINTS
  6
CONTINUOUS
 62
     0
 10
362.92516733533648
 20
193.7509779739099
 30
0.0
  0
POINT
  5
1043E
  8
DEFPOINTS
  6
CONTINUOUS
 62
     0
 10
374.92516733533648
 20
193.7509779739099
 30
0.0
  0
POINT
  5
1043F
  8
DEFPOINTS
  6
CONTINUOUS
 62
     0
 10
374.92516733533648
 20
196.5627130893285
 30
0.0
  0
ENDBLK
  5
B2C3
  8
0
  0
BLOCK
  8
0
  2
*D8
 70
     1
 10
0.0
 20
0.0
 30
0.0
  3
*D8
  1

  0
LINE
  5
10440
  8
0
  6
CONTINUOUS
 62
     2
 10
376.9572181429055
 20
190.08627086788059
 30
0.0
 11
384.67208642431979
 21
203.4488147049847
 31
0.0
  0
LINE
  5
10441
  8
0
  6
CONTINUOUS
 62
     2
 10
360.89311652776632
 20
190.08627086788101
 30
0.0
 11
353.17824824635397
 21
203.4488147049878
 31
0.0
  0
ARC
  5
10442
  8
0
  6
CONTINUOUS
 62
     2
 10
368.92516733533421
 20
176.1743507801996
 30
0.0
 40
30.493838177958889
 50
64.698640864752775
 51
115.3013591352356
  0
SOLID
  5
10443
  8
0
  6
CONTINUOUS
 62
     2
 10
382.15096938684911
 20
204.11206920754759
 30
0.0
 11
381.76423628411328
 21
203.3739080112681
 31
0.0
 12
384.17208642431962
 22
202.58278930120031
 32
0.0
 13
384.17208642431962
 23
202.58278930120031
 33
0.0
  0
SOLID
  5
10444
  8
0
  6
CONTINUOUS
 62
     2
 10
356.08609838656048
 20
203.37390801127069
 30
0.0
 11
355.69936528382487
 21
204.11206920755021
 31
0.0
 12
353.67824824635397
 22
202.58278930120341
 32
0.0
 13
353.67824824635397
 23
202.58278930120341
 33
0.0
  0
INSERT
  5
10445
  8
0
  6
CONTINUOUS
  2
*U171
 10
0.0
 20
0.0
 30
0.0
  0
POINT
  5
10446
  8
DEFPOINTS
  6
CONTINUOUS
 62
     0
 10
374.22036676501131
 20
206.2049190369525
 30
0.0
  0
POINT
  5
10447
  8
DEFPOINTS
  6
CONTINUOUS
 62
     0
 10
361.88593685079422
 20
188.3666556256097
 30
0.0
  0
POINT
  5
10448
  8
DEFPOINTS
  6
CONTINUOUS
 62
     0
 10
375.96439781987738
 20
188.3666556256097
 30
0.0
  0
POINT
  5
10449
  8
DEFPOINTS
  6
CONTINUOUS
 62
     0
 10
376.65721814290538
 20
189.56665562561
 30
0.0
  0
POINT
  5
1044A
  8
DEFPOINTS
  6
CONTINUOUS
 62
     0
 10
361.19311652776628
 20
189.56665562561031
 30
0.0
  0
ENDBLK
  5
B2CF
  8
0
  0
BLOCK
  8
0
  2
*D9
 70
     1
 10
0.0
 20
0.0
 30
0.0
  3
*D9
  1

  0
LINE
  5
1044B
  8
0
  6
CONTINUOUS
 62
     2
 10
381.41382714093851
 20
190.7666556256095
 30
0.0
 11
389.2173106603525
 21
190.7666556256095
 31
0.0
  0
LINE
  5
1044C
  8
0
  6
CONTINUOUS
 62
     2
 10
375.52516733533542
 20
187.7666556256101
 30
0.0
 11
389.2173106603525
 21
187.7666556256101
 31
0.0
  0
LINE
  5
1044D
  8
0
  6
CONTINUOUS
 62
     2
 10
388.2173106603525
 20
193.2666556256095
 30
0.0
 11
388.2173106603525
 21
195.7666556256095
 31
0.0
  0
LINE
  5
1044E
  8
0
  6
CONTINUOUS
 62
     2
 10
388.2173106603525
 20
185.2666556256101
 30
0.0
 11
388.2173106603525
 21
177.24002935217379
 31
0.0
  0
LINE
  5
1044F
  8
0
  6
CONTINUOUS
 62
     2
 10
388.2173106603525
 20
190.7666556256095
 30
0.0
 11
388.2173106603525
 21
187.7666556256101
 31
0.0
  0
SOLID
  5
10450
  8
0
  6
CONTINUOUS
 62
     2
 10
387.80064399368581
 20
193.2666556256095
 30
0.0
 11
388.63397732701918
 21
193.2666556256095
 31
0.0
 12
388.2173106603525
 22
190.7666556256095
 32
0.0
 13
388.2173106603525
 23
190.7666556256095
 33
0.0
  0
SOLID
  5
10451
  8
0
  6
CONTINUOUS
 62
     2
 10
387.80064399368581
 20
185.2666556256101
 30
0.0
 11
388.63397732701918
 21
185.2666556256101
 31
0.0
 12
388.2173106603525
 22
187.7666556256101
 32
0.0
 13
388.2173106603525
 23
187.7666556256101
 33
0.0
  0
INSERT
  5
10452
  8
0
  6
CONTINUOUS
  2
*U172
 10
0.0
 20
0.0
 30
0.0
  0
POINT
  5
10453
  8
DEFPOINTS
  6
CONTINUOUS
 62
     0
 10
380.81382714093837
 20
190.7666556256095
 30
0.0
  0
POINT
  5
10454
  8
DEFPOINTS
  6
CONTINUOUS
 62
     0
 10
374.9251673353354
 20
187.7666556256101
 30
0.0
  0
POINT
  5
10455
  8
DEFPOINTS
  6
CONTINUOUS
 62
     0
 10
388.2173106603525
 20
187.7666556256101
 30
0.0
  0
ENDBLK
  5
B2DD
  8
0
  0
BLOCK
  8
0
  2
*D10
 70
     1
 10
0.0
 20
0.0
 30
0.0
  3
*D10
  1

  0
LINE
  5
1040E
  8
0
  6
CONTINUOUS
 62
     2
 10
27.557409369387209
 20
217.9039794077537
 30
0.0
 11
14.614011134224819
 21
217.9039794077537
 31
0.0
  0
LINE
  5
1040F
  8
0
  6
CONTINUOUS
 62
     2
 10
15.614011134224819
 20
215.4039794077537
 30
0.0
 11
15.614011134224819
 21
184.78591739988019
 31
0.0
  0
SOLID
  5
10410
  8
0
  6
CONTINUOUS
 62
     2
 10
15.19734446755816
 20
215.4039794077537
 30
0.0
 11
16.030677800891489
 21
215.4039794077537
 31
0.0
 12
15.614011134224819
 22
217.9039794077537
 32
0.0
 13
15.614011134224819
 23
217.9039794077537
 33
0.0
  0
INSERT
  5
10411
  8
0
  6
CONTINUOUS
  2
*U165
 10
0.0
 20
0.0
 30
0.0
  0
POINT
  5
10412
  8
DEFPOINTS
  6
CONTINUOUS
 62
     0
 10
26.65740936938721
 20
164.9039794077546
 30
0.0
  0
POINT
  5
10413
  8
DEFPOINTS
  6
CONTINUOUS
 62
     0
 10
28.15740936938721
 20
217.9039794077537
 30
0.0
  0
POINT
  5
10414
  8
DEFPOINTS
  6
CONTINUOUS
 62
     0
 10
15.614011134224819
 20
217.9039794077537
 30
0.0
  0
ENDBLK
  5
B2EB
  8
0
  0
BLOCK
  8
0
  2
*D11
 70
     1
 10
0.0
 20
0.0
 30
0.0
  3
*D11
  1

  0
LINE
  5
10415
  8
0
  6
CONTINUOUS
 62
     2
 10
66.057409369387216
 20
228.9104794077542
 30
0.0
 11
6.6140111342248247
 21
228.9104794077542
 31
0.0
  0
LINE
  5
10416
  8
0
  6
CONTINUOUS
 62
     2
 10
7.6140111342248238
 20
226.4104794077542
 30
0.0
 11
7.614011134224814
 21
180.40298698370501
 31
0.0
  0
SOLID
  5
10417
  8
0
  6
CONTINUOUS
 62
     2
 10
7.1973444675581568
 20
226.4104794077542
 30
0.0
 11
8.0306778008914907
 21
226.4104794077542
 31
0.0
 12
7.6140111342248238
 22
228.9104794077542
 32
0.0
 13
7.6140111342248238
 23
228.9104794077542
 33
0.0
  0
INSERT
  5
10418
  8
0
  6
CONTINUOUS
  2
*U166
 10
0.0
 20
0.0
 30
0.0
  0
POINT
  5
10419
  8
DEFPOINTS
  6
CONTINUOUS
 62
     0
 10
66.65740936938721
 20
153.8974794077541
 30
0.0
  0
POINT
  5
1041A
  8
DEFPOINTS
  6
CONTINUOUS
 62
     0
 10
66.65740936938721
 20
228.9104794077542
 30
0.0
  0
POINT
  5
1041B
  8
DEFPOINTS
  6
CONTINUOUS
 62
     0
 10
7.6140111342248238
 20
228.9104794077542
 30
0.0
  0
ENDBLK
  5
B2F5
  8
0
  0
BLOCK
  8
0
  2
*D12
 70
     1
 10
0.0
 20
0.0
 30
0.0
  3
*D12
  1

  0
LINE
  5
1042E
  8
0
  6
CONTINUOUS
 62
     2
 10
26.65740936938721
 20
157.20374455853201
 30
0.0
 11
26.65740936938721
 21
128.61383973461449
 31
0.0
  0
LINE
  5
1042F
  8
0
  6
CONTINUOUS
 62
     2
 10
76.65740936938721
 20
141.30124611908201
 30
0.0
 11
76.65740936938721
 21
128.61383973461449
 31
0.0
  0
LINE
  5
10430
  8
0
  6
CONTINUOUS
 62
     2
 10
29.15740936938721
 20
129.61383973461449
 30
0.0
 11
74.15740936938721
 21
129.61383973461449
 31
0.0
  0
SOLID
  5
10431
  8
0
  6
CONTINUOUS
 62
     2
 10
29.15740936938721
 20
130.03050640128109
 30
0.0
 11
29.15740936938721
 21
129.1971730679478
 31
0.0
 12
26.65740936938721
 22
129.61383973461449
 32
0.0
 13
26.65740936938721
 23
129.61383973461449
 33
0.0
  0
SOLID
  5
10432
  8
0
  6
CONTINUOUS
 62
     2
 10
74.15740936938721
 20
130.03050640128109
 30
0.0
 11
74.15740936938721
 21
129.1971730679478
 31
0.0
 12
76.65740936938721
 22
129.61383973461449
 32
0.0
 13
76.65740936938721
 23
129.61383973461449
 33
0.0
  0
INSERT
  5
10433
  8
0
  6
CONTINUOUS
  2
*U169
 10
0.0
 20
0.0
 30
0.0
  0
POINT
  5
10434
  8
DEFPOINTS
  6
CONTINUOUS
 62
     0
 10
26.65740936938721
 20
157.803744558532
 30
0.0
  0
POINT
  5
10435
  8
DEFPOINTS
  6
CONTINUOUS
 62
     0
 10
76.65740936938721
 20
141.90124611908189
 30
0.0
  0
POINT
  5
10436
  8
DEFPOINTS
  6
CONTINUOUS
 62
     0
 10
76.65740936938721
 20
129.61383973461449
 30
0.0
  0
ENDBLK
  5
B311
  8
0
  0
BLOCK
  8
0
  2
*D13
 70
     1
 10
0.0
 20
0.0
 30
0.0
  3
*D13
  1

  0
LINE
  5
E56B
  8
0
  6
CONTINUOUS
 62
     2
 10
710.83462868411425
 20
109.2054718701493
 30
0.0
 11
689.00243374633794
 21
109.2054718701493
 31
0.0
  0
LINE
  5
E56C
  8
0
  6
CONTINUOUS
 62
     2
 10
690.00243374633794
 20
106.7054718701494
 30
0.0
 11
690.00243374633794
 21
84.795233234075511
 31
0.0
  0
SOLID
  5
E56D
  8
0
  6
CONTINUOUS
 62
     2
 10
689.58576707967131
 20
106.7054718701494
 30
0.0
 11
690.41910041300446
 21
106.7054718701494
 31
0.0
 12
690.00243374633794
 22
109.2054718701493
 32
0.0
 13
690.00243374633794
 23
109.2054718701493
 33
0.0
  0
INSERT
  5
E56E
  8
0
  6
CONTINUOUS
  2
*U122
 10
0.0
 20
0.0
 30
0.0
  0
POINT
  5
E56F
  8
DEFPOINTS
  6
CONTINUOUS
 62
     0
 10
712.63462868411432
 20
63.805471870149397
 30
0.0
  0
POINT
  5
E570
  8
DEFPOINTS
  6
CONTINUOUS
 62
     0
 10
711.43462868411427
 20
109.2054718701493
 30
0.0
  0
POINT
  5
E571
  8
DEFPOINTS
  6
CONTINUOUS
 62
     0
 10
690.00243374633794
 20
109.2054718701493
 30
0.0
  0
ENDBLK
  5
D00D
  8
0
  0
BLOCK
  8
0
  2
*D14
 70
     1
 10
0.0
 20
0.0
 30
0.0
  3
*D14
  1

  0
LINE
  5
E572
  8
0
  6
CONTINUOUS
 62
     2
 10
711.43462868411427
 20
114.4054718701494
 30
0.0
 11
711.43462868411427
 21
136.4712899555866
 31
0.0
  0
LINE
  5
E573
  8
0
  6
CONTINUOUS
 62
     2
 10
713.43462868411416
 20
106.3413702550116
 30
0.0
 11
713.43462868411416
 21
136.4712899555866
 31
0.0
  0
LINE
  5
E574
  8
0
  6
CONTINUOUS
 62
     2
 10
711.43462868411427
 20
135.4712899555866
 30
0.0
 11
708.93462868411416
 21
135.4712899555866
 31
0.0
  0
LINE
  5
E575
  8
0
  6
CONTINUOUS
 62
     2
 10
715.93462868411427
 20
135.4712899555866
 30
0.0
 11
726.96661353221259
 21
135.4712899555866
 31
0.0
  0
LINE
  5
E576
  8
0
  6
CONTINUOUS
 62
     2
 10
711.43462868411427
 20
135.4712899555866
 30
0.0
 11
713.43462868411416
 21
135.4712899555866
 31
0.0
  0
INSERT
  5
E577
  8
0
  6
CONTINUOUS
 62
     2
  2
_OBLIQUE
 10
711.43462868411427
 20
135.4712899555866
 30
0.0
 41
2.5
 42
2.5
 43
2.5
  0
SOLID
  5
E578
  8
0
  6
CONTINUOUS
 62
     2
 10
715.93462868411427
 20
135.8879566222532
 30
0.0
 11
715.93462868411427
 21
135.05462328891991
 31
0.0
 12
713.43462868411416
 22
135.4712899555866
 32
0.0
 13
713.43462868411416
 23
135.4712899555866
 33
0.0
  0
INSERT
  5
E579
  8
0
  6
CONTINUOUS
  2
*U123
 10
0.0
 20
0.0
 30
0.0
  0
POINT
  5
E57A
  8
DEFPOINTS
  6
CONTINUOUS
 62
     0
 10
711.43462868411427
 20
113.8054718701494
 30
0.0
  0
POINT
  5
E57B
  8
DEFPOINTS
  6
CONTINUOUS
 62
     0
 10
713.43462868411416
 20
105.7413702550116
 30
0.0
  0
POINT
  5
E57C
  8
DEFPOINTS
  6
CONTINUOUS
 62
     0
 10
713.43462868411416
 20
135.4712899555866
 30
0.0
  0
ENDBLK
  5
D017
  8
0
  0
BLOCK
  8
0
  2
*D15
 70
     1
 10
0.0
 20
0.0
 30
0.0
  3
*D15
  1

  0
LINE
  5
E57D
  8
0
  6
CONTINUOUS
 62
     2
 10
712.83462868411425
 20
105.7413702550117
 30
0.0
 11
697.00243374633794
 21
105.7413702550117
 31
0.0
  0
LINE
  5
E57E
  8
0
  6
CONTINUOUS
 62
     2
 10
698.00243374633794
 20
103.2413702550117
 30
0.0
 11
698.00243374633794
 21
80.164294779110094
 31
0.0
  0
SOLID
  5
E57F
  8
0
  6
CONTINUOUS
 62
     2
 10
697.58576707967131
 20
103.2413702550117
 30
0.0
 11
698.41910041300446
 21
103.2413702550117
 31
0.0
 12
698.00243374633794
 22
105.7413702550117
 32
0.0
 13
698.00243374633794
 23
105.7413702550117
 33
0.0
  0
INSERT
  5
E580
  8
0
  6
CONTINUOUS
  2
*U124
 10
0.0
 20
0.0
 30
0.0
  0
POINT
  5
E581
  8
DEFPOINTS
  6
CONTINUOUS
 62
     0
 10
714.03462868411418
 20
63.805471870149397
 30
0.0
  0
POINT
  5
E582
  8
DEFPOINTS
  6
CONTINUOUS
 62
     0
 10
713.43462868411416
 20
105.7413702550117
 30
0.0
  0
POINT
  5
E583
  8
DEFPOINTS
  6
CONTINUOUS
 62
     0
 10
698.00243374633794
 20
105.7413702550117
 30
0.0
  0
ENDBLK
  5
D025
  8
0
  0
BLOCK
  8
0
  2
*D16
 70
     1
 10
0.0
 20
0.0
 30
0.0
  3
*D16
  1

  0
LINE
  5
E584
  8
0
  6
CONTINUOUS
 62
     2
 10
706.10162301018215
 20
104.8454595019538
 30
0.0
 11
711.01535875836112
 21
100.2907695018461
 31
0.0
  0
INSERT
  5
E585
  8
0
  6
CONTINUOUS
  2
*U125
 10
0.0
 20
0.0
 30
0.0
  0
SOLID
  5
E586
  8
0
  6
CONTINUOUS
 62
     2
 10
711.29861062403927
 20
100.59635008320051
 30
0.0
 11
710.73210689268285
 21
99.985188920491794
 31
0.0
 12
712.84884224648727
 22
98.591258307776343
 32
0.0
 13
712.84884224648727
 23
98.591258307776343
 33
0.0
  0
POINT
  5
E587
  8
DEFPOINTS
  6
CONTINUOUS
 62
     0
 10
712.84884224648727
 20
98.591258307776343
 30
0.0
  0
POINT
  5
E588
  8
DEFPOINTS
  6
CONTINUOUS
 62
     0
 10
711.38205545598623
 20
99.950867263032364
 30
0.0
  0
ENDBLK
  5
D02F
  8
0
  0
BLOCK
  8
0
  2
*D17
 70
     1
 10
0.0
 20
0.0
 30
0.0
  3
*D17
  1

  0
LINE
  5
1045D
  8
0
  6
CONTINUOUS
 62
     2
 10
369.71980673824612
 20
126.2338494213944
 30
0.0
 11
390.00537145339428
 21
126.2338494213944
 31
0.0
  0
LINE
  5
1045E
  8
0
  6
CONTINUOUS
 62
     2
 10
389.00537145339428
 20
123.7338494213944
 30
0.0
 11
389.00537145339428
 21
98.575356997345324
 31
0.0
  0
SOLID
  5
1045F
  8
0
  6
CONTINUOUS
 62
     2
 10
388.58870478672759
 20
123.7338494213944
 30
0.0
 11
389.4220381200609
 21
123.7338494213944
 31
0.0
 12
389.00537145339428
 22
126.2338494213944
 32
0.0
 13
389.00537145339428
 23
126.2338494213944
 33
0.0
  0
INSERT
  5
10460
  8
0
  6
CONTINUOUS
  2
*U174
 10
0.0
 20
0.0
 30
0.0
  0
POINT
  5
10461
  8
DEFPOINTS
  6
CONTINUOUS
 62
     0
 10
369.11980673824598
 20
126.2338494213944
 30
0.0
  0
POINT
  5
10462
  8
DEFPOINTS
  6
CONTINUOUS
 62
     0
 10
369.805525745203
 20
87.833849421394575
 30
0.0
  0
POINT
  5
10463
  8
DEFPOINTS
  6
CONTINUOUS
 62
     0
 10
389.00537145339428
 20
87.833849421394575
 30
0.0
  0
ENDBLK
  5
D037
  8
0
  0
BLOCK
  8
0
  2
*D18
 70
     1
 10
0.0
 20
0.0
 30
0.0
  3
*D18
  1

  0
LINE
  5
10464
  8
0
  6
CONTINUOUS
 62
     2
 10
356.96010516502952
 20
128.23384942139461
 30
0.0
 11
398.00537145339428
 21
128.23384942139461
 31
0.0
  0
LINE
  5
10465
  8
0
  6
CONTINUOUS
 62
     2
 10
397.00537145339428
 20
125.73384942139459
 30
0.0
 11
397.00537145339428
 21
102.6338494213946
 31
0.0
  0
SOLID
  5
10466
  8
0
  6
CONTINUOUS
 62
     2
 10
396.58870478672759
 20
125.73384942139459
 30
0.0
 11
397.4220381200609
 21
125.73384942139459
 31
0.0
 12
397.00537145339439
 22
128.23384942139461
 32
0.0
 13
397.00537145339439
 23
128.23384942139461
 33
0.0
  0
INSERT
  5
10467
  8
0
  6
CONTINUOUS
  2
*U175
 10
0.0
 20
0.0
 30
0.0
  0
POINT
  5
10468
  8
DEFPOINTS
  6
CONTINUOUS
 62
     0
 10
356.36010516502938
 20
128.23384942139461
 30
0.0
  0
POINT
  5
10469
  8
DEFPOINTS
  6
CONTINUOUS
 62
     0
 10
355.76010516502942
 20
87.833849421394575
 30
0.0
  0
POINT
  5
1046A
  8
DEFPOINTS
  6
CONTINUOUS
 62
     0
 10
397.00537145339428
 20
87.833849421394575
 30
0.0
  0
ENDBLK
  5
D041
  8
0
  0
BLOCK
  8
0
  2
*D19
 70
     1
 10
0.0
 20
0.0
 30
0.0
  3
*D19
  1

  0
LINE
  5
1046B
  8
0
  6
CONTINUOUS
 62
     2
 10
337.76010516502942
 20
120.33384942139431
 30
0.0
 11
316.25764233035642
 21
120.33384942139431
 31
0.0
  0
LINE
  5
1046C
  8
0
  6
CONTINUOUS
 62
     2
 10
317.25764233035642
 20
117.83384942139431
 30
0.0
 11
317.25764233035642
 21
98.921717387038385
 31
0.0
  0
SOLID
  5
1046D
  8
0
  6
CONTINUOUS
 62
     2
 10
316.84097566368979
 20
117.83384942139431
 30
0.0
 11
317.6743089970231
 21
117.83384942139431
 31
0.0
 12
317.25764233035642
 22
120.33384942139431
 32
0.0
 13
317.25764233035642
 23
120.33384942139431
 33
0.0
  0
INSERT
  5
1046E
  8
0
  6
CONTINUOUS
  2
*U176
 10
0.0
 20
0.0
 30
0.0
  0
POINT
  5
1046F
  8
DEFPOINTS
  6
CONTINUOUS
 62
     0
 10
338.36010516502961
 20
87.833849421394333
 30
0.0
  0
POINT
  5
10470
  8
DEFPOINTS
  6
CONTINUOUS
 62
     0
 10
338.36010516502938
 20
120.33384942139431
 30
0.0
  0
POINT
  5
10471
  8
DEFPOINTS
  6
CONTINUOUS
 62
     0
 10
317.25764233035642
 20
120.33384942139431
 30
0.0
  0
ENDBLK
  5
D04B
  8
0
  0
BLOCK
  8
0
  2
*D20
 70
     1
 10
0.0
 20
0.0
 30
0.0
  3
*D20
  1

  0
LINE
  5
10472
  8
0
  6
CONTINUOUS
 62
     2
 10
355.56010516502931
 20
122.83384942139431
 30
0.0
 11
360.6112379163298
 21
122.83384942139431
 31
0.0
  0
LINE
  5
10473
  8
0
  6
CONTINUOUS
 62
     2
 10
359.41123791632992
 20
120.33384942139431
 30
0.0
 11
359.41123791632992
 21
98.105787413520332
 31
0.0
  0
SOLID
  5
10474
  8
0
  6
CONTINUOUS
 62
     2
 10
358.99457124966318
 20
120.33384942139431
 30
0.0
 11
359.8279045829965
 21
120.33384942139431
 31
0.0
 12
359.41123791632992
 22
122.83384942139431
 32
0.0
 13
359.41123791632992
 23
122.83384942139431
 33
0.0
  0
INSERT
  5
10475
  8
0
  6
CONTINUOUS
  2
*U177
 10
0.0
 20
0.0
 30
0.0
  0
POINT
  5
10476
  8
DEFPOINTS
  6
CONTINUOUS
 62
     0
 10
355.56010516502931
 20
122.83384942139431
 30
0.0
  0
POINT
  5
10477
  8
DEFPOINTS
  6
CONTINUOUS
 62
     0
 10
355.1295282601551
 20
87.833849421394333
 30
0.0
  0
POINT
  5
10478
  8
DEFPOINTS
  6
CONTINUOUS
 62
     0
 10
359.41123791632992
 20
87.833849421394333
 30
0.0
  0
ENDBLK
  5
D055
  8
0
  0
BLOCK
  8
0
  2
*D21
 70
     1
 10
0.0
 20
0.0
 30
0.0
  3
*D21
  1

  0
LINE
  5
10479
  8
0
  6
CONTINUOUS
 62
     2
 10
367.96397847969348
 20
110.1256407691984
 30
0.0
 11
357.81310357311952
 21
121.2234485991748
 31
0.0
  0
INSERT
  5
1047A
  8
0
  6
CONTINUOUS
  2
*U178
 10
0.0
 20
0.0
 30
0.0
  0
LINE
  5
1047B
  8
0
  6
CONTINUOUS
 62
     2
 10
355.3158803580705
 20
123.9536273871353
 30
0.0
 11
356.12579058997881
 21
123.0681639964448
 31
0.0
  0
SOLID
  5
1047C
  8
0
  6
CONTINUOUS
 62
     2
 10
358.1205561393312
 20
121.5046674296982
 30
0.0
 11
357.50565100690778
 21
120.9422297686513
 31
0.0
 12
356.12579058997881
 22
123.0681639964448
 32
0.0
 13
356.12579058997881
 23
123.0681639964448
 33
0.0
  0
POINT
  5
1047D
  8
DEFPOINTS
  6
CONTINUOUS
 62
     0
 10
356.12579058997881
 20
123.0681639964448
 30
0.0
  0
POINT
  5
1047E
  8
DEFPOINTS
  6
CONTINUOUS
 62
     0
 10
355.3158803580705
 20
123.9536273871353
 30
0.0
  0
ENDBLK
  5
D05F
  8
0
  0
BLOCK
  8
0
  2
*D22
 70
     1
 10
0.0
 20
0.0
 30
0.0
  3
*D22
  1

  0
LINE
  5
1047F
  8
0
  6
CONTINUOUS
 62
     2
 10
340.36010516502938
 20
124.03384942139419
 30
0.0
 11
340.36010516502938
 21
146.61675292912909
 31
0.0
  0
LINE
  5
10480
  8
0
  6
CONTINUOUS
 62
     2
 10
356.36010516502938
 20
128.8338494213946
 30
0.0
 11
356.36010516502938
 21
146.61675292912909
 31
0.0
  0
LINE
  5
10481
  8
0
  6
CONTINUOUS
 62
     2
 10
342.86010516502938
 20
145.61675292912909
 30
0.0
 11
353.86010516502949
 21
145.61675292912909
 31
0.0
  0
SOLID
  5
10482
  8
0
  6
CONTINUOUS
 62
     2
 10
342.86010516502938
 20
146.03341959579569
 30
0.0
 11
342.86010516502938
 21
145.20008626246241
 31
0.0
 12
340.36010516502938
 22
145.61675292912909
 32
0.0
 13
340.36010516502938
 23
145.61675292912909
 33
0.0
  0
SOLID
  5
10483
  8
0
  6
CONTINUOUS
 62
     2
 10
353.86010516502949
 20
146.03341959579569
 30
0.0
 11
353.86010516502949
 21
145.20008626246241
 31
0.0
 12
356.36010516502938
 22
145.61675292912909
 32
0.0
 13
356.36010516502938
 23
145.61675292912909
 33
0.0
  0
INSERT
  5
10484
  8
0
  6
CONTINUOUS
  2
*U179
 10
0.0
 20
0.0
 30
0.0
  0
POINT
  5
10485
  8
DEFPOINTS
  6
CONTINUOUS
 62
     0
 10
340.36010516502938
 20
123.4338494213942
 30
0.0
  0
POINT
  5
10486
  8
DEFPOINTS
  6
CONTINUOUS
 62
     0
 10
356.36010516502938
 20
128.23384942139461
 30
0.0
  0
POINT
  5
10487
  8
DEFPOINTS
  6
CONTINUOUS
 62
     0
 10
356.36010516502938
 20
145.61675292912909
 30
0.0
  0
ENDBLK
  5
D068
  8
0
  0
BLOCK
  8
0
  2
*D23
 70
     1
 10
0.0
 20
0.0
 30
0.0
  3
*D23
  1

  0
LINE
  5
10488
  8
0
  6
CONTINUOUS
 62
     2
 10
338.36010516502938
 20
120.9338494213943
 30
0.0
 11
338.36010516502938
 21
146.61675292912909
 31
0.0
  0
LINE
  5
10489
  8
0
  6
CONTINUOUS
 62
     2
 10
340.36010516502938
 20
124.03384942139419
 30
0.0
 11
340.36010516502938
 21
146.61675292912909
 31
0.0
  0
LINE
  5
1048A
  8
0
  6
CONTINUOUS
 62
     2
 10
342.86010516502938
 20
145.61675292912909
 30
0.0
 11
345.36010516502949
 21
145.61675292912909
 31
0.0
  0
LINE
  5
1048B
  8
0
  6
CONTINUOUS
 62
     2
 10
335.86010516502938
 20
145.61675292912909
 30
0.0
 11
331.56010516502943
 21
145.61675292912909
 31
0.0
  0
LINE
  5
1048C
  8
0
  6
CONTINUOUS
 62
     2
 10
340.36010516502938
 20
145.61675292912909
 30
0.0
 11
338.36010516502938
 21
145.61675292912909
 31
0.0
  0
SOLID
  5
1048D
  8
0
  6
CONTINUOUS
 62
     2
 10
342.86010516502938
 20
146.03341959579569
 30
0.0
 11
342.86010516502938
 21
145.20008626246241
 31
0.0
 12
340.36010516502938
 22
145.61675292912909
 32
0.0
 13
340.36010516502938
 23
145.61675292912909
 33
0.0
  0
SOLID
  5
1048E
  8
0
  6
CONTINUOUS
 62
     2
 10
335.86010516502938
 20
146.03341959579569
 30
0.0
 11
335.86010516502938
 21
145.20008626246241
 31
0.0
 12
338.36010516502938
 22
145.61675292912909
 32
0.0
 13
338.36010516502938
 23
145.61675292912909
 33
0.0
  0
INSERT
  5
1048F
  8
0
  6
CONTINUOUS
  2
*U180
 10
0.0
 20
0.0
 30
0.0
  0
POINT
  5
10490
  8
DEFPOINTS
  6
CONTINUOUS
 62
     0
 10
338.36010516502938
 20
120.33384942139431
 30
0.0
  0
POINT
  5
10491
  8
DEFPOINTS
  6
CONTINUOUS
 62
     0
 10
340.36010516502938
 20
123.4338494213942
 30
0.0
  0
POINT
  5
10492
  8
DEFPOINTS
  6
CONTINUOUS
 62
     0
 10
340.36010516502938
 20
145.61675292912909
 30
0.0
  0
ENDBLK
  5
D074
  8
0
  0
BLOCK
  8
0
  2
*D24
 70
     1
 10
0.0
 20
0.0
 30
0.0
  3
*D24
  1

  0
LINE
  5
10493
  8
0
  6
CONTINUOUS
 62
     2
 10
340.36010516502938
 20
123.03384942139419
 30
0.0
 11
340.36010516502938
 21
138.61675292912909
 31
0.0
  0
LINE
  5
10494
  8
0
  6
CONTINUOUS
 62
     2
 10
347.36010516502949
 20
123.4338494213947
 30
0.0
 11
347.36010516502949
 21
138.61675292912909
 31
0.0
  0
LINE
  5
10495
  8
0
  6
CONTINUOUS
 62
     2
 10
344.86010516502938
 20
137.61675292912909
 30
0.0
 11
342.86010516502938
 21
137.61675292912909
 31
0.0
  0
LINE
  5
10496
  8
0
  6
CONTINUOUS
 62
     2
 10
340.36010516502938
 20
137.61675292912909
 30
0.0
 11
320.31128626739172
 21
137.61675292912909
 31
0.0
  0
SOLID
  5
10497
  8
0
  6
CONTINUOUS
 62
     2
 10
344.86010516502938
 20
138.03341959579569
 30
0.0
 11
344.86010516502938
 21
137.20008626246241
 31
0.0
 12
347.36010516502949
 22
137.61675292912909
 32
0.0
 13
347.36010516502949
 23
137.61675292912909
 33
0.0
  0
SOLID
  5
10498
  8
0
  6
CONTINUOUS
 62
     2
 10
342.86010516502938
 20
138.03341959579569
 30
0.0
 11
342.86010516502938
 21
137.20008626246241
 31
0.0
 12
340.36010516502938
 22
137.61675292912909
 32
0.0
 13
340.36010516502938
 23
137.61675292912909
 33
0.0
  0
INSERT
  5
10499
  8
0
  6
CONTINUOUS
  2
*U181
 10
0.0
 20
0.0
 30
0.0
  0
POINT
  5
1049A
  8
DEFPOINTS
  6
CONTINUOUS
 62
     0
 10
340.36010516502938
 20
122.4338494213942
 30
0.0
  0
POINT
  5
1049B
  8
DEFPOINTS
  6
CONTINUOUS
 62
     0
 10
347.36010516502949
 20
122.8338494213947
 30
0.0
  0
POINT
  5
1049C
  8
DEFPOINTS
  6
CONTINUOUS
 62
     0
 10
347.36010516502949
 20
137.61675292912909
 30
0.0
  0
ENDBLK
  5
D082
  8
0
  0
BLOCK
  8
0
  2
*D25
 70
     1
 10
0.0
 20
0.0
 30
0.0
  3
*D25
  1

  0
LINE
  5
1049D
  8
0
  6
CONTINUOUS
 62
     2
 10
354.99675814084929
 20
129.51221093326171
 30
0.0
 11
347.95785715054859
 21
137.20110904827021
 31
0.0
  0
LINE
  5
1049E
  8
0
  6
CONTINUOUS
 62
     2
 10
357.3601051650291
 20
126.9306240485525
 30
0.0
 11
356.68486315812049
 21
127.6682203013267
 31
0.0
  0
SOLID
  5
1049F
  8
0
  6
CONTINUOUS
 62
     2
 10
355.30408991283861
 20
129.79356176947351
 30
0.0
 11
354.68942636886021
 21
129.2308600970498
 31
0.0
 12
356.68486315812049
 22
127.6682203013267
 32
0.0
 13
356.68486315812049
 23
127.6682203013267
 33
0.0
  0
INSERT
  5
104A0
  8
0
  6
CONTINUOUS
  2
*U182
 10
0.0
 20
0.0
 30
0.0
  0
POINT
  5
104A1
  8
DEFPOINTS
  6
CONTINUOUS
 62
     0
 10
356.68486315812049
 20
127.6682203013267
 30
0.0
  0
POINT
  5
104A2
  8
DEFPOINTS
  6
CONTINUOUS
 62
     0
 10
357.3601051650291
 20
126.9306240485525
 30
0.0
  0
ENDBLK
  5
D08F
  8
0
  0
BLOCK
  8
0
  2
*D26
 70
     1
 10
0.0
 20
0.0
 30
0.0
  3
*D26
  1

  0
LINE
  5
104A3
  8
0
  6
CONTINUOUS
 62
     2
 10
364.40376227593919
 20
126.0785579943329
 30
0.0
 11
382.46661377625941
 21
121.2386315218173
 31
0.0
  0
LINE
  5
104A4
  8
0
  6
CONTINUOUS
 62
     2
 10
369.71980673824612
 20
126.2338494213944
 30
0.0
 11
383.12424668873223
 21
126.2338494213943
 31
0.0
  0
ARC
  5
104A5
  8
0
  6
CONTINUOUS
 62
     2
 10
363.82420678016581
 20
126.2338494213944
 30
0.0
 40
18.30003990856645
 50
329.29634317613932
 51
344.99999999999551
  0
LINE
  5
104A6
  8
0
  6
CONTINUOUS
 62
     2
 10
379.55894133258539
 20
116.8898893818813
 30
0.0
 11
376.64853389679098
 21
111.98891717652521
 31
0.0
  0
ARC
  5
104A7
  8
0
  6
CONTINUOUS
 62
     2
 10
363.82420678016581
 20
126.2338494213944
 30
0.0
 40
18.30003990856645
 50
329.3332507280839
 51
337.1666253640397
  0
ARC
  5
104A8
  8
0
  6
CONTINUOUS
 62
     2
 10
363.82420678016581
 20
126.2338494213944
 30
0.0
 40
18.30003990856645
 50
7.8333746359556153
 51
15.666749271911391
  0
ARC
  5
104A9
  8
0
  6
CONTINUOUS
 62
     2
 10
363.82420678016581
 20
126.2338494213944
 30
0.0
 40
18.30003990856645
 50
344.99999999999551
 51
359.99999999999977
  0
SOLID
  5
104AA
  8
0
  6
CONTINUOUS
 62
     2
 10
380.29604266605918
 20
119.26755351748869
 30
0.0
 11
381.08436848122119
 21
118.9973927253787
 31
0.0
 12
381.50068794997048
 22
121.4974505669198
 32
0.0
 13
381.50068794997048
 23
121.4974505669198
 33
0.0
  0
SOLID
  5
104AB
  8
0
  6
CONTINUOUS
 62
     2
 10
382.36917554512939
 20
128.7564712651147
 30
0.0
 11
381.53778852249599
 21
128.69954971347491
 31
0.0
 12
382.12424668873223
 22
126.2338494213943
 32
0.0
 13
382.12424668873223
 23
126.2338494213943
 33
0.0
  0
INSERT
  5
104AC
  8
0
  6
CONTINUOUS
  2
*U183
 10
0.0
 20
0.0
 30
0.0
  0
POINT
  5
104AD
  8
DEFPOINTS
  6
CONTINUOUS
 62
     0
 10
382.05460951194698
 20
124.638895850851
 30
0.0
  0
POINT
  5
104AE
  8
DEFPOINTS
  6
CONTINUOUS
 62
     0
 10
363.82420678016581
 20
126.2338494213944
 30
0.0
  0
POINT
  5
104AF
  8
DEFPOINTS
  6
CONTINUOUS
 62
     0
 10
357.61892421013209
 20
127.89654987484241
 30
0.0
  0
POINT
  5
104B0
  8
DEFPOINTS
  6
CONTINUOUS
 62
     0
 10
363.82420678016581
 20
126.2338494213944
 30
0.0
  0
POINT
  5
104B1
  8
DEFPOINTS
  6
CONTINUOUS
 62
     0
 10
369.1198067382461
 20
126.2338494213944
 30
0.0
  0
ENDBLK
  5
D098
  8
0
  0
BLOCK
  8
0
  2
*D27
 70
     1
 10
0.0
 20
0.0
 30
0.0
  3
*D27
  1

  0
LINE
  5
104B2
  8
0
  6
CONTINUOUS
 62
     2
 10
338.76377442491128
 20
124.7782811040569
 30
0.0
 11
330.88626665176929
 21
131.6054439597624
 31
0.0
  0
LINE
  5
104B3
  8
0
  6
CONTINUOUS
 62
     2
 10
341.40868796741768
 20
122.4860262419902
 30
0.0
 11
340.65299838384431
 21
123.1409562025809
 31
0.0
  0
SOLID
  5
104B4
  8
0
  6
CONTINUOUS
 62
     2
 10
339.03666190849071
 20
125.09315176387911
 30
0.0
 11
338.49088694133189
 21
124.4634104442347
 31
0.0
 12
340.65299838384431
 22
123.1409562025809
 32
0.0
 13
340.65299838384431
 23
123.1409562025809
 33
0.0
  0
INSERT
  5
104B5
  8
0
  6
CONTINUOUS
  2
*U184
 10
0.0
 20
0.0
 30
0.0
  0
POINT
  5
104B6
  8
DEFPOINTS
  6
CONTINUOUS
 62
     0
 10
340.65299838384431
 20
123.1409562025809
 30
0.0
  0
POINT
  5
104B7
  8
DEFPOINTS
  6
CONTINUOUS
 62
     0
 10
341.40868796741768
 20
122.4860262419902
 30
0.0
  0
ENDBLK
  5
D0AA
  8
0
  0
BLOCK
  8
0
  2
*D28
 70
     1
 10
0.0
 20
0.0
 30
0.0
  3
*D28
  1

  0
LINE
  5
104B8
  8
0
  6
CONTINUOUS
 62
     2
 10
344.54131918471552
 20
123.5891408484557
 30
0.0
 11
317.03360408021041
 21
130.95981089633091
 31
0.0
  0
LINE
  5
104B9
  8
0
  6
CONTINUOUS
 62
     2
 10
340.7601051650305
 20
123.4338494213942
 30
0.0
 11
316.04279245528869
 21
123.4338494213943
 31
0.0
  0
ARC
  5
104BA
  8
0
  6
CONTINUOUS
 62
     2
 10
345.1208746804889
 20
123.4338494213942
 30
0.0
 40
28.078082225200191
 50
170.10315500289261
 51
174.89684499711171
  0
SOLID
  5
104BB
  8
0
  6
CONTINUOUS
 62
     2
 10
317.0537572172031
 20
128.34958267133391
 30
0.0
 11
317.86749925875262
 21
128.16994878182669
 31
0.0
 12
317.99952990649939
 22
130.70099185122851
 32
0.0
 13
317.99952990649939
 23
130.70099185122851
 33
0.0
  0
SOLID
  5
104BC
  8
0
  6
CONTINUOUS
 62
     2
 10
317.57034279310409
 20
125.91282133575361
 30
0.0
 11
316.73783566748409
 21
125.94992026075541
 31
0.0
 12
317.04279245528869
 22
123.4338494213943
 32
0.0
 13
317.04279245528869
 23
123.4338494213943
 33
0.0
  0
INSERT
  5
104BD
  8
0
  6
CONTINUOUS
  2
*U185
 10
0.0
 20
0.0
 30
0.0
  0
POINT
  5
104BE
  8
DEFPOINTS
  6
CONTINUOUS
 62
     0
 10
317.4693616153973
 20
128.30955723218099
 30
0.0
  0
POINT
  5
104BF
  8
DEFPOINTS
  6
CONTINUOUS
 62
     0
 10
341.36010516503052
 20
123.4338494213943
 30
0.0
  0
POINT
  5
104C0
  8
DEFPOINTS
  6
CONTINUOUS
 62
     0
 10
347.36010516503057
 20
122.83384942139431
 30
0.0
  0
POINT
  5
104C1
  8
DEFPOINTS
  6
CONTINUOUS
 62
     0
 10
345.1208746804889
 20
123.4338494213942
 30
0.0
  0
POINT
  5
104C2
  8
DEFPOINTS
  6
CONTINUOUS
 62
     0
 10
345.1208746804889
 20
123.4338494213942
 30
0.0
  0
ENDBLK
  5
D0B3
  8
0
  0
BLOCK
  8
0
  2
*D29
 70
     1
 10
0.0
 20
0.0
 30
0.0
  3
*D29
  1

  0
LINE
  5
E589
  8
0
  6
CONTINUOUS
 62
     2
 10
609.69031949030204
 20
212.96732921555289
 30
0.0
 11
628.78993745504215
 21
212.96732921555289
 31
0.0
  0
LINE
  5
E58A
  8
0
  6
CONTINUOUS
 62
     2
 10
627.78993745504215
 20
210.46732921555289
 30
0.0
 11
627.78993745504215
 21
190.19732921555291
 31
0.0
  0
SOLID
  5
E58B
  8
0
  6
CONTINUOUS
 62
     2
 10
627.37327078837552
 20
210.46732921555289
 30
0.0
 11
628.20660412170866
 21
210.46732921555289
 31
0.0
 12
627.78993745504215
 22
212.96732921555289
 32
0.0
 13
627.78993745504215
 23
212.96732921555289
 33
0.0
  0
INSERT
  5
E58C
  8
0
  6
CONTINUOUS
  2
*U126
 10
0.0
 20
0.0
 30
0.0
  0
POINT
  5
E58D
  8
DEFPOINTS
  6
CONTINUOUS
 62
     0
 10
609.09031949030202
 20
181.46732921555289
 30
0.0
  0
POINT
  5
E58E
  8
DEFPOINTS
  6
CONTINUOUS
 62
     0
 10
609.09031949030202
 20
212.96732921555289
 30
0.0
  0
POINT
  5
E58F
  8
DEFPOINTS
  6
CONTINUOUS
 62
     0
 10
627.78993745504215
 20
212.96732921555289
 30
0.0
  0
ENDBLK
  5
D0C1
  8
0
  0
BLOCK
  8
0
  2
*D30
 70
     1
 10
0.0
 20
0.0
 30
0.0
  3
*D30
  1

  0
LINE
  5
E590
  8
0
  6
CONTINUOUS
 62
     2
 10
556.09031949030168
 20
196.6173292155529
 30
0.0
 11
556.09031949030168
 21
177.19483175550391
 31
0.0
  0
LINE
  5
E591
  8
0
  6
CONTINUOUS
 62
     2
 10
609.09031949030202
 20
196.6173292155531
 30
0.0
 11
609.09031949030202
 21
177.19483175550391
 31
0.0
  0
LINE
  5
E592
  8
0
  6
CONTINUOUS
 62
     2
 10
558.59031949030179
 20
178.19483175550391
 30
0.0
 11
606.59031949030202
 21
178.19483175550391
 31
0.0
  0
SOLID
  5
E593
  8
0
  6
CONTINUOUS
 62
     2
 10
558.59031949030179
 20
178.6114984221706
 30
0.0
 11
558.59031949030179
 21
177.77816508883731
 31
0.0
 12
556.09031949030168
 22
178.19483175550391
 32
0.0
 13
556.09031949030168
 23
178.19483175550391
 33
0.0
  0
SOLID
  5
E594
  8
0
  6
CONTINUOUS
 62
     2
 10
606.59031949030202
 20
178.6114984221706
 30
0.0
 11
606.59031949030202
 21
177.77816508883731
 31
0.0
 12
609.09031949030202
 22
178.19483175550391
 32
0.0
 13
609.09031949030202
 23
178.19483175550391
 33
0.0
  0
INSERT
  5
E595
  8
0
  6
CONTINUOUS
  2
*U127
 10
0.0
 20
0.0
 30
0.0
  0
POINT
  5
E596
  8
DEFPOINTS
  6
CONTINUOUS
 62
     0
 10
556.09031949030168
 20
197.21732921555281
 30
0.0
  0
POINT
  5
E597
  8
DEFPOINTS
  6
CONTINUOUS
 62
     0
 10
609.09031949030202
 20
197.21732921555309
 30
0.0
  0
POINT
  5
E598
  8
DEFPOINTS
  6
CONTINUOUS
 62
     0
 10
609.09031949030202
 20
178.19483175550391
 30
0.0
  0
ENDBLK
  5
D0CB
  8
0
  0
BLOCK
  8
0
  2
*D31
 70
     1
 10
0.0
 20
0.0
 30
0.0
  3
*D31
  1

  0
LINE
  5
E599
  8
0
  6
CONTINUOUS
 62
     2
 10
586.79031949030195
 20
196.6173292155529
 30
0.0
 11
586.79031949030195
 21
185.194831755504
 31
0.0
  0
LINE
  5
E59A
  8
0
  6
CONTINUOUS
 62
     2
 10
604.59031949030179
 20
196.6173292155529
 30
0.0
 11
604.59031949030179
 21
185.194831755504
 31
0.0
  0
LINE
  5
E59B
  8
0
  6
CONTINUOUS
 62
     2
 10
589.29031949030195
 20
186.19483175550391
 30
0.0
 11
602.09031949030168
 21
186.19483175550391
 31
0.0
  0
SOLID
  5
E59C
  8
0
  6
CONTINUOUS
 62
     2
 10
589.29031949030195
 20
186.6114984221706
 30
0.0
 11
589.29031949030195
 21
185.77816508883731
 31
0.0
 12
586.79031949030195
 22
186.19483175550391
 32
0.0
 13
586.79031949030195
 23
186.19483175550391
 33
0.0
  0
SOLID
  5
E59D
  8
0
  6
CONTINUOUS
 62
     2
 10
602.09031949030168
 20
186.6114984221706
 30
0.0
 11
602.09031949030168
 21
185.77816508883731
 31
0.0
 12
604.59031949030179
 22
186.19483175550391
 32
0.0
 13
604.59031949030179
 23
186.19483175550391
 33
0.0
  0
INSERT
  5
E59E
  8
0
  6
CONTINUOUS
  2
*U128
 10
0.0
 20
0.0
 30
0.0
  0
POINT
  5
E59F
  8
DEFPOINTS
  6
CONTINUOUS
 62
     0
 10
586.79031949030195
 20
197.21732921555289
 30
0.0
  0
POINT
  5
E5A0
  8
DEFPOINTS
  6
CONTINUOUS
 62
     0
 10
604.59031949030179
 20
197.21732921555289
 30
0.0
  0
POINT
  5
E5A1
  8
DEFPOINTS
  6
CONTINUOUS
 62
     0
 10
604.59031949030179
 20
186.19483175550391
 30
0.0
  0
ENDBLK
  5
D0D7
  8
0
  0
BLOCK
  8
0
  2
*D32
 70
     1
 10
0.0
 20
0.0
 30
0.0
  3
*D32
  1

  0
LINE
  5
E5A2
  8
0
  6
CONTINUOUS
 62
     2
 10
578.59031949030202
 20
196.6173292155529
 30
0.0
 11
578.59031949030202
 21
185.194831755504
 31
0.0
  0
LINE
  5
E5A3
  8
0
  6
CONTINUOUS
 62
     2
 10
586.79031949030195
 20
196.6173292155529
 30
0.0
 11
586.79031949030195
 21
185.194831755504
 31
0.0
  0
LINE
  5
E5A4
  8
0
  6
CONTINUOUS
 62
     2
 10
581.09031949030202
 20
186.19483175550391
 30
0.0
 11
584.29031949030195
 21
186.19483175550391
 31
0.0
  0
SOLID
  5
E5A5
  8
0
  6
CONTINUOUS
 62
     2
 10
581.09031949030202
 20
186.6114984221706
 30
0.0
 11
581.09031949030202
 21
185.77816508883731
 31
0.0
 12
578.59031949030202
 22
186.19483175550391
 32
0.0
 13
578.59031949030202
 23
186.19483175550391
 33
0.0
  0
SOLID
  5
E5A6
  8
0
  6
CONTINUOUS
 62
     2
 10
584.29031949030195
 20
186.6114984221706
 30
0.0
 11
584.29031949030195
 21
185.77816508883731
 31
0.0
 12
586.79031949030195
 22
186.19483175550391
 32
0.0
 13
586.79031949030195
 23
186.19483175550391
 33
0.0
  0
INSERT
  5
E5A7
  8
0
  6
CONTINUOUS
  2
*U129
 10
0.0
 20
0.0
 30
0.0
  0
POINT
  5
E5A8
  8
DEFPOINTS
  6
CONTINUOUS
 62
     0
 10
578.59031949030202
 20
197.21732921555289
 30
0.0
  0
POINT
  5
E5A9
  8
DEFPOINTS
  6
CONTINUOUS
 62
     0
 10
586.79031949030195
 20
197.21732921555289
 30
0.0
  0
POINT
  5
E5AA
  8
DEFPOINTS
  6
CONTINUOUS
 62
     0
 10
586.79031949030195
 20
186.19483175550391
 30
0.0
  0
ENDBLK
  5
D0E3
  8
0
  0
BLOCK
  8
0
  2
*D33
 70
     1
 10
0.0
 20
0.0
 30
0.0
  3
*D33
  1

  0
LINE
  5
E5AB
  8
0
  6
CONTINUOUS
 62
     2
 10
604.59031949030179
 20
196.6173292155529
 30
0.0
 11
604.59031949030179
 21
185.194831755504
 31
0.0
  0
LINE
  5
E5AC
  8
0
  6
CONTINUOUS
 62
     2
 10
609.09031949030202
 20
196.6173292155531
 30
0.0
 11
609.09031949030202
 21
185.194831755504
 31
0.0
  0
LINE
  5
E5AD
  8
0
  6
CONTINUOUS
 62
     2
 10
602.09031949030168
 20
186.19483175550391
 30
0.0
 11
599.59031949030179
 21
186.19483175550391
 31
0.0
  0
LINE
  5
E5AE
  8
0
  6
CONTINUOUS
 62
     2
 10
611.59031949030202
 20
186.19483175550391
 30
0.0
 11
619.91458355901386
 21
186.19483175550391
 31
0.0
  0
LINE
  5
E5AF
  8
0
  6
CONTINUOUS
 62
     2
 10
604.59031949030179
 20
186.19483175550391
 30
0.0
 11
609.09031949030202
 21
186.19483175550391
 31
0.0
  0
SOLID
  5
E5B0
  8
0
  6
CONTINUOUS
 62
     2
 10
602.09031949030168
 20
186.6114984221706
 30
0.0
 11
602.09031949030168
 21
185.77816508883731
 31
0.0
 12
604.59031949030179
 22
186.19483175550391
 32
0.0
 13
604.59031949030179
 23
186.19483175550391
 33
0.0
  0
SOLID
  5
E5B1
  8
0
  6
CONTINUOUS
 62
     2
 10
611.59031949030202
 20
186.6114984221706
 30
0.0
 11
611.59031949030202
 21
185.77816508883731
 31
0.0
 12
609.09031949030202
 22
186.19483175550391
 32
0.0
 13
609.09031949030202
 23
186.19483175550391
 33
0.0
  0
INSERT
  5
E5B2
  8
0
  6
CONTINUOUS
  2
*U130
 10
0.0
 20
0.0
 30
0.0
  0
POINT
  5
E5B3
  8
DEFPOINTS
  6
CONTINUOUS
 62
     0
 10
604.59031949030179
 20
197.21732921555289
 30
0.0
  0
POINT
  5
E5B4
  8
DEFPOINTS
  6
CONTINUOUS
 62
     0
 10
609.09031949030202
 20
197.21732921555309
 30
0.0
  0
POINT
  5
E5B5
  8
DEFPOINTS
  6
CONTINUOUS
 62
     0
 10
609.09031949030202
 20
186.19483175550391
 30
0.0
  0
ENDBLK
  5
D0EF
  8
0
  0
BLOCK
  8
0
  2
*D34
 70
     1
 10
0.0
 20
0.0
 30
0.0
  3
*D34
  1

  0
LINE
  5
E5B6
  8
0
  6
CONTINUOUS
 62
     2
 10
676.95414237796058
 20
191.3817395780645
 30
0.0
 11
667.48664577003444
 21
174.98355443265859
 31
0.0
  0
LINE
  5
E5B7
  8
0
  6
CONTINUOUS
 62
     2
 10
688.63926754639692
 20
191.3817395780645
 30
0.0
 11
698.10676415432295
 21
174.98355443265859
 31
0.0
  0
ARC
  5
E5B8
  8
0
  6
CONTINUOUS
 62
     2
 10
682.79670496217875
 20
201.50135482032641
 30
0.0
 40
29.620118384277241
 50
244.83732028230091
 51
295.16267971769912
  0
SOLID
  5
E5B9
  8
0
  6
CONTINUOUS
 62
     2
 10
670.00961207104604
 20
174.32274701780059
 30
0.0
 11
670.39545156352403
 21
175.06137570021741
 31
0.0
 12
667.98664577003456
 22
175.84957983644301
 32
0.0
 13
667.98664577003456
 23
175.84957983644301
 33
0.0
  0
SOLID
  5
E5BA
  8
0
  6
CONTINUOUS
 62
     2
 10
695.19795836083335
 20
175.06137570021741
 30
0.0
 11
695.58379785331135
 21
174.32274701780059
 31
0.0
 12
697.60676415432283
 22
175.84957983644301
 32
0.0
 13
697.60676415432283
 23
175.84957983644301
 33
0.0
  0
INSERT
  5
E5BB
  8
0
  6
CONTINUOUS
  2
*U131
 10
0.0
 20
0.0
 30
0.0
  0
POINT
  5
E5BC
  8
DEFPOINTS
  6
CONTINUOUS
 62
     0
 10
677.65322538246812
 20
172.33123259035111
 30
0.0
  0
POINT
  5
E5BD
  8
DEFPOINTS
  6
CONTINUOUS
 62
     0
 10
680.0254236700697
 20
196.70135482033081
 30
0.0
  0
POINT
  5
E5BE
  8
DEFPOINTS
  6
CONTINUOUS
 62
     0
 10
685.5679862542878
 20
196.70135482033081
 30
0.0
  0
POINT
  5
E5BF
  8
DEFPOINTS
  6
CONTINUOUS
 62
     0
 10
688.33926754639685
 20
191.90135482033509
 30
0.0
  0
POINT
  5
E5C0
  8
DEFPOINTS
  6
CONTINUOUS
 62
     0
 10
677.25414237796065
 20
191.90135482033509
 30
0.0
  0
ENDBLK
  5
D0FD
  8
0
  0
BLOCK
  8
0
  2
*D35
 70
     1
 10
0.0
 20
0.0
 30
0.0
  3
*D35
  1

  0
LINE
  5
E5C7
  8
0
  6
CONTINUOUS
 62
     2
 10
683.39670496217946
 20
198.30135482033199
 30
0.0
 11
710.38588945871459
 21
198.30135482033199
 31
0.0
  0
LINE
  5
E5C8
  8
0
  6
CONTINUOUS
 62
     2
 10
709.38588945871447
 20
195.80135482033199
 30
0.0
 11
709.38588945871447
 21
171.50236618425819
 31
0.0
  0
SOLID
  5
E5C9
  8
0
  6
CONTINUOUS
 62
     2
 10
708.96922279204796
 20
195.80135482033199
 30
0.0
 11
709.80255612538122
 21
195.80135482033199
 31
0.0
 12
709.38588945871447
 22
198.30135482033199
 32
0.0
 13
709.38588945871447
 23
198.30135482033199
 33
0.0
  0
INSERT
  5
E5CA
  8
0
  6
CONTINUOUS
  2
*U133
 10
0.0
 20
0.0
 30
0.0
  0
POINT
  5
E5CB
  8
DEFPOINTS
  6
CONTINUOUS
 62
     0
 10
696.89129721044708
 20
134.00135482033201
 30
0.0
  0
POINT
  5
E5CC
  8
DEFPOINTS
  6
CONTINUOUS
 62
     0
 10
682.79670496217943
 20
198.30135482033199
 30
0.0
  0
POINT
  5
E5CD
  8
DEFPOINTS
  6
CONTINUOUS
 62
     0
 10
709.38588945871447
 20
198.30135482033199
 30
0.0
  0
ENDBLK
  5
D10B
  8
0
  0
BLOCK
  8
0
  2
*D36
 70
     1
 10
0.0
 20
0.0
 30
0.0
  3
*D36
  1

  0
LINE
  5
E5CE
  8
0
  6
CONTINUOUS
 62
     2
 10
607.59031949030202
 20
91.964382263623435
 30
0.0
 11
607.59031949030202
 21
74.815241737905581
 31
0.0
  0
LINE
  5
E5CF
  8
0
  6
CONTINUOUS
 62
     2
 10
609.09031949030202
 20
91.964382263623435
 30
0.0
 11
609.09031949030202
 21
74.815241737905581
 31
0.0
  0
LINE
  5
E5D0
  8
0
  6
CONTINUOUS
 62
     2
 10
605.09031949030202
 20
75.815241737905581
 30
0.0
 11
602.59031949030202
 21
75.815241737905581
 31
0.0
  0
LINE
  5
E5D1
  8
0
  6
CONTINUOUS
 62
     2
 10
611.59031949030202
 20
75.815241737905581
 30
0.0
 11
621.28795728557759
 21
75.815241737905581
 31
0.0
  0
LINE
  5
E5D2
  8
0
  6
CONTINUOUS
 62
     2
 10
607.59031949030202
 20
75.815241737905581
 30
0.0
 11
609.09031949030202
 21
75.815241737905581
 31
0.0
  0
SOLID
  5
E5D3
  8
0
  6
CONTINUOUS
 62
     2
 10
605.09031949030202
 20
76.231908404572252
 30
0.0
 11
605.09031949030202
 21
75.398575071238895
 31
0.0
 12
607.59031949030202
 22
75.815241737905581
 32
0.0
 13
607.59031949030202
 23
75.815241737905581
 33
0.0
  0
SOLID
  5
E5D4
  8
0
  6
CONTINUOUS
 62
     2
 10
611.59031949030202
 20
76.231908404572252
 30
0.0
 11
611.59031949030202
 21
75.398575071238895
 31
0.0
 12
609.09031949030202
 22
75.815241737905581
 32
0.0
 13
609.09031949030202
 23
75.815241737905581
 33
0.0
  0
INSERT
  5
E5D5
  8
0
  6
CONTINUOUS
  2
*U134
 10
0.0
 20
0.0
 30
0.0
  0
POINT
  5
E5D6
  8
DEFPOINTS
  6
CONTINUOUS
 62
     0
 10
607.59031949030202
 20
92.564382263623429
 30
0.0
  0
POINT
  5
E5D7
  8
DEFPOINTS
  6
CONTINUOUS
 62
     0
 10
609.09031949030202
 20
92.564382263623429
 30
0.0
  0
POINT
  5
E5D8
  8
DEFPOINTS
  6
CONTINUOUS
 62
     0
 10
609.09031949030202
 20
75.815241737905581
 30
0.0
  0
ENDBLK
  5
D115
  8
0
  0
BLOCK
  8
0
  2
*D37
 70
     1
 10
0.0
 20
0.0
 30
0.0
  3
*D37
  1

  0
LINE
  5
E5D9
  8
0
  6
CONTINUOUS
 62
     2
 10
601.09031949030202
 20
92.464382263623435
 30
0.0
 11
601.09031949030202
 21
66.815241737905581
 31
0.0
  0
LINE
  5
E5DA
  8
0
  6
CONTINUOUS
 62
     2
 10
609.09031949030202
 20
91.964382263623435
 30
0.0
 11
609.09031949030202
 21
66.815241737905581
 31
0.0
  0
LINE
  5
E5DB
  8
0
  6
CONTINUOUS
 62
     2
 10
603.59031949030202
 20
67.815241737905581
 30
0.0
 11
606.59031949030202
 21
67.815241737905581
 31
0.0
  0
SOLID
  5
E5DC
  8
0
  6
CONTINUOUS
 62
     2
 10
603.59031949030202
 20
68.231908404572252
 30
0.0
 11
603.59031949030202
 21
67.398575071238909
 31
0.0
 12
601.09031949030202
 22
67.815241737905581
 32
0.0
 13
601.09031949030202
 23
67.815241737905581
 33
0.0
  0
SOLID
  5
E5DD
  8
0
  6
CONTINUOUS
 62
     2
 10
606.59031949030202
 20
68.231908404572252
 30
0.0
 11
606.59031949030202
 21
67.398575071238909
 31
0.0
 12
609.09031949030202
 22
67.815241737905581
 32
0.0
 13
609.09031949030202
 23
67.815241737905581
 33
0.0
  0
INSERT
  5
E5DE
  8
0
  6
CONTINUOUS
  2
*U135
 10
0.0
 20
0.0
 30
0.0
  0
POINT
  5
E5DF
  8
DEFPOINTS
  6
CONTINUOUS
 62
     0
 10
601.09031949030202
 20
93.064382263623429
 30
0.0
  0
POINT
  5
E5E0
  8
DEFPOINTS
  6
CONTINUOUS
 62
     0
 10
609.09031949030202
 20
92.564382263623429
 30
0.0
  0
POINT
  5
E5E1
  8
DEFPOINTS
  6
CONTINUOUS
 62
     0
 10
609.09031949030202
 20
67.815241737905581
 30
0.0
  0
ENDBLK
  5
D123
  8
0
  0
BLOCK
  8
0
  2
*D38
 70
     1
 10
0.0
 20
0.0
 30
0.0
  3
*D38
  1

  0
LINE
  5
E5E2
  8
0
  6
CONTINUOUS
 62
     2
 10
553.39031949030459
 20
99.464382263623406
 30
0.0
 11
524.13215134216728
 21
99.46438226362342
 31
0.0
  0
LINE
  5
E5E3
  8
0
  6
CONTINUOUS
 62
     2
 10
553.19031949030204
 20
136.66438226362339
 30
0.0
 11
524.13215134216728
 21
136.66438226362339
 31
0.0
  0
LINE
  5
E5E4
  8
0
  6
CONTINUOUS
 62
     2
 10
525.13215134216728
 20
101.96438226362341
 30
0.0
 11
525.13215134216728
 21
134.16438226362339
 31
0.0
  0
SOLID
  5
E5E5
  8
0
  6
CONTINUOUS
 62
     2
 10
524.71548467550065
 20
101.96438226362341
 30
0.0
 11
525.5488180088339
 21
101.96438226362341
 31
0.0
 12
525.13215134216728
 22
99.46438226362342
 32
0.0
 13
525.13215134216728
 23
99.46438226362342
 33
0.0
  0
SOLID
  5
E5E6
  8
0
  6
CONTINUOUS
 62
     2
 10
524.71548467550065
 20
134.16438226362339
 30
0.0
 11
525.5488180088339
 21
134.16438226362339
 31
0.0
 12
525.13215134216728
 22
136.66438226362339
 32
0.0
 13
525.13215134216728
 23
136.66438226362339
 33
0.0
  0
INSERT
  5
E5E7
  8
0
  6
CONTINUOUS
  2
*U136
 10
0.0
 20
0.0
 30
0.0
  0
POINT
  5
E5E8
  8
DEFPOINTS
  6
CONTINUOUS
 62
     0
 10
553.99031949030461
 20
99.464382263623406
 30
0.0
  0
POINT
  5
E5E9
  8
DEFPOINTS
  6
CONTINUOUS
 62
     0
 10
553.79031949030195
 20
136.66438226362339
 30
0.0
  0
POINT
  5
E5EA
  8
DEFPOINTS
  6
CONTINUOUS
 62
     0
 10
525.13215134216728
 20
136.66438226362339
 30
0.0
  0
ENDBLK
  5
D12F
  8
0
  0
BLOCK
  8
0
  2
*D39
 70
     1
 10
0.0
 20
0.0
 30
0.0
  3
*D39
  1

  0
LINE
  5
E5EB
  8
0
  6
CONTINUOUS
 62
     2
 10
548.49031949030223
 20
101.8143822636234
 30
0.0
 11
540.13215134216716
 21
101.8143822636234
 31
0.0
  0
LINE
  5
E5EC
  8
0
  6
CONTINUOUS
 62
     2
 10
548.49031949030223
 20
134.3143822636234
 30
0.0
 11
540.13215134216716
 21
134.3143822636234
 31
0.0
  0
LINE
  5
E5ED
  8
0
  6
CONTINUOUS
 62
     2
 10
541.13215134216728
 20
104.3143822636234
 30
0.0
 11
541.13215134216728
 21
131.8143822636234
 31
0.0
  0
SOLID
  5
E5EE
  8
0
  6
CONTINUOUS
 62
     2
 10
540.71548467550065
 20
104.3143822636234
 30
0.0
 11
541.54881800883379
 21
104.3143822636234
 31
0.0
 12
541.13215134216728
 22
101.8143822636234
 32
0.0
 13
541.13215134216728
 23
101.8143822636234
 33
0.0
  0
SOLID
  5
E5EF
  8
0
  6
CONTINUOUS
 62
     2
 10
540.71548467550065
 20
131.8143822636234
 30
0.0
 11
541.54881800883379
 21
131.8143822636234
 31
0.0
 12
541.13215134216728
 22
134.3143822636234
 32
0.0
 13
541.13215134216728
 23
134.3143822636234
 33
0.0
  0
INSERT
  5
E5F0
  8
0
  6
CONTINUOUS
  2
*U137
 10
0.0
 20
0.0
 30
0.0
  0
POINT
  5
E5F1
  8
DEFPOINTS
  6
CONTINUOUS
 62
     0
 10
549.09031949030225
 20
101.8143822636234
 30
0.0
  0
POINT
  5
E5F2
  8
DEFPOINTS
  6
CONTINUOUS
 62
     0
 10
549.09031949030225
 20
134.3143822636234
 30
0.0
  0
POINT
  5
E5F3
  8
DEFPOINTS
  6
CONTINUOUS
 62
     0
 10
541.13215134216728
 20
134.3143822636234
 30
0.0
  0
ENDBLK
  5
D13B
  8
0
  0
BLOCK
  8
0
  2
*D40
 70
     1
 10
0.0
 20
0.0
 30
0.0
  3
*D40
  1

  0
LINE
  5
E5F4
  8
0
  6
CONTINUOUS
 62
     2
 10
548.19031949030204
 20
100.5643822636234
 30
0.0
 11
532.13215134216716
 21
100.5643822636234
 31
0.0
  0
LINE
  5
E5F5
  8
0
  6
CONTINUOUS
 62
     2
 10
548.19031949030204
 20
135.5643822636234
 30
0.0
 11
532.13215134216716
 21
135.5643822636234
 31
0.0
  0
LINE
  5
E5F6
  8
0
  6
CONTINUOUS
 62
     2
 10
533.13215134216728
 20
103.0643822636234
 30
0.0
 11
533.13215134216728
 21
133.0643822636234
 31
0.0
  0
SOLID
  5
E5F7
  8
0
  6
CONTINUOUS
 62
     2
 10
532.71548467550065
 20
103.0643822636234
 30
0.0
 11
533.5488180088339
 21
103.0643822636234
 31
0.0
 12
533.13215134216728
 22
100.5643822636234
 32
0.0
 13
533.13215134216728
 23
100.5643822636234
 33
0.0
  0
SOLID
  5
E5F8
  8
0
  6
CONTINUOUS
 62
     2
 10
532.71548467550065
 20
133.0643822636234
 30
0.0
 11
533.5488180088339
 21
133.0643822636234
 31
0.0
 12
533.13215134216728
 22
135.5643822636234
 32
0.0
 13
533.13215134216728
 23
135.5643822636234
 33
0.0
  0
INSERT
  5
E5F9
  8
0
  6
CONTINUOUS
  2
*U138
 10
0.0
 20
0.0
 30
0.0
  0
POINT
  5
E5FA
  8
DEFPOINTS
  6
CONTINUOUS
 62
     0
 10
548.79031949030207
 20
100.5643822636234
 30
0.0
  0
POINT
  5
E5FB
  8
DEFPOINTS
  6
CONTINUOUS
 62
     0
 10
548.79031949030207
 20
135.5643822636234
 30
0.0
  0
POINT
  5
E5FC
  8
DEFPOINTS
  6
CONTINUOUS
 62
     0
 10
533.13215134216728
 20
135.5643822636234
 30
0.0
  0
ENDBLK
  5
D147
  8
0
  0
BLOCK
  8
0
  2
*D41
 70
     1
 10
0.0
 20
0.0
 30
0.0
  3
*D41
  1

  0
LINE
  5
E5FD
  8
0
  6
CONTINUOUS
 62
     2
 10
606.69031949030204
 20
102.1893822636234
 30
0.0
 11
639.70229752359899
 21
102.1893822636234
 31
0.0
  0
LINE
  5
E5FE
  8
0
  6
CONTINUOUS
 62
     2
 10
606.69031949030204
 20
133.9393822636234
 30
0.0
 11
639.70229752359899
 21
133.9393822636234
 31
0.0
  0
LINE
  5
E5FF
  8
0
  6
CONTINUOUS
 62
     2
 10
638.70229752359887
 20
104.6893822636234
 30
0.0
 11
638.70229752359887
 21
131.4393822636234
 31
0.0
  0
SOLID
  5
E600
  8
0
  6
CONTINUOUS
 62
     2
 10
638.28563085693224
 20
104.6893822636234
 30
0.0
 11
639.11896419026561
 21
104.6893822636234
 31
0.0
 12
638.70229752359887
 22
102.1893822636234
 32
0.0
 13
638.70229752359887
 23
102.1893822636234
 33
0.0
  0
SOLID
  5
E601
  8
0
  6
CONTINUOUS
 62
     2
 10
638.28563085693224
 20
131.4393822636234
 30
0.0
 11
639.11896419026561
 21
131.4393822636234
 31
0.0
 12
638.70229752359887
 22
133.9393822636234
 32
0.0
 13
638.70229752359887
 23
133.9393822636234
 33
0.0
  0
INSERT
  5
E602
  8
0
  6
CONTINUOUS
  2
*U139
 10
0.0
 20
0.0
 30
0.0
  0
POINT
  5
E603
  8
DEFPOINTS
  6
CONTINUOUS
 62
     0
 10
606.09031949030202
 20
102.1893822636234
 30
0.0
  0
POINT
  5
E604
  8
DEFPOINTS
  6
CONTINUOUS
 62
     0
 10
606.09031949030202
 20
133.9393822636234
 30
0.0
  0
POINT
  5
E605
  8
DEFPOINTS
  6
CONTINUOUS
 62
     0
 10
638.70229752359887
 20
133.9393822636234
 30
0.0
  0
ENDBLK
  5
D153
  8
0
  0
BLOCK
  8
0
  2
*D42
 70
     1
 10
0.0
 20
0.0
 30
0.0
  3
*D42
  1

  0
LINE
  5
E606
  8
0
  6
CONTINUOUS
 62
     2
 10
609.69031949030204
 20
92.564382263623429
 30
0.0
 11
647.70229752359887
 21
92.564382263623429
 31
0.0
  0
LINE
  5
E607
  8
0
  6
CONTINUOUS
 62
     2
 10
609.69031949030204
 20
143.5643822636234
 30
0.0
 11
647.70229752359887
 21
143.5643822636234
 31
0.0
  0
LINE
  5
E608
  8
0
  6
CONTINUOUS
 62
     2
 10
646.70229752359887
 20
95.064382263623429
 30
0.0
 11
646.70229752359887
 21
141.0643822636234
 31
0.0
  0
SOLID
  5
E609
  8
0
  6
CONTINUOUS
 62
     2
 10
646.28563085693224
 20
95.064382263623429
 30
0.0
 11
647.11896419026561
 21
95.064382263623429
 31
0.0
 12
646.70229752359887
 22
92.564382263623429
 32
0.0
 13
646.70229752359887
 23
92.564382263623429
 33
0.0
  0
SOLID
  5
E60A
  8
0
  6
CONTINUOUS
 62
     2
 10
646.28563085693224
 20
141.0643822636234
 30
0.0
 11
647.11896419026561
 21
141.0643822636234
 31
0.0
 12
646.70229752359887
 22
143.5643822636234
 32
0.0
 13
646.70229752359887
 23
143.5643822636234
 33
0.0
  0
INSERT
  5
E60B
  8
0
  6
CONTINUOUS
  2
*U140
 10
0.0
 20
0.0
 30
0.0
  0
POINT
  5
E60C
  8
DEFPOINTS
  6
CONTINUOUS
 62
     0
 10
609.09031949030202
 20
92.564382263623429
 30
0.0
  0
POINT
  5
E60D
  8
DEFPOINTS
  6
CONTINUOUS
 62
     0
 10
609.09031949030202
 20
143.5643822636234
 30
0.0
  0
POINT
  5
E60E
  8
DEFPOINTS
  6
CONTINUOUS
 62
     0
 10
646.70229752359887
 20
143.5643822636234
 30
0.0
  0
ENDBLK
  5
D15F
  8
0
  0
BLOCK
  8
0
  2
*D43
 70
     1
 10
0.0
 20
0.0
 30
0.0
  3
*D43
  1

  0
LINE
  5
E60F
  8
0
  6
CONTINUOUS
 62
     2
 10
609.19031949030204
 20
102.66438226362339
 30
0.0
 11
623.70229752359899
 21
102.66438226362339
 31
0.0
  0
LINE
  5
E610
  8
0
  6
CONTINUOUS
 62
     2
 10
609.19031949030204
 20
133.46438226362341
 30
0.0
 11
623.70229752359899
 21
133.46438226362341
 31
0.0
  0
LINE
  5
E611
  8
0
  6
CONTINUOUS
 62
     2
 10
622.70229752359887
 20
105.16438226362339
 30
0.0
 11
622.70229752359887
 21
130.96438226362341
 31
0.0
  0
SOLID
  5
E612
  8
0
  6
CONTINUOUS
 62
     2
 10
622.28563085693236
 20
105.16438226362339
 30
0.0
 11
623.11896419026561
 21
105.16438226362339
 31
0.0
 12
622.70229752359887
 22
102.66438226362339
 32
0.0
 13
622.70229752359887
 23
102.66438226362339
 33
0.0
  0
SOLID
  5
E613
  8
0
  6
CONTINUOUS
 62
     2
 10
622.28563085693236
 20
130.96438226362341
 30
0.0
 11
623.11896419026561
 21
130.96438226362341
 31
0.0
 12
622.70229752359887
 22
133.46438226362341
 32
0.0
 13
622.70229752359887
 23
133.46438226362341
 33
0.0
  0
INSERT
  5
E614
  8
0
  6
CONTINUOUS
  2
*U141
 10
0.0
 20
0.0
 30
0.0
  0
POINT
  5
E615
  8
DEFPOINTS
  6
CONTINUOUS
 62
     0
 10
608.59031949030202
 20
102.66438226362339
 30
0.0
  0
POINT
  5
E616
  8
DEFPOINTS
  6
CONTINUOUS
 62
     0
 10
608.59031949030202
 20
133.46438226362341
 30
0.0
  0
POINT
  5
E617
  8
DEFPOINTS
  6
CONTINUOUS
 62
     0
 10
622.70229752359887
 20
133.46438226362341
 30
0.0
  0
ENDBLK
  5
D16B
  8
0
  0
BLOCK
  8
0
  2
*D44
 70
     1
 10
0.0
 20
0.0
 30
0.0
  3
*D44
  1

  0
LINE
  5
E618
  8
0
  6
CONTINUOUS
 62
     2
 10
606.69031949030204
 20
102.1893822636234
 30
0.0
 11
631.70229752359899
 21
102.1893822636234
 31
0.0
  0
LINE
  5
E619
  8
0
  6
CONTINUOUS
 62
     2
 10
606.69031949030204
 20
133.9393822636234
 30
0.0
 11
631.70229752359899
 21
133.9393822636234
 31
0.0
  0
LINE
  5
E61A
  8
0
  6
CONTINUOUS
 62
     2
 10
630.70229752359887
 20
104.6893822636234
 30
0.0
 11
630.70229752359887
 21
131.4393822636234
 31
0.0
  0
SOLID
  5
E61B
  8
0
  6
CONTINUOUS
 62
     2
 10
630.28563085693236
 20
104.6893822636234
 30
0.0
 11
631.11896419026561
 21
104.6893822636234
 31
0.0
 12
630.70229752359887
 22
102.1893822636234
 32
0.0
 13
630.70229752359887
 23
102.1893822636234
 33
0.0
  0
SOLID
  5
E61C
  8
0
  6
CONTINUOUS
 62
     2
 10
630.28563085693236
 20
131.4393822636234
 30
0.0
 11
631.11896419026561
 21
131.4393822636234
 31
0.0
 12
630.70229752359887
 22
133.9393822636234
 32
0.0
 13
630.70229752359887
 23
133.9393822636234
 33
0.0
  0
INSERT
  5
E61D
  8
0
  6
CONTINUOUS
  2
*U142
 10
0.0
 20
0.0
 30
0.0
  0
POINT
  5
E61E
  8
DEFPOINTS
  6
CONTINUOUS
 62
     0
 10
606.09031949030202
 20
102.1893822636234
 30
0.0
  0
POINT
  5
E61F
  8
DEFPOINTS
  6
CONTINUOUS
 62
     0
 10
606.09031949030202
 20
133.9393822636234
 30
0.0
  0
POINT
  5
E620
  8
DEFPOINTS
  6
CONTINUOUS
 62
     0
 10
630.70229752359887
 20
133.9393822636234
 30
0.0
  0
ENDBLK
  5
D177
  8
0
  0
BLOCK
  8
0
  2
*D45
 70
     1
 10
0.0
 20
0.0
 30
0.0
  3
*D45
  1

  0
LINE
  5
E621
  8
0
  6
CONTINUOUS
 62
     2
 10
563.31488561605977
 20
100.96438226362341
 30
0.0
 11
564.34087949790785
 21
100.96438226362341
 31
0.0
  0
LINE
  5
E622
  8
0
  6
CONTINUOUS
 62
     2
 10
563.31488561605977
 20
135.16438226362339
 30
0.0
 11
564.34087949790785
 21
135.16438226362339
 31
0.0
  0
LINE
  5
E623
  8
0
  6
CONTINUOUS
 62
     2
 10
563.34087949790785
 20
103.46438226362341
 30
0.0
 11
563.34087949790785
 21
132.66438226362339
 31
0.0
  0
SOLID
  5
E624
  8
0
  6
CONTINUOUS
 62
     2
 10
562.92421283124111
 20
103.46438226362341
 30
0.0
 11
563.75754616457436
 21
103.46438226362341
 31
0.0
 12
563.34087949790785
 22
100.96438226362341
 32
0.0
 13
563.34087949790785
 23
100.96438226362341
 33
0.0
  0
SOLID
  5
E625
  8
0
  6
CONTINUOUS
 62
     2
 10
562.92421283124111
 20
132.66438226362339
 30
0.0
 11
563.75754616457436
 21
132.66438226362339
 31
0.0
 12
563.34087949790785
 22
135.16438226362339
 32
0.0
 13
563.34087949790785
 23
135.16438226362339
 33
0.0
  0
INSERT
  5
E626
  8
0
  6
CONTINUOUS
  2
*U143
 10
0.0
 20
0.0
 30
0.0
  0
POINT
  5
E627
  8
DEFPOINTS
  6
CONTINUOUS
 62
     0
 10
562.71488561605975
 20
100.96438226362341
 30
0.0
  0
POINT
  5
E628
  8
DEFPOINTS
  6
CONTINUOUS
 62
     0
 10
562.71488561605975
 20
135.16438226362339
 30
0.0
  0
POINT
  5
E629
  8
DEFPOINTS
  6
CONTINUOUS
 62
     0
 10
563.34087949790785
 20
135.16438226362339
 30
0.0
  0
ENDBLK
  5
D183
  8
0
  0
BLOCK
  8
0
  2
*D46
 70
     1
 10
0.0
 20
0.0
 30
0.0
  3
*D46
  1

  0
LINE
  5
E62A
  8
0
  6
CONTINUOUS
 62
     2
 10
577.06488561605943
 20
99.464382263623463
 30
0.0
 11
579.08481851984754
 21
99.464382263623463
 31
0.0
  0
LINE
  5
E62B
  8
0
  6
CONTINUOUS
 62
     2
 10
577.06488561605943
 20
136.66438226362339
 30
0.0
 11
579.08481851984754
 21
136.66438226362339
 31
0.0
  0
LINE
  5
E62C
  8
0
  6
CONTINUOUS
 62
     2
 10
578.08481851984754
 20
101.96438226362341
 30
0.0
 11
578.08481851984754
 21
134.16438226362339
 31
0.0
  0
SOLID
  5
E62D
  8
0
  6
CONTINUOUS
 62
     2
 10
577.66815185318092
 20
101.96438226362341
 30
0.0
 11
578.50148518651406
 21
101.96438226362341
 31
0.0
 12
578.08481851984754
 22
99.464382263623463
 32
0.0
 13
578.08481851984754
 23
99.464382263623463
 33
0.0
  0
SOLID
  5
E62E
  8
0
  6
CONTINUOUS
 62
     2
 10
577.66815185318092
 20
134.16438226362339
 30
0.0
 11
578.50148518651406
 21
134.16438226362339
 31
0.0
 12
578.08481851984754
 22
136.66438226362339
 32
0.0
 13
578.08481851984754
 23
136.66438226362339
 33
0.0
  0
INSERT
  5
E62F
  8
0
  6
CONTINUOUS
  2
*U144
 10
0.0
 20
0.0
 30
0.0
  0
POINT
  5
E630
  8
DEFPOINTS
  6
CONTINUOUS
 62
     0
 10
576.46488561605941
 20
99.464382263623463
 30
0.0
  0
POINT
  5
E631
  8
DEFPOINTS
  6
CONTINUOUS
 62
     0
 10
576.46488561605941
 20
136.66438226362339
 30
0.0
  0
POINT
  5
E632
  8
DEFPOINTS
  6
CONTINUOUS
 62
     0
 10
578.08481851984754
 20
136.66438226362339
 30
0.0
  0
ENDBLK
  5
D18F
  8
0
  0
BLOCK
  8
0
  2
*D47
 70
     1
 10
0.0
 20
0.0
 30
0.0
  3
*D47
  1

  0
LINE
  5
E633
  8
0
  6
CONTINUOUS
 62
     2
 10
548.59031949030202
 20
100.16438226362339
 30
0.0
 11
548.59031949030202
 21
58.815241737905581
 31
0.0
  0
LINE
  5
E634
  8
0
  6
CONTINUOUS
 62
     2
 10
609.09031949030202
 20
91.964382263623435
 30
0.0
 11
609.09031949030202
 21
58.815241737905581
 31
0.0
  0
LINE
  5
E635
  8
0
  6
CONTINUOUS
 62
     2
 10
551.09031949030202
 20
59.815241737905581
 30
0.0
 11
606.59031949030202
 21
59.815241737905581
 31
0.0
  0
SOLID
  5
E636
  8
0
  6
CONTINUOUS
 62
     2
 10
551.09031949030202
 20
60.231908404572252
 30
0.0
 11
551.09031949030202
 21
59.398575071238923
 31
0.0
 12
548.59031949030202
 22
59.815241737905581
 32
0.0
 13
548.59031949030202
 23
59.815241737905581
 33
0.0
  0
SOLID
  5
E637
  8
0
  6
CONTINUOUS
 62
     2
 10
606.59031949030202
 20
60.231908404572252
 30
0.0
 11
606.59031949030202
 21
59.398575071238923
 31
0.0
 12
609.09031949030202
 22
59.815241737905581
 32
0.0
 13
609.09031949030202
 23
59.815241737905581
 33
0.0
  0
INSERT
  5
E638
  8
0
  6
CONTINUOUS
  2
*U145
 10
0.0
 20
0.0
 30
0.0
  0
POINT
  5
E639
  8
DEFPOINTS
  6
CONTINUOUS
 62
     0
 10
548.59031949030202
 20
100.7643822636234
 30
0.0
  0
POINT
  5
E63A
  8
DEFPOINTS
  6
CONTINUOUS
 62
     0
 10
609.09031949030202
 20
92.564382263623429
 30
0.0
  0
POINT
  5
E63B
  8
DEFPOINTS
  6
CONTINUOUS
 62
     0
 10
609.09031949030202
 20
59.815241737905581
 30
0.0
  0
ENDBLK
  5
D19B
  8
0
  0
BLOCK
  8
0
  2
*D48
 70
     1
 10
0.0
 20
0.0
 30
0.0
  3
*D48
  1

  0
LINE
  5
E63C
  8
0
  6
CONTINUOUS
 62
     2
 10
553.59031949030202
 20
99.064382263623472
 30
0.0
 11
553.59031949030202
 21
66.815241737905581
 31
0.0
  0
LINE
  5
E63D
  8
0
  6
CONTINUOUS
 62
     2
 10
601.09031949030202
 20
92.464382263623435
 30
0.0
 11
601.09031949030202
 21
66.815241737905581
 31
0.0
  0
LINE
  5
E63E
  8
0
  6
CONTINUOUS
 62
     2
 10
556.09031949030202
 20
67.815241737905581
 30
0.0
 11
598.59031949030202
 21
67.815241737905581
 31
0.0
  0
SOLID
  5
E63F
  8
0
  6
CONTINUOUS
 62
     2
 10
556.09031949030202
 20
68.231908404572252
 30
0.0
 11
556.09031949030202
 21
67.398575071238909
 31
0.0
 12
553.59031949030202
 22
67.815241737905581
 32
0.0
 13
553.59031949030202
 23
67.815241737905581
 33
0.0
  0
SOLID
  5
E640
  8
0
  6
CONTINUOUS
 62
     2
 10
598.59031949030202
 20
68.231908404572252
 30
0.0
 11
598.59031949030202
 21
67.398575071238909
 31
0.0
 12
601.09031949030202
 22
67.815241737905581
 32
0.0
 13
601.09031949030202
 23
67.815241737905581
 33
0.0
  0
INSERT
  5
E641
  8
0
  6
CONTINUOUS
  2
*U146
 10
0.0
 20
0.0
 30
0.0
  0
POINT
  5
E642
  8
DEFPOINTS
  6
CONTINUOUS
 62
     0
 10
553.59031949030202
 20
99.664382263623452
 30
0.0
  0
POINT
  5
E643
  8
DEFPOINTS
  6
CONTINUOUS
 62
     0
 10
601.09031949030202
 20
93.064382263623429
 30
0.0
  0
POINT
  5
E644
  8
DEFPOINTS
  6
CONTINUOUS
 62
     0
 10
601.09031949030202
 20
67.815241737905581
 30
0.0
  0
ENDBLK
  5
D1A7
  8
0
  0
BLOCK
  8
0
  2
*D49
 70
     1
 10
0.0
 20
0.0
 30
0.0
  3
*D49
  1

  0
LINE
  5
E645
  8
0
  6
CONTINUOUS
 62
     2
 10
548.59031949030202
 20
100.16438226362339
 30
0.0
 11
548.59031949030202
 21
66.815241737905581
 31
0.0
  0
LINE
  5
E646
  8
0
  6
CONTINUOUS
 62
     2
 10
553.59031949030202
 20
99.064382263623344
 30
0.0
 11
553.59031949030202
 21
66.815241737905581
 31
0.0
  0
LINE
  5
E647
  8
0
  6
CONTINUOUS
 62
     2
 10
556.09031949030202
 20
67.815241737905581
 30
0.0
 11
558.59031949030202
 21
67.815241737905581
 31
0.0
  0
LINE
  5
E648
  8
0
  6
CONTINUOUS
 62
     2
 10
546.09031949030202
 20
67.815241737905581
 30
0.0
 11
541.06605542159014
 21
67.815241737905581
 31
0.0
  0
LINE
  5
E649
  8
0
  6
CONTINUOUS
 62
     2
 10
553.59031949030202
 20
67.815241737905581
 30
0.0
 11
548.59031949030202
 21
67.815241737905581
 31
0.0
  0
SOLID
  5
E64A
  8
0
  6
CONTINUOUS
 62
     2
 10
556.09031949030202
 20
68.231908404572252
 30
0.0
 11
556.09031949030202
 21
67.398575071238909
 31
0.0
 12
553.59031949030202
 22
67.815241737905581
 32
0.0
 13
553.59031949030202
 23
67.815241737905581
 33
0.0
  0
SOLID
  5
E64B
  8
0
  6
CONTINUOUS
 62
     2
 10
546.09031949030202
 20
68.231908404572252
 30
0.0
 11
546.09031949030202
 21
67.398575071238909
 31
0.0
 12
548.59031949030202
 22
67.815241737905581
 32
0.0
 13
548.59031949030202
 23
67.815241737905581
 33
0.0
  0
INSERT
  5
E64C
  8
0
  6
CONTINUOUS
  2
*U147
 10
0.0
 20
0.0
 30
0.0
  0
POINT
  5
E64D
  8
DEFPOINTS
  6
CONTINUOUS
 62
     0
 10
548.59031949030202
 20
100.7643822636234
 30
0.0
  0
POINT
  5
E64E
  8
DEFPOINTS
  6
CONTINUOUS
 62
     0
 10
553.59031949030202
 20
99.664382263623352
 30
0.0
  0
POINT
  5
E64F
  8
DEFPOINTS
  6
CONTINUOUS
 62
     0
 10
553.59031949030202
 20
67.815241737905581
 30
0.0
  0
ENDBLK
  5
D1B3
  8
0
  0
BLOCK
  8
0
  2
*D50
 70
     1
 10
0.0
 20
0.0
 30
0.0
  3
*D50
  1

  0
LINE
  5
E650
  8
0
  6
CONTINUOUS
 62
     2
 10
553.59031949030202
 20
99.064382263623344
 30
0.0
 11
553.59031949030202
 21
74.815241737905581
 31
0.0
  0
LINE
  5
E651
  8
0
  6
CONTINUOUS
 62
     2
 10
556.09031949030168
 20
98.864382263623426
 30
0.0
 11
556.09031949030168
 21
74.815241737905581
 31
0.0
  0
LINE
  5
E652
  8
0
  6
CONTINUOUS
 62
     2
 10
558.59031949030179
 20
75.815241737905581
 30
0.0
 11
561.09031949030168
 21
75.815241737905581
 31
0.0
  0
LINE
  5
E653
  8
0
  6
CONTINUOUS
 62
     2
 10
551.09031949030202
 20
75.815241737905581
 30
0.0
 11
542.98987431922785
 21
75.815241737905581
 31
0.0
  0
LINE
  5
E654
  8
0
  6
CONTINUOUS
 62
     2
 10
556.09031949030168
 20
75.815241737905581
 30
0.0
 11
553.59031949030202
 21
75.815241737905581
 31
0.0
  0
SOLID
  5
E655
  8
0
  6
CONTINUOUS
 62
     2
 10
558.59031949030179
 20
76.231908404572252
 30
0.0
 11
558.59031949030179
 21
75.398575071238895
 31
0.0
 12
556.09031949030168
 22
75.815241737905581
 32
0.0
 13
556.09031949030168
 23
75.815241737905581
 33
0.0
  0
SOLID
  5
E656
  8
0
  6
CONTINUOUS
 62
     2
 10
551.09031949030202
 20
76.231908404572252
 30
0.0
 11
551.09031949030202
 21
75.398575071238895
 31
0.0
 12
553.59031949030202
 22
75.815241737905581
 32
0.0
 13
553.59031949030202
 23
75.815241737905581
 33
0.0
  0
INSERT
  5
E657
  8
0
  6
CONTINUOUS
  2
*U148
 10
0.0
 20
0.0
 30
0.0
  0
POINT
  5
E658
  8
DEFPOINTS
  6
CONTINUOUS
 62
     0
 10
553.59031949030202
 20
99.664382263623352
 30
0.0
  0
POINT
  5
E659
  8
DEFPOINTS
  6
CONTINUOUS
 62
     0
 10
556.09031949030168
 20
99.464382263623406
 30
0.0
  0
POINT
  5
E65A
  8
DEFPOINTS
  6
CONTINUOUS
 62
     0
 10
556.09031949030168
 20
75.815241737905581
 30
0.0
  0
ENDBLK
  5
D1C1
  8
0
  0
BLOCK
  8
0
  2
*D51
 70
     1
 10
0.0
 20
0.0
 30
0.0
  3
*D51
  1

  0
LINE
  5
E65B
  8
0
  6
CONTINUOUS
 62
     2
 10
556.09031949030168
 20
98.864382263623426
 30
0.0
 11
556.09031949030168
 21
74.815241737905581
 31
0.0
  0
LINE
  5
E65C
  8
0
  6
CONTINUOUS
 62
     2
 10
570.39143950551306
 20
98.864382263623526
 30
0.0
 11
570.39143950551306
 21
74.815241737905581
 31
0.0
  0
LINE
  5
E65D
  8
0
  6
CONTINUOUS
 62
     2
 10
558.59031949030179
 20
75.815241737905581
 30
0.0
 11
567.89143950551306
 21
75.815241737905581
 31
0.0
  0
SOLID
  5
E65E
  8
0
  6
CONTINUOUS
 62
     2
 10
558.59031949030179
 20
76.231908404572252
 30
0.0
 11
558.59031949030179
 21
75.398575071238895
 31
0.0
 12
556.09031949030168
 22
75.815241737905581
 32
0.0
 13
556.09031949030168
 23
75.815241737905581
 33
0.0
  0
SOLID
  5
E65F
  8
0
  6
CONTINUOUS
 62
     2
 10
567.89143950551306
 20
76.231908404572252
 30
0.0
 11
567.89143950551306
 21
75.398575071238895
 31
0.0
 12
570.39143950551306
 22
75.815241737905581
 32
0.0
 13
570.39143950551306
 23
75.815241737905581
 33
0.0
  0
INSERT
  5
E660
  8
0
  6
CONTINUOUS
  2
*U149
 10
0.0
 20
0.0
 30
0.0
  0
POINT
  5
E661
  8
DEFPOINTS
  6
CONTINUOUS
 62
     0
 10
556.09031949030168
 20
99.464382263623406
 30
0.0
  0
POINT
  5
E662
  8
DEFPOINTS
  6
CONTINUOUS
 62
     0
 10
570.39143950551306
 20
99.464382263623534
 30
0.0
  0
POINT
  5
E663
  8
DEFPOINTS
  6
CONTINUOUS
 62
     0
 10
570.39143950551306
 20
75.815241737905581
 30
0.0
  0
ENDBLK
  5
D1CF
  8
0
  0
BLOCK
  8
0
  2
*D52
 70
     1
 10
0.0
 20
0.0
 30
0.0
  3
*D52
  1

  0
LINE
  5
E664
  8
0
  6
CONTINUOUS
 62
     2
 10
557.59031949030225
 20
100.3643822636234
 30
0.0
 11
557.59031949030225
 21
82.815241737905581
 31
0.0
  0
LINE
  5
E665
  8
0
  6
CONTINUOUS
 62
     2
 10
568.89143950551318
 20
100.3643822636234
 30
0.0
 11
568.89143950551318
 21
82.815241737905581
 31
0.0
  0
LINE
  5
E666
  8
0
  6
CONTINUOUS
 62
     2
 10
560.09031949030225
 20
83.815241737905566
 30
0.0
 11
566.39143950551306
 21
83.815241737905566
 31
0.0
  0
SOLID
  5
E667
  8
0
  6
CONTINUOUS
 62
     2
 10
560.09031949030225
 20
84.231908404572252
 30
0.0
 11
560.09031949030225
 21
83.398575071238909
 31
0.0
 12
557.59031949030225
 22
83.815241737905566
 32
0.0
 13
557.59031949030225
 23
83.815241737905566
 33
0.0
  0
SOLID
  5
E668
  8
0
  6
CONTINUOUS
 62
     2
 10
566.39143950551306
 20
84.231908404572252
 30
0.0
 11
566.39143950551306
 21
83.398575071238909
 31
0.0
 12
568.89143950551318
 22
83.815241737905566
 32
0.0
 13
568.89143950551318
 23
83.815241737905566
 33
0.0
  0
INSERT
  5
E669
  8
0
  6
CONTINUOUS
  2
*U150
 10
0.0
 20
0.0
 30
0.0
  0
POINT
  5
E66A
  8
DEFPOINTS
  6
CONTINUOUS
 62
     0
 10
557.59031949030225
 20
100.96438226362341
 30
0.0
  0
POINT
  5
E66B
  8
DEFPOINTS
  6
CONTINUOUS
 62
     0
 10
568.89143950551318
 20
100.96438226362341
 30
0.0
  0
POINT
  5
E66C
  8
DEFPOINTS
  6
CONTINUOUS
 62
     0
 10
568.89143950551318
 20
83.815241737905566
 30
0.0
  0
ENDBLK
  5
D1DB
  8
0
  0
BLOCK
  8
0
  2
*D53
 70
     1
 10
0.0
 20
0.0
 30
0.0
  3
*D53
  1

  0
LINE
  5
E66D
  8
0
  6
CONTINUOUS
 62
     2
 10
588.29031949030195
 20
100.3643822636234
 30
0.0
 11
588.29031949030195
 21
82.889812000764493
 31
0.0
  0
LINE
  5
E66E
  8
0
  6
CONTINUOUS
 62
     2
 10
601.09031949030202
 20
92.464382263623435
 30
0.0
 11
601.09031949030202
 21
82.889812000764493
 31
0.0
  0
LINE
  5
E66F
  8
0
  6
CONTINUOUS
 62
     2
 10
590.79031949030195
 20
83.889812000764479
 30
0.0
 11
598.59031949030202
 21
83.889812000764479
 31
0.0
  0
SOLID
  5
E670
  8
0
  6
CONTINUOUS
 62
     2
 10
590.79031949030195
 20
84.306478667431165
 30
0.0
 11
590.79031949030195
 21
83.473145334097822
 31
0.0
 12
588.29031949030195
 22
83.889812000764479
 32
0.0
 13
588.29031949030195
 23
83.889812000764479
 33
0.0
  0
SOLID
  5
E671
  8
0
  6
CONTINUOUS
 62
     2
 10
598.59031949030202
 20
84.306478667431165
 30
0.0
 11
598.59031949030202
 21
83.473145334097822
 31
0.0
 12
601.09031949030202
 22
83.889812000764479
 32
0.0
 13
601.09031949030202
 23
83.889812000764479
 33
0.0
  0
INSERT
  5
E672
  8
0
  6
CONTINUOUS
  2
*U151
 10
0.0
 20
0.0
 30
0.0
  0
POINT
  5
E673
  8
DEFPOINTS
  6
CONTINUOUS
 62
     0
 10
588.29031949030195
 20
100.96438226362341
 30
0.0
  0
POINT
  5
E674
  8
DEFPOINTS
  6
CONTINUOUS
 62
     0
 10
601.09031949030202
 20
93.064382263623429
 30
0.0
  0
POINT
  5
E675
  8
DEFPOINTS
  6
CONTINUOUS
 62
     0
 10
601.09031949030202
 20
83.889812000764479
 30
0.0
  0
ENDBLK
  5
D1E7
  8
0
  0
BLOCK
  8
0
  2
*D54
 70
     1
 10
0.0
 20
0.0
 30
0.0
  3
*D54
  1

  0
LINE
  5
E676
  8
0
  6
CONTINUOUS
 62
     2
 10
586.79031949030195
 20
98.864382263623426
 30
0.0
 11
586.79031949030195
 21
74.815241737905581
 31
0.0
  0
LINE
  5
E677
  8
0
  6
CONTINUOUS
 62
     2
 10
601.09031949030202
 20
92.464382263623435
 30
0.0
 11
601.09031949030202
 21
74.815241737905581
 31
0.0
  0
LINE
  5
E678
  8
0
  6
CONTINUOUS
 62
     2
 10
589.29031949030195
 20
75.815241737905581
 30
0.0
 11
598.59031949030202
 21
75.815241737905581
 31
0.0
  0
SOLID
  5
E679
  8
0
  6
CONTINUOUS
 62
     2
 10
589.29031949030195
 20
76.231908404572252
 30
0.0
 11
589.29031949030195
 21
75.398575071238895
 31
0.0
 12
586.79031949030195
 22
75.815241737905581
 32
0.0
 13
586.79031949030195
 23
75.815241737905581
 33
0.0
  0
SOLID
  5
E67A
  8
0
  6
CONTINUOUS
 62
     2
 10
598.59031949030202
 20
76.231908404572252
 30
0.0
 11
598.59031949030202
 21
75.398575071238895
 31
0.0
 12
601.09031949030202
 22
75.815241737905581
 32
0.0
 13
601.09031949030202
 23
75.815241737905581
 33
0.0
  0
INSERT
  5
E67B
  8
0
  6
CONTINUOUS
  2
*U152
 10
0.0
 20
0.0
 30
0.0
  0
POINT
  5
E67C
  8
DEFPOINTS
  6
CONTINUOUS
 62
     0
 10
586.79031949030195
 20
99.464382263623406
 30
0.0
  0
POINT
  5
E67D
  8
DEFPOINTS
  6
CONTINUOUS
 62
     0
 10
601.09031949030202
 20
93.064382263623429
 30
0.0
  0
POINT
  5
E67E
  8
DEFPOINTS
  6
CONTINUOUS
 62
     0
 10
601.09031949030202
 20
75.815241737905581
 30
0.0
  0
ENDBLK
  5
D1F3
  8
0
  0
BLOCK
  8
0
  2
*D55
 70
     1
 10
0.0
 20
0.0
 30
0.0
  3
*D55
  1

  0
LINE
  5
E67F
  8
0
  6
CONTINUOUS
 62
     2
 10
599.37899552325132
 20
145.09170717905931
 30
0.0
 11
588.51402376514091
 21
155.05263026356641
 31
0.0
  0
LINE
  5
E680
  8
0
  6
CONTINUOUS
 62
     2
 10
601.59031949030236
 20
143.06438226362371
 30
0.0
 11
601.22176549579365
 21
143.40226974952969
 31
0.0
  0
SOLID
  5
E681
  8
0
  6
CONTINUOUS
 62
     2
 10
599.66056842817295
 20
145.39883550781639
 30
0.0
 11
599.09742261832969
 21
144.7845788503023
 31
0.0
 12
601.22176549579365
 22
143.40226974952969
 32
0.0
 13
601.22176549579365
 23
143.40226974952969
 33
0.0
  0
INSERT
  5
E682
  8
0
  6
CONTINUOUS
  2
*U153
 10
0.0
 20
0.0
 30
0.0
  0
POINT
  5
E683
  8
DEFPOINTS
  6
CONTINUOUS
 62
     0
 10
601.22176549579365
 20
143.40226974952969
 30
0.0
  0
POINT
  5
E684
  8
DEFPOINTS
  6
CONTINUOUS
 62
     0
 10
601.59031949030236
 20
143.06438226362371
 30
0.0
  0
ENDBLK
  5
D1FF
  8
0
  0
BLOCK
  8
0
  2
*D56
 70
     1
 10
0.0
 20
0.0
 30
0.0
  3
*D56
  1

  0
LINE
  5
E685
  8
0
  6
CONTINUOUS
 62
     2
 10
570.39031949030186
 20
196.6173292155529
 30
0.0
 11
570.39031949030186
 21
185.194831755504
 31
0.0
  0
LINE
  5
E686
  8
0
  6
CONTINUOUS
 62
     2
 10
578.59031949030202
 20
196.61732921555301
 30
0.0
 11
578.59031949030202
 21
185.194831755504
 31
0.0
  0
LINE
  5
E687
  8
0
  6
CONTINUOUS
 62
     2
 10
572.89031949030186
 20
186.19483175550391
 30
0.0
 11
576.09031949030202
 21
186.19483175550391
 31
0.0
  0
SOLID
  5
E688
  8
0
  6
CONTINUOUS
 62
     2
 10
572.89031949030186
 20
186.6114984221706
 30
0.0
 11
572.89031949030186
 21
185.77816508883731
 31
0.0
 12
570.39031949030186
 22
186.19483175550391
 32
0.0
 13
570.39031949030186
 23
186.19483175550391
 33
0.0
  0
SOLID
  5
E689
  8
0
  6
CONTINUOUS
 62
     2
 10
576.09031949030202
 20
186.6114984221706
 30
0.0
 11
576.09031949030202
 21
185.77816508883731
 31
0.0
 12
578.59031949030202
 22
186.19483175550391
 32
0.0
 13
578.59031949030202
 23
186.19483175550391
 33
0.0
  0
INSERT
  5
E68A
  8
0
  6
CONTINUOUS
  2
*U154
 10
0.0
 20
0.0
 30
0.0
  0
POINT
  5
E68B
  8
DEFPOINTS
  6
CONTINUOUS
 62
     0
 10
570.39031949030186
 20
197.21732921555289
 30
0.0
  0
POINT
  5
E68C
  8
DEFPOINTS
  6
CONTINUOUS
 62
     0
 10
578.59031949030202
 20
197.21732921555301
 30
0.0
  0
POINT
  5
E68D
  8
DEFPOINTS
  6
CONTINUOUS
 62
     0
 10
578.59031949030202
 20
186.19483175550391
 30
0.0
  0
ENDBLK
  5
D208
  8
0
  0
BLOCK
  8
0
  2
*D57
 70
     1
 10
0.0
 20
0.0
 30
0.0
  3
*D57
  1

  0
LINE
  5
E68E
  8
0
  6
CONTINUOUS
 62
     2
 10
608.88345619022095
 20
132.57609964125339
 30
0.0
 11
615.74358432022473
 21
125.5436884948745
 31
0.0
  0
LINE
  5
E68F
  8
0
  6
CONTINUOUS
 62
     2
 10
606.09031949030191
 20
135.4393822636232
 30
0.0
 11
607.13774575277148
 21
134.3656512802346
 31
0.0
  0
SOLID
  5
E690
  8
0
  6
CONTINUOUS
 62
     2
 10
609.18171479671776
 20
132.8670513808282
 30
0.0
 11
608.58519758372404
 21
132.2851479016785
 31
0.0
 12
607.13774575277148
 22
134.3656512802346
 32
0.0
 13
607.13774575277148
 23
134.3656512802346
 33
0.0
  0
INSERT
  5
E691
  8
0
  6
CONTINUOUS
  2
*U155
 10
0.0
 20
0.0
 30
0.0
  0
POINT
  5
E692
  8
DEFPOINTS
  6
CONTINUOUS
 62
     0
 10
607.13774575277148
 20
134.3656512802346
 30
0.0
  0
POINT
  5
E693
  8
DEFPOINTS
  6
CONTINUOUS
 62
     0
 10
606.09031949030191
 20
135.4393822636232
 30
0.0
  0
ENDBLK
  5
D214
  8
0
  0
BLOCK
  8
0
  2
*D58
 70
     1
 10
0.0
 20
0.0
 30
0.0
  3
*D58
  1

  0
LINE
  5
E694
  8
0
  6
CONTINUOUS
 62
     2
 10
555.6660554215897
 20
137.08864633233529
 30
0.0
 11
544.88350401692117
 21
147.87119773700061
 31
0.0
  0
LINE
  5
E695
  8
0
  6
CONTINUOUS
 62
     2
 10
553.19031949030204
 20
136.66438226362339
 30
0.0
 11
540.24148905683683
 21
136.66438226362331
 31
0.0
  0
ARC
  5
E696
  8
0
  6
CONTINUOUS
 62
     2
 10
556.09031949030168
 20
136.66438226362351
 30
0.0
 40
14.84883043346502
 50
144.65794379555109
 51
170.3420562044582
  0
SOLID
  5
E697
  8
0
  6
CONTINUOUS
 62
     2
 10
543.65954803248007
 20
145.52256492607319
 30
0.0
 11
544.29631662405166
 21
144.9850054361259
 31
0.0
 12
545.59061079810795
 22
147.16409095581409
 32
0.0
 13
545.59061079810795
 23
147.16409095581409
 33
0.0
  0
SOLID
  5
E698
  8
0
  6
CONTINUOUS
 62
     2
 10
541.86713101726809
 20
139.12043259870589
 30
0.0
 11
541.03675566748825
 21
139.19058402721959
 31
0.0
 12
541.24148905683683
 22
136.66438226362331
 32
0.0
 13
541.24148905683683
 23
136.66438226362331
 33
0.0
  0
INSERT
  5
E699
  8
0
  6
CONTINUOUS
  2
*U156
 10
0.0
 20
0.0
 30
0.0
  0
POINT
  5
E69A
  8
DEFPOINTS
  6
CONTINUOUS
 62
     0
 10
543.23085511843283
 20
144.08879748035471
 30
0.0
  0
POINT
  5
E69B
  8
DEFPOINTS
  6
CONTINUOUS
 62
     0
 10
556.09031949030168
 20
136.66438226362351
 30
0.0
  0
POINT
  5
E69C
  8
DEFPOINTS
  6
CONTINUOUS
 62
     0
 10
553.79031949030195
 20
136.66438226362351
 30
0.0
  0
POINT
  5
E69D
  8
DEFPOINTS
  6
CONTINUOUS
 62
     0
 10
556.09031949030168
 20
136.66438226362351
 30
0.0
  0
POINT
  5
E69E
  8
DEFPOINTS
  6
CONTINUOUS
 62
     0
 10
557.59031949030225
 20
135.16438226362351
 30
0.0
  0
ENDBLK
  5
D21D
  8
0
  0
BLOCK
  8
0
  2
*D59
 70
     1
 10
0.0
 20
0.0
 30
0.0
  3
*D59
  1

  0
LINE
  5
E69F
  8
0
  6
CONTINUOUS
 62
     2
 10
548.59031949030202
 20
135.96438226362341
 30
0.0
 11
548.59031949030202
 21
152.8369904516257
 31
0.0
  0
LINE
  5
E6A0
  8
0
  6
CONTINUOUS
 62
     2
 10
552.59031949030202
 20
134.91438226362339
 30
0.0
 11
552.59031949030202
 21
152.8369904516257
 31
0.0
  0
LINE
  5
E6A1
  8
0
  6
CONTINUOUS
 62
     2
 10
546.09031949030202
 20
151.8369904516257
 30
0.0
 11
543.59031949030202
 21
151.8369904516257
 31
0.0
  0
LINE
  5
E6A2
  8
0
  6
CONTINUOUS
 62
     2
 10
555.09031949030202
 20
151.8369904516257
 30
0.0
 11
560.29031949030195
 21
151.8369904516257
 31
0.0
  0
LINE
  5
E6A3
  8
0
  6
CONTINUOUS
 62
     2
 10
548.59031949030202
 20
151.8369904516257
 30
0.0
 11
552.59031949030202
 21
151.8369904516257
 31
0.0
  0
SOLID
  5
E6A4
  8
0
  6
CONTINUOUS
 62
     2
 10
546.09031949030202
 20
152.25365711829241
 30
0.0
 11
546.09031949030202
 21
151.42032378495909
 31
0.0
 12
548.59031949030202
 22
151.8369904516257
 32
0.0
 13
548.59031949030202
 23
151.8369904516257
 33
0.0
  0
SOLID
  5
E6A5
  8
0
  6
CONTINUOUS
 62
     2
 10
555.09031949030202
 20
152.25365711829241
 30
0.0
 11
555.09031949030202
 21
151.42032378495909
 31
0.0
 12
552.59031949030202
 22
151.8369904516257
 32
0.0
 13
552.59031949030202
 23
151.8369904516257
 33
0.0
  0
INSERT
  5
E6A6
  8
0
  6
CONTINUOUS
  2
*U157
 10
0.0
 20
0.0
 30
0.0
  0
POINT
  5
E6A7
  8
DEFPOINTS
  6
CONTINUOUS
 62
     0
 10
548.59031949030202
 20
135.36438226362341
 30
0.0
  0
POINT
  5
E6A8
  8
DEFPOINTS
  6
CONTINUOUS
 62
     0
 10
552.59031949030202
 20
134.3143822636234
 30
0.0
  0
POINT
  5
E6A9
  8
DEFPOINTS
  6
CONTINUOUS
 62
     0
 10
552.59031949030202
 20
151.8369904516257
 30
0.0
  0
ENDBLK
  5
D22B
  8
0
  0
BLOCK
  8
0
  2
*D60
 70
     1
 10
0.0
 20
0.0
 30
0.0
  3
*D60
  1

  0
LINE
  5
E6AA
  8
0
  6
CONTINUOUS
 62
     2
 10
587.39031949030198
 20
136.66438226362339
 30
0.0
 11
589.50437716123486
 21
136.66438226362331
 31
0.0
  0
LINE
  5
E6AB
  8
0
  6
CONTINUOUS
 62
     2
 10
570.81570357422515
 20
137.0886463323352
 30
0.0
 11
583.90632733026985
 21
150.17927008837961
 31
0.0
  0
ARC
  5
E6AC
  8
0
  6
CONTINUOUS
 62
     2
 10
570.39143950551306
 20
136.66438226362331
 30
0.0
 40
18.112937655721801
 50
7.9144197415831501
 51
37.085580258415462
  0
SOLID
  5
E6AD
  8
0
  6
CONTINUOUS
 62
     2
 10
588.74752182726024
 20
139.1871767028305
 30
0.0
 11
587.91617527043491
 21
139.12966716536801
 31
0.0
 12
588.50437716123486
 22
136.66438226362339
 32
0.0
 13
588.50437716123486
 23
136.66438226362339
 33
0.0
  0
SOLID
  5
E6AE
  8
0
  6
CONTINUOUS
 62
     2
 10
584.52651867497252
 20
147.31302208992111
 30
0.0
 11
585.15503484674252
 21
147.86020749384579
 31
0.0
 12
583.19922054908352
 22
149.472163307193
 32
0.0
 13
583.19922054908352
 23
149.472163307193
 33
0.0
  0
INSERT
  5
E6AF
  8
0
  6
CONTINUOUS
  2
*U158
 10
0.0
 20
0.0
 30
0.0
  0
POINT
  5
E6B0
  8
DEFPOINTS
  6
CONTINUOUS
 62
     0
 10
587.88719377713858
 20
141.35235549167859
 30
0.0
  0
POINT
  5
E6B1
  8
DEFPOINTS
  6
CONTINUOUS
 62
     0
 10
570.39143950551306
 20
136.66438226362331
 30
0.0
  0
POINT
  5
E6B2
  8
DEFPOINTS
  6
CONTINUOUS
 62
     0
 10
570.39143950551306
 20
136.66438226362331
 30
0.0
  0
POINT
  5
E6B3
  8
DEFPOINTS
  6
CONTINUOUS
 62
     0
 10
568.89143950551318
 20
135.16438226362339
 30
0.0
  0
POINT
  5
E6B4
  8
DEFPOINTS
  6
CONTINUOUS
 62
     0
 10
586.79031949030195
 20
136.66438226362339
 30
0.0
  0
ENDBLK
  5
D239
  8
0
  0
BLOCK
  8
0
  2
*D61
 70
     1
 10
0.0
 20
0.0
 30
0.0
  3
*D61
  1

  0
LINE
  5
E6B5
  8
0
  6
CONTINUOUS
 62
     2
 10
711.43462868411427
 20
114.4054718701494
 30
0.0
 11
711.43462868411427
 21
136.52667556554809
 31
0.0
  0
LINE
  5
E6B6
  8
0
  6
CONTINUOUS
 62
     2
 10
711.1346286841142
 20
109.72508711242
 30
0.0
 11
697.77402683641412
 21
132.86632833233361
 31
0.0
  0
ARC
  5
E6B7
  8
0
  6
CONTINUOUS
 62
     2
 10
711.43462868411427
 20
109.2054718701494
 30
0.0
 40
26.321203695398761
 50
95.444027066623747
 51
114.5559729333776
  0
SOLID
  5
E6B8
  8
0
  6
CONTINUOUS
 62
     2
 10
708.9176618322283
 20
135.82414653491929
 30
0.0
 11
708.95723702334487
 21
134.99175344947679
 31
0.0
 12
711.43462868411427
 22
135.52667556554809
 32
0.0
 13
711.43462868411427
 23
135.52667556554809
 33
0.0
  0
SOLID
  5
E6B9
  8
0
  6
CONTINUOUS
 62
     2
 10
700.68697200779968
 20
132.77574261737001
 30
0.0
 11
700.30504858594509
 21
133.51640377085599
 31
0.0
 12
698.27402683641424
 22
132.00030292854919
 32
0.0
 13
698.27402683641424
 23
132.00030292854919
 33
0.0
  0
INSERT
  5
E6BA
  8
0
  6
CONTINUOUS
  2
*U159
 10
0.0
 20
0.0
 30
0.0
  0
POINT
  5
E6BB
  8
DEFPOINTS
  6
CONTINUOUS
 62
     0
 10
706.86399962840801
 20
135.1267973379916
 30
0.0
  0
POINT
  5
E6BC
  8
DEFPOINTS
  6
CONTINUOUS
 62
     0
 10
711.43462868411427
 20
109.2054718701493
 30
0.0
  0
POINT
  5
E6BD
  8
DEFPOINTS
  6
CONTINUOUS
 62
     0
 10
711.43462868411427
 20
113.8054718701494
 30
0.0
  0
POINT
  5
E6BE
  8
DEFPOINTS
  6
CONTINUOUS
 62
     0
 10
711.43462868411405
 20
98.005471870149336
 30
0.0
  0
POINT
  5
E6BF
  8
DEFPOINTS
  6
CONTINUOUS
 62
     0
 10
713.43462868411416
 20
105.7413702550117
 30
0.0
  0
ENDBLK
  5
D247
  8
0
  0
BLOCK
  8
0
  2
*D62
 70
     1
 10
0.0
 20
0.0
 30
0.0
  3
*D62
  1

  0
LINE
  5
E6C0
  8
0
  6
CONTINUOUS
 62
     2
 10
556.09031949030168
 20
196.6173292155529
 30
0.0
 11
556.09031949030168
 21
185.194831755504
 31
0.0
  0
LINE
  5
E6C1
  8
0
  6
CONTINUOUS
 62
     2
 10
570.39031949030186
 20
196.6173292155529
 30
0.0
 11
570.39031949030186
 21
185.194831755504
 31
0.0
  0
LINE
  5
E6C2
  8
0
  6
CONTINUOUS
 62
     2
 10
558.59031949030179
 20
186.19483175550391
 30
0.0
 11
567.89031949030186
 21
186.19483175550391
 31
0.0
  0
SOLID
  5
E6C3
  8
0
  6
CONTINUOUS
 62
     2
 10
558.59031949030179
 20
186.6114984221706
 30
0.0
 11
558.59031949030179
 21
185.77816508883731
 31
0.0
 12
556.09031949030168
 22
186.19483175550391
 32
0.0
 13
556.09031949030168
 23
186.19483175550391
 33
0.0
  0
SOLID
  5
E6C4
  8
0
  6
CONTINUOUS
 62
     2
 10
567.89031949030186
 20
186.6114984221706
 30
0.0
 11
567.89031949030186
 21
185.77816508883731
 31
0.0
 12
570.39031949030186
 22
186.19483175550391
 32
0.0
 13
570.39031949030186
 23
186.19483175550391
 33
0.0
  0
INSERT
  5
E6C5
  8
0
  6
CONTINUOUS
  2
*U160
 10
0.0
 20
0.0
 30
0.0
  0
POINT
  5
E6C6
  8
DEFPOINTS
  6
CONTINUOUS
 62
     0
 10
556.09031949030168
 20
197.21732921555289
 30
0.0
  0
POINT
  5
E6C7
  8
DEFPOINTS
  6
CONTINUOUS
 62
     0
 10
570.39031949030186
 20
197.21732921555289
 30
0.0
  0
POINT
  5
E6C8
  8
DEFPOINTS
  6
CONTINUOUS
 62
     0
 10
570.39031949030186
 20
186.19483175550391
 30
0.0
  0
ENDBLK
  5
D255
  8
0
  0
BLOCK
  8
0
  2
*D63
 70
     1
 10
0.0
 20
0.0
 30
0.0
  3
*D63
  1

  0
LINE
  5
E5C1
  8
0
  6
CONTINUOUS
 62
     2
 10
679.21318500637051
 20
199.53400467412459
 30
0.0
 11
672.62442640769552
 21
207.68399691618231
 31
0.0
  0
LINE
  5
E5C2
  8
0
  6
CONTINUOUS
 62
     2
 10
682.79670496217773
 20
195.1013548203324
 30
0.0
 11
680.78490428523355
 21
197.58986000140851
 31
0.0
  0
SOLID
  5
E5C3
  8
0
  6
CONTINUOUS
 62
     2
 10
679.53720911848984
 20
199.7959578872684
 30
0.0
 11
678.88916089425106
 21
199.27205146098069
 31
0.0
 12
680.78490428523355
 22
197.58986000140851
 32
0.0
 13
680.78490428523355
 23
197.58986000140851
 33
0.0
  0
INSERT
  5
E5C4
  8
0
  6
CONTINUOUS
  2
*U132
 10
0.0
 20
0.0
 30
0.0
  0
POINT
  5
E5C5
  8
DEFPOINTS
  6
CONTINUOUS
 62
     0
 10
680.78490428523355
 20
197.58986000140851
 30
0.0
  0
POINT
  5
E5C6
  8
DEFPOINTS
  6
CONTINUOUS
 62
     0
 10
682.79670496217773
 20
195.1013548203324
 30
0.0
  0
ENDBLK
  5
D4E8
  8
0
  0
BLOCK
  8
0
  2
*D64
 70
     1
 10
0.0
 20
0.0
 30
0.0
  3
*D64
  1

  0
LINE
  5
10583
  8
0
  6
CONTINUOUS
 62
     2
 10
249.72464516458371
 20
176.90397940775401
 30
0.0
 11
239.07323187769339
 21
176.90397940775401
 31
0.0
  0
LINE
  5
10584
  8
0
  6
CONTINUOUS
 62
     2
 10
246.88975416483771
 20
191.40397940775401
 30
0.0
 11
239.07323187769339
 21
191.40397940775401
 31
0.0
  0
LINE
  5
10585
  8
0
  6
CONTINUOUS
 62
     2
 10
240.07323187769339
 20
179.40397940775401
 30
0.0
 11
240.07323187769339
 21
188.90397940775401
 31
0.0
  0
SOLID
  5
10586
  8
0
  6
CONTINUOUS
 62
     2
 10
239.6565652110267
 20
179.40397940775401
 30
0.0
 11
240.4898985443601
 21
179.40397940775401
 31
0.0
 12
240.07323187769339
 22
176.90397940775401
 32
0.0
 13
240.07323187769339
 23
176.90397940775401
 33
0.0
  0
SOLID
  5
10587
  8
0
  6
CONTINUOUS
 62
     2
 10
239.6565652110267
 20
188.90397940775401
 30
0.0
 11
240.4898985443601
 21
188.90397940775401
 31
0.0
 12
240.07323187769339
 22
191.40397940775401
 32
0.0
 13
240.07323187769339
 23
191.40397940775401
 33
0.0
  0
INSERT
  5
10588
  8
0
  6
CONTINUOUS
  2
*U210
 10
0.0
 20
0.0
 30
0.0
  0
POINT
  5
10589
  8
DEFPOINTS
  6
CONTINUOUS
 62
     0
 10
250.3246451645837
 20
176.90397940775401
 30
0.0
  0
POINT
  5
1058A
  8
DEFPOINTS
  6
CONTINUOUS
 62
     0
 10
247.48975416483771
 20
191.40397940775401
 30
0.0
  0
POINT
  5
1058B
  8
DEFPOINTS
  6
CONTINUOUS
 62
     0
 10
240.07323187769339
 20
191.40397940775401
 30
0.0
  0
ENDBLK
  5
E0A9
  8
0
  0
BLOCK
  8
0
  2
*D65
 70
     1
 10
0.0
 20
0.0
 30
0.0
  3
*D65
  1

  0
LINE
  5
1058C
  8
0
  6
CONTINUOUS
 62
     2
 10
251.40652123325651
 20
176.30397940775401
 30
0.0
 11
251.40652123325651
 21
144.25717849987259
 31
0.0
  0
LINE
  5
1058D
  8
0
  6
CONTINUOUS
 62
     2
 10
308.40652123325651
 20
176.30397940775421
 30
0.0
 11
308.40652123325651
 21
144.25717849987259
 31
0.0
  0
LINE
  5
1058E
  8
0
  6
CONTINUOUS
 62
     2
 10
253.90652123325651
 20
145.25717849987259
 30
0.0
 11
305.90652123325651
 21
145.25717849987259
 31
0.0
  0
SOLID
  5
1058F
  8
0
  6
CONTINUOUS
 62
     2
 10
253.90652123325651
 20
145.67384516653919
 30
0.0
 11
253.90652123325651
 21
144.84051183320591
 31
0.0
 12
251.40652123325651
 22
145.25717849987259
 32
0.0
 13
251.40652123325651
 23
145.25717849987259
 33
0.0
  0
SOLID
  5
10590
  8
0
  6
CONTINUOUS
 62
     2
 10
305.90652123325651
 20
145.67384516653919
 30
0.0
 11
305.90652123325651
 21
144.84051183320591
 31
0.0
 12
308.40652123325651
 22
145.25717849987259
 32
0.0
 13
308.40652123325651
 23
145.25717849987259
 33
0.0
  0
INSERT
  5
10591
  8
0
  6
CONTINUOUS
  2
*U211
 10
0.0
 20
0.0
 30
0.0
  0
POINT
  5
10592
  8
DEFPOINTS
  6
CONTINUOUS
 62
     0
 10
251.40652123325651
 20
176.90397940775401
 30
0.0
  0
POINT
  5
10593
  8
DEFPOINTS
  6
CONTINUOUS
 62
     0
 10
308.40652123325651
 20
176.90397940775421
 30
0.0
  0
POINT
  5
10594
  8
DEFPOINTS
  6
CONTINUOUS
 62
     0
 10
308.40652123325651
 20
145.25717849987259
 30
0.0
  0
ENDBLK
  5
E0B5
  8
0
  0
BLOCK
  8
0
  2
*D66
 70
     1
 10
0.0
 20
0.0
 30
0.0
  3
*D66
  1

  0
LINE
  5
10595
  8
0
  6
CONTINUOUS
 62
     2
 10
285.98975416483768
 20
230.503979407754
 30
0.0
 11
285.98975416483768
 21
243.263714649007
 31
0.0
  0
LINE
  5
10596
  8
0
  6
CONTINUOUS
 62
     2
 10
297.98975416483768
 20
228.30690096307171
 30
0.0
 11
297.98975416483768
 21
243.263714649007
 31
0.0
  0
LINE
  5
10597
  8
0
  6
CONTINUOUS
 62
     2
 10
288.48975416483768
 20
242.26371464900711
 30
0.0
 11
295.48975416483768
 21
242.26371464900711
 31
0.0
  0
SOLID
  5
10598
  8
0
  6
CONTINUOUS
 62
     2
 10
288.48975416483768
 20
242.68038131567371
 30
0.0
 11
288.48975416483768
 21
241.8470479823404
 31
0.0
 12
285.98975416483768
 22
242.26371464900711
 32
0.0
 13
285.98975416483768
 23
242.26371464900711
 33
0.0
  0
SOLID
  5
10599
  8
0
  6
CONTINUOUS
 62
     2
 10
295.48975416483768
 20
242.68038131567371
 30
0.0
 11
295.48975416483768
 21
241.8470479823404
 31
0.0
 12
297.98975416483768
 22
242.26371464900711
 32
0.0
 13
297.98975416483768
 23
242.26371464900711
 33
0.0
  0
INSERT
  5
1059A
  8
0
  6
CONTINUOUS
  2
*U212
 10
0.0
 20
0.0
 30
0.0
  0
POINT
  5
1059B
  8
DEFPOINTS
  6
CONTINUOUS
 62
     0
 10
285.98975416483768
 20
229.90397940775401
 30
0.0
  0
POINT
  5
1059C
  8
DEFPOINTS
  6
CONTINUOUS
 62
     0
 10
297.98975416483768
 20
227.70690096307169
 30
0.0
  0
POINT
  5
1059D
  8
DEFPOINTS
  6
CONTINUOUS
 62
     0
 10
297.98975416483768
 20
242.26371464900711
 30
0.0
  0
ENDBLK
  5
E0C1
  8
0
  0
BLOCK
  8
0
  2
*D67
 70
     1
 10
0.0
 20
0.0
 30
0.0
  3
*D67
  1

  0
LINE
  5
1059E
  8
0
  6
CONTINUOUS
 62
     2
 10
107.6574093693872
 20
199.5539794077541
 30
0.0
 11
107.6574093693872
 21
263.45811010343601
 31
0.0
  0
LINE
  5
1059F
  8
0
  6
CONTINUOUS
 62
     2
 10
186.65740936938721
 20
220.32578014539951
 30
0.0
 11
186.65740936938721
 21
263.45811010343601
 31
0.0
  0
LINE
  5
105A0
  8
0
  6
CONTINUOUS
 62
     2
 10
110.1574093693872
 20
262.45811010343601
 30
0.0
 11
184.1574093693871
 21
262.45811010343601
 31
0.0
  0
SOLID
  5
105A1
  8
0
  6
CONTINUOUS
 62
     2
 10
110.1574093693872
 20
262.87477677010259
 30
0.0
 11
110.1574093693872
 21
262.04144343676933
 31
0.0
 12
107.6574093693872
 22
262.45811010343601
 32
0.0
 13
107.6574093693872
 23
262.45811010343601
 33
0.0
  0
SOLID
  5
105A2
  8
0
  6
CONTINUOUS
 62
     2
 10
184.1574093693871
 20
262.87477677010259
 30
0.0
 11
184.1574093693871
 21
262.04144343676933
 31
0.0
 12
186.65740936938721
 22
262.45811010343601
 32
0.0
 13
186.65740936938721
 23
262.45811010343601
 33
0.0
  0
INSERT
  5
105A3
  8
0
  6
CONTINUOUS
  2
*U213
 10
0.0
 20
0.0
 30
0.0
  0
POINT
  5
105A4
  8
DEFPOINTS
  6
CONTINUOUS
 62
     0
 10
107.6574093693872
 20
198.9539794077541
 30
0.0
  0
POINT
  5
105A5
  8
DEFPOINTS
  6
CONTINUOUS
 62
     0
 10
186.65740936938721
 20
219.7257801453996
 30
0.0
  0
POINT
  5
105A6
  8
DEFPOINTS
  6
CONTINUOUS
 62
     0
 10
186.65740936938721
 20
262.45811010343601
 30
0.0
  0
ENDBLK
  5
E0CD
  8
0
  0
BLOCK
  8
0
  2
*D68
 70
     1
 10
0.0
 20
0.0
 30
0.0
  3
*D68
  1

  0
ARC
  5
105A7
  8
0
  6
CONTINUOUS
 62
     2
 10
199.63256644003889
 20
73.827391469138547
 30
0.0
 40
41.231541602662077
 50
183.47455841074711
 51
206.52544158925269
  0
SOLID
  5
105A8
  8
0
  6
CONTINUOUS
 62
     2
 10
158.06034118371559
 20
71.315908688142585
 30
0.0
 11
158.89329147234471
 21
71.341172518360366
 31
0.0
 12
158.40102483737681
 22
73.827391469138547
 32
0.0
 13
158.40102483737681
 23
73.827391469138547
 33
0.0
  0
SOLID
  5
105A9
  8
0
  6
CONTINUOUS
 62
     2
 10
163.10820991086709
 20
55.610882756035707
 30
0.0
 11
162.37422188571591
 21
55.216286730486686
 31
0.0
 12
163.92500397493859
 22
53.211620667807587
 32
0.0
 13
163.92500397493859
 23
53.211620667807587
 33
0.0
  0
INSERT
  5
105AA
  8
0
  6
CONTINUOUS
  2
*U214
 10
0.0
 20
0.0
 30
0.0
  0
POINT
  5
105AB
  8
DEFPOINTS
  6
CONTINUOUS
 62
     0
 10
159.02742460109189
 20
66.667609407438093
 30
0.0
  0
POINT
  5
105AC
  8
DEFPOINTS
  6
CONTINUOUS
 62
     0
 10
161.62390034675479
 20
51.883077868642431
 30
0.0
  0
POINT
  5
105AD
  8
DEFPOINTS
  6
CONTINUOUS
 62
     0
 10
100.4460329605657
 20
73.827391469138533
 30
0.0
  0
POINT
  5
105AE
  8
DEFPOINTS
  6
CONTINUOUS
 62
     0
 10
183.4460329605657
 20
73.827391469138533
 30
0.0
  0
POINT
  5
105AF
  8
DEFPOINTS
  6
CONTINUOUS
 62
     0
 10
187.60466246028801
 20
66.883077868642417
 30
0.0
  0
ENDBLK
  5
E0D9
  8
0
  0
BLOCK
  8
0
  2
*D69
 70
     1
 10
0.0
 20
0.0
 30
0.0
  3
*D69
  1

  0
LINE
  5
105B0
  8
0
  6
CONTINUOUS
 62
     2
 10
186.3516957656897
 20
73.827391469138547
 30
0.0
 11
208.1765407143493
 21
73.827391469138547
 31
0.0
  0
LINE
  5
105B1
  8
0
  6
CONTINUOUS
 62
     2
 10
177.74851918386679
 20
51.127391469138502
 30
0.0
 11
208.1765407143493
 21
51.127391469138487
 31
0.0
  0
LINE
  5
105B2
  8
0
  6
CONTINUOUS
 62
     2
 10
207.1765407143493
 20
71.327391469138547
 30
0.0
 11
207.17654071434919
 21
53.627391469138502
 31
0.0
  0
SOLID
  5
105B3
  8
0
  6
CONTINUOUS
 62
     2
 10
206.75987404768259
 20
71.327391469138547
 30
0.0
 11
207.5932073810159
 21
71.327391469138547
 31
0.0
 12
207.1765407143493
 22
73.827391469138547
 32
0.0
 13
207.1765407143493
 23
73.827391469138547
 33
0.0
  0
SOLID
  5
105B4
  8
0
  6
CONTINUOUS
 62
     2
 10
206.75987404768259
 20
53.627391469138502
 30
0.0
 11
207.5932073810159
 21
53.627391469138502
 31
0.0
 12
207.17654071434919
 22
51.127391469138502
 32
0.0
 13
207.17654071434919
 23
51.127391469138502
 33
0.0
  0
INSERT
  5
105B5
  8
0
  6
CONTINUOUS
  2
*U215
 10
0.0
 20
0.0
 30
0.0
  0
POINT
  5
105B6
  8
DEFPOINTS
  6
CONTINUOUS
 62
     0
 10
185.7516957656897
 20
73.827391469138547
 30
0.0
  0
POINT
  5
105B7
  8
DEFPOINTS
  6
CONTINUOUS
 62
     0
 10
177.1485191838668
 20
51.127391469138502
 30
0.0
  0
POINT
  5
105B8
  8
DEFPOINTS
  6
CONTINUOUS
 62
     0
 10
207.17654071434919
 20
51.127391469138502
 30
0.0
  0
ENDBLK
  5
E0E5
  8
0
  0
BLOCK
  8
0
  2
*D70
 70
     1
 10
0.0
 20
0.0
 30
0.0
  3
*D70
  1

  0
LINE
  5
105B9
  8
0
  6
CONTINUOUS
 62
     2
 10
184.0460329605657
 20
73.827391469138547
 30
0.0
 11
200.1765407143493
 21
73.827391469138547
 31
0.0
  0
LINE
  5
105BA
  8
0
  6
CONTINUOUS
 62
     2
 10
182.0460329605657
 20
63.327391469138547
 30
0.0
 11
200.17654071434919
 21
63.327391469138547
 31
0.0
  0
LINE
  5
105BB
  8
0
  6
CONTINUOUS
 62
     2
 10
199.17654071434919
 20
71.327391469138547
 30
0.0
 11
199.17654071434919
 21
65.827391469138547
 31
0.0
  0
SOLID
  5
105BC
  8
0
  6
CONTINUOUS
 62
     2
 10
198.75987404768259
 20
71.327391469138547
 30
0.0
 11
199.5932073810159
 21
71.327391469138547
 31
0.0
 12
199.17654071434919
 22
73.827391469138547
 32
0.0
 13
199.17654071434919
 23
73.827391469138547
 33
0.0
  0
SOLID
  5
105BD
  8
0
  6
CONTINUOUS
 62
     2
 10
198.75987404768259
 20
65.827391469138547
 30
0.0
 11
199.5932073810159
 21
65.827391469138547
 31
0.0
 12
199.17654071434919
 22
63.327391469138547
 32
0.0
 13
199.17654071434919
 23
63.327391469138547
 33
0.0
  0
INSERT
  5
105BE
  8
0
  6
CONTINUOUS
  2
*U216
 10
0.0
 20
0.0
 30
0.0
  0
POINT
  5
105BF
  8
DEFPOINTS
  6
CONTINUOUS
 62
     0
 10
183.4460329605657
 20
73.827391469138547
 30
0.0
  0
POINT
  5
105C0
  8
DEFPOINTS
  6
CONTINUOUS
 62
     0
 10
181.4460329605657
 20
63.327391469138547
 30
0.0
  0
POINT
  5
105C1
  8
DEFPOINTS
  6
CONTINUOUS
 62
     0
 10
199.17654071434919
 20
63.327391469138547
 30
0.0
  0
ENDBLK
  5
E0F1
  8
0
  0
BLOCK
  8
0
  2
*D71
 70
     1
 10
0.0
 20
0.0
 30
0.0
  3
*D71
  1

  0
LINE
  5
105C2
  8
0
  6
CONTINUOUS
 62
     2
 10
103.59603296056591
 20
105.9106244007192
 30
0.0
 11
93.946154469925119
 21
105.9106244007192
 31
0.0
  0
LINE
  5
105C3
  8
0
  6
CONTINUOUS
 62
     2
 10
103.3460329605653
 20
88.910624400718802
 30
0.0
 11
93.946154469925105
 21
88.910624400718817
 31
0.0
  0
LINE
  5
105C4
  8
0
  6
CONTINUOUS
 62
     2
 10
94.946154469925105
 20
103.4106244007192
 30
0.0
 11
94.946154469925105
 21
91.410624400718817
 31
0.0
  0
SOLID
  5
105C5
  8
0
  6
CONTINUOUS
 62
     2
 10
94.529487803258448
 20
103.4106244007192
 30
0.0
 11
95.362821136591791
 21
103.4106244007192
 31
0.0
 12
94.946154469925105
 22
105.9106244007192
 32
0.0
 13
94.946154469925105
 23
105.9106244007192
 33
0.0
  0
SOLID
  5
105C6
  8
0
  6
CONTINUOUS
 62
     2
 10
94.529487803258434
 20
91.410624400718817
 30
0.0
 11
95.362821136591776
 21
91.410624400718817
 31
0.0
 12
94.946154469925105
 22
88.910624400718817
 32
0.0
 13
94.946154469925105
 23
88.910624400718817
 33
0.0
  0
INSERT
  5
105C7
  8
0
  6
CONTINUOUS
  2
*U217
 10
0.0
 20
0.0
 30
0.0
  0
POINT
  5
105C8
  8
DEFPOINTS
  6
CONTINUOUS
 62
     0
 10
104.1960329605659
 20
105.9106244007192
 30
0.0
  0
POINT
  5
105C9
  8
DEFPOINTS
  6
CONTINUOUS
 62
     0
 10
103.9460329605653
 20
88.910624400718802
 30
0.0
  0
POINT
  5
105CA
  8
DEFPOINTS
  6
CONTINUOUS
 62
     0
 10
94.946154469925105
 20
88.910624400718817
 30
0.0
  0
ENDBLK
  5
E0FD
  8
0
  0
BLOCK
  8
0
  2
*D72
 70
     1
 10
0.0
 20
0.0
 30
0.0
  3
*D72
  1

  0
LINE
  5
105CB
  8
0
  6
CONTINUOUS
 62
     2
 10
104.4210329605657
 20
73.910624400719428
 30
0.0
 11
93.946154469925077
 21
73.910624400719442
 31
0.0
  0
LINE
  5
105CC
  8
0
  6
CONTINUOUS
 62
     2
 10
106.59603296056621
 20
65.9106244007192
 30
0.0
 11
93.946154469925077
 21
65.910624400719215
 31
0.0
  0
LINE
  5
105CD
  8
0
  6
CONTINUOUS
 62
     2
 10
94.946154469925105
 20
71.410624400719442
 30
0.0
 11
94.946154469925105
 21
68.410624400719215
 31
0.0
  0
SOLID
  5
105CE
  8
0
  6
CONTINUOUS
 62
     2
 10
94.529487803258419
 20
71.410624400719442
 30
0.0
 11
95.362821136591762
 21
71.410624400719442
 31
0.0
 12
94.946154469925105
 22
73.910624400719442
 32
0.0
 13
94.946154469925105
 23
73.910624400719442
 33
0.0
  0
SOLID
  5
105CF
  8
0
  6
CONTINUOUS
 62
     2
 10
94.529487803258419
 20
68.410624400719215
 30
0.0
 11
95.362821136591762
 21
68.410624400719215
 31
0.0
 12
94.946154469925105
 22
65.910624400719215
 32
0.0
 13
94.946154469925105
 23
65.910624400719215
 33
0.0
  0
INSERT
  5
105D0
  8
0
  6
CONTINUOUS
  2
*U218
 10
0.0
 20
0.0
 30
0.0
  0
POINT
  5
105D1
  8
DEFPOINTS
  6
CONTINUOUS
 62
     0
 10
105.02103296056571
 20
73.910624400719428
 30
0.0
  0
POINT
  5
105D2
  8
DEFPOINTS
  6
CONTINUOUS
 62
     0
 10
107.1960329605662
 20
65.9106244007192
 30
0.0
  0
POINT
  5
105D3
  8
DEFPOINTS
  6
CONTINUOUS
 62
     0
 10
94.946154469925105
 20
65.910624400719215
 30
0.0
  0
ENDBLK
  5
E109
  8
0
  0
BLOCK
  8
0
  2
*D73
 70
     1
 10
0.0
 20
0.0
 30
0.0
  3
*D73
  1

  0
LINE
  5
105D4
  8
0
  6
CONTINUOUS
 62
     2
 10
103.3460329605653
 20
88.910624400718802
 30
0.0
 11
93.946154469925077
 21
88.910624400718817
 31
0.0
  0
LINE
  5
105D5
  8
0
  6
CONTINUOUS
 62
     2
 10
104.4210329605657
 20
73.910624400719428
 30
0.0
 11
93.946154469925077
 21
73.910624400719442
 31
0.0
  0
LINE
  5
105D6
  8
0
  6
CONTINUOUS
 62
     2
 10
94.946154469925105
 20
86.410624400718817
 30
0.0
 11
94.946154469925105
 21
76.410624400719442
 31
0.0
  0
SOLID
  5
105D7
  8
0
  6
CONTINUOUS
 62
     2
 10
94.529487803258419
 20
86.410624400718817
 30
0.0
 11
95.362821136591762
 21
86.410624400718817
 31
0.0
 12
94.946154469925105
 22
88.910624400718817
 32
0.0
 13
94.946154469925105
 23
88.910624400718817
 33
0.0
  0
SOLID
  5
105D8
  8
0
  6
CONTINUOUS
 62
     2
 10
94.529487803258419
 20
76.410624400719442
 30
0.0
 11
95.362821136591762
 21
76.410624400719442
 31
0.0
 12
94.946154469925105
 22
73.910624400719442
 32
0.0
 13
94.946154469925105
 23
73.910624400719442
 33
0.0
  0
INSERT
  5
105D9
  8
0
  6
CONTINUOUS
  2
*U219
 10
0.0
 20
0.0
 30
0.0
  0
POINT
  5
105DA
  8
DEFPOINTS
  6
CONTINUOUS
 62
     0
 10
103.9460329605653
 20
88.910624400718802
 30
0.0
  0
POINT
  5
105DB
  8
DEFPOINTS
  6
CONTINUOUS
 62
     0
 10
105.02103296056571
 20
73.910624400719428
 30
0.0
  0
POINT
  5
105DC
  8
DEFPOINTS
  6
CONTINUOUS
 62
     0
 10
94.946154469925105
 20
73.910624400719442
 30
0.0
  0
ENDBLK
  5
E115
  8
0
  0
BLOCK
  8
0
  2
*D74
 70
     1
 10
0.0
 20
0.0
 30
0.0
  3
*D74
  1

  0
LINE
  5
105DD
  8
0
  6
CONTINUOUS
 62
     2
 10
257.70096606240872
 20
43.875053743186413
 30
0.0
 11
254.92470487986441
 21
40.566434504909402
 31
0.0
  0
LINE
  5
105DE
  8
0
  6
CONTINUOUS
 62
     2
 10
282.8339616011524
 20
34.727391469138411
 30
0.0
 11
282.8339616011524
 21
30.408295797866622
 31
0.0
  0
ARC
  5
105DF
  8
0
  6
CONTINUOUS
 62
     2
 10
282.8339616011524
 20
73.827391469138391
 30
0.0
 40
42.419095671271791
 50
233.3772569892059
 51
266.62274301079412
  0
SOLID
  5
105E0
  8
0
  6
CONTINUOUS
 62
     2
 10
257.27081970209213
 20
39.455703117480738
 30
0.0
 11
257.78743201402432
 21
40.109580906983147
 31
0.0
 12
255.56749248955089
 22
41.332478948028367
 32
0.0
 13
255.56749248955089
 23
41.332478948028367
 33
0.0
  0
SOLID
  5
105E1
  8
0
  6
CONTINUOUS
 62
     2
 10
280.34732555567558
 20
31.898451169607728
 30
0.0
 11
280.32276900513671
 21
31.065479729359001
 31
0.0
 12
282.8339616011524
 22
31.408295797866611
 32
0.0
 13
282.8339616011524
 23
31.408295797866611
 33
0.0
  0
INSERT
  5
105E2
  8
0
  6
CONTINUOUS
  2
*U220
 10
0.0
 20
0.0
 30
0.0
  0
POINT
  5
105E3
  8
DEFPOINTS
  6
CONTINUOUS
 62
     0
 10
263.79630623904058
 20
35.920303004288371
 30
0.0
  0
POINT
  5
105E4
  8
DEFPOINTS
  6
CONTINUOUS
 62
     0
 10
281.54838638177932
 20
72.295302582900476
 30
0.0
  0
POINT
  5
105E5
  8
DEFPOINTS
  6
CONTINUOUS
 62
     0
 10
282.8339616011524
 20
71.827391469138448
 30
0.0
  0
POINT
  5
105E6
  8
DEFPOINTS
  6
CONTINUOUS
 62
     0
 10
282.8339616011524
 20
35.327391469138419
 30
0.0
  0
POINT
  5
105E7
  8
DEFPOINTS
  6
CONTINUOUS
 62
     0
 10
258.08663862822061
 20
44.33468040905781
 30
0.0
  0
ENDBLK
  5
E121
  8
0
  0
BLOCK
  8
0
  2
*D75
 70
     1
 10
0.0
 20
0.0
 30
0.0
  3
*D75
  1

  0
LINE
  5
104C3
  8
0
  6
CONTINUOUS
 62
     2
 10
82.001112201820902
 20
64.141489348955915
 30
0.0
 11
88.486769869789214
 21
64.141489348955915
 31
0.0
  0
LINE
  5
104C4
  8
0
  6
CONTINUOUS
 62
     2
 10
81.990133954353354
 20
72.641489348956156
 30
0.0
 11
88.486769869789214
 21
72.641489348956156
 31
0.0
  0
LINE
  5
104C5
  8
0
  6
CONTINUOUS
 62
     2
 10
87.486769869789214
 20
66.641489348955915
 30
0.0
 11
87.486769869789214
 21
70.141489348956156
 31
0.0
  0
SOLID
  5
104C6
  8
0
  6
CONTINUOUS
 62
     2
 10
87.070103203122557
 20
66.641489348955915
 30
0.0
 11
87.903436536455885
 21
66.641489348955915
 31
0.0
 12
87.486769869789214
 22
64.141489348955915
 32
0.0
 13
87.486769869789214
 23
64.141489348955915
 33
0.0
  0
SOLID
  5
104C7
  8
0
  6
CONTINUOUS
 62
     2
 10
87.070103203122557
 20
70.141489348956156
 30
0.0
 11
87.903436536455885
 21
70.141489348956156
 31
0.0
 12
87.486769869789214
 22
72.641489348956156
 32
0.0
 13
87.486769869789214
 23
72.641489348956156
 33
0.0
  0
INSERT
  5
104C8
  8
0
  6
CONTINUOUS
  2
*U186
 10
0.0
 20
0.0
 30
0.0
  0
POINT
  5
104C9
  8
DEFPOINTS
  6
CONTINUOUS
 62
     0
 10
81.401112201820894
 20
64.141489348955915
 30
0.0
  0
POINT
  5
104CA
  8
DEFPOINTS
  6
CONTINUOUS
 62
     0
 10
81.39013395435336
 20
72.641489348956156
 30
0.0
  0
POINT
  5
104CB
  8
DEFPOINTS
  6
CONTINUOUS
 62
     0
 10
87.486769869789214
 20
72.641489348956156
 30
0.0
  0
ENDBLK
  5
E17D
  8
0
  0
BLOCK
  8
0
  2
*D76
 70
     1
 10
0.0
 20
0.0
 30
0.0
  3
*D76
  1

  0
LINE
  5
104CC
  8
0
  6
CONTINUOUS
 62
     2
 10
180.45740936938691
 20
210.6039794077542
 30
0.0
 11
202.24100995622399
 21
210.60397940775411
 31
0.0
  0
LINE
  5
104CD
  8
0
  6
CONTINUOUS
 62
     2
 10
201.041009956224
 20
208.1039794077542
 30
0.0
 11
201.041009956224
 21
182.5454869837051
 31
0.0
  0
SOLID
  5
104CE
  8
0
  6
CONTINUOUS
 62
     2
 10
200.6243432895574
 20
208.1039794077542
 30
0.0
 11
201.45767662289069
 21
208.1039794077542
 31
0.0
 12
201.041009956224
 22
210.60397940775411
 32
0.0
 13
201.041009956224
 23
210.60397940775411
 33
0.0
  0
INSERT
  5
104CF
  8
0
  6
CONTINUOUS
  2
*U187
 10
0.0
 20
0.0
 30
0.0
  0
POINT
  5
104D0
  8
DEFPOINTS
  6
CONTINUOUS
 62
     0
 10
180.45740936938691
 20
210.6039794077542
 30
0.0
  0
POINT
  5
104D1
  8
DEFPOINTS
  6
CONTINUOUS
 62
     0
 10
186.65740936938741
 20
172.2039794077543
 30
0.0
  0
POINT
  5
104D2
  8
DEFPOINTS
  6
CONTINUOUS
 62
     0
 10
201.041009956224
 20
172.2039794077543
 30
0.0
  0
ENDBLK
  5
E255
  8
0
  0
BLOCK
  8
0
  2
*D77
 70
     1
 10
0.0
 20
0.0
 30
0.0
  3
*D77
  1

  0
LINE
  5
104D3
  8
0
  6
CONTINUOUS
 62
     2
 10
175.9148457301516
 20
223.40397940775421
 30
0.0
 11
226.041009956224
 21
223.40397940775409
 31
0.0
  0
LINE
  5
104D4
  8
0
  6
CONTINUOUS
 62
     2
 10
225.041009956224
 20
220.90397940775409
 30
0.0
 11
225.04100995622389
 21
187.65397940775409
 31
0.0
  0
SOLID
  5
104D5
  8
0
  6
CONTINUOUS
 62
     2
 10
224.62434328955729
 20
220.90397940775409
 30
0.0
 11
225.4576766228906
 21
220.90397940775409
 31
0.0
 12
225.041009956224
 22
223.40397940775409
 32
0.0
 13
225.041009956224
 23
223.40397940775409
 33
0.0
  0
INSERT
  5
104D6
  8
0
  6
CONTINUOUS
  2
*U188
 10
0.0
 20
0.0
 30
0.0
  0
POINT
  5
104D7
  8
DEFPOINTS
  6
CONTINUOUS
 62
     0
 10
175.31484573015209
 20
159.40397940775409
 30
0.0
  0
POINT
  5
104D8
  8
DEFPOINTS
  6
CONTINUOUS
 62
     0
 10
175.3148457301516
 20
223.40397940775421
 30
0.0
  0
POINT
  5
104D9
  8
DEFPOINTS
  6
CONTINUOUS
 62
     0
 10
225.041009956224
 20
223.40397940775409
 30
0.0
  0
ENDBLK
  5
E25F
  8
0
  0
BLOCK
  8
0
  2
*D78
 70
     1
 10
0.0
 20
0.0
 30
0.0
  3
*D78
  1

  0
LINE
  5
104DA
  8
0
  6
CONTINUOUS
 62
     2
 10
187.2574093693872
 20
221.40397940775421
 30
0.0
 11
218.041009956224
 21
221.40397940775409
 31
0.0
  0
LINE
  5
104DB
  8
0
  6
CONTINUOUS
 62
     2
 10
217.041009956224
 20
218.90397940775409
 30
0.0
 11
217.041009956224
 21
187.80279830539209
 31
0.0
  0
SOLID
  5
104DC
  8
0
  6
CONTINUOUS
 62
     2
 10
216.6243432895574
 20
218.90397940775409
 30
0.0
 11
217.45767662289069
 21
218.90397940775409
 31
0.0
 12
217.041009956224
 22
221.40397940775409
 32
0.0
 13
217.041009956224
 23
221.40397940775409
 33
0.0
  0
INSERT
  5
104DD
  8
0
  6
CONTINUOUS
  2
*U189
 10
0.0
 20
0.0
 30
0.0
  0
POINT
  5
104DE
  8
DEFPOINTS
  6
CONTINUOUS
 62
     0
 10
186.65740936938721
 20
161.40397940775409
 30
0.0
  0
POINT
  5
104DF
  8
DEFPOINTS
  6
CONTINUOUS
 62
     0
 10
186.65740936938721
 20
221.40397940775421
 30
0.0
  0
POINT
  5
104E0
  8
DEFPOINTS
  6
CONTINUOUS
 62
     0
 10
217.041009956224
 20
221.40397940775409
 30
0.0
  0
ENDBLK
  5
E269
  8
0
  0
BLOCK
  8
0
  2
*D79
 70
     1
 10
0.0
 20
0.0
 30
0.0
  3
*D79
  1

  0
LINE
  5
104E1
  8
0
  6
CONTINUOUS
 62
     2
 10
187.0574093693869
 20
216.90397940775421
 30
0.0
 11
210.041009956224
 21
216.90397940775409
 31
0.0
  0
LINE
  5
104E2
  8
0
  6
CONTINUOUS
 62
     2
 10
209.041009956224
 20
214.40397940775409
 30
0.0
 11
209.041009956224
 21
184.87591739988019
 31
0.0
  0
SOLID
  5
104E3
  8
0
  6
CONTINUOUS
 62
     2
 10
208.6243432895574
 20
214.40397940775409
 30
0.0
 11
209.45767662289069
 21
214.40397940775409
 31
0.0
 12
209.041009956224
 22
216.90397940775409
 32
0.0
 13
209.041009956224
 23
216.90397940775409
 33
0.0
  0
INSERT
  5
104E4
  8
0
  6
CONTINUOUS
  2
*U190
 10
0.0
 20
0.0
 30
0.0
  0
POINT
  5
104E5
  8
DEFPOINTS
  6
CONTINUOUS
 62
     0
 10
186.65740936938741
 20
165.90397940775409
 30
0.0
  0
POINT
  5
104E6
  8
DEFPOINTS
  6
CONTINUOUS
 62
     0
 10
186.45740936938691
 20
216.90397940775421
 30
0.0
  0
POINT
  5
104E7
  8
DEFPOINTS
  6
CONTINUOUS
 62
     0
 10
209.041009956224
 20
216.90397940775409
 30
0.0
  0
ENDBLK
  5
E273
  8
0
  0
BLOCK
  8
0
  2
*D80
 70
     1
 10
0.0
 20
0.0
 30
0.0
  3
*D80
  1

  0
LINE
  5
104EE
  8
0
  6
CONTINUOUS
 62
     2
 10
120.3272823504649
 20
153.90397940775401
 30
0.0
 11
132.94606106270419
 21
153.90397940775401
 31
0.0
  0
LINE
  5
104EF
  8
0
  6
CONTINUOUS
 62
     2
 10
131.7460610627042
 20
156.40397940775401
 30
0.0
 11
131.7460610627042
 21
187.3808930742949
 31
0.0
  0
SOLID
  5
104F0
  8
0
  6
CONTINUOUS
 62
     2
 10
131.3293943960376
 20
156.40397940775401
 30
0.0
 11
132.16272772937091
 21
156.40397940775401
 31
0.0
 12
131.7460610627042
 22
153.90397940775401
 32
0.0
 13
131.7460610627042
 23
153.90397940775401
 33
0.0
  0
INSERT
  5
104F1
  8
0
  6
CONTINUOUS
  2
*U192
 10
0.0
 20
0.0
 30
0.0
  0
POINT
  5
104F2
  8
DEFPOINTS
  6
CONTINUOUS
 62
     0
 10
120.3272823504649
 20
153.90397940775401
 30
0.0
  0
POINT
  5
104F3
  8
DEFPOINTS
  6
CONTINUOUS
 62
     0
 10
120.3272823504649
 20
228.90397940775401
 30
0.0
  0
POINT
  5
104F4
  8
DEFPOINTS
  6
CONTINUOUS
 62
     0
 10
131.74606106270431
 20
228.90397940775401
 30
0.0
  0
ENDBLK
  5
E27D
  8
0
  0
BLOCK
  8
0
  2
*D81
 70
     1
 10
0.0
 20
0.0
 30
0.0
  3
*D81
  1

  0
LINE
  5
104F5
  8
0
  6
CONTINUOUS
 62
     2
 10
174.8962801066269
 20
159.3301749951294
 30
0.0
 11
166.6026137543744
 21
157.86777784823329
 31
0.0
  0
LINE
  5
104F6
  8
0
  6
CONTINUOUS
 62
     2
 10
186.65740936938741
 20
160.8039794077541
 30
0.0
 11
186.65740936938741
 21
141.0398062443403
 31
0.0
  0
ARC
  5
104F7
  8
0
  6
CONTINUOUS
 62
     2
 10
186.65740936938741
 20
161.40397940775409
 30
0.0
 40
19.364173163413799
 50
197.4022843141442
 51
262.59771568585683
  0
SOLID
  5
104F8
  8
0
  6
CONTINUOUS
 62
     2
 10
167.77475512448439
 20
155.51387439892679
 30
0.0
 11
168.5843754566327
 21
155.71125565998409
 31
0.0
 12
167.58742150738661
 22
158.04142602590019
 32
0.0
 13
167.58742150738661
 23
158.04142602590019
 33
0.0
  0
SOLID
  5
104F9
  8
0
  6
CONTINUOUS
 62
     2
 10
184.1895202906895
 20
142.6169843852592
 30
0.0
 11
184.13572678978059
 21
141.78538910887499
 31
0.0
 12
186.65740936938741
 22
142.0398062443403
 32
0.0
 13
186.65740936938741
 23
142.0398062443403
 33
0.0
  0
INSERT
  5
104FA
  8
0
  6
CONTINUOUS
  2
*U193
 10
0.0
 20
0.0
 30
0.0
  0
POINT
  5
104FB
  8
DEFPOINTS
  6
CONTINUOUS
 62
     0
 10
171.1249569664885
 20
149.84049703200091
 30
0.0
  0
POINT
  5
104FC
  8
DEFPOINTS
  6
CONTINUOUS
 62
     0
 10
185.0047057247213
 20
161.11256316408429
 30
0.0
  0
POINT
  5
104FD
  8
DEFPOINTS
  6
CONTINUOUS
 62
     0
 10
186.65740936938721
 20
219.7257801453996
 30
0.0
  0
POINT
  5
104FE
  8
DEFPOINTS
  6
CONTINUOUS
 62
     0
 10
186.65740936938741
 20
163.0821786701087
 30
0.0
  0
POINT
  5
104FF
  8
DEFPOINTS
  6
CONTINUOUS
 62
     0
 10
175.4871647584342
 20
159.4343639017296
 30
0.0
  0
ENDBLK
  5
E287
  8
0
  0
BLOCK
  8
0
  2
*D82
 70
     1
 10
0.0
 20
0.0
 30
0.0
  3
*D82
  1

  0
LINE
  5
10500
  8
0
  6
CONTINUOUS
 62
     2
 10
188.10369419492309
 20
160.18854412143469
 30
0.0
 11
193.83232109654159
 21
155.3785665490191
 31
0.0
  0
LINE
  5
10501
  8
0
  6
CONTINUOUS
 62
     2
 10
184.6574093693865
 20
163.08217867010879
 30
0.0
 11
186.18909151406959
 21
161.79611887069791
 31
0.0
  0
SOLID
  5
10502
  8
0
  6
CONTINUOUS
 62
     2
 10
188.37162331980031
 20
160.50764456824359
 30
0.0
 11
187.83576507004591
 21
159.86944367462581
 31
0.0
 12
186.18909151406959
 22
161.79611887069791
 32
0.0
 13
186.18909151406959
 23
161.79611887069791
 33
0.0
  0
INSERT
  5
10503
  8
0
  6
CONTINUOUS
  2
*U194
 10
0.0
 20
0.0
 30
0.0
  0
POINT
  5
10504
  8
DEFPOINTS
  6
CONTINUOUS
 62
     0
 10
186.18909151406959
 20
161.79611887069791
 30
0.0
  0
POINT
  5
10505
  8
DEFPOINTS
  6
CONTINUOUS
 62
     0
 10
184.6574093693865
 20
163.08217867010879
 30
0.0
  0
ENDBLK
  5
E295
  8
0
  0
BLOCK
  8
0
  2
*D83
 70
     1
 10
0.0
 20
0.0
 30
0.0
  3
*D83
  1

  0
LINE
  5
10506
  8
0
  6
CONTINUOUS
 62
     2
 10
109.6574093693872
 20
200.0039794077542
 30
0.0
 11
109.6574093693872
 21
255.45811010343601
 31
0.0
  0
LINE
  5
10507
  8
0
  6
CONTINUOUS
 62
     2
 10
123.6574093693872
 20
208.2539794077542
 30
0.0
 11
123.6574093693872
 21
255.45811010343601
 31
0.0
  0
LINE
  5
10508
  8
0
  6
CONTINUOUS
 62
     2
 10
112.1574093693872
 20
254.4581101034359
 30
0.0
 11
121.1574093693872
 21
254.4581101034359
 31
0.0
  0
SOLID
  5
10509
  8
0
  6
CONTINUOUS
 62
     2
 10
112.1574093693872
 20
254.87477677010261
 30
0.0
 11
112.1574093693872
 21
254.0414434367693
 31
0.0
 12
109.6574093693872
 22
254.4581101034359
 32
0.0
 13
109.6574093693872
 23
254.4581101034359
 33
0.0
  0
SOLID
  5
1050A
  8
0
  6
CONTINUOUS
 62
     2
 10
121.1574093693872
 20
254.87477677010261
 30
0.0
 11
121.1574093693872
 21
254.0414434367693
 31
0.0
 12
123.6574093693872
 22
254.4581101034359
 32
0.0
 13
123.6574093693872
 23
254.4581101034359
 33
0.0
  0
INSERT
  5
1050B
  8
0
  6
CONTINUOUS
  2
*U195
 10
0.0
 20
0.0
 30
0.0
  0
POINT
  5
1050C
  8
DEFPOINTS
  6
CONTINUOUS
 62
     0
 10
109.6574093693872
 20
199.40397940775409
 30
0.0
  0
POINT
  5
1050D
  8
DEFPOINTS
  6
CONTINUOUS
 62
     0
 10
123.6574093693872
 20
207.65397940775409
 30
0.0
  0
POINT
  5
1050E
  8
DEFPOINTS
  6
CONTINUOUS
 62
     0
 10
123.6574093693872
 20
254.4581101034359
 30
0.0
  0
ENDBLK
  5
E29E
  8
0
  0
BLOCK
  8
0
  2
*D84
 70
     1
 10
0.0
 20
0.0
 30
0.0
  3
*D84
  1

  0
LINE
  5
1050F
  8
0
  6
CONTINUOUS
 62
     2
 10
132.65740936938721
 20
211.55236672133341
 30
0.0
 11
132.65740936938721
 21
247.45811010343601
 31
0.0
  0
LINE
  5
10510
  8
0
  6
CONTINUOUS
 62
     2
 10
180.1574093693873
 20
242.99020899664839
 30
0.0
 11
180.1574093693873
 21
247.45811010343601
 31
0.0
  0
LINE
  5
10511
  8
0
  6
CONTINUOUS
 62
     2
 10
135.15740936938721
 20
246.4581101034359
 30
0.0
 11
177.6574093693873
 21
246.4581101034359
 31
0.0
  0
SOLID
  5
10512
  8
0
  6
CONTINUOUS
 62
     2
 10
135.15740936938721
 20
246.87477677010261
 30
0.0
 11
135.15740936938721
 21
246.0414434367693
 31
0.0
 12
132.65740936938721
 22
246.4581101034359
 32
0.0
 13
132.65740936938721
 23
246.4581101034359
 33
0.0
  0
SOLID
  5
10513
  8
0
  6
CONTINUOUS
 62
     2
 10
177.6574093693873
 20
246.87477677010261
 30
0.0
 11
177.6574093693873
 21
246.0414434367693
 31
0.0
 12
180.1574093693873
 22
246.4581101034359
 32
0.0
 13
180.1574093693873
 23
246.4581101034359
 33
0.0
  0
INSERT
  5
10514
  8
0
  6
CONTINUOUS
  2
*U196
 10
0.0
 20
0.0
 30
0.0
  0
POINT
  5
10515
  8
DEFPOINTS
  6
CONTINUOUS
 62
     0
 10
132.65740936938721
 20
210.95236672133339
 30
0.0
  0
POINT
  5
10516
  8
DEFPOINTS
  6
CONTINUOUS
 62
     0
 10
180.1574093693873
 20
242.3902089966484
 30
0.0
  0
POINT
  5
10517
  8
DEFPOINTS
  6
CONTINUOUS
 62
     0
 10
180.1574093693873
 20
246.4581101034359
 30
0.0
  0
ENDBLK
  5
E2AA
  8
0
  0
BLOCK
  8
0
  2
*D85
 70
     1
 10
0.0
 20
0.0
 30
0.0
  3
*D85
  1

  0
LINE
  5
10518
  8
0
  6
CONTINUOUS
 62
     2
 10
123.6574093693872
 20
208.2539794077542
 30
0.0
 11
123.6574093693872
 21
255.45811010343601
 31
0.0
  0
LINE
  5
10519
  8
0
  6
CONTINUOUS
 62
     2
 10
186.65740936938721
 20
220.32578014539951
 30
0.0
 11
186.65740936938721
 21
255.45811010343601
 31
0.0
  0
LINE
  5
1051A
  8
0
  6
CONTINUOUS
 62
     2
 10
126.1574093693871
 20
254.4581101034359
 30
0.0
 11
184.1574093693871
 21
254.4581101034359
 31
0.0
  0
SOLID
  5
1051B
  8
0
  6
CONTINUOUS
 62
     2
 10
126.1574093693871
 20
254.87477677010261
 30
0.0
 11
126.1574093693871
 21
254.0414434367693
 31
0.0
 12
123.6574093693872
 22
254.4581101034359
 32
0.0
 13
123.6574093693872
 23
254.4581101034359
 33
0.0
  0
SOLID
  5
1051C
  8
0
  6
CONTINUOUS
 62
     2
 10
184.1574093693871
 20
254.87477677010261
 30
0.0
 11
184.1574093693871
 21
254.0414434367693
 31
0.0
 12
186.65740936938721
 22
254.4581101034359
 32
0.0
 13
186.65740936938721
 23
254.4581101034359
 33
0.0
  0
INSERT
  5
1051D
  8
0
  6
CONTINUOUS
  2
*U197
 10
0.0
 20
0.0
 30
0.0
  0
POINT
  5
1051E
  8
DEFPOINTS
  6
CONTINUOUS
 62
     0
 10
123.6574093693872
 20
207.65397940775409
 30
0.0
  0
POINT
  5
1051F
  8
DEFPOINTS
  6
CONTINUOUS
 62
     0
 10
186.65740936938721
 20
219.7257801453996
 30
0.0
  0
POINT
  5
10520
  8
DEFPOINTS
  6
CONTINUOUS
 62
     0
 10
186.65740936938721
 20
254.4581101034359
 30
0.0
  0
ENDBLK
  5
E2B6
  8
0
  0
BLOCK
  8
0
  2
*D86
 70
     1
 10
0.0
 20
0.0
 30
0.0
  3
*D86
  1

  0
LINE
  5
10521
  8
0
  6
CONTINUOUS
 62
     2
 10
166.6574093693869
 20
225.0039794077548
 30
0.0
 11
166.6574093693869
 21
239.45811010343601
 31
0.0
  0
LINE
  5
10522
  8
0
  6
CONTINUOUS
 62
     2
 10
186.65740936938721
 20
220.32578014539951
 30
0.0
 11
186.65740936938721
 21
239.45811010343601
 31
0.0
  0
LINE
  5
10523
  8
0
  6
CONTINUOUS
 62
     2
 10
169.1574093693869
 20
238.45811010343601
 30
0.0
 11
184.1574093693871
 21
238.45811010343601
 31
0.0
  0
SOLID
  5
10524
  8
0
  6
CONTINUOUS
 62
     2
 10
169.1574093693869
 20
238.87477677010261
 30
0.0
 11
169.1574093693869
 21
238.0414434367693
 31
0.0
 12
166.6574093693869
 22
238.45811010343601
 32
0.0
 13
166.6574093693869
 23
238.45811010343601
 33
0.0
  0
SOLID
  5
10525
  8
0
  6
CONTINUOUS
 62
     2
 10
184.1574093693871
 20
238.87477677010261
 30
0.0
 11
184.1574093693871
 21
238.0414434367693
 31
0.0
 12
186.65740936938721
 22
238.45811010343601
 32
0.0
 13
186.65740936938721
 23
238.45811010343601
 33
0.0
  0
INSERT
  5
10526
  8
0
  6
CONTINUOUS
  2
*U198
 10
0.0
 20
0.0
 30
0.0
  0
POINT
  5
10527
  8
DEFPOINTS
  6
CONTINUOUS
 62
     0
 10
166.6574093693869
 20
224.4039794077548
 30
0.0
  0
POINT
  5
10528
  8
DEFPOINTS
  6
CONTINUOUS
 62
     0
 10
186.65740936938721
 20
219.7257801453996
 30
0.0
  0
POINT
  5
10529
  8
DEFPOINTS
  6
CONTINUOUS
 62
     0
 10
186.65740936938721
 20
238.45811010343601
 30
0.0
  0
ENDBLK
  5
E2C2
  8
0
  0
BLOCK
  8
0
  2
*D87
 70
     1
 10
0.0
 20
0.0
 30
0.0
  3
*D87
  1

  0
LINE
  5
1052A
  8
0
  6
CONTINUOUS
 62
     2
 10
196.2517367079802
 20
208.40274207599921
 30
0.0
 11
188.42745893962191
 21
215.34478845886829
 31
0.0
  0
INSERT
  5
1052B
  8
0
  6
CONTINUOUS
  2
*U199
 10
0.0
 20
0.0
 30
0.0
  0
SOLID
  5
1052C
  8
0
  6
CONTINUOUS
 62
     2
 10
188.70399076443621
 20
215.65646338724059
 30
0.0
 11
188.1509271148075
 21
215.0331135304958
 31
0.0
 12
186.55740936938739
 22
217.00397940775451
 32
0.0
 13
186.55740936938739
 23
217.00397940775451
 33
0.0
  0
POINT
  5
1052D
  8
DEFPOINTS
  6
CONTINUOUS
 62
     0
 10
186.55740936938739
 20
217.00397940775451
 30
0.0
  0
POINT
  5
1052E
  8
DEFPOINTS
  6
CONTINUOUS
 62
     0
 10
186.856617300625
 20
216.73850885593251
 30
0.0
  0
ENDBLK
  5
E2CE
  8
0
  0
BLOCK
  8
0
  2
*D88
 70
     1
 10
0.0
 20
0.0
 30
0.0
  3
*D88
  1

  0
LINE
  5
1052F
  8
0
  6
CONTINUOUS
 62
     2
 10
180.15740936938741
 20
243.23285987625511
 30
0.0
 11
180.15740936938741
 21
247.45811010343601
 31
0.0
  0
LINE
  5
10530
  8
0
  6
CONTINUOUS
 62
     2
 10
186.65740936938741
 20
232.258110103436
 30
0.0
 11
186.65740936938741
 21
247.45811010343601
 31
0.0
  0
LINE
  5
10531
  8
0
  6
CONTINUOUS
 62
     2
 10
182.65740936938741
 20
246.4581101034359
 30
0.0
 11
184.15740936938741
 21
246.4581101034359
 31
0.0
  0
SOLID
  5
10532
  8
0
  6
CONTINUOUS
 62
     2
 10
182.65740936938741
 20
246.87477677010261
 30
0.0
 11
182.65740936938741
 21
246.0414434367693
 31
0.0
 12
180.15740936938741
 22
246.4581101034359
 32
0.0
 13
180.15740936938741
 23
246.4581101034359
 33
0.0
  0
SOLID
  5
10533
  8
0
  6
CONTINUOUS
 62
     2
 10
184.15740936938741
 20
246.87477677010261
 30
0.0
 11
184.15740936938741
 21
246.0414434367693
 31
0.0
 12
186.65740936938741
 22
246.4581101034359
 32
0.0
 13
186.65740936938741
 23
246.4581101034359
 33
0.0
  0
INSERT
  5
10534
  8
0
  6
CONTINUOUS
  2
*U200
 10
0.0
 20
0.0
 30
0.0
  0
POINT
  5
10535
  8
DEFPOINTS
  6
CONTINUOUS
 62
     0
 10
180.15740936938741
 20
242.63285987625511
 30
0.0
  0
POINT
  5
10536
  8
DEFPOINTS
  6
CONTINUOUS
 62
     0
 10
186.65740936938741
 20
231.658110103436
 30
0.0
  0
POINT
  5
10537
  8
DEFPOINTS
  6
CONTINUOUS
 62
     0
 10
186.65740936938741
 20
246.4581101034359
 30
0.0
  0
ENDBLK
  5
E2D6
  8
0
  0
BLOCK
  8
0
  2
*D89
 70
     1
 10
0.0
 20
0.0
 30
0.0
  3
*D89
  1

  0
LINE
  5
10538
  8
0
  6
CONTINUOUS
 62
     2
 10
226.93792454653669
 20
256.68106573575108
 30
0.0
 11
257.02818701533408
 21
256.68106573575108
 31
0.0
  0
LINE
  5
10539
  8
0
  6
CONTINUOUS
 62
     2
 10
256.0281870153342
 20
254.1810657357511
 30
0.0
 11
256.0281870153342
 21
232.2667298838027
 31
0.0
  0
SOLID
  5
1053A
  8
0
  6
CONTINUOUS
 62
     2
 10
255.61152034866751
 20
254.1810657357511
 30
0.0
 11
256.44485368200083
 21
254.1810657357511
 31
0.0
 12
256.0281870153342
 22
256.68106573575108
 32
0.0
 13
256.0281870153342
 23
256.68106573575108
 33
0.0
  0
INSERT
  5
1053B
  8
0
  6
CONTINUOUS
  2
*U201
 10
0.0
 20
0.0
 30
0.0
  0
POINT
  5
1053C
  8
DEFPOINTS
  6
CONTINUOUS
 62
     0
 10
226.33792454653681
 20
205.6810657357511
 30
0.0
  0
POINT
  5
1053D
  8
DEFPOINTS
  6
CONTINUOUS
 62
     0
 10
226.33792454653681
 20
256.68106573575108
 30
0.0
  0
POINT
  5
1053E
  8
DEFPOINTS
  6
CONTINUOUS
 62
     0
 10
256.0281870153342
 20
256.68106573575108
 30
0.0
  0
ENDBLK
  5
E2E2
  8
0
  0
BLOCK
  8
0
  2
*D90
 70
     1
 10
0.0
 20
0.0
 30
0.0
  3
*D90
  1

  0
LINE
  5
1053F
  8
0
  6
CONTINUOUS
 62
     2
 10
214.33792454653641
 20
246.08106573575091
 30
0.0
 11
249.12719292084569
 21
246.08106573575091
 31
0.0
  0
LINE
  5
10540
  8
0
  6
CONTINUOUS
 62
     2
 10
248.12719292084569
 20
243.58106573575091
 30
0.0
 11
248.12719292084569
 21
225.5597918916767
 31
0.0
  0
SOLID
  5
10541
  8
0
  6
CONTINUOUS
 62
     2
 10
247.710526254179
 20
243.58106573575091
 30
0.0
 11
248.54385958751229
 21
243.58106573575091
 31
0.0
 12
248.12719292084569
 22
246.08106573575091
 32
0.0
 13
248.12719292084569
 23
246.08106573575091
 33
0.0
  0
INSERT
  5
10542
  8
0
  6
CONTINUOUS
  2
*U202
 10
0.0
 20
0.0
 30
0.0
  0
POINT
  5
10543
  8
DEFPOINTS
  6
CONTINUOUS
 62
     0
 10
213.73792454653639
 20
205.6810657357511
 30
0.0
  0
POINT
  5
10544
  8
DEFPOINTS
  6
CONTINUOUS
 62
     0
 10
213.73792454653639
 20
246.08106573575091
 30
0.0
  0
POINT
  5
10545
  8
DEFPOINTS
  6
CONTINUOUS
 62
     0
 10
248.12719292084569
 20
246.08106573575091
 30
0.0
  0
ENDBLK
  5
E2EC
  8
0
  0
BLOCK
  8
0
  2
*D91
 70
     1
 10
0.0
 20
0.0
 30
0.0
  3
*D91
  1

  0
LINE
  5
10546
  8
0
  6
CONTINUOUS
 62
     2
 10
214.73792454653639
 20
245.68106573575091
 30
0.0
 11
214.73792454653639
 21
272.6846606139265
 31
0.0
  0
LINE
  5
10547
  8
0
  6
CONTINUOUS
 62
     2
 10
213.73792454653639
 20
256.48106573575092
 30
0.0
 11
213.73792454653639
 21
272.6846606139265
 31
0.0
  0
LINE
  5
10548
  8
0
  6
CONTINUOUS
 62
     2
 10
217.23792454653639
 20
271.68466061392638
 30
0.0
 11
219.73792454653639
 21
271.68466061392638
 31
0.0
  0
LINE
  5
10549
  8
0
  6
CONTINUOUS
 62
     2
 10
211.23792454653639
 20
271.68466061392638
 30
0.0
 11
203.21129827310011
 21
271.68466061392638
 31
0.0
  0
LINE
  5
1054A
  8
0
  6
CONTINUOUS
 62
     2
 10
214.73792454653639
 20
271.68466061392638
 30
0.0
 11
213.73792454653639
 21
271.68466061392638
 31
0.0
  0
SOLID
  5
1054B
  8
0
  6
CONTINUOUS
 62
     2
 10
217.23792454653639
 20
272.10132728059313
 30
0.0
 11
217.23792454653639
 21
271.26799394725981
 31
0.0
 12
214.73792454653639
 22
271.68466061392638
 32
0.0
 13
214.73792454653639
 23
271.68466061392638
 33
0.0
  0
SOLID
  5
1054C
  8
0
  6
CONTINUOUS
 62
     2
 10
211.23792454653639
 20
272.10132728059313
 30
0.0
 11
211.23792454653639
 21
271.26799394725981
 31
0.0
 12
213.73792454653639
 22
271.68466061392638
 32
0.0
 13
213.73792454653639
 23
271.68466061392638
 33
0.0
  0
INSERT
  5
1054D
  8
0
  6
CONTINUOUS
  2
*U203
 10
0.0
 20
0.0
 30
0.0
  0
POINT
  5
1054E
  8
DEFPOINTS
  6
CONTINUOUS
 62
     0
 10
214.73792454653639
 20
245.08106573575091
 30
0.0
  0
POINT
  5
1054F
  8
DEFPOINTS
  6
CONTINUOUS
 62
     0
 10
213.73792454653639
 20
255.88106573575089
 30
0.0
  0
POINT
  5
10550
  8
DEFPOINTS
  6
CONTINUOUS
 62
     0
 10
213.73792454653639
 20
271.68466061392638
 30
0.0
  0
ENDBLK
  5
E2F6
  8
0
  0
BLOCK
  8
0
  2
*D92
 70
     1
 10
0.0
 20
0.0
 30
0.0
  3
*D92
  1

  0
LINE
  5
10551
  8
0
  6
CONTINUOUS
 62
     2
 10
214.7379245465369
 20
240.5631704859527
 30
0.0
 11
214.7379245465383
 21
228.6518376672164
 31
0.0
  0
LINE
  5
10552
  8
0
  6
CONTINUOUS
 62
     2
 10
215.16218861524831
 20
244.65680166703899
 30
0.0
 11
226.35514312345791
 21
233.4638471588303
 31
0.0
  0
ARC
  5
10553
  8
0
  6
CONTINUOUS
 62
     2
 10
214.73792454653639
 20
245.08106573575091
 30
0.0
 40
15.429228068534551
 50
279.29382878928158
 51
305.70617121072701
  0
SOLID
  5
10554
  8
0
  6
CONTINUOUS
 62
     2
 10
217.2634630173813
 20
229.43907831159979
 30
0.0
 11
217.19595045861681
 21
230.2696723754201
 31
0.0
 12
214.7379245465381
 22
229.6518376672164
 32
0.0
 13
214.7379245465381
 23
229.6518376672164
 33
0.0
  0
SOLID
  5
10555
  8
0
  6
CONTINUOUS
 62
     2
 10
223.47307443968529
 20
232.86974226107671
 30
0.0
 11
224.0126545465084
 21
232.23468497801849
 31
0.0
 12
225.64803634227141
 22
234.1709539400168
 32
0.0
 13
225.64803634227141
 23
234.1709539400168
 33
0.0
  0
INSERT
  5
10556
  8
0
  6
CONTINUOUS
  2
*U204
 10
0.0
 20
0.0
 30
0.0
  0
POINT
  5
10557
  8
DEFPOINTS
  6
CONTINUOUS
 62
     0
 10
218.7313026219048
 20
230.1775758646495
 30
0.0
  0
POINT
  5
10558
  8
DEFPOINTS
  6
CONTINUOUS
 62
     0
 10
213.73792454653631
 20
246.08106573575091
 30
0.0
  0
POINT
  5
10559
  8
DEFPOINTS
  6
CONTINUOUS
 62
     0
 10
214.73792454653639
 20
245.08106573575091
 30
0.0
  0
POINT
  5
1055A
  8
DEFPOINTS
  6
CONTINUOUS
 62
     0
 10
214.73792454653679
 20
241.16317048595269
 30
0.0
  0
POINT
  5
1055B
  8
DEFPOINTS
  6
CONTINUOUS
 62
     0
 10
214.73792454653639
 20
245.08106573575091
 30
0.0
  0
ENDBLK
  5
E304
  8
0
  0
BLOCK
  8
0
  2
*D93
 70
     1
 10
0.0
 20
0.0
 30
0.0
  3
*D93
  1

  0
LINE
  5
1055C
  8
0
  6
CONTINUOUS
 62
     2
 10
214.3379245465363
 20
244.08106573575091
 30
0.0
 11
240.88411388262361
 21
244.08106573575091
 31
0.0
  0
LINE
  5
1055D
  8
0
  6
CONTINUOUS
 62
     2
 10
239.68411388262359
 20
241.58106573575091
 30
0.0
 11
239.68411388262359
 21
226.0240097563339
 31
0.0
  0
SOLID
  5
1055E
  8
0
  6
CONTINUOUS
 62
     2
 10
239.26744721595691
 20
241.58106573575091
 30
0.0
 11
240.10078054929019
 21
241.58106573575091
 31
0.0
 12
239.68411388262359
 22
244.08106573575091
 32
0.0
 13
239.68411388262359
 23
244.08106573575091
 33
0.0
  0
INSERT
  5
1055F
  8
0
  6
CONTINUOUS
  2
*U205
 10
0.0
 20
0.0
 30
0.0
  0
POINT
  5
10560
  8
DEFPOINTS
  6
CONTINUOUS
 62
     0
 10
214.3379245465363
 20
244.08106573575091
 30
0.0
  0
POINT
  5
10561
  8
DEFPOINTS
  6
CONTINUOUS
 62
     0
 10
213.8379245465363
 20
205.68106573575079
 30
0.0
  0
POINT
  5
10562
  8
DEFPOINTS
  6
CONTINUOUS
 62
     0
 10
239.68411388262359
 20
205.68106573575079
 30
0.0
  0
ENDBLK
  5
E312
  8
0
  0
BLOCK
  8
0
  2
*D94
 70
     1
 10
0.0
 20
0.0
 30
0.0
  3
*D94
  1

  0
LINE
  5
10563
  8
0
  6
CONTINUOUS
 62
     2
 10
124.6574093693873
 20
158.43697256960951
 30
0.0
 11
124.6574093693873
 21
136.61383973461449
 31
0.0
  0
LINE
  5
10564
  8
0
  6
CONTINUOUS
 62
     2
 10
186.65740936938741
 20
162.48217867010871
 30
0.0
 11
186.65740936938741
 21
136.61383973461449
 31
0.0
  0
LINE
  5
10565
  8
0
  6
CONTINUOUS
 62
     2
 10
127.1574093693873
 20
137.61383973461449
 30
0.0
 11
184.15740936938741
 21
137.61383973461449
 31
0.0
  0
SOLID
  5
10566
  8
0
  6
CONTINUOUS
 62
     2
 10
127.1574093693873
 20
138.0305064012812
 30
0.0
 11
127.1574093693873
 21
137.1971730679478
 31
0.0
 12
124.6574093693873
 22
137.61383973461449
 32
0.0
 13
124.6574093693873
 23
137.61383973461449
 33
0.0
  0
SOLID
  5
10567
  8
0
  6
CONTINUOUS
 62
     2
 10
184.15740936938741
 20
138.0305064012812
 30
0.0
 11
184.15740936938741
 21
137.1971730679478
 31
0.0
 12
186.65740936938741
 22
137.61383973461449
 32
0.0
 13
186.65740936938741
 23
137.61383973461449
 33
0.0
  0
INSERT
  5
10568
  8
0
  6
CONTINUOUS
  2
*U206
 10
0.0
 20
0.0
 30
0.0
  0
POINT
  5
10569
  8
DEFPOINTS
  6
CONTINUOUS
 62
     0
 10
124.6574093693873
 20
159.0369725696095
 30
0.0
  0
POINT
  5
1056A
  8
DEFPOINTS
  6
CONTINUOUS
 62
     0
 10
186.65740936938741
 20
163.0821786701087
 30
0.0
  0
POINT
  5
1056B
  8
DEFPOINTS
  6
CONTINUOUS
 62
     0
 10
186.65740936938741
 20
137.61383973461449
 30
0.0
  0
ENDBLK
  5
E31C
  8
0
  0
BLOCK
  8
0
  2
*D95
 70
     1
 10
0.0
 20
0.0
 30
0.0
  3
*D95
  1

  0
LINE
  5
1056C
  8
0
  6
CONTINUOUS
 62
     2
 10
122.6826701593798
 20
152.06964135932691
 30
0.0
 11
126.5979408491126
 21
145.6959684895283
 31
0.0
  0
LINE
  5
1056D
  8
0
  6
CONTINUOUS
 62
     2
 10
120.3272823504651
 20
155.90397940775409
 30
0.0
 11
121.3741213766494
 21
154.19982916400869
 31
0.0
  0
SOLID
  5
1056E
  8
0
  6
CONTINUOUS
 62
     2
 10
123.03770146016009
 20
152.28773282311531
 30
0.0
 11
122.3276388585995
 21
151.8515498955386
 31
0.0
 12
121.3741213766494
 22
154.19982916400869
 32
0.0
 13
121.3741213766494
 23
154.19982916400869
 33
0.0
  0
INSERT
  5
1056F
  8
0
  6
CONTINUOUS
  2
*U207
 10
0.0
 20
0.0
 30
0.0
  0
POINT
  5
10570
  8
DEFPOINTS
  6
CONTINUOUS
 62
     0
 10
121.3741213766494
 20
154.19982916400869
 30
0.0
  0
POINT
  5
10571
  8
DEFPOINTS
  6
CONTINUOUS
 62
     0
 10
120.3272823504651
 20
155.90397940775409
 30
0.0
  0
ENDBLK
  5
E328
  8
0
  0
BLOCK
  8
0
  2
*D96
 70
     1
 10
0.0
 20
0.0
 30
0.0
  3
*D96
  1

  0
LINE
  5
10572
  8
0
  6
CONTINUOUS
 62
     2
 10
123.277346758476
 20
161.12217463891119
 30
0.0
 11
119.0639073298308
 21
167.3027877643402
 31
0.0
  0
LINE
  5
10573
  8
0
  6
CONTINUOUS
 62
     2
 10
125.8121099077665
 20
157.40397940775401
 30
0.0
 11
124.68554850808179
 21
159.0565106216016
 31
0.0
  0
SOLID
  5
10574
  8
0
  6
CONTINUOUS
 62
     2
 10
123.6216240946943
 20
161.35687493051211
 30
0.0
 11
122.9330694222578
 21
160.88747434731019
 31
0.0
 12
124.68554850808179
 22
159.0565106216016
 32
0.0
 13
124.68554850808179
 23
159.0565106216016
 33
0.0
  0
INSERT
  5
10575
  8
0
  6
CONTINUOUS
  2
*U208
 10
0.0
 20
0.0
 30
0.0
  0
POINT
  5
10576
  8
DEFPOINTS
  6
CONTINUOUS
 62
     0
 10
124.68554850808179
 20
159.0565106216016
 30
0.0
  0
POINT
  5
10577
  8
DEFPOINTS
  6
CONTINUOUS
 62
     0
 10
125.8121099077665
 20
157.40397940775401
 30
0.0
  0
ENDBLK
  5
E331
  8
0
  0
BLOCK
  8
0
  2
*D97
 70
     1
 10
0.0
 20
0.0
 30
0.0
  3
*D97
  1

  0
LINE
  5
10578
  8
0
  6
CONTINUOUS
 62
     2
 10
121.7593331580338
 20
154.38436416548339
 30
0.0
 11
113.3199247691641
 21
139.76688005013921
 31
0.0
  0
LINE
  5
10579
  8
0
  6
CONTINUOUS
 62
     2
 10
124.6574093693873
 20
158.43697256960951
 30
0.0
 11
124.6574093693873
 21
136.7290102073089
 31
0.0
  0
ARC
  5
1057A
  8
0
  6
CONTINUOUS
 62
     2
 10
124.6574093693873
 20
159.40397940775401
 30
0.0
 40
21.674969200445108
 50
246.6121877920809
 51
263.38781220791731
  0
SOLID
  5
1057B
  8
0
  6
CONTINUOUS
 62
     2
 10
115.8662960419821
 20
139.1375875195375
 30
0.0
 11
116.2406493573063
 21
139.88210349636421
 31
0.0
 12
113.8199247691641
 22
140.6329054539236
 32
0.0
 13
113.8199247691641
 23
140.6329054539236
 33
0.0
  0
SOLID
  5
1057C
  8
0
  6
CONTINUOUS
 62
     2
 10
122.1855994017109
 20
138.28915893292259
 30
0.0
 11
122.1375408943592
 21
137.4572125258052
 31
0.0
 12
124.6574093693873
 22
137.7290102073089
 32
0.0
 13
124.6574093693873
 23
137.7290102073089
 33
0.0
  0
INSERT
  5
1057D
  8
0
  6
CONTINUOUS
  2
*U209
 10
0.0
 20
0.0
 30
0.0
  0
POINT
  5
1057E
  8
DEFPOINTS
  6
CONTINUOUS
 62
     0
 10
117.2441332968711
 20
139.036170794334
 30
0.0
  0
POINT
  5
1057F
  8
DEFPOINTS
  6
CONTINUOUS
 62
     0
 10
124.0800591001976
 20
158.40397940775401
 30
0.0
  0
POINT
  5
10580
  8
DEFPOINTS
  6
CONTINUOUS
 62
     0
 10
124.6574093693873
 20
191.40397940775409
 30
0.0
  0
POINT
  5
10581
  8
DEFPOINTS
  6
CONTINUOUS
 62
     0
 10
124.6574093693873
 20
159.0369725696095
 30
0.0
  0
POINT
  5
10582
  8
DEFPOINTS
  6
CONTINUOUS
 62
     0
 10
122.05933315803379
 20
154.90397940775401
 30
0.0
  0
ENDBLK
  5
E352
  8
0
  0
BLOCK
  8
0
  2
*D98
 70
     1
 10
0.0
 20
0.0
 30
0.0
  3
*D98
  1

  0
LINE
  5
104E8
  8
0
  6
CONTINUOUS
 62
     2
 10
211.9687240875723
 20
257.94205297253632
 30
0.0
 11
196.81900570968131
 21
269.24888169839829
 31
0.0
  0
LINE
  5
104E9
  8
0
  6
CONTINUOUS
 62
     2
 10
214.61336393247021
 20
255.96825458091141
 30
0.0
 11
213.9722391215856
 21
256.44675116069948
 31
0.0
  0
SOLID
  5
104EA
  8
0
  6
CONTINUOUS
 62
     2
 10
212.2179410562118
 20
258.2759721448719
 30
0.0
 11
211.7195071189328
 21
257.60813380020079
 31
0.0
 12
213.9722391215856
 22
256.44675116069948
 32
0.0
 13
213.9722391215856
 23
256.44675116069948
 33
0.0
  0
INSERT
  5
104EB
  8
0
  6
CONTINUOUS
  2
*U191
 10
0.0
 20
0.0
 30
0.0
  0
POINT
  5
104EC
  8
DEFPOINTS
  6
CONTINUOUS
 62
     0
 10
213.9722391215856
 20
256.44675116069948
 30
0.0
  0
POINT
  5
104ED
  8
DEFPOINTS
  6
CONTINUOUS
 62
     0
 10
214.61336393247021
 20
255.96825458091141
 30
0.0
  0
ENDBLK
  5
E4BC
  8
0
  0
BLOCK
  8
0
  2
A$C7D932420
 70
     0
 10
0.0
 20
0.0
 30
0.0
  3
A$C7D932420
  1

  0
TEXT
  5
F226
  8
0
 62
     7
 10
44.044182777920241
 20
-0.1984253044777233
 30
0.0
 40
4.0
  1
WH100HCR
  0
TEXT
  5
F227
  8
0
 62
     7
 10
39.737899678325221
 20
4.804291061249784
 30
0.0
 40
4.0
  1
BT30AD/B-HCR20-85
  0
TEXT
  5
F228
  8
0
 62
     7
 10
-0.6000001521822469
 20
2.1008018035566352
 30
0.0
 40
4.0
  1
MARKING :
  0
LINE
  5
F229
  8
0
  6
CONTINUOUS
 10
30.95527199378807
 20
8.621144956663727
 30
0.0
 11
28.705271993788081
 21
6.371144956663727
 31
0.0
  0
LINE
  5
F22A
  8
0
  6
CONTINUOUS
 10
32.830271993788067
 20
8.621144956663727
 30
0.0
 11
29.45527199378807
 21
5.246144956663727
 31
0.0
  0
LINE
  5
F22B
  8
0
  6
CONTINUOUS
 10
27.58027199378807
 20
8.621144956663727
 30
0.0
 11
26.64277199378807
 21
7.683644956663727
 31
0.0
  0
LINE
  5
F22C
  8
0
  6
CONTINUOUS
 10
29.45527199378807
 20
8.621144956663727
 30
0.0
 11
27.20527199378807
 21
6.371144956663727
 31
0.0
  0
LINE
  5
F22D
  8
0
  6
CONTINUOUS
 10
31.33027199378807
 20
8.621144956663727
 30
0.0
 11
27.955271993788081
 21
5.246144956663727
 31
0.0
  0
LINE
  5
F22E
  8
0
  6
CONTINUOUS
 10
29.08027199378807
 20
8.621144956663727
 30
0.0
 11
28.14277199378807
 21
7.683644956663727
 31
0.0
  0
POLYLINE
  5
F22F
  8
0
  6
CONTINUOUS
 10
36.060505355606054
 20
8.2210452257664457
 30
0.0
 66
     1
 70
     8
  0
VERTEX
  8
0
  5
10E6B
 10
36.0605
 20
8.22105
 30
0.000000
  70
    32
  0
VERTEX
  8
0
  5
10E6C
 10
35.9728
 20
8.26840
 30
0.000000
  70
    32
  0
VERTEX
  8
0
  5
10E6D
 10
35.8820
 20
8.31311
 30
0.000000
  70
    32
  0
VERTEX
  8
0
  5
10E6E
 10
35.7883
 20
8.35507
 30
0.000000
  70
    32
  0
VERTEX
  8
0
  5
10E6F
 10
35.6919
 20
8.39421
 30
0.000000
  70
    32
  0
VERTEX
  8
0
  5
10E70
 10
35.5929
 20
8.43044
 30
0.000000
  70
    32
  0
VERTEX
  8
0
  5
10E71
 10
35.4917
 20
8.46369
 30
0.000000
  70
    32
  0
VERTEX
  8
0
  5
10E72
 10
35.3883
 20
8.49390
 30
0.000000
  70
    32
  0
VERTEX
  8
0
  5
10E73
 10
35.2830
 20
8.52101
 30
0.000000
  70
    32
  0
VERTEX
  8
0
  5
10E74
 10
35.1760
 20
8.54496
 30
0.000000
  70
    32
  0
VERTEX
  8
0
  5
10E75
 10
35.0675
 20
8.56571
 30
0.000000
  70
    32
  0
VERTEX
  8
0
  5
10E76
 10
34.9577
 20
8.58321
 30
0.000000
  70
    32
  0
VERTEX
  8
0
  5
10E77
 10
34.8469
 20
8.59743
 30
0.000000
  70
    32
  0
VERTEX
  8
0
  5
10E78
 10
34.7352
 20
8.60835
 30
0.000000
  70
    32
  0
VERTEX
  8
0
  5
10E79
 10
34.6229
 20
8.61593
 30
0.000000
  70
    32
  0
VERTEX
  8
0
  5
10E7A
 10
34.5102
 20
8.62017
 30
0.000000
  70
    32
  0
VERTEX
  8
0
  5
10E7B
 10
34.3973
 20
8.62105
 30
0.000000
  70
    32
  0
VERTEX
  8
0
  5
10E7C
 10
34.2845
 20
8.61858
 30
0.000000
  70
    32
  0
VERTEX
  8
0
  5
10E7D
 10
34.1720
 20
8.61276
 30
0.000000
  70
    32
  0
VERTEX
  8
0
  5
10E7E
 10
34.0599
 20
8.60360
 30
0.000000
  70
    32
  0
VERTEX
  8
0
  5
10E7F
 10
33.9486
 20
8.59111
 30
0.000000
  70
    32
  0
VERTEX
  8
0
  5
10E80
 10
33.8382
 20
8.57533
 30
0.000000
  70
    32
  0
VERTEX
  8
0
  5
10E81
 10
33.7290
 20
8.55629
 30
0.000000
  70
    32
  0
VERTEX
  8
0
  5
10E82
 10
33.6212
 20
8.53402
 30
0.000000
  70
    32
  0
VERTEX
  8
0
  5
10E83
 10
33.5150
 20
8.50857
 30
0.000000
  70
    32
  0
VERTEX
  8
0
  5
10E84
 10
33.4106
 20
8.47999
 30
0.000000
  70
    32
  0
VERTEX
  8
0
  5
10E85
 10
33.3082
 20
8.44833
 30
0.000000
  70
    32
  0
VERTEX
  8
0
  5
10E86
 10
33.2080
 20
8.41365
 30
0.000000
  70
    32
  0
VERTEX
  8
0
  5
10E87
 10
33.1102
 20
8.37604
 30
0.000000
  70
    32
  0
VERTEX
  8
0
  5
10E88
 10
33.0151
 20
8.33556
 30
0.000000
  70
    32
  0
VERTEX
  8
0
  5
10E89
 10
32.9227
 20
8.29229
 30
0.000000
  70
    32
  0
VERTEX
  8
0
  5
10E8A
 10
32.8333
 20
8.24631
 30
0.000000
  70
    32
  0
VERTEX
  8
0
  5
10E8B
 10
32.7471
 20
8.19773
 30
0.000000
  70
    32
  0
VERTEX
  8
0
  5
10E8C
 10
32.6643
 20
8.14664
 30
0.000000
  70
    32
  0
VERTEX
  8
0
  5
10E8D
 10
32.5849
 20
8.09313
 30
0.000000
  70
    32
  0
VERTEX
  8
0
  5
10E8E
 10
32.5092
 20
8.03731
 30
0.000000
  70
    32
  0
VERTEX
  8
0
  5
10E8F
 10
32.4373
 20
7.97930
 30
0.000000
  70
    32
  0
VERTEX
  8
0
  5
10E90
 10
32.3693
 20
7.91921
 30
0.000000
  70
    32
  0
VERTEX
  8
0
  5
10E91
 10
32.3055
 20
7.85717
 30
0.000000
  70
    32
  0
VERTEX
  8
0
  5
10E92
 10
32.2458
 20
7.79328
 30
0.000000
  70
    32
  0
VERTEX
  8
0
  5
10E93
 10
32.1905
 20
7.72769
 30
0.000000
  70
    32
  0
VERTEX
  8
0
  5
10E94
 10
32.1396
 20
7.66051
 30
0.000000
  70
    32
  0
VERTEX
  8
0
  5
10E95
 10
32.0933
 20
7.59189
 30
0.000000
  70
    32
  0
VERTEX
  8
0
  5
10E96
 10
32.0516
 20
7.52197
 30
0.000000
  70
    32
  0
VERTEX
  8
0
  5
10E97
 10
32.0146
 20
7.45087
 30
0.000000
  70
    32
  0
VERTEX
  8
0
  5
10E98
 10
31.9824
 20
7.37874
 30
0.000000
  70
    32
  0
VERTEX
  8
0
  5
10E99
 10
31.9551
 20
7.30573
 30
0.000000
  70
    32
  0
VERTEX
  8
0
  5
10E9A
 10
31.9326
 20
7.23198
 30
0.000000
  70
    32
  0
VERTEX
  8
0
  5
10E9B
 10
31.9152
 20
7.15764
 30
0.000000
  70
    32
  0
VERTEX
  8
0
  5
10E9C
 10
31.9027
 20
7.08285
 30
0.000000
  70
    32
  0
VERTEX
  8
0
  5
10E9D
 10
31.8952
 20
7.00776
 30
0.000000
  70
    32
  0
VERTEX
  8
0
  5
10E9E
 10
31.8928
 20
6.93252
 30
0.000000
  70
    32
  0
VERTEX
  8
0
  5
10E9F
 10
31.8954
 20
6.85729
 30
0.000000
  70
    32
  0
VERTEX
  8
0
  5
10EA0
 10
31.9030
 20
6.78221
 30
0.000000
  70
    32
  0
VERTEX
  8
0
  5
10EA1
 10
31.9156
 20
6.70743
 30
0.000000
  70
    32
  0
VERTEX
  8
0
  5
10EA2
 10
31.9332
 20
6.63310
 30
0.000000
  70
    32
  0
VERTEX
  8
0
  5
10EA3
 10
31.9558
 20
6.55937
 30
0.000000
  70
    32
  0
VERTEX
  8
0
  5
10EA4
 10
31.9833
 20
6.48639
 30
0.000000
  70
    32
  0
VERTEX
  8
0
  5
10EA5
 10
32.0156
 20
6.41429
 30
0.000000
  70
    32
  0
VERTEX
  8
0
  5
10EA6
 10
32.0528
 20
6.34322
 30
0.000000
  70
    32
  0
VERTEX
  8
0
  5
10EA7
 10
32.0946
 20
6.27333
 30
0.000000
  70
    32
  0
VERTEX
  8
0
  5
10EA8
 10
32.1411
 20
6.20475
 30
0.000000
  70
    32
  0
VERTEX
  8
0
  5
10EA9
 10
32.1921
 20
6.13763
 30
0.000000
  70
    32
  0
VERTEX
  8
0
  5
10EAA
 10
32.2475
 20
6.07208
 30
0.000000
  70
    32
  0
VERTEX
  8
0
  5
10EAB
 10
32.3073
 20
6.00825
 30
0.000000
  70
    32
  0
VERTEX
  8
0
  5
10EAC
 10
32.3713
 20
5.94626
 30
0.000000
  70
    32
  0
VERTEX
  8
0
  5
10EAD
 10
32.4394
 20
5.88623
 30
0.000000
  70
    32
  0
VERTEX
  8
0
  5
10EAE
 10
32.5114
 20
5.82828
 30
0.000000
  70
    32
  0
VERTEX
  8
0
  5
10EAF
 10
32.5872
 20
5.77254
 30
0.000000
  70
    32
  0
VERTEX
  8
0
  5
10EB0
 10
32.6667
 20
5.71910
 30
0.000000
  70
    32
  0
VERTEX
  8
0
  5
10EB1
 10
32.7497
 20
5.66807
 30
0.000000
  70
    32
  0
VERTEX
  8
0
  5
10EB2
 10
32.8360
 20
5.61957
 30
0.000000
  70
    32
  0
VERTEX
  8
0
  5
10EB3
 10
32.9254
 20
5.57367
 30
0.000000
  70
    32
  0
VERTEX
  8
0
  5
10EB4
 10
33.0179
 20
5.53049
 30
0.000000
  70
    32
  0
VERTEX
  8
0
  5
10EB5
 10
33.1131
 20
5.49009
 30
0.000000
  70
    32
  0
VERTEX
  8
0
  5
10EB6
 10
33.2109
 20
5.45256
 30
0.000000
  70
    32
  0
VERTEX
  8
0
  5
10EB7
 10
33.3112
 20
5.41798
 30
0.000000
  70
    32
  0
VERTEX
  8
0
  5
10EB8
 10
33.4136
 20
5.38641
 30
0.000000
  70
    32
  0
VERTEX
  8
0
  5
10EB9
 10
33.5181
 20
5.35792
 30
0.000000
  70
    32
  0
VERTEX
  8
0
  5
10EBA
 10
33.6244
 20
5.33256
 30
0.000000
  70
    32
  0
VERTEX
  8
0
  5
10EBB
 10
33.7323
 20
5.31038
 30
0.000000
  70
    32
  0
VERTEX
  8
0
  5
10EBC
 10
33.8415
 20
5.29144
 30
0.000000
  70
    32
  0
VERTEX
  8
0
  5
10EBD
 10
33.9519
 20
5.27576
 30
0.000000
  70
    32
  0
VERTEX
  8
0
  5
10EBE
 10
34.0632
 20
5.26337
 30
0.000000
  70
    32
  0
VERTEX
  8
0
  5
10EBF
 10
34.1753
 20
5.25431
 30
0.000000
  70
    32
  0
VERTEX
  8
0
  5
10EC0
 10
34.2878
 20
5.24859
 30
0.000000
  70
    32
  0
VERTEX
  8
0
  5
10EC1
 10
34.4007
 20
5.24622
 30
0.000000
  70
    32
  0
VERTEX
  8
0
  5
10EC2
 10
34.5135
 20
5.24720
 30
0.000000
  70
    32
  0
VERTEX
  8
0
  5
10EC3
 10
34.6262
 20
5.25154
 30
0.000000
  70
    32
  0
VERTEX
  8
0
  5
10EC4
 10
34.7385
 20
5.25922
 30
0.000000
  70
    32
  0
VERTEX
  8
0
  5
10EC5
 10
34.8502
 20
5.27023
 30
0.000000
  70
    32
  0
VERTEX
  8
0
  5
10EC6
 10
34.9610
 20
5.28455
 30
0.000000
  70
    32
  0
VERTEX
  8
0
  5
10EC7
 10
35.0707
 20
5.30215
 30
0.000000
  70
    32
  0
VERTEX
  8
0
  5
10EC8
 10
35.1792
 20
5.32300
 30
0.000000
  70
    32
  0
VERTEX
  8
0
  5
10EC9
 10
35.2862
 20
5.34704
 30
0.000000
  70
    32
  0
VERTEX
  8
0
  5
10ECA
 10
35.3914
 20
5.37424
 30
0.000000
  70
    32
  0
VERTEX
  8
0
  5
10ECB
 10
35.4947
 20
5.40455
 30
0.000000
  70
    32
  0
VERTEX
  8
0
  5
10ECC
 10
35.5959
 20
5.43789
 30
0.000000
  70
    32
  0
VERTEX
  8
0
  5
10ECD
 10
35.6948
 20
5.47421
 30
0.000000
  70
    32
  0
VERTEX
  8
0
  5
10ECE
 10
35.7911
 20
5.51343
 30
0.000000
  70
    32
  0
VERTEX
  8
0
  5
10ECF
 10
35.8847
 20
5.55547
 30
0.000000
  70
    32
  0
VERTEX
  8
0
  5
10ED0
 10
35.9754
 20
5.60026
 30
0.000000
  70
    32
  0
VERTEX
  8
0
  5
10ED1
 10
36.0631
 20
5.64769
 30
0.000000
  70
    32
  0
VERTEX
  8
0
  5
10ED2
 10
36.1474
 20
5.69769
 30
0.000000
  70
    32
  0
VERTEX
  8
0
  5
10ED3
 10
36.2284
 20
5.75014
 30
0.000000
  70
    32
  0
VERTEX
  8
0
  5
10ED4
 10
36.3057
 20
5.80495
 30
0.000000
  70
    32
  0
VERTEX
  8
0
  5
10ED5
 10
36.3793
 20
5.86200
 30
0.000000
  70
    32
  0
VERTEX
  8
0
  5
10ED6
 10
36.4491
 20
5.92118
 30
0.000000
  70
    32
  0
VERTEX
  8
0
  5
10ED7
 10
36.5148
 20
5.98237
 30
0.000000
  70
    32
  0
VERTEX
  8
0
  5
10ED8
 10
36.5763
 20
6.04546
 30
0.000000
  70
    32
  0
VERTEX
  8
0
  5
10ED9
 10
36.6335
 20
6.11031
 30
0.000000
  70
    32
  0
VERTEX
  8
0
  5
10EDA
 10
36.6864
 20
6.17680
 30
0.000000
  70
    32
  0
VERTEX
  8
0
  5
10EDB
 10
36.7348
 20
6.24479
 30
0.000000
  70
    32
  0
VERTEX
  8
0
  5
10EDC
 10
36.7785
 20
6.31416
 30
0.000000
  70
    32
  0
VERTEX
  8
0
  5
10EDD
 10
36.8176
 20
6.38475
 30
0.000000
  70
    32
  0
VERTEX
  8
0
  5
10EDE
 10
36.8520
 20
6.45644
 30
0.000000
  70
    32
  0
VERTEX
  8
0
  5
10EDF
 10
36.8815
 20
6.52908
 30
0.000000
  70
    32
  0
VERTEX
  8
0
  5
10EE0
 10
36.9061
 20
6.60252
 30
0.000000
  70
    32
  0
VERTEX
  8
0
  5
10EE1
 10
36.9257
 20
6.67662
 30
0.000000
  70
    32
  0
VERTEX
  8
0
  5
10EE2
 10
36.9404
 20
6.75123
 30
0.000000
  70
    32
  0
VERTEX
  8
0
  5
10EE3
 10
36.9501
 20
6.82620
 30
0.000000
  70
    32
  0
VERTEX
  8
0
  5
10EE4
 10
36.9548
 20
6.90139
 30
0.000000
  70
    32
  0
VERTEX
  8
0
  5
10EE5
 10
36.9545
 20
6.97664
 30
0.000000
  70
    32
  0
VERTEX
  8
0
  5
10EE6
 10
36.9491
 20
7.05181
 30
0.000000
  70
    32
  0
VERTEX
  8
0
  5
10EE7
 10
36.9386
 20
7.12674
 30
0.000000
  70
    32
  0
VERTEX
  8
0
  5
10EE8
 10
36.9232
 20
7.20128
 30
0.000000
  70
    32
  0
VERTEX
  8
0
  5
10EE9
 10
36.9029
 20
7.27530
 30
0.000000
  70
    32
  0
VERTEX
  8
0
  5
10EEA
 10
36.8775
 20
7.34863
 30
0.000000
  70
    32
  0
VERTEX
  8
0
  5
10EEB
 10
36.8473
 20
7.42114
 30
0.000000
  70
    32
  0
SEQEND
  8
0
  5
10EEC
  0
LINE
  5
F230
  8
0
  6
CONTINUOUS
 10
28.14277199378807
 20
7.683644956663727
 30
0.0
 11
26.64277199378807
 21
7.683644956663727
 31
0.0
  0
LINE
  5
F231
  8
0
  6
CONTINUOUS
 10
28.705271993788081
 20
6.371144956663727
 30
0.0
 11
27.20527199378807
 21
6.371144956663727
 31
0.0
  0
LINE
  5
F232
  8
0
  6
CONTINUOUS
 10
29.45527199378807
 20
5.246144956663727
 30
0.0
 11
27.955271993788081
 21
5.246144956663727
 31
0.0
  0
LINE
  5
F233
  8
0
  6
CONTINUOUS
 10
35.457017675349341
 20
6.4461449566637148
 30
0.0
 11
33.767771993788067
 21
6.4461449566637716
 31
0.0
  0
POLYLINE
  5
F234
  8
0
  6
CONTINUOUS
 10
35.080271993788088
 20
7.6551072304521739
 30
0.0
 66
     1
 70
     8
  0
VERTEX
  8
0
  5
10EED
 10
35.0803
 20
7.65511
 30
0.000000
  70
    32
  0
VERTEX
  8
0
  5
10EEE
 10
35.0406
 20
7.67049
 30
0.000000
  70
    32
  0
VERTEX
  8
0
  5
10EEF
 10
35.0001
 20
7.68491
 30
0.000000
  70
    32
  0
VERTEX
  8
0
  5
10EF0
 10
34.9589
 20
7.69834
 30
0.000000
  70
    32
  0
VERTEX
  8
0
  5
10EF1
 10
34.9170
 20
7.71077
 30
0.000000
  70
    32
  0
VERTEX
  8
0
  5
10EF2
 10
34.8744
 20
7.72217
 30
0.000000
  70
    32
  0
VERTEX
  8
0
  5
10EF3
 10
34.8312
 20
7.73254
 30
0.000000
  70
    32
  0
VERTEX
  8
0
  5
10EF4
 10
34.7875
 20
7.74185
 30
0.000000
  70
    32
  0
VERTEX
  8
0
  5
10EF5
 10
34.7433
 20
7.75011
 30
0.000000
  70
    32
  0
VERTEX
  8
0
  5
10EF6
 10
34.6987
 20
7.75729
 30
0.000000
  70
    32
  0
VERTEX
  8
0
  5
10EF7
 10
34.6537
 20
7.76338
 30
0.000000
  70
    32
  0
VERTEX
  8
0
  5
10EF8
 10
34.6084
 20
7.76839
 30
0.000000
  70
    32
  0
VERTEX
  8
0
  5
10EF9
 10
34.5629
 20
7.77230
 30
0.000000
  70
    32
  0
VERTEX
  8
0
  5
10EFA
 10
34.5172
 20
7.77510
 30
0.000000
  70
    32
  0
VERTEX
  8
0
  5
10EFB
 10
34.4714
 20
7.77680
 30
0.000000
  70
    32
  0
VERTEX
  8
0
  5
10EFC
 10
34.4255
 20
7.77739
 30
0.000000
  70
    32
  0
VERTEX
  8
0
  5
10EFD
 10
34.3796
 20
7.77688
 30
0.000000
  70
    32
  0
VERTEX
  8
0
  5
10EFE
 10
34.3338
 20
7.77525
 30
0.000000
  70
    32
  0
VERTEX
  8
0
  5
10EFF
 10
34.2881
 20
7.77252
 30
0.000000
  70
    32
  0
VERTEX
  8
0
  5
10F00
 10
34.2426
 20
7.76868
 30
0.000000
  70
    32
  0
VERTEX
  8
0
  5
10F01
 10
34.1973
 20
7.76375
 30
0.000000
  70
    32
  0
VERTEX
  8
0
  5
10F02
 10
34.1523
 20
7.75772
 30
0.000000
  70
    32
  0
VERTEX
  8
0
  5
10F03
 10
34.1077
 20
7.75061
 30
0.000000
  70
    32
  0
VERTEX
  8
0
  5
10F04
 10
34.0634
 20
7.74243
 30
0.000000
  70
    32
  0
VERTEX
  8
0
  5
10F05
 10
34.0197
 20
7.73318
 30
0.000000
  70
    32
  0
VERTEX
  8
0
  5
10F06
 10
33.9765
 20
7.72288
 30
0.000000
  70
    32
  0
VERTEX
  8
0
  5
10F07
 10
33.9339
 20
7.71155
 30
0.000000
  70
    32
  0
VERTEX
  8
0
  5
10F08
 10
33.8919
 20
7.69919
 30
0.000000
  70
    32
  0
VERTEX
  8
0
  5
10F09
 10
33.8506
 20
7.68582
 30
0.000000
  70
    32
  0
VERTEX
  8
0
  5
10F0A
 10
33.8101
 20
7.67147
 30
0.000000
  70
    32
  0
VERTEX
  8
0
  5
10F0B
 10
33.7704
 20
7.65615
 30
0.000000
  70
    32
  0
VERTEX
  8
0
  5
10F0C
 10
33.7315
 20
7.63987
 30
0.000000
  70
    32
  0
VERTEX
  8
0
  5
10F0D
 10
33.6935
 20
7.62267
 30
0.000000
  70
    32
  0
VERTEX
  8
0
  5
10F0E
 10
33.6566
 20
7.60456
 30
0.000000
  70
    32
  0
VERTEX
  8
0
  5
10F0F
 10
33.6206
 20
7.58557
 30
0.000000
  70
    32
  0
VERTEX
  8
0
  5
10F10
 10
33.5856
 20
7.56573
 30
0.000000
  70
    32
  0
VERTEX
  8
0
  5
10F11
 10
33.5518
 20
7.54505
 30
0.000000
  70
    32
  0
VERTEX
  8
0
  5
10F12
 10
33.5192
 20
7.52357
 30
0.000000
  70
    32
  0
VERTEX
  8
0
  5
10F13
 10
33.4877
 20
7.50131
 30
0.000000
  70
    32
  0
VERTEX
  8
0
  5
10F14
 10
33.4574
 20
7.47830
 30
0.000000
  70
    32
  0
VERTEX
  8
0
  5
10F15
 10
33.4284
 20
7.45458
 30
0.000000
  70
    32
  0
VERTEX
  8
0
  5
10F16
 10
33.4008
 20
7.43018
 30
0.000000
  70
    32
  0
VERTEX
  8
0
  5
10F17
 10
33.3744
 20
7.40512
 30
0.000000
  70
    32
  0
VERTEX
  8
0
  5
10F18
 10
33.3495
 20
7.37944
 30
0.000000
  70
    32
  0
VERTEX
  8
0
  5
10F19
 10
33.3259
 20
7.35318
 30
0.000000
  70
    32
  0
VERTEX
  8
0
  5
10F1A
 10
33.3038
 20
7.32636
 30
0.000000
  70
    32
  0
VERTEX
  8
0
  5
10F1B
 10
33.2832
 20
7.29903
 30
0.000000
  70
    32
  0
VERTEX
  8
0
  5
10F1C
 10
33.2641
 20
7.27122
 30
0.000000
  70
    32
  0
VERTEX
  8
0
  5
10F1D
 10
33.2465
 20
7.24296
 30
0.000000
  70
    32
  0
VERTEX
  8
0
  5
10F1E
 10
33.2305
 20
7.21430
 30
0.000000
  70
    32
  0
VERTEX
  8
0
  5
10F1F
 10
33.2160
 20
7.18527
 30
0.000000
  70
    32
  0
VERTEX
  8
0
  5
10F20
 10
33.2031
 20
7.15590
 30
0.000000
  70
    32
  0
VERTEX
  8
0
  5
10F21
 10
33.1918
 20
7.12625
 30
0.000000
  70
    32
  0
VERTEX
  8
0
  5
10F22
 10
33.1821
 20
7.09634
 30
0.000000
  70
    32
  0
VERTEX
  8
0
  5
10F23
 10
33.1741
 20
7.06622
 30
0.000000
  70
    32
  0
VERTEX
  8
0
  5
10F24
 10
33.1677
 20
7.03592
 30
0.000000
  70
    32
  0
VERTEX
  8
0
  5
10F25
 10
33.1630
 20
7.00549
 30
0.000000
  70
    32
  0
VERTEX
  8
0
  5
10F26
 10
33.1599
 20
6.97497
 30
0.000000
  70
    32
  0
VERTEX
  8
0
  5
10F27
 10
33.1585
 20
6.94439
 30
0.000000
  70
    32
  0
VERTEX
  8
0
  5
10F28
 10
33.1587
 20
6.91379
 30
0.000000
  70
    32
  0
VERTEX
  8
0
  5
10F29
 10
33.1607
 20
6.88323
 30
0.000000
  70
    32
  0
VERTEX
  8
0
  5
10F2A
 10
33.1642
 20
6.85273
 30
0.000000
  70
    32
  0
VERTEX
  8
0
  5
10F2B
 10
33.1695
 20
6.82233
 30
0.000000
  70
    32
  0
VERTEX
  8
0
  5
10F2C
 10
33.1763
 20
6.79208
 30
0.000000
  70
    32
  0
VERTEX
  8
0
  5
10F2D
 10
33.1849
 20
6.76202
 30
0.000000
  70
    32
  0
VERTEX
  8
0
  5
10F2E
 10
33.1950
 20
6.73218
 30
0.000000
  70
    32
  0
VERTEX
  8
0
  5
10F2F
 10
33.2068
 20
6.70261
 30
0.000000
  70
    32
  0
VERTEX
  8
0
  5
10F30
 10
33.2201
 20
6.67334
 30
0.000000
  70
    32
  0
VERTEX
  8
0
  5
10F31
 10
33.2351
 20
6.64442
 30
0.000000
  70
    32
  0
VERTEX
  8
0
  5
10F32
 10
33.2516
 20
6.61587
 30
0.000000
  70
    32
  0
VERTEX
  8
0
  5
10F33
 10
33.2696
 20
6.58774
 30
0.000000
  70
    32
  0
VERTEX
  8
0
  5
10F34
 10
33.2892
 20
6.56007
 30
0.000000
  70
    32
  0
VERTEX
  8
0
  5
10F35
 10
33.3103
 20
6.53289
 30
0.000000
  70
    32
  0
VERTEX
  8
0
  5
10F36
 10
33.3328
 20
6.50623
 30
0.000000
  70
    32
  0
VERTEX
  8
0
  5
10F37
 10
33.3568
 20
6.48014
 30
0.000000
  70
    32
  0
VERTEX
  8
0
  5
10F38
 10
33.3821
 20
6.45464
 30
0.000000
  70
    32
  0
VERTEX
  8
0
  5
10F39
 10
33.4089
 20
6.42978
 30
0.000000
  70
    32
  0
VERTEX
  8
0
  5
10F3A
 10
33.4369
 20
6.40557
 30
0.000000
  70
    32
  0
VERTEX
  8
0
  5
10F3B
 10
33.4663
 20
6.38206
 30
0.000000
  70
    32
  0
VERTEX
  8
0
  5
10F3C
 10
33.4969
 20
6.35928
 30
0.000000
  70
    32
  0
VERTEX
  8
0
  5
10F3D
 10
33.5288
 20
6.33725
 30
0.000000
  70
    32
  0
VERTEX
  8
0
  5
10F3E
 10
33.5618
 20
6.31600
 30
0.000000
  70
    32
  0
VERTEX
  8
0
  5
10F3F
 10
33.5959
 20
6.29557
 30
0.000000
  70
    32
  0
VERTEX
  8
0
  5
10F40
 10
33.6312
 20
6.27597
 30
0.000000
  70
    32
  0
VERTEX
  8
0
  5
10F41
 10
33.6675
 20
6.25724
 30
0.000000
  70
    32
  0
VERTEX
  8
0
  5
10F42
 10
33.7047
 20
6.23940
 30
0.000000
  70
    32
  0
VERTEX
  8
0
  5
10F43
 10
33.7430
 20
6.22247
 30
0.000000
  70
    32
  0
VERTEX
  8
0
  5
10F44
 10
33.7821
 20
6.20648
 30
0.000000
  70
    32
  0
VERTEX
  8
0
  5
10F45
 10
33.8221
 20
6.19144
 30
0.000000
  70
    32
  0
VERTEX
  8
0
  5
10F46
 10
33.8628
 20
6.17738
 30
0.000000
  70
    32
  0
VERTEX
  8
0
  5
10F47
 10
33.9043
 20
6.16431
 30
0.000000
  70
    32
  0
VERTEX
  8
0
  5
10F48
 10
33.9465
 20
6.15226
 30
0.000000
  70
    32
  0
VERTEX
  8
0
  5
10F49
 10
33.9893
 20
6.14123
 30
0.000000
  70
    32
  0
VERTEX
  8
0
  5
10F4A
 10
34.0327
 20
6.13125
 30
0.000000
  70
    32
  0
VERTEX
  8
0
  5
10F4B
 10
34.0766
 20
6.12231
 30
0.000000
  70
    32
  0
VERTEX
  8
0
  5
10F4C
 10
34.1209
 20
6.11445
 30
0.000000
  70
    32
  0
VERTEX
  8
0
  5
10F4D
 10
34.1657
 20
6.10766
 30
0.000000
  70
    32
  0
VERTEX
  8
0
  5
10F4E
 10
34.2107
 20
6.10196
 30
0.000000
  70
    32
  0
VERTEX
  8
0
  5
10F4F
 10
34.2561
 20
6.09735
 30
0.000000
  70
    32
  0
VERTEX
  8
0
  5
10F50
 10
34.3017
 20
6.09384
 30
0.000000
  70
    32
  0
VERTEX
  8
0
  5
10F51
 10
34.3475
 20
6.09144
 30
0.000000
  70
    32
  0
VERTEX
  8
0
  5
10F52
 10
34.3933
 20
6.09014
 30
0.000000
  70
    32
  0
VERTEX
  8
0
  5
10F53
 10
34.4392
 20
6.08996
 30
0.000000
  70
    32
  0
VERTEX
  8
0
  5
10F54
 10
34.4851
 20
6.09088
 30
0.000000
  70
    32
  0
VERTEX
  8
0
  5
10F55
 10
34.5309
 20
6.09291
 30
0.000000
  70
    32
  0
VERTEX
  8
0
  5
10F56
 10
34.5765
 20
6.09604
 30
0.000000
  70
    32
  0
VERTEX
  8
0
  5
10F57
 10
34.6220
 20
6.10028
 30
0.000000
  70
    32
  0
VERTEX
  8
0
  5
10F58
 10
34.6671
 20
6.10561
 30
0.000000
  70
    32
  0
VERTEX
  8
0
  5
10F59
 10
34.7120
 20
6.11203
 30
0.000000
  70
    32
  0
VERTEX
  8
0
  5
10F5A
 10
34.7565
 20
6.11953
 30
0.000000
  70
    32
  0
VERTEX
  8
0
  5
10F5B
 10
34.8006
 20
6.12810
 30
0.000000
  70
    32
  0
VERTEX
  8
0
  5
10F5C
 10
34.8441
 20
6.13773
 30
0.000000
  70
    32
  0
VERTEX
  8
0
  5
10F5D
 10
34.8871
 20
6.14841
 30
0.000000
  70
    32
  0
VERTEX
  8
0
  5
10F5E
 10
34.9295
 20
6.16012
 30
0.000000
  70
    32
  0
VERTEX
  8
0
  5
10F5F
 10
34.9713
 20
6.17284
 30
0.000000
  70
    32
  0
VERTEX
  8
0
  5
10F60
 10
35.0123
 20
6.18657
 30
0.000000
  70
    32
  0
VERTEX
  8
0
  5
10F61
 10
35.0525
 20
6.20128
 30
0.000000
  70
    32
  0
VERTEX
  8
0
  5
10F62
 10
35.0919
 20
6.21695
 30
0.000000
  70
    32
  0
VERTEX
  8
0
  5
10F63
 10
35.1305
 20
6.23356
 30
0.000000
  70
    32
  0
VERTEX
  8
0
  5
10F64
 10
35.1681
 20
6.25110
 30
0.000000
  70
    32
  0
VERTEX
  8
0
  5
10F65
 10
35.2047
 20
6.26953
 30
0.000000
  70
    32
  0
VERTEX
  8
0
  5
10F66
 10
35.2403
 20
6.28883
 30
0.000000
  70
    32
  0
VERTEX
  8
0
  5
10F67
 10
35.2748
 20
6.30898
 30
0.000000
  70
    32
  0
VERTEX
  8
0
  5
10F68
 10
35.3082
 20
6.32996
 30
0.000000
  70
    32
  0
VERTEX
  8
0
  5
10F69
 10
35.3405
 20
6.35173
 30
0.000000
  70
    32
  0
VERTEX
  8
0
  5
10F6A
 10
35.3715
 20
6.37426
 30
0.000000
  70
    32
  0
VERTEX
  8
0
  5
10F6B
 10
35.4013
 20
6.39753
 30
0.000000
  70
    32
  0
VERTEX
  8
0
  5
10F6C
 10
35.4298
 20
6.42150
 30
0.000000
  70
    32
  0
VERTEX
  8
0
  5
10F6D
 10
35.4570
 20
6.44614
 30
0.000000
  70
    32
  0
SEQEND
  8
0
  5
10F6E
  0
LINE
  5
F235
  8
0
  6
CONTINUOUS
 10
33.767771993788067
 20
6.4461449566637716
 30
0.0
 11
33.767771993788067
 21
7.4211449566637384
 31
0.0
  0
LINE
  5
F236
  8
0
  6
CONTINUOUS
 10
36.847346156998128
 20
7.4211449566637384
 30
0.0
 11
33.767771993788067
 21
7.4211449566637384
 31
0.0
  0
LINE
  5
F237
  8
0
  6
CONTINUOUS
 10
35.080271993788067
 20
7.6551072304521881
 30
0.0
 11
36.060505355605763
 21
8.2210452257664883
 31
0.0
  0
LINE
  5
F238
  8
0
  6
CONTINUOUS
 10
29.45527199378807
 20
8.621144956663727
 30
0.0
 11
30.95527199378807
 21
8.621144956663727
 31
0.0
  0
LINE
  5
F239
  8
0
  6
CONTINUOUS
 10
27.58027199378807
 20
8.621144956663727
 30
0.0
 11
29.08027199378807
 21
8.621144956663727
 31
0.0
  0
LINE
  5
F23A
  8
0
  6
CONTINUOUS
 10
31.33027199378807
 20
8.621144956663727
 30
0.0
 11
32.830271993788067
 21
8.621144956663727
 31
0.0
  0
ENDBLK
  5
F23E
  8
0
  0
BLOCK
  8
0
  2
_CLOSEDBLANK
 70
     0
 10
0.0
 20
0.0
 30
0.0
  3
_CLOSEDBLANK
  1

  0
LINE
  5
F3E1
  8
0
  6
BYBLOCK
 62
     0
 10
-1.0
 20
0.1666666666666666
 30
0.0
 11
0.0
 21
0.0
 31
0.0
  0
LINE
  5
F3E2
  8
0
  6
BYBLOCK
 62
     0
 10
0.0
 20
0.0
 30
0.0
 11
-1.0
 21
-0.1666666666666666
 31
0.0
  0
LINE
  5
F3E3
  8
0
  6
BYBLOCK
 62
     0
 10
-1.0
 20
0.1666666666666666
 30
0.0
 11
-1.0
 21
-0.1666666666666666
 31
0.0
  0
ENDBLK
  5
F3E4
  8
0
  0
BLOCK
  8
0
  2
*D101
 70
     1
 10
0.0
 20
0.0
 30
0.0
  3
*D101
  1

  0
LINE
  5
F687
  8
0
  6
CONTINUOUS
 62
     2
 10
316.64312742251769
 20
194.94267274344591
 30
0.0
 11
316.64312742251769
 21
201.30627229884971
 31
0.0
  0
LINE
  5
F688
  8
0
  6
CONTINUOUS
 62
     2
 10
322.64312742251769
 20
194.94267274344591
 30
0.0
 11
322.64312742251769
 21
201.30627229884971
 31
0.0
  0
LINE
  5
F689
  8
0
  6
CONTINUOUS
 62
     2
 10
314.14312742251769
 20
200.10627229884969
 30
0.0
 11
311.64312742251758
 21
200.10627229884969
 31
0.0
  0
LINE
  5
F68A
  8
0
  6
CONTINUOUS
 62
     2
 10
325.14312742251758
 20
200.10627229884969
 30
0.0
 11
327.64312742251758
 21
200.10627229884969
 31
0.0
  0
LINE
  5
F68B
  8
0
  6
CONTINUOUS
 62
     2
 10
316.64312742251769
 20
200.10627229884969
 30
0.0
 11
322.64312742251769
 21
200.10627229884969
 31
0.0
  0
SOLID
  5
F68C
  8
0
  6
CONTINUOUS
 62
     2
 10
314.14312742251769
 20
200.5229389655164
 30
0.0
 11
314.14312742251769
 21
199.689605632183
 31
0.0
 12
316.64312742251769
 22
200.10627229884969
 32
0.0
 13
316.64312742251769
 23
200.10627229884969
 33
0.0
  0
SOLID
  5
F68D
  8
0
  6
CONTINUOUS
 62
     2
 10
325.14312742251758
 20
200.5229389655164
 30
0.0
 11
325.14312742251758
 21
199.689605632183
 31
0.0
 12
322.64312742251769
 22
200.10627229884969
 32
0.0
 13
322.64312742251769
 23
200.10627229884969
 33
0.0
  0
INSERT
  5
F68E
  8
0
  6
CONTINUOUS
  2
*U161
 10
0.0
 20
0.0
 30
0.0
  0
POINT
  5
F68F
  8
DEFPOINTS
  6
CONTINUOUS
 62
     0
 10
316.64312742251769
 20
194.94267274344591
 30
0.0
  0
POINT
  5
F690
  8
DEFPOINTS
  6
CONTINUOUS
 62
     0
 10
322.64312742251769
 20
194.94267274344591
 30
0.0
  0
POINT
  5
F691
  8
DEFPOINTS
  6
CONTINUOUS
 62
     0
 10
322.64312742251769
 20
200.10627229884969
 30
0.0
  0
ENDBLK
  5
F692
  8
0
  0
BLOCK
  8
0
  2
*D102
 70
     1
 10
0.0
 20
0.0
 30
0.0
  3
*D102
  1

  0
LINE
  5
F695
  8
0
  6
CONTINUOUS
 62
     2
 10
301.64312742251769
 20
194.94267274344591
 30
0.0
 11
301.64312742251769
 21
201.30627229884971
 31
0.0
  0
LINE
  5
F696
  8
0
  6
CONTINUOUS
 62
     2
 10
316.64312742251769
 20
194.94267274344591
 30
0.0
 11
316.64312742251769
 21
201.30627229884971
 31
0.0
  0
LINE
  5
F697
  8
0
  6
CONTINUOUS
 62
     2
 10
304.14312742251769
 20
200.10627229884969
 30
0.0
 11
314.14312742251769
 21
200.10627229884969
 31
0.0
  0
SOLID
  5
F698
  8
0
  6
CONTINUOUS
 62
     2
 10
304.14312742251769
 20
200.5229389655164
 30
0.0
 11
304.14312742251769
 21
199.689605632183
 31
0.0
 12
301.64312742251769
 22
200.10627229884969
 32
0.0
 13
301.64312742251769
 23
200.10627229884969
 33
0.0
  0
SOLID
  5
F699
  8
0
  6
CONTINUOUS
 62
     2
 10
314.14312742251769
 20
200.5229389655164
 30
0.0
 11
314.14312742251769
 21
199.689605632183
 31
0.0
 12
316.64312742251769
 22
200.10627229884969
 32
0.0
 13
316.64312742251769
 23
200.10627229884969
 33
0.0
  0
INSERT
  5
F69A
  8
0
  6
CONTINUOUS
  2
*U162
 10
0.0
 20
0.0
 30
0.0
  0
POINT
  5
F69B
  8
DEFPOINTS
  6
CONTINUOUS
 62
     0
 10
301.64312742251769
 20
194.94267274344591
 30
0.0
  0
POINT
  5
F69C
  8
DEFPOINTS
  6
CONTINUOUS
 62
     0
 10
316.64312742251769
 20
194.94267274344591
 30
0.0
  0
POINT
  5
F69D
  8
DEFPOINTS
  6
CONTINUOUS
 62
     0
 10
316.64312742251769
 20
200.10627229884969
 30
0.0
  0
ENDBLK
  5
F69E
  8
0
  0
BLOCK
  8
0
  2
*D103
 70
     1
 10
0.0
 20
0.0
 30
0.0
  3
*D103
  1

  0
LINE
  5
F6A1
  8
0
  6
CONTINUOUS
 62
     2
 10
295.64312742251758
 20
194.8604209395626
 30
0.0
 11
295.64312742251758
 21
201.10627229884969
 31
0.0
  0
LINE
  5
F6A2
  8
0
  6
CONTINUOUS
 62
     2
 10
301.64312742251769
 20
194.8604209395626
 30
0.0
 11
301.64312742251769
 21
201.10627229884969
 31
0.0
  0
LINE
  5
F6A3
  8
0
  6
CONTINUOUS
 62
     2
 10
293.14312742251758
 20
200.10627229884969
 30
0.0
 11
290.64312742251758
 21
200.10627229884969
 31
0.0
  0
LINE
  5
F6A4
  8
0
  6
CONTINUOUS
 62
     2
 10
304.14312742251769
 20
200.10627229884969
 30
0.0
 11
306.64312742251758
 21
200.10627229884969
 31
0.0
  0
LINE
  5
F6A5
  8
0
  6
CONTINUOUS
 62
     2
 10
295.64312742251758
 20
200.10627229884969
 30
0.0
 11
301.64312742251769
 21
200.10627229884969
 31
0.0
  0
SOLID
  5
F6A6
  8
0
  6
CONTINUOUS
 62
     2
 10
293.14312742251758
 20
200.5229389655164
 30
0.0
 11
293.14312742251758
 21
199.689605632183
 31
0.0
 12
295.64312742251758
 22
200.10627229884969
 32
0.0
 13
295.64312742251758
 23
200.10627229884969
 33
0.0
  0
SOLID
  5
F6A7
  8
0
  6
CONTINUOUS
 62
     2
 10
304.14312742251769
 20
200.5229389655164
 30
0.0
 11
304.14312742251769
 21
199.689605632183
 31
0.0
 12
301.64312742251769
 22
200.10627229884969
 32
0.0
 13
301.64312742251769
 23
200.10627229884969
 33
0.0
  0
INSERT
  5
F6A8
  8
0
  6
CONTINUOUS
  2
*U163
 10
0.0
 20
0.0
 30
0.0
  0
POINT
  5
F6A9
  8
DEFPOINTS
  6
CONTINUOUS
 62
     0
 10
295.64312742251758
 20
194.26042093956261
 30
0.0
  0
POINT
  5
F6AA
  8
DEFPOINTS
  6
CONTINUOUS
 62
     0
 10
301.64312742251769
 20
194.26042093956261
 30
0.0
  0
POINT
  5
F6AB
  8
DEFPOINTS
  6
CONTINUOUS
 62
     0
 10
301.64312742251769
 20
200.10627229884969
 30
0.0
  0
ENDBLK
  5
F6AC
  8
0
  0
BLOCK
  8
0
  2
FDFSDFDF
 70
     0
 10
0.0
 20
0.0
 30
0.0
  3
FDFSDFDF
  1

  0
INSERT
  5
F6B0
  8
0
  6
CONTINUOUS
 62
     2
  2
*X164
 10
0.0
 20
0.0
 30
0.0
1001
ACAD
1000
HATCH
1002
{
1070
    19
1000
ANSI31
1040
20.0
1040
0.0
1000
ASC_BOUNDS
1070
     3
1070
     1
1070
    18
1005
F6D0
1005
F6B2
1005
F6B1
1005
F6B8
1005
F6B7
1005
F6B3
1005
F6C3
1005
F6C4
1005
F6C2
1005
F6D6
1005
F6D7
1005
F6D8
1005
F6C0
1005
F6C7
1005
F6C6
1005
F6C5
1005
F6BE
1005
F6BC
1070
     1
1070
     7
1005
F6D3
1005
F6D4
1005
F6B1
1005
F6B2
1005
F6D0
1005
F6BC
1005
F6D2
1070
     1
1070
    11
1005
F6CE
1005
F6CF
1005
F6BB
1005
F6D2
1005
F6D0
1005
F6BC
1005
F6BE
1005
F6CB
1005
F6CC
1005
F6CD
1005
F6C9
1000
ASC_SEEDPOINT
1011
319.20416400034668
1021
1.1634585050708375E+125
1031
-0.0
1021
189.24524749093069
1031
0.0
1000
R14_HATCH_DATA
1000
F6B0
1011
1.0
1021
1.1634585050708375E+125
1031
-0.0
1021
0.0
1031
0.0
1011
0.0
1021
1.1634585050708375E+125
1031
-0.0
1021
1.0
1031
0.0
1011
0.0
1021
1.1634585050708375E+125
1031
-0.0
1021
0.0
1031
1.0
1040
0.0
1010
0.0
1020
0.0
1030
1.0
1000
ANSI31
1070
     0
1070
     1
1071
        3
1071
        7
1070
     1
1070
     1
1071
       15
1040
322.52357380591383
1040
187.77285330962101
1040
-0.1320611831095684
1040
322.48987902673332
1040
187.89820103176311
1040
-0.7501745522296774
1040
322.95073905779537
1040
188.03250682948061
1040
0.2507365363306379
1040
325.6050548447846
1040
192.9927773723598
1040
0.0192153241715104
1040
325.58745732531872
1040
193.45051156929571
1040
0.0
1040
324.54838331084329
1040
193.45051156929571
1040
0.2679491924310505
1040
323.50915282630223
1040
192.85051156929589
1040
0.0
1040
323.16274266478808
1040
192.25051156929581
1040
-0.2679491924312327
1040
322.64312742251713
1040
191.95051156929591
1040
0.0
1040
316.64312742251713
1040
191.95051156929591
1040
-0.2679491924310309
1040
316.12351218024651
1040
192.25051156929581
1040
0.0
1040
315.77710201873248
1040
192.850511569296
1040
0.2679491924310934
1040
314.7378715341913
1040
193.45051156929591
1040
0.0
1040
313.69879751971638
1040
193.45051156929591
1040
0.01921532417152
1040
313.6812000002505
1040
192.9927773723598
1040
0.5709145023684346
1071
       11
1005
F6C9
1005
F6CD
1005
F6CC
1005
F6CB
1005
F6BE
1005
F6BC
1005
F6D0
1005
F6D2
1005
F6BB
1005
F6CF
1005
F6CE
1071
        7
1070
     1
1070
     1
1071
        9
1040
322.95073905779537
1040
188.03250682948061
1040
-0.1427431609333959
1040
322.98987902673332
1040
187.89820103176311
1040
-0.2406337495410551
1040
322.88640054215352
1040
187.69563883015829
1040
0.0
1040
323.23408639120862
1040
187.2149721454773
1040
0.0
1040
325.47862043463812
1040
187.89971892824849
1040
0.0
1040
328.09183864425751
1040
190.92010459039369
1040
0.0
1040
328.66715002206729
1040
193.45051156929571
1040
0.0
1040
325.58745732531872
1040
193.45051156929571
1040
-0.0192153241715104
1040
325.6050548447846
1040
192.9927773723598
1040
-0.2507365363306379
1071
        7
1005
F6D2
1005
F6BC
1005
F6D0
1005
F6B2
1005
F6B1
1005
F6D4
1005
F6D3
1071
        7
1070
     1
1070
     1
1071
       19
1040
303.54838331084352
1040
193.45051156929591
1040
0.2679491924310505
1040
302.5091528263024
1040
192.85051156929609
1040
0.0
1040
302.16274266478808
1040
192.25051156929581
1040
-0.2679491924312327
1040
301.64312742251713
1040
191.95051156929591
1040
0.0
1040
295.64312742251713
1040
191.95051156929591
1040
-0.2679491924310892
1040
295.12351218024651
1040
192.25051156929581
1040
0.0
1040
294.77710201873248
1040
192.850511569296
1040
0.2679491924311121
1040
293.73787153419119
1040
193.45051156929611
1040
0.0
1040
284.88492660384009
1040
193.45051156929591
1040
0.0
1040
285.22418130025
1040
191.327173156295
1040
0.0
1040
288.41838560002498
1040
187.77850831812449
1040
0.0
1040
296.54777269352439
1040
185.5476890666805
1040
0.0
1040
310.0985767472207
1040
185.10629339102061
1040
0.0
1040
317.76889294371591
1040
185.5476890666805
1040
0.0
1040
323.23408639120851
1040
187.2149721454773
1040
0.0
1040
322.88640054215352
1040
187.69563883015829
1040
-0.4441191269305316
1040
322.52357380591383
1040
187.77285330962101
1040
-0.5709145023684346
1040
313.6812000002505
1040
192.9927773723598
1040
-0.01921532417152
1040
313.69879751971638
1040
193.45051156929591
1040
0.0
1071
       18
1005
F6BC
1005
F6BE
1005
F6C5
1005
F6C6
1005
F6C7
1005
F6C0
1005
F6D8
1005
F6D7
1005
F6D6
1005
F6C2
1005
F6C4
1005
F6C3
1005
F6B3
1005
F6B7
1005
F6B8
1005
F6B1
1005
F6B2
1005
F6D0
1070
     0
1070
     1
1040
0.0
1040
20.0
1070
     0
1070
     1
1040
0.7853981633974483
1040
0.0
1040
0.0
1040
-1.767766952966368
1040
1.767766952966368
1070
     0
1040
0.0406034499754259
1071
        3
1040
319.20416400034668
1040
189.24524749093069
1040
0.0
1040
326.39538939337223
1040
191.39723023879239
1040
0.0
1040
309.73775247072223
1040
189.4888679050818
1040
0.0
1002
}
  0
LINE
  5
F6B1
  8
0
  6
CONTINUOUS
 62
     3
 10
317.76889294371591
 20
185.5476890666805
 30
0.0
 11
325.47862043463812
 21
187.8997189282486
 31
0.0
1001
ACAD
1000
ASC_BOUNDS
1002
{
1070
    19
1005
F6B0
1005
F6B0
1002
}
  0
LINE
  5
F6B2
  8
0
  6
CONTINUOUS
 62
     2
 10
322.73987902673332
 20
187.89820103176311
 30
0.0
 11
328.81184676062952
 21
179.50386284378649
 31
0.0
1001
ACAD
1000
ASC_BOUNDS
1002
{
1070
    19
1005
F6B0
1005
F6B0
1002
}
  0
LINE
  5
F6B3
  8
0
  6
CONTINUOUS
 62
     3
 10
288.41838560002498
 20
187.77850831812449
 30
0.0
 11
296.54777269352439
 21
185.5476890666805
 31
0.0
1001
ACAD
1000
ASC_BOUNDS
1002
{
1070
    19
1005
F6B0
1002
}
  0
LINE
  5
F6B4
  8
0
  6
CONTINUOUS
 62
     7
 10
298.03898836139177
 20
174.76176518260809
 30
0.0
 11
314.8322691380983
 21
174.76176518260809
 31
0.0
  0
LINE
  5
F6B5
  8
0
  6
CONTINUOUS
 62
     3
 10
298.03898836139177
 20
175.76176518260809
 30
0.0
 11
314.8322691380983
 21
175.76176518260809
 31
0.0
  0
TEXT
  5
F6B6
  8
0
  6
CONTINUOUS
 62
     7
 10
298.06094022686528
 20
176.4246370851877
 30
0.0
 40
3.0
  1
DETAIL X
  0
LINE
  5
F6B7
  8
0
  6
CONTINUOUS
 62
     3
 10
296.54777269352439
 20
185.5476890666805
 30
0.0
 11
310.09857674722087
 21
185.1062933910207
 31
0.0
1001
ACAD
1000
ASC_BOUNDS
1002
{
1070
    19
1005
F6B0
1002
}
  0
LINE
  5
F6B8
  8
0
  6
CONTINUOUS
 62
     3
 10
310.09857674722087
 20
185.1062933910207
 30
0.0
 11
317.76889294371591
 21
185.5476890666805
 31
0.0
1001
ACAD
1000
ASC_BOUNDS
1002
{
1070
    19
1005
F6B0
1002
}
  0
LINE
  5
F6B9
  8
0
  6
CONTINUOUS
 62
     2
 10
328.81184676062952
 20
179.50386284378649
 30
0.0
 11
333.63284564025082
 21
179.50386284378649
 31
0.0
  0
TEXT
  5
F6BA
  8
0
  6
CONTINUOUS
 62
     3
 10
329.64491976575488
 20
180.06168687877539
 30
0.0
 40
3.0
  1
Y
  0
ARC
  5
F6BB
  8
0
  6
CONTINUOUS
 62
     7
 10
324.54838331084329
 20
192.2505115692957
 30
0.0
 40
1.1999999999999991
 50
90.0
 51
149.99999999998491
1001
ACAD
1000
ASC_BOUNDS
1002
{
1070
    19
1005
F6B0
1002
}
  0
CIRCLE
  5
F6BC
  8
0
  6
PHANTOM2
 62
     4
 10
319.64312742251752
 20
192.9927773723598
 30
0.0
 40
5.9619274222670748
1001
ACAD
1000
ASC_BOUNDS
1002
{
1070
    19
1005
F6B0
1005
F6B0
1005
F6B0
1002
}
  0
DIMENSION
  5
F6BD
  8
0
  6
CONTINUOUS
 62
     7
  2
*D101
 10
322.64312742251769
 20
200.10627229884969
 30
0.0
 11
319.64312742251758
 21
202.60656757444031
 31
0.0
  1
2
  3
KSM
 13
316.64312742251769
 23
194.94267274344591
 33
0.0
 14
322.64312742251769
 24
194.94267274344591
 34
0.0
1001
ACAD
1000
DSTYLE
1002
{
1070
    47
1040
0.1
1070
    71
1070
     0
1070
    48
1040
-0.02
1070
   146
1040
0.7
1070
   272
1070
     3
1070
   271
1070
     3
1070
    41
1040
2.5
1002
}
  0
LINE
  5
F6BE
  8
0
  6
CONTINUOUS
 62
     7
 10
303.54838331084352
 20
193.45051156929591
 30
0.0
 11
314.7378715341913
 21
193.45051156929591
 31
0.0
1001
ACAD
1000
ASC_BOUNDS
1002
{
1070
    19
1005
F6B0
1005
F6B0
1002
}
  0
DIMENSION
  5
F6BF
  8
0
  6
CONTINUOUS
 62
     7
  2
*D102
 10
316.64312742251769
 20
200.10627229884969
 30
0.0
 11
309.14312742251758
 21
202.60627229884969
 31
0.0
  1
5
  3
KSM
 13
301.64312742251769
 23
194.94267274344591
 33
0.0
 14
316.64312742251769
 24
194.94267274344591
 34
0.0
1001
ACAD
1000
DSTYLE
1002
{
1070
    47
1040
0.1
1070
    71
1070
     0
1070
    48
1040
-0.02
1070
   146
1040
0.7
1070
   272
1070
     3
1070
   271
1070
     3
1070
    41
1040
2.5
1002
}
  0
LINE
  5
F6C0
  8
0
  6
CONTINUOUS
 10
295.64312742251713
 20
191.95051156929591
 30
0.0
 11
301.64312742251713
 21
191.95051156929591
 31
0.0
1001
ACAD
1000
ASC_BOUNDS
1002
{
1070
    19
1005
F6B0
1002
}
  0
DIMENSION
  5
F6C1
  8
0
  6
CONTINUOUS
  2
*D103
 10
301.64312742251769
 20
200.10627229884969
 30
0.0
 11
298.64312742251758
 21
200.10627229884969
 31
0.0
 70
   128
  1
2
  3
ISO-25
 13
295.64312742251758
 23
194.26042093956261
 33
0.0
 14
301.64312742251769
 24
194.26042093956261
 34
0.0
1001
ACAD
1000
DSTYLE
1002
{
1070
   287
1070
     2
1070
   144
1040
333.0
1070
    42
1040
0.6
1070
    43
1040
1.0
1070
    44
1040
1.0
1070
    47
1040
0.1
1070
    48
1040
0.1
1070
    73
1070
     0
1070
   140
1040
3.0
1070
   141
1040
-0.5
1070
   146
1040
0.7
1070
   147
1040
0.6
1070
   178
1070
     3
1070
   271
1070
     8
1070
   272
1070
     8
1070
   275
1070
     1
1070
   283
1070
     0
1070
   284
1070
     8
1070
   289
1070
     2
1002
}
  0
LINE
  5
F6C2
  8
0
  6
CONTINUOUS
 62
     7
 10
284.88492660384009
 20
193.45051156929591
 30
0.0
 11
293.73787153419119
 21
193.45051156929611
 31
0.0
1001
ACAD
1000
ASC_BOUNDS
1002
{
1070
    19
1005
F6B0
1002
}
  0
LINE
  5
F6C3
  8
0
  6
CONTINUOUS
 62
     3
 10
285.22418130025011
 20
191.32717315629489
 30
0.0
 11
288.41838560002498
 21
187.77850831812449
 31
0.0
1001
ACAD
1000
ASC_BOUNDS
1002
{
1070
    19
1005
F6B0
1002
}
  0
LINE
  5
F6C4
  8
0
  6
CONTINUOUS
 62
     3
 10
285.22418130025011
 20
191.32717315629489
 30
0.0
 11
284.88492660384009
 21
193.45051156929591
 31
0.0
1001
ACAD
1000
ASC_BOUNDS
1002
{
1070
    19
1005
F6B0
1002
}
  0
ARC
  5
F6C5
  8
0
  6
CONTINUOUS
 62
     7
 10
303.54838331084352
 20
192.2505115692959
 30
0.0
 40
1.1999999999999991
 50
90.0
 51
149.99999999998491
1001
ACAD
1000
ASC_BOUNDS
1002
{
1070
    19
1005
F6B0
1002
}
  0
LINE
  5
F6C6
  8
0
  6
CONTINUOUS
 62
     7
 10
302.16274266478808
 20
192.25051156929581
 30
0.0
 11
302.5091528263024
 21
192.85051156929609
 31
0.0
1001
ACAD
1000
ASC_BOUNDS
1002
{
1070
    19
1005
F6B0
1002
}
  0
ARC
  5
F6C7
  8
0
  6
CONTINUOUS
 62
     7
 10
301.64312742251718
 20
192.55051156929591
 30
0.0
 40
0.6000000000000001
 50
270.0
 51
329.99999999999721
1001
ACAD
1000
ASC_BOUNDS
1002
{
1070
    19
1005
F6B0
1002
}
  0
LINE
  5
F6C8
  8
0
  6
CENTER
 62
     2
 10
301.64312742251769
 20
194.26042093956261
 30
0.0
 11
301.64312742251769
 21
189.02229574619631
 31
0.0
  0
LINE
  5
F6C9
  8
0
  6
CONTINUOUS
 10
316.64312742251713
 20
191.95051156929591
 30
0.0
 11
322.64312742251713
 21
191.95051156929591
 31
0.0
1001
ACAD
1000
ASC_BOUNDS
1002
{
1070
    19
1005
F6B0
1002
}
  0
LINE
  5
F6CA
  8
0
  6
CENTER
 62
     2
 10
316.64312742251769
 20
194.26042093956261
 30
0.0
 11
316.64312742251769
 21
189.02229574619631
 31
0.0
  0
ARC
  5
F6CB
  8
0
  6
CONTINUOUS
 62
     7
 10
314.7378715341913
 20
192.25051156929601
 30
0.0
 40
1.1999999999999991
 50
30.00000000000194
 51
90.0
1001
ACAD
1000
ASC_BOUNDS
1002
{
1070
    19
1005
F6B0
1002
}
  0
LINE
  5
F6CC
  8
0
  6
CONTINUOUS
 62
     7
 10
316.12351218024651
 20
192.25051156929581
 30
0.0
 11
315.77710201873248
 21
192.850511569296
 31
0.0
1001
ACAD
1000
ASC_BOUNDS
1002
{
1070
    19
1005
F6B0
1002
}
  0
ARC
  5
F6CD
  8
0
  6
CONTINUOUS
 62
     7
 10
316.64312742251718
 20
192.55051156929591
 30
0.0
 40
0.6000000000000001
 50
209.9999999999892
 51
270.0
1001
ACAD
1000
ASC_BOUNDS
1002
{
1070
    19
1005
F6B0
1002
}
  0
ARC
  5
F6CE
  8
0
  6
CONTINUOUS
 62
     7
 10
322.64312742251718
 20
192.55051156929591
 30
0.0
 40
0.6000000000000001
 50
270.0
 51
329.99999999999721
1001
ACAD
1000
ASC_BOUNDS
1002
{
1070
    19
1005
F6B0
1002
}
  0
LINE
  5
F6CF
  8
0
  6
CONTINUOUS
 62
     7
 10
323.16274266478808
 20
192.25051156929581
 30
0.0
 11
323.50915282630223
 21
192.85051156929589
 31
0.0
1001
ACAD
1000
ASC_BOUNDS
1002
{
1070
    19
1005
F6B0
1002
}
  0
POLYLINE
  5
F6D0
  8
0
  6
CONTINUOUS
 62
     7
 66
     1
 10
0.0
 20
0.0
 30
0.0
 70
     1
 40
0.5
 41
0.5
1001
ACAD
1000
ASC_BOUNDS
1002
{
1070
    19
1005
F6B0
1005
F6B0
1005
F6B0
1002
}
  0
VERTEX
  5
10CD7
  8
0
  6
CONTINUOUS
 62
     7
 10
322.48987902673332
 20
187.89820103176311
 30
0.0
 42
-1.0
  0
VERTEX
  5
10CD8
  8
0
  6
CONTINUOUS
 62
     7
 10
322.98987902673332
 20
187.89820103176311
 30
0.0
 42
-1.0
  0
SEQEND
  5
10CD9
  8
0
  6
CONTINUOUS
 62
     7
  0
LINE
  5
F6D1
  8
0
  6
CENTER
 62
     2
 10
322.64312742251769
 20
194.26042093956261
 30
0.0
 11
322.64312742251769
 21
189.02229574619631
 31
0.0
  0
LINE
  5
F6D2
  8
0
  6
CONTINUOUS
 62
     7
 10
324.54838331084329
 20
193.45051156929571
 30
0.0
 11
328.66715002206729
 21
193.45051156929571
 31
0.0
1001
ACAD
1000
ASC_BOUNDS
1002
{
1070
    19
1005
F6B0
1005
F6B0
1002
}
  0
LINE
  5
F6D3
  8
0
  6
CONTINUOUS
 62
     3
 10
328.09183864425751
 20
190.92010459039369
 30
0.0
 11
328.66715002206729
 21
193.45051156929591
 31
0.0
1001
ACAD
1000
ASC_BOUNDS
1002
{
1070
    19
1005
F6B0
1002
}
  0
LINE
  5
F6D4
  8
0
  6
CONTINUOUS
 62
     3
 10
325.47862043463812
 20
187.8997189282486
 30
0.0
 11
328.09183864425751
 21
190.92010459039369
 31
0.0
1001
ACAD
1000
ASC_BOUNDS
1002
{
1070
    19
1005
F6B0
1002
}
  0
LINE
  5
F6D5
  8
0
  6
CENTER
 62
     2
 10
295.64312742251758
 20
194.26042093956269
 30
0.0
 11
295.64312742251758
 21
189.02229574619631
 31
0.0
  0
ARC
  5
F6D6
  8
0
  6
CONTINUOUS
 62
     7
 10
293.73787153419119
 20
192.25051156929601
 30
0.0
 40
1.1999999999999991
 50
30.000000000001911
 51
90.0
1001
ACAD
1000
ASC_BOUNDS
1002
{
1070
    19
1005
F6B0
1002
}
  0
LINE
  5
F6D7
  8
0
  6
CONTINUOUS
 62
     7
 10
295.12351218024651
 20
192.25051156929581
 30
0.0
 11
294.77710201873248
 21
192.850511569296
 31
0.0
1001
ACAD
1000
ASC_BOUNDS
1002
{
1070
    19
1005
F6B0
1002
}
  0
ARC
  5
F6D8
  8
0
  6
CONTINUOUS
 62
     7
 10
295.64312742251713
 20
192.55051156929599
 30
0.0
 40
0.6000000000000001
 50
209.9999999999892
 51
270.0
1001
ACAD
1000
ASC_BOUNDS
1002
{
1070
    19
1005
F6B0
1002
}
  0
ENDBLK
  5
F6D9
  8
0
  0
BLOCK
  8
0
  2
*D105
 70
     1
 10
0.0
 20
0.0
 30
0.0
  3
*D105
  1

  0
LINE
  5
10703
  8
0
  6
CONTINUOUS
 62
     2
 10
115.0999646804454
 20
85.874031513022175
 30
0.0
 11
115.0999646804454
 21
73.183891839882506
 31
0.0
  0
LINE
  5
10704
  8
0
  6
CONTINUOUS
 62
     2
 10
225.09996468044559
 20
107.0522307753767
 30
0.0
 11
225.09996468044559
 21
73.183891839882506
 31
0.0
  0
LINE
  5
10705
  8
0
  6
CONTINUOUS
 62
     2
 10
117.5999646804454
 20
74.183891839882506
 30
0.0
 11
222.59996468044559
 21
74.183891839882506
 31
0.0
  0
SOLID
  5
10706
  8
0
  6
CONTINUOUS
 62
     2
 10
117.5999646804454
 20
74.600558506549163
 30
0.0
 11
117.5999646804454
 21
73.767225173215834
 31
0.0
 12
115.0999646804454
 22
74.183891839882506
 32
0.0
 13
115.0999646804454
 23
74.183891839882506
 33
0.0
  0
SOLID
  5
10707
  8
0
  6
CONTINUOUS
 62
     2
 10
222.59996468044559
 20
74.600558506549163
 30
0.0
 11
222.59996468044559
 21
73.767225173215834
 31
0.0
 12
225.09996468044559
 22
74.183891839882506
 32
0.0
 13
225.09996468044559
 23
74.183891839882506
 33
0.0
  0
INSERT
  5
10708
  8
0
  6
CONTINUOUS
  2
*U221
 10
0.0
 20
0.0
 30
0.0
  0
POINT
  5
10709
  8
DEFPOINTS
  6
CONTINUOUS
 62
     0
 10
115.0999646804454
 20
86.474031513022169
 30
0.0
  0
POINT
  5
1070A
  8
DEFPOINTS
  6
CONTINUOUS
 62
     0
 10
225.09996468044559
 20
107.65223077537669
 30
0.0
  0
POINT
  5
1070B
  8
DEFPOINTS
  6
CONTINUOUS
 62
     0
 10
225.09996468044559
 20
74.183891839882506
 30
0.0
  0
ENDBLK
  5
1070C
  8
0
  0
BLOCK
  8
0
  2
*D106
 70
     1
 10
0.0
 20
0.0
 30
0.0
  3
*D106
  1

  0
LINE
  5
1070F
  8
0
  6
CONTINUOUS
 62
     2
 10
65.099964680445396
 20
101.7737966638
 30
0.0
 11
65.099964680445396
 21
65.183891839882534
 31
0.0
  0
LINE
  5
10710
  8
0
  6
CONTINUOUS
 62
     2
 10
225.09996468044559
 20
107.0522307753767
 30
0.0
 11
225.09996468044559
 21
65.183891839882534
 31
0.0
  0
LINE
  5
10711
  8
0
  6
CONTINUOUS
 62
     2
 10
67.599964680445396
 20
66.183891839882534
 30
0.0
 11
222.59996468044559
 21
66.183891839882534
 31
0.0
  0
SOLID
  5
10712
  8
0
  6
CONTINUOUS
 62
     2
 10
67.599964680445396
 20
66.600558506549206
 30
0.0
 11
67.599964680445396
 21
65.767225173215863
 31
0.0
 12
65.099964680445396
 22
66.183891839882534
 32
0.0
 13
65.099964680445396
 23
66.183891839882534
 33
0.0
  0
SOLID
  5
10713
  8
0
  6
CONTINUOUS
 62
     2
 10
222.59996468044559
 20
66.600558506549206
 30
0.0
 11
222.59996468044559
 21
65.767225173215863
 31
0.0
 12
225.09996468044559
 22
66.183891839882534
 32
0.0
 13
225.09996468044559
 23
66.183891839882534
 33
0.0
  0
INSERT
  5
10714
  8
0
  6
CONTINUOUS
  2
*U222
 10
0.0
 20
0.0
 30
0.0
  0
POINT
  5
10715
  8
DEFPOINTS
  6
CONTINUOUS
 62
     0
 10
65.099964680445396
 20
102.37379666379999
 30
0.0
  0
POINT
  5
10716
  8
DEFPOINTS
  6
CONTINUOUS
 62
     0
 10
225.09996468044559
 20
107.65223077537669
 30
0.0
  0
POINT
  5
10717
  8
DEFPOINTS
  6
CONTINUOUS
 62
     0
 10
225.09996468044559
 20
66.183891839882534
 30
0.0
  0
ENDBLK
  5
10718
  8
0
  0
BLOCK
  8
0
  2
*D107
 70
     1
 10
0.0
 20
0.0
 30
0.0
  3
*D107
  1

  0
LINE
  5
1071B
  8
0
  6
CONTINUOUS
 62
     2
 10
214.3574010412103
 20
103.9740315130221
 30
0.0
 11
257.21194271374242
 21
103.9740315130221
 31
0.0
  0
LINE
  5
1071C
  8
0
  6
CONTINUOUS
 62
     2
 10
214.35740104120981
 20
167.97403151302211
 30
0.0
 11
257.21194271374247
 21
167.97403151302211
 31
0.0
  0
LINE
  5
1071D
  8
0
  6
CONTINUOUS
 62
     2
 10
256.21194271374242
 20
106.4740315130221
 30
0.0
 11
256.21194271374247
 21
165.47403151302211
 31
0.0
  0
SOLID
  5
1071E
  8
0
  6
CONTINUOUS
 62
     2
 10
255.79527604707579
 20
106.4740315130221
 30
0.0
 11
256.6286093804091
 21
106.4740315130221
 31
0.0
 12
256.21194271374242
 22
103.9740315130221
 32
0.0
 13
256.21194271374242
 23
103.9740315130221
 33
0.0
  0
SOLID
  5
1071F
  8
0
  6
CONTINUOUS
 62
     2
 10
255.79527604707579
 20
165.47403151302211
 30
0.0
 11
256.6286093804091
 21
165.47403151302211
 31
0.0
 12
256.21194271374247
 22
167.97403151302211
 32
0.0
 13
256.21194271374247
 23
167.97403151302211
 33
0.0
  0
INSERT
  5
10720
  8
0
  6
CONTINUOUS
  2
*U223
 10
0.0
 20
0.0
 30
0.0
  0
POINT
  5
10721
  8
DEFPOINTS
  6
CONTINUOUS
 62
     0
 10
213.7574010412103
 20
103.9740315130221
 30
0.0
  0
POINT
  5
10722
  8
DEFPOINTS
  6
CONTINUOUS
 62
     0
 10
213.7574010412099
 20
167.97403151302211
 30
0.0
  0
POINT
  5
10723
  8
DEFPOINTS
  6
CONTINUOUS
 62
     0
 10
256.21194271374247
 20
167.97403151302211
 30
0.0
  0
ENDBLK
  5
10724
  8
0
  0
BLOCK
  8
0
  2
*D108
 70
     1
 10
0.0
 20
0.0
 30
0.0
  3
*D108
  1

  0
LINE
  5
10727
  8
0
  6
CONTINUOUS
 62
     2
 10
163.09996468044551
 20
103.0070246748775
 30
0.0
 11
163.09996468044551
 21
81.183891839882506
 31
0.0
  0
LINE
  5
10728
  8
0
  6
CONTINUOUS
 62
     2
 10
225.09996468044559
 20
107.0522307753767
 30
0.0
 11
225.09996468044559
 21
81.183891839882506
 31
0.0
  0
LINE
  5
10729
  8
0
  6
CONTINUOUS
 62
     2
 10
165.59996468044551
 20
82.183891839882506
 30
0.0
 11
222.59996468044559
 21
82.183891839882506
 31
0.0
  0
SOLID
  5
1072A
  8
0
  6
CONTINUOUS
 62
     2
 10
165.59996468044551
 20
82.600558506549177
 30
0.0
 11
165.59996468044551
 21
81.767225173215834
 31
0.0
 12
163.09996468044551
 22
82.183891839882506
 32
0.0
 13
163.09996468044551
 23
82.183891839882506
 33
0.0
  0
SOLID
  5
1072B
  8
0
  6
CONTINUOUS
 62
     2
 10
222.59996468044559
 20
82.600558506549177
 30
0.0
 11
222.59996468044559
 21
81.767225173215834
 31
0.0
 12
225.09996468044559
 22
82.183891839882506
 32
0.0
 13
225.09996468044559
 23
82.183891839882506
 33
0.0
  0
INSERT
  5
1072C
  8
0
  6
CONTINUOUS
  2
*U224
 10
0.0
 20
0.0
 30
0.0
  0
POINT
  5
1072D
  8
DEFPOINTS
  6
CONTINUOUS
 62
     0
 10
163.09996468044551
 20
103.60702467487749
 30
0.0
  0
POINT
  5
1072E
  8
DEFPOINTS
  6
CONTINUOUS
 62
     0
 10
225.09996468044559
 20
107.65223077537669
 30
0.0
  0
POINT
  5
1072F
  8
DEFPOINTS
  6
CONTINUOUS
 62
     0
 10
225.09996468044559
 20
82.183891839882506
 30
0.0
  0
ENDBLK
  5
10730
  8
0
  0
BLOCK
  8
0
  2
*D109
 70
     1
 10
0.0
 20
0.0
 30
0.0
  3
*D109
  1

  0
LINE
  5
10733
  8
0
  6
CONTINUOUS
 62
     2
 10
224.1999646804455
 20
120.0990315130221
 30
0.0
 11
249.2119427137425
 21
120.0990315130221
 31
0.0
  0
LINE
  5
10734
  8
0
  6
CONTINUOUS
 62
     2
 10
224.1999646804455
 20
151.84903151302211
 30
0.0
 11
249.2119427137425
 21
151.84903151302211
 31
0.0
  0
LINE
  5
10735
  8
0
  6
CONTINUOUS
 62
     2
 10
248.2119427137425
 20
122.5990315130221
 30
0.0
 11
248.2119427137425
 21
149.34903151302211
 31
0.0
  0
SOLID
  5
10736
  8
0
  6
CONTINUOUS
 62
     2
 10
247.79527604707579
 20
122.5990315130221
 30
0.0
 11
248.62860938040919
 21
122.5990315130221
 31
0.0
 12
248.2119427137425
 22
120.0990315130221
 32
0.0
 13
248.2119427137425
 23
120.0990315130221
 33
0.0
  0
SOLID
  5
10737
  8
0
  6
CONTINUOUS
 62
     2
 10
247.79527604707579
 20
149.34903151302211
 30
0.0
 11
248.62860938040919
 21
149.34903151302211
 31
0.0
 12
248.2119427137425
 22
151.84903151302211
 32
0.0
 13
248.2119427137425
 23
151.84903151302211
 33
0.0
  0
INSERT
  5
10738
  8
0
  6
CONTINUOUS
  2
*U225
 10
0.0
 20
0.0
 30
0.0
  0
POINT
  5
10739
  8
DEFPOINTS
  6
CONTINUOUS
 62
     0
 10
223.59996468044551
 20
120.0990315130221
 30
0.0
  0
POINT
  5
1073A
  8
DEFPOINTS
  6
CONTINUOUS
 62
     0
 10
223.59996468044551
 20
151.84903151302211
 30
0.0
  0
POINT
  5
1073B
  8
DEFPOINTS
  6
CONTINUOUS
 62
     0
 10
248.2119427137425
 20
151.84903151302211
 30
0.0
  0
ENDBLK
  5
1073C
  8
0
  0
BLOCK
  8
0
  2
*D110
 70
     1
 10
0.0
 20
0.0
 30
0.0
  3
*D110
  1

  0
LINE
  5
1073F
  8
0
  6
CONTINUOUS
 62
     2
 10
170.09996468044551
 20
152.82403151302211
 30
0.0
 11
170.09996468044551
 21
184.6773442999372
 31
0.0
  0
LINE
  5
10740
  8
0
  6
CONTINUOUS
 62
     2
 10
225.0999646804454
 20
164.8958322506675
 30
0.0
 11
225.0999646804454
 21
184.6773442999372
 31
0.0
  0
LINE
  5
10741
  8
0
  6
CONTINUOUS
 62
     2
 10
172.59996468044551
 20
183.6773442999372
 30
0.0
 11
222.5999646804454
 21
183.6773442999372
 31
0.0
  0
SOLID
  5
10742
  8
0
  6
CONTINUOUS
 62
     2
 10
172.59996468044551
 20
184.0940109666038
 30
0.0
 11
172.59996468044551
 21
183.26067763327049
 31
0.0
 12
170.09996468044551
 22
183.6773442999372
 32
0.0
 13
170.09996468044551
 23
183.6773442999372
 33
0.0
  0
SOLID
  5
10743
  8
0
  6
CONTINUOUS
 62
     2
 10
222.5999646804454
 20
184.0940109666038
 30
0.0
 11
222.5999646804454
 21
183.26067763327049
 31
0.0
 12
225.0999646804454
 22
183.6773442999372
 32
0.0
 13
225.0999646804454
 23
183.6773442999372
 33
0.0
  0
INSERT
  5
10744
  8
0
  6
CONTINUOUS
  2
*U226
 10
0.0
 20
0.0
 30
0.0
  0
POINT
  5
10745
  8
DEFPOINTS
  6
CONTINUOUS
 62
     0
 10
170.09996468044551
 20
152.22403151302211
 30
0.0
  0
POINT
  5
10746
  8
DEFPOINTS
  6
CONTINUOUS
 62
     0
 10
225.0999646804454
 20
164.2958322506675
 30
0.0
  0
POINT
  5
10747
  8
DEFPOINTS
  6
CONTINUOUS
 62
     0
 10
225.0999646804454
 20
183.6773442999372
 30
0.0
  0
ENDBLK
  5
10748
  8
0
  0
BLOCK
  8
0
  2
*D111
 70
     1
 10
0.0
 20
0.0
 30
0.0
  3
*D111
  1

  0
LINE
  5
1074B
  8
0
  6
CONTINUOUS
 62
     2
 10
159.36983766152309
 20
173.474031513022
 30
0.0
 11
265.21194271374247
 21
173.474031513022
 31
0.0
  0
LINE
  5
1074C
  8
0
  6
CONTINUOUS
 62
     2
 10
159.36983766152309
 20
98.474031513022027
 30
0.0
 11
265.21194271374247
 21
98.474031513021998
 31
0.0
  0
LINE
  5
1074D
  8
0
  6
CONTINUOUS
 62
     2
 10
264.21194271374247
 20
170.974031513022
 30
0.0
 11
264.21194271374247
 21
100.974031513022
 31
0.0
  0
SOLID
  5
1074E
  8
0
  6
CONTINUOUS
 62
     2
 10
263.7952760470759
 20
170.974031513022
 30
0.0
 11
264.62860938040922
 21
170.974031513022
 31
0.0
 12
264.21194271374247
 22
173.474031513022
 32
0.0
 13
264.21194271374247
 23
173.474031513022
 33
0.0
  0
SOLID
  5
1074F
  8
0
  6
CONTINUOUS
 62
     2
 10
263.79527604707579
 20
100.974031513022
 30
0.0
 11
264.6286093804091
 21
100.974031513022
 31
0.0
 12
264.21194271374247
 22
98.474031513021998
 32
0.0
 13
264.21194271374247
 23
98.474031513021998
 33
0.0
  0
INSERT
  5
10750
  8
0
  6
CONTINUOUS
  2
*U227
 10
0.0
 20
0.0
 30
0.0
  0
POINT
  5
10751
  8
DEFPOINTS
  6
CONTINUOUS
 62
     0
 10
158.76983766152321
 20
173.474031513022
 30
0.0
  0
POINT
  5
10752
  8
DEFPOINTS
  6
CONTINUOUS
 62
     0
 10
158.76983766152321
 20
98.474031513022027
 30
0.0
  0
POINT
  5
10753
  8
DEFPOINTS
  6
CONTINUOUS
 62
     0
 10
264.21194271374247
 20
98.474031513021998
 30
0.0
  0
ENDBLK
  5
10754
  8
0
  0
BLOCK
  8
0
  2
*D112
 70
     1
 10
0.0
 20
0.0
 30
0.0
  3
*D112
  1

  0
LINE
  5
10757
  8
0
  6
CONTINUOUS
 62
     2
 10
114.9999646804454
 20
185.97403151302211
 30
0.0
 11
40.42298010532263
 21
185.9740315130222
 31
0.0
  0
LINE
  5
10758
  8
0
  6
CONTINUOUS
 62
     2
 10
114.9999646804454
 20
85.974031513022155
 30
0.0
 11
40.422980105322608
 21
85.974031513022183
 31
0.0
  0
LINE
  5
10759
  8
0
  6
CONTINUOUS
 62
     2
 10
41.42298010532263
 20
183.4740315130222
 30
0.0
 11
41.422980105322601
 21
88.474031513022183
 31
0.0
  0
SOLID
  5
1075A
  8
0
  6
CONTINUOUS
 62
     2
 10
41.006313438655958
 20
183.4740315130222
 30
0.0
 11
41.839646771989287
 21
183.4740315130222
 31
0.0
 12
41.42298010532263
 22
185.9740315130222
 32
0.0
 13
41.42298010532263
 23
185.9740315130222
 33
0.0
  0
SOLID
  5
1075B
  8
0
  6
CONTINUOUS
 62
     2
 10
41.006313438655937
 20
88.474031513022183
 30
0.0
 11
41.839646771989273
 21
88.474031513022183
 31
0.0
 12
41.422980105322601
 22
85.974031513022183
 32
0.0
 13
41.422980105322601
 23
85.974031513022183
 33
0.0
  0
INSERT
  5
1075C
  8
0
  6
CONTINUOUS
  2
*U228
 10
0.0
 20
0.0
 30
0.0
  0
POINT
  5
1075D
  8
DEFPOINTS
  6
CONTINUOUS
 62
     0
 10
115.5999646804454
 20
185.97403151302211
 30
0.0
  0
POINT
  5
1075E
  8
DEFPOINTS
  6
CONTINUOUS
 62
     0
 10
115.5999646804454
 20
85.974031513022155
 30
0.0
  0
POINT
  5
1075F
  8
DEFPOINTS
  6
CONTINUOUS
 62
     0
 10
41.422980105322601
 20
85.974031513022183
 30
0.0
  0
ENDBLK
  5
10760
  8
0
  0
BLOCK
  8
0
  2
*D114
 70
     1
 10
0.0
 20
0.0
 30
0.0
  3
*D114
  1

  0
LINE
  5
10E50
  8
0
  6
CONTINUOUS
 62
     2
 10
170.09996468044551
 20
152.82403151302211
 30
0.0
 11
170.09996468044551
 21
184.6773442999372
 31
0.0
  0
LINE
  5
10E51
  8
0
  6
CONTINUOUS
 62
     2
 10
225.0999646804454
 20
164.8958322506675
 30
0.0
 11
225.0999646804454
 21
184.6773442999372
 31
0.0
  0
LINE
  5
10E52
  8
0
  6
CONTINUOUS
 62
     2
 10
172.59996468044551
 20
183.6773442999372
 30
0.0
 11
222.5999646804454
 21
183.6773442999372
 31
0.0
  0
SOLID
  5
10E53
  8
0
  6
CONTINUOUS
 62
     2
 10
172.59996468044551
 20
184.0940109666038
 30
0.0
 11
172.59996468044551
 21
183.26067763327049
 31
0.0
 12
170.09996468044551
 22
183.6773442999372
 32
0.0
 13
170.09996468044551
 23
183.6773442999372
 33
0.0
  0
SOLID
  5
10E54
  8
0
  6
CONTINUOUS
 62
     2
 10
222.5999646804454
 20
184.0940109666038
 30
0.0
 11
222.5999646804454
 21
183.26067763327049
 31
0.0
 12
225.0999646804454
 22
183.6773442999372
 32
0.0
 13
225.0999646804454
 23
183.6773442999372
 33
0.0
  0
TEXT
  8
0
  40
3
  5
10F6F
  62
3
  72
0
  71
0
 10
197.600
 20
181.877
 30
0.000000
  1
55
  0
POINT
  5
10E56
  8
DEFPOINTS
  6
CONTINUOUS
 62
     0
 10
170.09996468044551
 20
152.22403151302211
 30
0.0
  0
POINT
  5
10E57
  8
DEFPOINTS
  6
CONTINUOUS
 62
     0
 10
225.0999646804454
 20
164.2958322506675
 30
0.0
  0
POINT
  5
10E58
  8
DEFPOINTS
  6
CONTINUOUS
 62
     0
 10
225.0999646804454
 20
183.6773442999372
 30
0.0
  0
ENDBLK
  5
10AF3
  8
0
  0
BLOCK
  8
0
  2
*D115
 70
     1
 10
0.0
 20
0.0
 30
0.0
  3
*D115
  1

  0
LINE
  5
10E59
  8
0
  6
CONTINUOUS
 62
     2
 10
159.36983766152309
 20
173.474031513022
 30
0.0
 11
265.21194271374247
 21
173.474031513022
 31
0.0
  0
LINE
  5
10E5A
  8
0
  6
CONTINUOUS
 62
     2
 10
159.36983766152309
 20
98.474031513022027
 30
0.0
 11
265.21194271374247
 21
98.474031513021998
 31
0.0
  0
LINE
  5
10E5B
  8
0
  6
CONTINUOUS
 62
     2
 10
264.21194271374247
 20
170.974031513022
 30
0.0
 11
264.21194271374247
 21
100.974031513022
 31
0.0
  0
SOLID
  5
10E5C
  8
0
  6
CONTINUOUS
 62
     2
 10
263.7952760470759
 20
170.974031513022
 30
0.0
 11
264.62860938040922
 21
170.974031513022
 31
0.0
 12
264.21194271374247
 22
173.474031513022
 32
0.0
 13
264.21194271374247
 23
173.474031513022
 33
0.0
  0
SOLID
  5
10E5D
  8
0
  6
CONTINUOUS
 62
     2
 10
263.79527604707579
 20
100.974031513022
 30
0.0
 11
264.6286093804091
 21
100.974031513022
 31
0.0
 12
264.21194271374247
 22
98.474031513021998
 32
0.0
 13
264.21194271374247
 23
98.474031513021998
 33
0.0
  0
TEXT
  8
0
  40
3
  5
10F70
  62
3
  72
0
  71
0
 10
262.112
 20
132.074
 30
0.000000
  1
75
  0
POINT
  5
10E5F
  8
DEFPOINTS
  6
CONTINUOUS
 62
     0
 10
158.76983766152321
 20
173.474031513022
 30
0.0
  0
POINT
  5
10E60
  8
DEFPOINTS
  6
CONTINUOUS
 62
     0
 10
158.76983766152321
 20
98.474031513022027
 30
0.0
  0
POINT
  5
10E61
  8
DEFPOINTS
  6
CONTINUOUS
 62
     0
 10
264.21194271374247
 20
98.474031513021998
 30
0.0
  0
ENDBLK
  5
10AFF
  8
0
  0
BLOCK
  8
0
  2
*D116
 70
     1
 10
0.0
 20
0.0
 30
0.0
  3
*D116
  1

  0
LINE
  5
10E62
  8
0
  6
CONTINUOUS
 62
     2
 10
114.9999646804454
 20
185.97403151302211
 30
0.0
 11
40.42298010532263
 21
185.9740315130222
 31
0.0
  0
LINE
  5
10E63
  8
0
  6
CONTINUOUS
 62
     2
 10
114.9999646804454
 20
85.974031513022155
 30
0.0
 11
40.422980105322608
 21
85.974031513022183
 31
0.0
  0
LINE
  5
10E64
  8
0
  6
CONTINUOUS
 62
     2
 10
41.42298010532263
 20
183.4740315130222
 30
0.0
 11
41.422980105322601
 21
88.474031513022183
 31
0.0
  0
SOLID
  5
10E65
  8
0
  6
CONTINUOUS
 62
     2
 10
41.006313438655958
 20
183.4740315130222
 30
0.0
 11
41.839646771989287
 21
183.4740315130222
 31
0.0
 12
41.42298010532263
 22
185.9740315130222
 32
0.0
 13
41.42298010532263
 23
185.9740315130222
 33
0.0
  0
SOLID
  5
10E66
  8
0
  6
CONTINUOUS
 62
     2
 10
41.006313438655937
 20
88.474031513022183
 30
0.0
 11
41.839646771989273
 21
88.474031513022183
 31
0.0
 12
41.422980105322601
 22
85.974031513022183
 32
0.0
 13
41.422980105322601
 23
85.974031513022183
 33
0.0
  0
TEXT
  8
0
  40
3
  5
10F71
  62
3
  72
0
  71
0
 10
39.3230
 20
132.074
 30
0.000000
  1
HSK100A
  0
POINT
  5
10E68
  8
DEFPOINTS
  6
CONTINUOUS
 62
     0
 10
115.5999646804454
 20
185.97403151302211
 30
0.0
  0
POINT
  5
10E69
  8
DEFPOINTS
  6
CONTINUOUS
 62
     0
 10
115.5999646804454
 20
85.974031513022155
 30
0.0
  0
POINT
  5
10E6A
  8
DEFPOINTS
  6
CONTINUOUS
 62
     0
 10
41.422980105322601
 20
85.974031513022183
 30
0.0
  0
ENDBLK
  5
10B0B
  8
0
  0
BLOCK
  8
0
  2
*D117
 70
     1
 10
0.0
 20
0.0
 30
0.0
  3
*D117
  1

  0
LINE
  5
10E23
  8
0
  6
CONTINUOUS
 62
     2
 10
115.0999646804454
 20
85.874031513022175
 30
0.0
 11
115.0999646804454
 21
73.183891839882506
 31
0.0
  0
LINE
  5
10E24
  8
0
  6
CONTINUOUS
 62
     2
 10
225.09996468044559
 20
107.0522307753767
 30
0.0
 11
225.09996468044559
 21
73.183891839882506
 31
0.0
  0
LINE
  5
10E25
  8
0
  6
CONTINUOUS
 62
     2
 10
117.5999646804454
 20
74.183891839882506
 30
0.0
 11
222.59996468044559
 21
74.183891839882506
 31
0.0
  0
SOLID
  5
10E26
  8
0
  6
CONTINUOUS
 62
     2
 10
117.5999646804454
 20
74.600558506549163
 30
0.0
 11
117.5999646804454
 21
73.767225173215834
 31
0.0
 12
115.0999646804454
 22
74.183891839882506
 32
0.0
 13
115.0999646804454
 23
74.183891839882506
 33
0.0
  0
SOLID
  5
10E27
  8
0
  6
CONTINUOUS
 62
     2
 10
222.59996468044559
 20
74.600558506549163
 30
0.0
 11
222.59996468044559
 21
73.767225173215834
 31
0.0
 12
225.09996468044559
 22
74.183891839882506
 32
0.0
 13
225.09996468044559
 23
74.183891839882506
 33
0.0
  0
TEXT
  8
0
  40
3
  5
10F72
  62
3
  72
0
  71
0
 10
170.100
 20
72.3839
 30
0.000000
  1
110
  0
POINT
  5
10E29
  8
DEFPOINTS
  6
CONTINUOUS
 62
     0
 10
115.0999646804454
 20
86.474031513022169
 30
0.0
  0
POINT
  5
10E2A
  8
DEFPOINTS
  6
CONTINUOUS
 62
     0
 10
225.09996468044559
 20
107.65223077537669
 30
0.0
  0
POINT
  5
10E2B
  8
DEFPOINTS
  6
CONTINUOUS
 62
     0
 10
225.09996468044559
 20
74.183891839882506
 30
0.0
  0
ENDBLK
  5
10B17
  8
0
  0
BLOCK
  8
0
  2
*D118
 70
     1
 10
0.0
 20
0.0
 30
0.0
  3
*D118
  1

  0
LINE
  5
10E2C
  8
0
  6
CONTINUOUS
 62
     2
 10
65.099964680445396
 20
101.7737966638
 30
0.0
 11
65.099964680445396
 21
65.183891839882534
 31
0.0
  0
LINE
  5
10E2D
  8
0
  6
CONTINUOUS
 62
     2
 10
225.09996468044559
 20
107.0522307753767
 30
0.0
 11
225.09996468044559
 21
65.183891839882534
 31
0.0
  0
LINE
  5
10E2E
  8
0
  6
CONTINUOUS
 62
     2
 10
67.599964680445396
 20
66.183891839882534
 30
0.0
 11
222.59996468044559
 21
66.183891839882534
 31
0.0
  0
SOLID
  5
10E2F
  8
0
  6
CONTINUOUS
 62
     2
 10
67.599964680445396
 20
66.600558506549206
 30
0.0
 11
67.599964680445396
 21
65.767225173215863
 31
0.0
 12
65.099964680445396
 22
66.183891839882534
 32
0.0
 13
65.099964680445396
 23
66.183891839882534
 33
0.0
  0
SOLID
  5
10E30
  8
0
  6
CONTINUOUS
 62
     2
 10
222.59996468044559
 20
66.600558506549206
 30
0.0
 11
222.59996468044559
 21
65.767225173215863
 31
0.0
 12
225.09996468044559
 22
66.183891839882534
 32
0.0
 13
225.09996468044559
 23
66.183891839882534
 33
0.0
  0
TEXT
  8
0
  40
3
  5
10F73
  62
3
  72
0
  71
0
 10
145.100
 20
64.3839
 30
0.000000
  1
160
  0
POINT
  5
10E32
  8
DEFPOINTS
  6
CONTINUOUS
 62
     0
 10
65.099964680445396
 20
102.37379666379999
 30
0.0
  0
POINT
  5
10E33
  8
DEFPOINTS
  6
CONTINUOUS
 62
     0
 10
225.09996468044559
 20
107.65223077537669
 30
0.0
  0
POINT
  5
10E34
  8
DEFPOINTS
  6
CONTINUOUS
 62
     0
 10
225.09996468044559
 20
66.183891839882534
 30
0.0
  0
ENDBLK
  5
10B23
  8
0
  0
BLOCK
  8
0
  2
*D119
 70
     1
 10
0.0
 20
0.0
 30
0.0
  3
*D119
  1

  0
LINE
  5
10E35
  8
0
  6
CONTINUOUS
 62
     2
 10
214.3574010412103
 20
103.9740315130221
 30
0.0
 11
257.21194271374242
 21
103.9740315130221
 31
0.0
  0
LINE
  5
10E36
  8
0
  6
CONTINUOUS
 62
     2
 10
214.35740104120981
 20
167.97403151302211
 30
0.0
 11
257.21194271374247
 21
167.97403151302211
 31
0.0
  0
LINE
  5
10E37
  8
0
  6
CONTINUOUS
 62
     2
 10
256.21194271374242
 20
106.4740315130221
 30
0.0
 11
256.21194271374247
 21
165.47403151302211
 31
0.0
  0
SOLID
  5
10E38
  8
0
  6
CONTINUOUS
 62
     2
 10
255.79527604707579
 20
106.4740315130221
 30
0.0
 11
256.6286093804091
 21
106.4740315130221
 31
0.0
 12
256.21194271374242
 22
103.9740315130221
 32
0.0
 13
256.21194271374242
 23
103.9740315130221
 33
0.0
  0
SOLID
  5
10E39
  8
0
  6
CONTINUOUS
 62
     2
 10
255.79527604707579
 20
165.47403151302211
 30
0.0
 11
256.6286093804091
 21
165.47403151302211
 31
0.0
 12
256.21194271374247
 22
167.97403151302211
 32
0.0
 13
256.21194271374247
 23
167.97403151302211
 33
0.0
  0
TEXT
  8
0
  40
3
  5
10F74
  62
3
  72
0
  71
0
 10
254.112
 20
132.074
 30
0.000000
  1
%%C64
  0
POINT
  5
10E3B
  8
DEFPOINTS
  6
CONTINUOUS
 62
     0
 10
213.7574010412103
 20
103.9740315130221
 30
0.0
  0
POINT
  5
10E3C
  8
DEFPOINTS
  6
CONTINUOUS
 62
     0
 10
213.7574010412099
 20
167.97403151302211
 30
0.0
  0
POINT
  5
10E3D
  8
DEFPOINTS
  6
CONTINUOUS
 62
     0
 10
256.21194271374247
 20
167.97403151302211
 30
0.0
  0
ENDBLK
  5
10B2F
  8
0
  0
BLOCK
  8
0
  2
*D120
 70
     1
 10
0.0
 20
0.0
 30
0.0
  3
*D120
  1

  0
LINE
  5
10E3E
  8
0
  6
CONTINUOUS
 62
     2
 10
163.09996468044551
 20
103.0070246748775
 30
0.0
 11
163.09996468044551
 21
81.183891839882506
 31
0.0
  0
LINE
  5
10E3F
  8
0
  6
CONTINUOUS
 62
     2
 10
225.09996468044559
 20
107.0522307753767
 30
0.0
 11
225.09996468044559
 21
81.183891839882506
 31
0.0
  0
LINE
  5
10E40
  8
0
  6
CONTINUOUS
 62
     2
 10
165.59996468044551
 20
82.183891839882506
 30
0.0
 11
222.59996468044559
 21
82.183891839882506
 31
0.0
  0
SOLID
  5
10E41
  8
0
  6
CONTINUOUS
 62
     2
 10
165.59996468044551
 20
82.600558506549177
 30
0.0
 11
165.59996468044551
 21
81.767225173215834
 31
0.0
 12
163.09996468044551
 22
82.183891839882506
 32
0.0
 13
163.09996468044551
 23
82.183891839882506
 33
0.0
  0
SOLID
  5
10E42
  8
0
  6
CONTINUOUS
 62
     2
 10
222.59996468044559
 20
82.600558506549177
 30
0.0
 11
222.59996468044559
 21
81.767225173215834
 31
0.0
 12
225.09996468044559
 22
82.183891839882506
 32
0.0
 13
225.09996468044559
 23
82.183891839882506
 33
0.0
  0
TEXT
  8
0
  40
3
  5
10F75
  62
3
  72
0
  71
0
 10
194.100
 20
80.3842
 30
0.000000
  1
62
  0
POINT
  5
10E44
  8
DEFPOINTS
  6
CONTINUOUS
 62
     0
 10
163.09996468044551
 20
103.60702467487749
 30
0.0
  0
POINT
  5
10E45
  8
DEFPOINTS
  6
CONTINUOUS
 62
     0
 10
225.09996468044559
 20
107.65223077537669
 30
0.0
  0
POINT
  5
10E46
  8
DEFPOINTS
  6
CONTINUOUS
 62
     0
 10
225.09996468044559
 20
82.183891839882506
 30
0.0
  0
ENDBLK
  5
10B3B
  8
0
  0
BLOCK
  8
0
  2
*D121
 70
     1
 10
0.0
 20
0.0
 30
0.0
  3
*D121
  1

  0
LINE
  5
10E47
  8
0
  6
CONTINUOUS
 62
     2
 10
224.1999646804455
 20
120.0990315130221
 30
0.0
 11
249.2119427137425
 21
120.0990315130221
 31
0.0
  0
LINE
  5
10E48
  8
0
  6
CONTINUOUS
 62
     2
 10
224.1999646804455
 20
151.84903151302211
 30
0.0
 11
249.2119427137425
 21
151.84903151302211
 31
0.0
  0
LINE
  5
10E49
  8
0
  6
CONTINUOUS
 62
     2
 10
248.2119427137425
 20
122.5990315130221
 30
0.0
 11
248.2119427137425
 21
149.34903151302211
 31
0.0
  0
SOLID
  5
10E4A
  8
0
  6
CONTINUOUS
 62
     2
 10
247.79527604707579
 20
122.5990315130221
 30
0.0
 11
248.62860938040919
 21
122.5990315130221
 31
0.0
 12
248.2119427137425
 22
120.0990315130221
 32
0.0
 13
248.2119427137425
 23
120.0990315130221
 33
0.0
  0
SOLID
  5
10E4B
  8
0
  6
CONTINUOUS
 62
     2
 10
247.79527604707579
 20
149.34903151302211
 30
0.0
 11
248.62860938040919
 21
149.34903151302211
 31
0.0
 12
248.2119427137425
 22
151.84903151302211
 32
0.0
 13
248.2119427137425
 23
151.84903151302211
 33
0.0
  0
TEXT
  8
0
  40
3
  5
10F76
  62
3
  72
0
  71
0
 10
246.112
 20
132.074
 30
0.000000
  1
%%C31.75
  0
POINT
  5
10E4D
  8
DEFPOINTS
  6
CONTINUOUS
 62
     0
 10
223.59996468044551
 20
120.0990315130221
 30
0.0
  0
POINT
  5
10E4E
  8
DEFPOINTS
  6
CONTINUOUS
 62
     0
 10
223.59996468044551
 20
151.84903151302211
 30
0.0
  0
POINT
  5
10E4F
  8
DEFPOINTS
  6
CONTINUOUS
 62
     0
 10
248.2119427137425
 20
151.84903151302211
 30
0.0
  0
ENDBLK
  5
10B47
  8
0
  0
BLOCK
  8
0
  2
*U122
 70
     1
 10
0.0
 20
0.0
 30
0.0
  3
*U122
  1

  0
TEXT
  5
10BF9
  8
0
  6
CONTINUOUS
 62
     3
 10
689.40243374633781
 20
84.945233234075616
 30
0.0
 40
3.0
  1
\U+220545.4
 50
90.0
  0
TEXT
  5
10BFA
  8
0
  6
CONTINUOUS
 62
     3
 10
686.81078020303084
 20
95.130233234075618
 30
0.0
 40
2.1000000000000001
  1
+0.5
 50
90.0
  0
TEXT
  5
10BFB
  8
0
  6
CONTINUOUS
 62
     3
 10
689.40243374633803
 20
95.130233234075618
 30
0.0
 40
2.1000000000000001
  1
-0
 50
90.0
  0
ENDBLK
  5
10BFD
  8
0
  0
BLOCK
  8
0
  2
*U123
 70
     1
 10
0.0
 20
0.0
 30
0.0
  3
*U123
  1

  0
TEXT
  5
10BFF
  8
0
  6
CONTINUOUS
 62
     3
 10
718.58462868411425
 20
136.07128995558659
 30
0.0
 40
3.0
  1
1
  0
TEXT
  5
10C00
  8
0
  6
CONTINUOUS
 62
     3
 10
720.08462868411436
 20
136.07128995558659
 30
0.0
 40
2.1000000000000001
  1
¡¾0.05
  0
ENDBLK
  5
10C02
  8
0
  0
BLOCK
  8
0
  2
*U124
 70
     1
 10
0.0
 20
0.0
 30
0.0
  3
*U124
  1

  0
TEXT
  5
10C04
  8
0
  6
CONTINUOUS
 62
     3
 10
697.40243374633792
 20
80.314294779110213
 30
0.0
 40
3.0
  1
\U+220541.94
 50
90.0
  0
TEXT
  5
10C05
  8
0
  6
CONTINUOUS
 62
     3
 10
694.81078020303084
 20
92.009777770593047
 30
0.0
 40
2.1000000000000001
  1
+0.5
 50
90.0
  0
TEXT
  5
10C06
  8
0
  6
CONTINUOUS
 62
     3
 10
697.40243374633803
 20
92.009777770593047
 30
0.0
 40
2.1000000000000001
  1
-0
 50
90.0
  0
ENDBLK
  5
10C08
  8
0
  0
BLOCK
  8
0
  2
*U125
 70
     1
 10
0.0
 20
0.0
 30
0.0
  3
*U125
  1

  0
TEXT
  5
10C0A
  8
0
  6
CONTINUOUS
 62
     3
 10
706.61951470604674
 20
105.18352486745989
 30
0.0
 40
3.0
  1
R1
 50
317.17163387525437
  0
ENDBLK
  5
10C0C
  8
0
  0
BLOCK
  8
0
  2
*U126
 70
     1
 10
0.0
 20
0.0
 30
0.0
  3
*U126
  1

  0
TEXT
  5
10C0E
  8
0
  6
CONTINUOUS
 62
     3
 10
627.18993745504224
 20
190.347329215553
 30
0.0
 40
3.0
  1
\U+220531.5
 50
90.0
  0
TEXT
  5
10C0F
  8
0
  6
CONTINUOUS
 62
     3
 10
624.59828391173517
 20
199.33232921555299
 30
0.0
 40
2.1000000000000001
  1
+0
 50
90.0
  0
TEXT
  5
10C10
  8
0
  6
CONTINUOUS
 62
     3
 10
627.18993745504235
 20
199.33232921555299
 30
0.0
 40
2.1000000000000001
  1
-0.1
 50
90.0
  0
ENDBLK
  5
10C12
  8
0
  0
BLOCK
  8
0
  2
*U127
 70
     1
 10
0.0
 20
0.0
 30
0.0
  3
*U127
  1

  0
TEXT
  5
10C14
  8
0
  6
CONTINUOUS
 62
     3
 10
580.42818745594593
 20
178.79483175550391
 30
0.0
 40
3.0
  1
53
  0
ENDBLK
  5
10C16
  8
0
  0
BLOCK
  8
0
  2
*U128
 70
     1
 10
0.0
 20
0.0
 30
0.0
  3
*U128
  1

  0
TEXT
  5
10C18
  8
0
  6
CONTINUOUS
 62
     3
 10
592.39031949030175
 20
186.79483175550399
 30
0.0
 40
3.0
  1
17.8
  0
ENDBLK
  5
10C1A
  8
0
  0
BLOCK
  8
0
  2
*U129
 70
     1
 10
0.0
 20
0.0
 30
0.0
  3
*U129
  1

  0
TEXT
  5
10C1C
  8
0
  6
CONTINUOUS
 62
     3
 10
580.05023090762484
 20
186.79483175550399
 30
0.0
 40
3.0
  1
8.2
  0
ENDBLK
  5
10C1E
  8
0
  0
BLOCK
  8
0
  2
*U130
 70
     1
 10
0.0
 20
0.0
 30
0.0
  3
*U130
  1

  0
TEXT
  5
10C20
  8
0
  6
CONTINUOUS
 62
     3
 10
614.24031949030189
 20
186.79483175550399
 30
0.0
 40
3.0
  1
4.5
  0
ENDBLK
  5
10C22
  8
0
  0
BLOCK
  8
0
  2
*U131
 70
     1
 10
0.0
 20
0.0
 30
0.0
  3
*U131
  1

  0
TEXT
  5
10C24
  8
0
  6
CONTINUOUS
 62
     3
 10
679.88646874170615
 20
172.4812364360491
 30
0.0
 40
3.0
  1
60¡Æ
  0
ENDBLK
  5
10C26
  8
0
  0
BLOCK
  8
0
  2
*U132
 70
     1
 10
0.0
 20
0.0
 30
0.0
  3
*U132
  1

  0
TEXT
  5
10C28
  8
0
  6
CONTINUOUS
 62
     3
 10
673.18532428587901
 20
207.94456086274641
 30
0.0
 40
3.0
  1
R0.2
 50
308.95337049898291
  0
ENDBLK
  5
10C2A
  8
0
  0
BLOCK
  8
0
  2
*U133
 70
     1
 10
0.0
 20
0.0
 30
0.0
  3
*U133
  1

  0
TEXT
  5
10C2C
  8
0
  6
CONTINUOUS
 62
     3
 10
708.78588945871445
 20
171.65236618425831
 30
0.0
 40
3.0
  1
\U+220532.15
 50
90.0
  0
TEXT
  5
10C2D
  8
0
  6
CONTINUOUS
 62
     3
 10
708.78588945871445
 20
183.05236618425829
 30
0.0
 40
2.1000000000000001
  1
¡¾0.05
 50
90.0
  0
ENDBLK
  5
10C2F
  8
0
  0
BLOCK
  8
0
  2
*U134
 70
     1
 10
0.0
 20
0.0
 30
0.0
  3
*U134
  1

  0
TEXT
  5
10C31
  8
0
  6
CONTINUOUS
 62
     3
 10
614.23913838793987
 20
76.565241737905581
 30
0.0
 40
3.0
  1
(1.5)
  0
ENDBLK
  5
10C33
  8
0
  0
BLOCK
  8
0
  2
*U135
 70
     1
 10
0.0
 20
0.0
 30
0.0
  3
*U135
  1

  0
TEXT
  5
10C35
  8
0
  6
CONTINUOUS
 62
     3
 10
604.04031949030195
 20
68.415241737905575
 30
0.0
 40
3.0
  1
8
  0
ENDBLK
  5
10C37
  8
0
  0
BLOCK
  8
0
  2
*U136
 70
     1
 10
0.0
 20
0.0
 30
0.0
  3
*U136
  1

  0
TEXT
  5
10C39
  8
0
  6
CONTINUOUS
 62
     3
 10
524.53215134216725
 20
109.9058898395743
 30
0.0
 40
3.0
  1
\U+220537.2
 50
90.0
  0
TEXT
  5
10C3A
  8
0
  6
CONTINUOUS
 62
     3
 10
521.85433972241526
 20
119.49088983957429
 30
0.0
 40
2.1000000000000001
  1
+0
 50
90.0
  0
TEXT
  5
10C3B
  8
0
  6
CONTINUOUS
 62
     3
 10
524.53215134216725
 20
119.49088983957429
 30
0.0
 40
2.1000000000000001
  1
-0.05
 50
90.0
  0
ENDBLK
  5
10C3D
  8
0
  0
BLOCK
  8
0
  2
*U137
 70
     1
 10
0.0
 20
0.0
 30
0.0
  3
*U137
  1

  0
TEXT
  5
10C3F
  8
0
  6
CONTINUOUS
 62
     3
 10
540.53215134216725
 20
113.0522502292675
 30
0.0
 40
3.0
  1
\U+220532.5
 50
90.0
  0
ENDBLK
  5
10C41
  8
0
  0
BLOCK
  8
0
  2
*U138
 70
     1
 10
0.0
 20
0.0
 30
0.0
  3
*U138
  1

  0
TEXT
  5
10C43
  8
0
  6
CONTINUOUS
 62
     3
 10
532.53215134216725
 20
111.3863202557495
 30
0.0
 40
3.0
  1
\U+220535
 50
90.0
  0
TEXT
  5
10C44
  8
0
  6
CONTINUOUS
 62
     3
 10
529.83591118468689
 20
117.9713202557495
 30
0.0
 40
2.1000000000000001
  1
-0.01
 50
90.0
  0
TEXT
  5
10C45
  8
0
  6
CONTINUOUS
 62
     3
 10
532.53215134216725
 20
117.9713202557495
 30
0.0
 40
2.1000000000000001
  1
-0.02
 50
90.0
  0
ENDBLK
  5
10C47
  8
0
  0
BLOCK
  8
0
  2
*U139
 70
     1
 10
0.0
 20
0.0
 30
0.0
  3
*U139
  1

  0
TEXT
  5
10C49
  8
0
  6
CONTINUOUS
 62
     3
 10
637.9522975235991
 20
104.9706264335064
 30
0.0
 40
3.0
  1
\U+220531.75
 50
90.0
  0
TEXT
  5
10C4A
  8
0
  6
CONTINUOUS
 62
     3
 10
635.25605736611874
 20
116.0556264335064
 30
0.0
 40
2.1000000000000001
  1
+0.009
 50
90.0
  0
TEXT
  5
10C4B
  8
0
  6
CONTINUOUS
 62
     3
 10
637.9522975235991
 20
116.0556264335064
 30
0.0
 40
2.1000000000000001
  1
+0.002
 50
90.0
  0
TEXT
  5
10C4C
  8
0
  6
CONTINUOUS
 62
     3
 10
637.9522975235991
 20
124.184319196103
 30
0.0
 40
3.0
  1
(Á¤»è)
 50
90.0
  0
ENDBLK
  5
10C4E
  8
0
  0
BLOCK
  8
0
  2
*U140
 70
     1
 10
0.0
 20
0.0
 30
0.0
  3
*U140
  1

  0
TEXT
  5
10C50
  8
0
  6
CONTINUOUS
 62
     3
 10
646.10229752359885
 20
111.68632025574949
 30
0.0
 40
3.0
  1
\U+220551
 50
90.0
  0
TEXT
  5
10C51
  8
0
  6
CONTINUOUS
 62
     3
 10
643.40605736611849
 20
117.67132025574951
 30
0.0
 40
2.1000000000000001
  1
-0.01
 50
90.0
  0
TEXT
  5
10C52
  8
0
  6
CONTINUOUS
 62
     3
 10
646.10229752359885
 20
117.67132025574951
 30
0.0
 40
2.1000000000000001
  1
-0.02
 50
90.0
  0
ENDBLK
  5
10C54
  8
0
  0
BLOCK
  8
0
  2
*U141
 70
     1
 10
0.0
 20
0.0
 30
0.0
  3
*U141
  1

  0
TEXT
  5
10C56
  8
0
  6
CONTINUOUS
 62
     3
 10
622.10229752359885
 20
113.1143822636235
 30
0.0
 40
3.0
  1
\U+220530.8
 50
90.0
  0
ENDBLK
  5
10C58
  8
0
  0
BLOCK
  8
0
  2
*U142
 70
     1
 10
0.0
 20
0.0
 30
0.0
  3
*U142
  1

  0
TEXT
  5
10C5A
  8
0
  6
CONTINUOUS
 62
     3
 10
629.95229752359899
 20
104.130237578584
 30
0.0
 40
3.0
  1
\U+220531.75
 50
90.0
  0
TEXT
  5
10C5B
  8
0
  6
CONTINUOUS
 62
     3
 10
627.25605736611863
 20
115.215237578584
 30
0.0
 40
2.1000000000000001
  1
-0.03
 50
90.0
  0
TEXT
  5
10C5C
  8
0
  6
CONTINUOUS
 62
     3
 10
629.95229752359899
 20
115.215237578584
 30
0.0
 40
2.1000000000000001
  1
-0.02
 50
90.0
  0
TEXT
  5
10C5D
  8
0
  6
CONTINUOUS
 62
     3
 10
629.95229752359899
 20
121.849708051025
 30
0.0
 40
3.0
  1
(È²»è)
 50
90.0
  0
ENDBLK
  5
10C5F
  8
0
  0
BLOCK
  8
0
  2
*U143
 70
     1
 10
0.0
 20
0.0
 30
0.0
  3
*U143
  1

  0
TEXT
  5
10C61
  8
0
  6
CONTINUOUS
 62
     3
 10
562.74087949790794
 20
110.74438226362351
 30
0.0
 40
3.0
  1
\U+220534.2
 50
90.0
  0
TEXT
  5
10C62
  8
0
  6
CONTINUOUS
 62
     3
 10
560.14922595460087
 20
120.6293822636235
 30
0.0
 40
2.1000000000000001
  1
+0.1
 50
90.0
  0
TEXT
  5
10C63
  8
0
  6
CONTINUOUS
 62
     3
 10
562.74087949790805
 20
120.6293822636235
 30
0.0
 40
2.1000000000000001
  1
-0
 50
90.0
  0
ENDBLK
  5
10C65
  8
0
  0
BLOCK
  8
0
  2
*U144
 70
     1
 10
0.0
 20
0.0
 30
0.0
  3
*U144
  1

  0
TEXT
  5
10C67
  8
0
  6
CONTINUOUS
 62
     3
 10
577.48481851984752
 20
109.9058898395743
 30
0.0
 40
3.0
  1
\U+220537.2
 50
90.0
  0
TEXT
  5
10C68
  8
0
  6
CONTINUOUS
 62
     3
 10
574.80700690009564
 20
119.49088983957439
 30
0.0
 40
2.1000000000000001
  1
+0
 50
90.0
  0
TEXT
  5
10C69
  8
0
  6
CONTINUOUS
 62
     3
 10
577.48481851984764
 20
119.49088983957439
 30
0.0
 40
2.1000000000000001
  1
-0.05
 50
90.0
  0
ENDBLK
  5
10C6B
  8
0
  0
BLOCK
  8
0
  2
*U145
 70
     1
 10
0.0
 20
0.0
 30
0.0
  3
*U145
  1

  0
TEXT
  5
10C6D
  8
0
  6
CONTINUOUS
 62
     3
 10
575.26795123547356
 20
60.415241737905582
 30
0.0
 40
3.0
  1
60.5
  0
ENDBLK
  5
10C6F
  8
0
  0
BLOCK
  8
0
  2
*U146
 70
     1
 10
0.0
 20
0.0
 30
0.0
  3
*U146
  1

  0
TEXT
  5
10C71
  8
0
  6
CONTINUOUS
 62
     3
 10
570.20475748242791
 20
68.415241737905575
 30
0.0
 40
3.0
  1
47.5
  0
TEXT
  5
10C72
  8
0
  6
CONTINUOUS
 62
     3
 10
577.70475748242791
 20
68.415241737905575
 30
0.0
 40
2.1000000000000001
  1
¡¾0.02
  0
ENDBLK
  5
10C74
  8
0
  0
BLOCK
  8
0
  2
*U147
 70
     1
 10
0.0
 20
0.0
 30
0.0
  3
*U147
  1

  0
TEXT
  5
10C76
  8
0
  6
CONTINUOUS
 62
     3
 10
541.21605542158989
 20
68.415241737905575
 30
0.0
 40
3.0
  1
5
  0
ENDBLK
  5
10C78
  8
0
  0
BLOCK
  8
0
  2
*U148
 70
     1
 10
0.0
 20
0.0
 30
0.0
  3
*U148
  1

  0
TEXT
  5
10C7A
  8
0
  6
CONTINUOUS
 62
     3
 10
543.21605542159011
 20
76.415241737905575
 30
0.0
 40
3.0
  1
2.5
  0
ENDBLK
  5
10C7C
  8
0
  0
BLOCK
  8
0
  2
*U149
 70
     1
 10
0.0
 20
0.0
 30
0.0
  3
*U149
  1

  0
TEXT
  5
10C7E
  8
0
  6
CONTINUOUS
 62
     3
 10
558.59087949790751
 20
76.565241737905581
 30
0.0
 40
3.0
  1
(14.3)
  0
ENDBLK
  5
10C80
  8
0
  0
BLOCK
  8
0
  2
*U150
 70
     1
 10
0.0
 20
0.0
 30
0.0
  3
*U150
  1

  0
TEXT
  5
10C82
  8
0
  6
CONTINUOUS
 62
     3
 10
556.87488707385853
 20
84.415241737905575
 30
0.0
 40
3.0
  1
11.3
  0
TEXT
  5
10C83
  8
0
  6
CONTINUOUS
 62
     3
 10
562.87488707385853
 20
84.415241737905575
 30
0.0
 40
2.1000000000000001
  1
¡¾0.05
  0
ENDBLK
  5
10C85
  8
0
  0
BLOCK
  8
0
  2
*U151
 70
     1
 10
0.0
 20
0.0
 30
0.0
  3
*U151
  1

  0
TEXT
  5
10C87
  8
0
  6
CONTINUOUS
 62
     3
 10
588.02432706625279
 20
84.489812000764488
 30
0.0
 40
3.0
  1
12.8
  0
TEXT
  5
10C88
  8
0
  6
CONTINUOUS
 62
     3
 10
594.6243270662527
 20
84.489812000764488
 30
0.0
 40
2.1000000000000001
  1
¡¾0.05
  0
ENDBLK
  5
10C8A
  8
0
  0
BLOCK
  8
0
  2
*U152
 70
     1
 10
0.0
 20
0.0
 30
0.0
  3
*U152
  1

  0
TEXT
  5
10C8C
  8
0
  6
CONTINUOUS
 62
     3
 10
589.29031949030195
 20
76.565241737905581
 30
0.0
 40
3.0
  1
(14.3)
  0
ENDBLK
  5
10C8E
  8
0
  0
BLOCK
  8
0
  2
*U153
 70
     1
 10
0.0
 20
0.0
 30
0.0
  3
*U153
  1

  0
TEXT
  5
10C90
  8
0
  6
CONTINUOUS
 62
     3
 10
589.03005494658055
 20
155.39352881120479
 30
0.0
 40
3.0
  1
R0.5
 50
317.48563983457069
  0
TEXT
  5
10C91
  8
0
  6
CONTINUOUS
 62
     3
 10
596.07755044784199
 20
152.4484141702724
 30
0.0
 40
2.1000000000000001
  1
+0.1
 50
317.48563983457069
  0
TEXT
  5
10C92
  8
0
  6
CONTINUOUS
 62
     3
 10
594.32617584766763
 20
150.5380856387365
 30
0.0
 40
2.1000000000000001
  1
-0
 50
317.48563983457069
  0
ENDBLK
  5
10C94
  8
0
  0
BLOCK
  8
0
  2
*U154
 70
     1
 10
0.0
 20
0.0
 30
0.0
  3
*U154
  1

  0
TEXT
  5
10C96
  8
0
  6
CONTINUOUS
 62
     3
 10
571.85023090762479
 20
186.79483175550399
 30
0.0
 40
3.0
  1
8.2
  0
ENDBLK
  5
10C98
  8
0
  0
BLOCK
  8
0
  2
*U155
 70
     1
 10
0.0
 20
0.0
 30
0.0
  3
*U155
  1

  0
TEXT
  5
10C9A
  8
0
  6
CONTINUOUS
 62
     3
 10
611.16340164727285
 20
131.0981454089212
 30
0.0
 40
3.0
  1
R1.5
 50
314.2895047080363
  0
ENDBLK
  5
10C9C
  8
0
  0
BLOCK
  8
0
  2
*U156
 70
     1
 10
0.0
 20
0.0
 30
0.0
  3
*U156
  1

  0
TEXT
  5
10C9E
  8
0
  6
CONTINUOUS
 62
     3
 10
540.6120084396357
 20
139.66617319251631
 30
0.0
 40
3.0
  1
45¡Æ
 50
67.500000000004476
  0
ENDBLK
  5
10CA0
  8
0
  0
BLOCK
  8
0
  2
*U157
 70
     1
 10
0.0
 20
0.0
 30
0.0
  3
*U157
  1

  0
TEXT
  5
10CA2
  8
0
  6
CONTINUOUS
 62
     3
 10
557.740319490302
 20
152.43699045162569
 30
0.0
 40
3.0
  1
4
  0
ENDBLK
  5
10CA4
  8
0
  0
BLOCK
  8
0
  2
*U158
 70
     1
 10
0.0
 20
0.0
 30
0.0
  3
*U158
  1

  0
TEXT
  5
10CA6
  8
0
  6
CONTINUOUS
 62
     3
 10
586.47448678684441
 20
146.73573400275919
 30
0.0
 40
3.0
  1
45¡Æ
 50
292.49999999999932
  0
ENDBLK
  5
10CA8
  8
0
  0
BLOCK
  8
0
  2
*U159
 70
     1
 10
0.0
 20
0.0
 30
0.0
  3
*U159
  1

  0
TEXT
  5
10CAA
  8
0
  6
CONTINUOUS
 62
     3
 10
701.56913097179324
 20
134.4329006590161
 30
0.0
 40
3.0
  1
30¡Æ
 50
15.000000000000259
  0
ENDBLK
  5
10CAC
  8
0
  0
BLOCK
  8
0
  2
*U160
 70
     1
 10
0.0
 20
0.0
 30
0.0
  3
*U160
  1

  0
TEXT
  5
10CAE
  8
0
  6
CONTINUOUS
 62
     3
 10
559.72818745594589
 20
186.79483175550399
 30
0.0
 40
3.0
  1
14.3
  0
ENDBLK
  5
10CB0
  8
0
  0
BLOCK
  8
0
  2
*U161
 70
     1
 10
0.0
 20
0.0
 30
0.0
  3
*U161
  1

  0
TEXT
  5
10CB2
  8
0
  6
CONTINUOUS
 62
     3
 10
318.54112939102163
 20
201.10627229884969
 30
0.0
 40
3.0
  1
2
  0
ENDBLK
  5
10CB4
  8
0
  0
BLOCK
  8
0
  2
*U162
 70
     1
 10
0.0
 20
0.0
 30
0.0
  3
*U162
  1

  0
TEXT
  5
10CB6
  8
0
  6
CONTINUOUS
 62
     3
 10
308.03099538816173
 20
201.10627229884969
 30
0.0
 40
3.0
  1
5
  0
ENDBLK
  5
10CB8
  8
0
  0
BLOCK
  8
0
  2
*U163
 70
     1
 10
0.0
 20
0.0
 30
0.0
  3
*U163
  1

  0
TEXT
  5
10CBA
  8
0
  6
CONTINUOUS
 62
     3
 10
297.54112939102163
 20
200.70627229884971
 30
0.0
 40
3.0
  1
2
  0
ENDBLK
  5
10CBC
  8
0
  0
BLOCK
  8
0
  2
*X164
 70
     1
 10
0.0
 20
0.0
 30
0.0
  3
*X164
  1

  0
LINE
  5
10CC1
  8
0
  6
CONTINUOUS
 62
     0
 10
321.7755324779119
 20
187.42524405246769
 30
0.0
 11
325.2106607424098
 21
190.86037231696571
 31
0.0
  0
LINE
  5
10CC2
  8
0
  6
CONTINUOUS
 62
     0
 10
325.2106607424098
 20
190.86037231696571
 30
0.0
 11
327.80079999473969
 21
193.45051156929571
 31
0.0
  0
LINE
  5
10CC3
  8
0
  6
CONTINUOUS
 62
     0
 10
320.83264584821552
 20
186.4823574227714
 30
0.0
 11
321.77553247791172
 21
187.4252440524676
 31
0.0
  0
LINE
  5
10CC4
  8
0
  6
CONTINUOUS
 62
     0
 10
318.05971604579207
 20
187.2449615262808
 30
0.0
 11
322.78142122589691
 21
191.96666670638561
 31
0.0
  0
LINE
  5
10CC5
  8
0
  6
CONTINUOUS
 62
     0
 10
323.29589814385218
 20
192.4811436243408
 30
0.0
 11
324.21924539089781
 21
193.40449087138651
 31
0.0
  0
LINE
  5
10CC6
  8
0
  6
CONTINUOUS
 62
     0
 10
316.27656621865719
 20
185.4618116991459
 30
0.0
 11
318.05971604579207
 21
187.24496152628069
 31
0.0
  0
LINE
  5
10CC7
  8
0
  6
CONTINUOUS
 62
     0
 10
315.75358604541958
 20
188.47436543184091
 30
0.0
 11
319.2297321828745
 21
191.95051156929591
 31
0.0
  0
LINE
  5
10CC8
  8
0
  6
CONTINUOUS
 62
     0
 10
312.52515369395582
 20
185.24593308037711
 30
0.0
 11
315.75358604541952
 21
188.47436543184091
 31
0.0
  0
LINE
  5
10CC9
  8
0
  6
CONTINUOUS
 62
     0
 10
314.23250926333651
 20
190.4888225556906
 30
0.0
 11
316.07618000657442
 21
192.33249329892851
 31
0.0
  0
LINE
  5
10CCA
  8
0
  6
CONTINUOUS
 62
     0
 10
308.8893681271378
 20
185.14568141949189
 30
0.0
 11
314.2325092633364
 21
190.48882255569049
 31
0.0
  0
LINE
  5
10CCB
  8
0
  6
CONTINUOUS
 62
     0
 10
305.46536560350449
 20
185.25721280179141
 30
0.0
 11
313.65866437100908
 21
193.45051156929591
 31
0.0
  0
LINE
  5
10CCC
  8
0
  6
CONTINUOUS
 62
     0
 10
302.04136307987147
 20
185.3687441840911
 30
0.0
 11
310.12313046507631
 21
193.45051156929591
 31
0.0
  0
LINE
  5
10CCD
  8
0
  6
CONTINUOUS
 62
     0
 10
298.6173605562384
 20
185.4802755663907
 30
0.0
 11
306.58759655914361
 21
193.45051156929591
 31
0.0
  0
LINE
  5
10CCE
  8
0
  6
CONTINUOUS
 62
     0
 10
302.67524185671112
 20
193.0736907727962
 30
0.0
 11
302.7252041073433
 21
193.1236530234284
 31
0.0
  0
LINE
  5
10CCF
  8
0
  6
CONTINUOUS
 62
     0
 10
295.45038022605922
 20
185.8488291421443
 30
0.0
 11
301.55206265321078
 21
191.95051156929591
 31
0.0
  0
LINE
  5
10CD0
  8
0
  6
CONTINUOUS
 62
     0
 10
292.67613782715682
 20
186.6101206491746
 30
0.0
 11
298.01652874727807
 21
191.95051156929591
 31
0.0
  0
LINE
  5
10CD1
  8
0
  6
CONTINUOUS
 62
     0
 10
289.90189542825448
 20
187.37141215620511
 30
0.0
 11
294.99814213297202
 21
192.46765886092251
 31
0.0
  0
LINE
  5
10CD2
  8
0
  6
CONTINUOUS
 62
     0
 10
287.63915709745061
 20
188.64420773133389
 30
0.0
 11
292.44546093541271
 21
193.450511569296
 31
0.0
  0
LINE
  5
10CD3
  8
0
  6
CONTINUOUS
 62
     0
 10
285.96431848301302
 20
190.50490302282901
 30
0.0
 11
288.90992702948
 21
193.450511569296
 31
0.0
  0
LINE
  5
10CD4
  8
0
  6
CONTINUOUS
 62
     0
 10
284.95235707577291
 20
193.02847552152161
 30
0.0
 11
285.37439312354718
 21
193.45051156929591
 31
0.0
  0
ENDBLK
  5
10CD6
  8
0
  0
BLOCK
  8
0
  2
*U165
 70
     1
 10
0.0
 20
0.0
 30
0.0
  3
*U165
  1

  0
TEXT
  5
10CDB
  8
0
  6
CONTINUOUS
 62
     3
 10
15.01401113422479
 20
184.9359173998802
 30
0.0
 40
3.0
  1
\U+220553
 50
90.0
  0
TEXT
  5
10CDC
  8
0
  6
CONTINUOUS
 62
     3
 10
12.4223575909177
 20
191.52091739988009
 30
0.0
 40
2.1000000000000001
  1
+0.12
 50
90.0
  0
TEXT
  5
10CDD
  8
0
  6
CONTINUOUS
 62
     3
 10
15.01401113422479
 20
191.52091739988009
 30
0.0
 40
2.1000000000000001
  1
-0
 50
90.0
  0
ENDBLK
  5
10CDF
  8
0
  0
BLOCK
  8
0
  2
*U166
 70
     1
 10
0.0
 20
0.0
 30
0.0
  3
*U166
  1

  0
TEXT
  5
10CE1
  8
0
  6
CONTINUOUS
 62
     3
 10
7.0140111342247842
 20
180.55298698370501
 30
0.0
 40
3.0
  1
\U+220575.013
 50
90.0
  0
TEXT
  5
10CE2
  8
0
  6
CONTINUOUS
 62
     3
 10
7.0140111342247851
 20
194.05298698370501
 30
0.0
 40
2.1000000000000001
  1
¡¾0.003
 50
90.0
  0
ENDBLK
  5
10CE4
  8
0
  0
BLOCK
  8
0
  2
*U167
 70
     1
 10
0.0
 20
0.0
 30
0.0
  3
*U167
  1

  0
TEXT
  5
10CE6
  8
0
  6
CONTINUOUS
 62
     3
 10
129.1062282670251
 20
130.21383973461451
 30
0.0
 40
3.0
  1
110
  0
ENDBLK
  5
10CE8
  8
0
  0
BLOCK
  8
0
  2
*U168
 70
     1
 10
0.0
 20
0.0
 30
0.0
  3
*U168
  1

  0
TEXT
  5
10CEA
  8
0
  6
CONTINUOUS
 62
     3
 10
103.80622826702511
 20
122.2138397346145
 30
0.0
 40
3.0
  1
160
  0
ENDBLK
  5
10CEC
  8
0
  0
BLOCK
  8
0
  2
*U169
 70
     1
 10
0.0
 20
0.0
 30
0.0
  3
*U169
  1

  0
TEXT
  5
10CEE
  8
0
  6
CONTINUOUS
 62
     3
 10
47.064347361513192
 20
130.21383973461451
 30
0.0
 40
3.0
  1
50
  0
TEXT
  5
10CEF
  8
0
  6
CONTINUOUS
 62
     3
 10
50.94934736151319
 20
132.91007989209481
 30
0.0
 40
2.1000000000000001
  1
+0
  0
TEXT
  5
10CF0
  8
0
  6
CONTINUOUS
 62
     3
 10
50.94934736151319
 20
130.21383973461451
 30
0.0
 40
2.1000000000000001
  1
-0.2
  0
ENDBLK
  5
10CF2
  8
0
  0
BLOCK
  8
0
  2
*U170
 70
     1
 10
0.0
 20
0.0
 30
0.0
  3
*U170
  1

  0
TEXT
  5
10CF4
  8
0
  6
CONTINUOUS
 62
     3
 10
367.82316930384042
 20
197.5627130893285
 30
0.0
 40
3.0
  1
2
  0
ENDBLK
  5
10CF6
  8
0
  0
BLOCK
  8
0
  2
*U171
 70
     1
 10
0.0
 20
0.0
 30
0.0
  3
*U171
  1

  0
TEXT
  5
10CF8
  8
0
  6
CONTINUOUS
 62
     3
 10
366.01493111486468
 20
207.2681889581585
 30
0.0
 40
3.0
  1
60¡Æ
  0
ENDBLK
  5
10CFA
  8
0
  0
BLOCK
  8
0
  2
*U172
 70
     1
 10
0.0
 20
0.0
 30
0.0
  3
*U172
  1

  0
TEXT
  5
10CFC
  8
0
  6
CONTINUOUS
 62
     3
 10
387.61731066035242
 20
177.39239155689819
 30
0.0
 40
3.0
  1
0.5
 50
90.0
  0
ENDBLK
  5
10CFE
  8
0
  0
BLOCK
  8
0
  2
*U173
 70
     1
 10
0.0
 20
0.0
 30
0.0
  3
*U173
  1

  0
TEXT
  5
10D00
  8
0
  6
CONTINUOUS
 62
     3
 10
95.845163544282101
 20
186.60397940775411
 30
0.0
 40
3.0
  1
\U+220512max
 50
90.0
  0
ENDBLK
  5
10D02
  8
0
  0
BLOCK
  8
0
  2
*U174
 70
     1
 10
0.0
 20
0.0
 30
0.0
  3
*U174
  1

  0
TEXT
  5
10D04
  8
0
  6
CONTINUOUS
 62
     3
 10
388.4053714533942
 20
98.725356997345372
 30
0.0
 40
3.0
  1
\U+220538.4
 50
90.0
  0
TEXT
  5
10D05
  8
0
  6
CONTINUOUS
 62
     3
 10
385.81371791008718
 20
108.61035699734541
 30
0.0
 40
2.1000000000000001
  1
+0.05
 50
90.0
  0
TEXT
  5
10D06
  8
0
  6
CONTINUOUS
 62
     3
 10
388.4053714533942
 20
108.61035699734541
 30
0.0
 40
2.1000000000000001
  1
-0
 50
90.0
  0
ENDBLK
  5
10D08
  8
0
  0
BLOCK
  8
0
  2
*U175
 70
     1
 10
0.0
 20
0.0
 30
0.0
  3
*U175
  1

  0
TEXT
  5
10D0A
  8
0
  6
CONTINUOUS
 62
     3
 10
396.4053714533942
 20
102.78384942139461
 30
0.0
 40
3.0
  1
\U+220540.4
 50
90.0
  0
ENDBLK
  5
10D0C
  8
0
  0
BLOCK
  8
0
  2
*U176
 70
     1
 10
0.0
 20
0.0
 30
0.0
  3
*U176
  1

  0
TEXT
  5
10D0E
  8
0
  6
CONTINUOUS
 62
     3
 10
316.65764233035651
 20
99.071717387038447
 30
0.0
 40
3.0
  1
\U+220532.5
 50
90.0
  0
ENDBLK
  5
10D10
  8
0
  0
BLOCK
  8
0
  2
*U177
 70
     1
 10
0.0
 20
0.0
 30
0.0
  3
*U177
  1

  0
TEXT
  5
10D12
  8
0
  6
CONTINUOUS
 62
     3
 10
358.41123791632992
 20
98.655787413520386
 30
0.0
 40
3.0
  1
\U+220535
 50
90.0
  0
TEXT
  5
10D13
  8
0
  6
CONTINUOUS
 62
     3
 10
355.71499775884962
 20
105.24078741352039
 30
0.0
 40
2.1000000000000001
  1
+0.05
 50
90.0
  0
TEXT
  5
10D14
  8
0
  6
CONTINUOUS
 62
     3
 10
358.41123791632992
 20
105.24078741352039
 30
0.0
 40
2.1000000000000001
  1
+0.02
 50
90.0
  0
ENDBLK
  5
10D16
  8
0
  0
BLOCK
  8
0
  2
*U178
 70
     1
 10
0.0
 20
0.0
 30
0.0
  3
*U178
  1

  0
TEXT
  5
10D18
  8
0
  6
CONTINUOUS
 62
     3
 10
360.04438703059333
 20
119.6730053940223
 30
0.0
 40
3.0
  1
R0.4
 50
312.44834130096228
  0
TEXT
  5
10D19
  8
0
  6
CONTINUOUS
 62
     3
 10
367.00854738040749
 20
115.89909976316569
 30
0.0
 40
2.1000000000000001
  1
+0.1
 50
312.44834130096228
  0
TEXT
  5
10D1A
  8
0
  6
CONTINUOUS
 62
     3
 10
365.09620210211642
 20
114.149927494596
 30
0.0
 40
2.1000000000000001
  1
-0
 50
312.44834130096228
  0
ENDBLK
  5
10D1C
  8
0
  0
BLOCK
  8
0
  2
*U179
 70
     1
 10
0.0
 20
0.0
 30
0.0
  3
*U179
  1

  0
TEXT
  5
10D1E
  8
0
  6
CONTINUOUS
 62
     3
 10
347.31010516502943
 20
146.216752929129
 30
0.0
 40
3.0
  1
8
  0
ENDBLK
  5
10D20
  8
0
  0
BLOCK
  8
0
  2
*U180
 70
     1
 10
0.0
 20
0.0
 30
0.0
  3
*U180
  1

  0
TEXT
  5
10D22
  8
0
  6
CONTINUOUS
 62
     3
 10
331.71010516502952
 20
146.216752929129
 30
0.0
 40
3.0
  1
1
  0
ENDBLK
  5
10D24
  8
0
  0
BLOCK
  8
0
  2
*U181
 70
     1
 10
0.0
 20
0.0
 30
0.0
  3
*U181
  1

  0
TEXT
  5
10D26
  8
0
  6
CONTINUOUS
 62
     3
 10
320.46128626739159
 20
138.21675292912909
 30
0.0
 40
3.0
  1
3.5*\U+220535.6
  0
ENDBLK
  5
10D28
  8
0
  0
BLOCK
  8
0
  2
*U182
 70
     1
 10
0.0
 20
0.0
 30
0.0
  3
*U182
  1

  0
TEXT
  5
10D2A
  8
0
  6
CONTINUOUS
 62
     3
 10
348.50170120324918
 20
137.49561481449911
 30
0.0
 40
3.0
  1
R0.5
 50
312.47294625015132
  0
ENDBLK
  5
10D2C
  8
0
  0
BLOCK
  8
0
  2
*U183
 70
     1
 10
0.0
 20
0.0
 30
0.0
  3
*U183
  1

  0
TEXT
  5
10D2E
  8
0
  6
CONTINUOUS
 62
     3
 10
376.20923175506391
 20
112.4242488067498
 30
0.0
 40
3.0
  1
15¡Æ
 50
59.296343176139352
  0
ENDBLK
  5
10D30
  8
0
  0
BLOCK
  8
0
  2
*U184
 70
     1
 10
0.0
 20
0.0
 30
0.0
  3
*U184
  1

  0
TEXT
  5
10D32
  8
0
  6
CONTINUOUS
 62
     3
 10
331.39257806565951
 20
131.96061821581779
 30
0.0
 40
3.0
  1
R0.5
 50
319.08566059040271
  0
ENDBLK
  5
10D34
  8
0
  0
BLOCK
  8
0
  2
*U185
 70
     1
 10
0.0
 20
0.0
 30
0.0
  3
*U185
  1

  0
TEXT
  5
10D36
  8
0
  6
CONTINUOUS
 62
     3
 10
316.3357167052643
 20
124.50018916871331
 30
0.0
 40
3.0
  1
15¡Æ
 50
82.500000000001137
  0
ENDBLK
  5
10D38
  8
0
  0
BLOCK
  8
0
  2
*U186
 70
     1
 10
0.0
 20
0.0
 30
0.0
  3
*U186
  1

  0
TEXT
  5
10D3A
  8
0
  6
CONTINUOUS
 62
     3
 10
86.886769869789205
 20
65.779357314600091
 30
0.0
 40
3.0
  1
8.5
 50
90.0
  0
ENDBLK
  5
10D3C
  8
0
  0
BLOCK
  8
0
  2
*U187
 70
     1
 10
0.0
 20
0.0
 30
0.0
  3
*U187
  1

  0
TEXT
  5
10D3E
  8
0
  6
CONTINUOUS
 62
     3
 10
200.041009956224
 20
183.0954869837052
 30
0.0
 40
3.0
  1
\U+220538.4
 50
90.0
  0
TEXT
  5
10D3F
  8
0
  6
CONTINUOUS
 62
     3
 10
197.4493564129169
 20
192.98048698370519
 30
0.0
 40
2.1000000000000001
  1
+0.05
 50
90.0
  0
TEXT
  5
10D40
  8
0
  6
CONTINUOUS
 62
     3
 10
200.041009956224
 20
192.98048698370519
 30
0.0
 40
2.1000000000000001
  1
-0
 50
90.0
  0
ENDBLK
  5
10D42
  8
0
  0
BLOCK
  8
0
  2
*U188
 70
     1
 10
0.0
 20
0.0
 30
0.0
  3
*U188
  1

  0
TEXT
  5
10D44
  8
0
  6
CONTINUOUS
 62
     3
 10
224.44100995622389
 20
187.80397940775421
 30
0.0
 40
3.0
  1
\U+220564
 50
90.0
  0
ENDBLK
  5
10D46
  8
0
  0
BLOCK
  8
0
  2
*U189
 70
     1
 10
0.0
 20
0.0
 30
0.0
  3
*U189
  1

  0
TEXT
  5
10D48
  8
0
  6
CONTINUOUS
 62
     3
 10
216.44100995622401
 20
187.95279830539221
 30
0.0
 40
3.0
  1
\U+220560
 50
90.0
  0
ENDBLK
  5
10D4A
  8
0
  0
BLOCK
  8
0
  2
*U190
 70
     1
 10
0.0
 20
0.0
 30
0.0
  3
*U190
  1

  0
TEXT
  5
10D4C
  8
0
  6
CONTINUOUS
 62
     3
 10
208.44100995622389
 20
185.0259173998802
 30
0.0
 40
3.0
  1
\U+220551
 50
90.0
  0
TEXT
  5
10D4D
  8
0
  6
CONTINUOUS
 62
     3
 10
205.74476979874359
 20
191.01091739988021
 30
0.0
 40
2.1000000000000001
  1
+0.06
 50
90.0
  0
TEXT
  5
10D4E
  8
0
  6
CONTINUOUS
 62
     3
 10
208.44100995622389
 20
191.01091739988021
 30
0.0
 40
2.1000000000000001
  1
+0.02
 50
90.0
  0
ENDBLK
  5
10D50
  8
0
  0
BLOCK
  8
0
  2
*U191
 70
     1
 10
0.0
 20
0.0
 30
0.0
  3
*U191
  1

  0
TEXT
  5
10D52
  8
0
  6
CONTINUOUS
 62
     3
 10
197.29808904656309
 20
269.6400071978515
 30
0.0
 40
3.0
  1
R0.4max
 50
323.26457729792469
  0
ENDBLK
  5
10D54
  8
0
  0
BLOCK
  8
0
  2
*U192
 70
     1
 10
0.0
 20
0.0
 30
0.0
  3
*U192
  1

  0
TEXT
  5
10D56
  8
0
  6
CONTINUOUS
 62
     3
 10
130.7460610627042
 20
173.19890822619661
 30
0.0
 40
3.0
  1
\U+220575
 50
90.0
  0
TEXT
  5
10D57
  8
0
  6
CONTINUOUS
 62
     3
 10
130.7460610627042
 20
180.0989082261965
 30
0.0
 40
2.1000000000000001
  1
¡¾0.05
 50
90.0
  0
ENDBLK
  5
10D59
  8
0
  0
BLOCK
  8
0
  2
*U193
 70
     1
 10
0.0
 20
0.0
 30
0.0
  3
*U193
  1

  0
TEXT
  5
10D5B
  8
0
  6
CONTINUOUS
 62
     3
 10
172.29789802457549
 20
148.95815165525829
 30
0.0
 40
3.0
  1
80¡Æ
 50
320.00000000000051
  0
ENDBLK
  5
10D5D
  8
0
  0
BLOCK
  8
0
  2
*U194
 70
     1
 10
0.0
 20
0.0
 30
0.0
  3
*U194
  1

  0
TEXT
  5
10D5F
  8
0
  6
CONTINUOUS
 62
     3
 10
190.51899097645099
 20
158.94401953062049
 30
0.0
 40
3.0
  1
R2
 50
319.98187567512542
  0
ENDBLK
  5
10D61
  8
0
  0
BLOCK
  8
0
  2
*U195
 70
     1
 10
0.0
 20
0.0
 30
0.0
  3
*U195
  1

  0
TEXT
  5
10D63
  8
0
  6
CONTINUOUS
 62
     3
 10
111.8030438393257
 20
255.05811010343601
 30
0.0
 40
3.0
  1
14min
  0
ENDBLK
  5
10D65
  8
0
  0
BLOCK
  8
0
  2
*U196
 70
     1
 10
0.0
 20
0.0
 30
0.0
  3
*U196
  1

  0
TEXT
  5
10D67
  8
0
  6
CONTINUOUS
 62
     3
 10
149.29141694533811
 20
247.05811010343601
 30
0.0
 40
3.0
  1
47.5
  0
TEXT
  5
10D68
  8
0
  6
CONTINUOUS
 62
     3
 10
156.79141694533811
 20
247.05811010343601
 30
0.0
 40
2.1000000000000001
  1
¡¾0.03
  0
ENDBLK
  5
10D6A
  8
0
  0
BLOCK
  8
0
  2
*U197
 70
     1
 10
0.0
 20
0.0
 30
0.0
  3
*U197
  1

  0
TEXT
  5
10D6C
  8
0
  6
CONTINUOUS
 62
     3
 10
150.9271731489147
 20
255.05811010343601
 30
0.0
 40
3.0
  1
63
  0
TEXT
  5
10D6D
  8
0
  6
CONTINUOUS
 62
     3
 10
154.8121731489147
 20
257.64976364674311
 30
0.0
 40
2.1000000000000001
  1
+0
  0
TEXT
  5
10D6E
  8
0
  6
CONTINUOUS
 62
     3
 10
154.8121731489147
 20
255.05811010343601
 30
0.0
 40
2.1000000000000001
  1
-0.1
  0
ENDBLK
  5
10D70
  8
0
  0
BLOCK
  8
0
  2
*U198
 70
     1
 10
0.0
 20
0.0
 30
0.0
  3
*U198
  1

  0
TEXT
  5
10D72
  8
0
  6
CONTINUOUS
 62
     3
 10
174.59431881820589
 20
239.05811010343601
 30
0.0
 40
3.0
  1
20
  0
ENDBLK
  5
10D74
  8
0
  0
BLOCK
  8
0
  2
*U199
 70
     1
 10
0.0
 20
0.0
 30
0.0
  3
*U199
  1

  0
TEXT
  5
10D76
  8
0
  6
CONTINUOUS
 62
     3
 10
191.01722070696891
 20
213.84915469136169
 30
0.0
 40
3.0
  1
C0.2
 50
318.41913920373992
  0
ENDBLK
  5
10D78
  8
0
  0
BLOCK
  8
0
  2
*U200
 70
     1
 10
0.0
 20
0.0
 30
0.0
  3
*U200
  1

  0
TEXT
  5
10D7A
  8
0
  6
CONTINUOUS
 62
     3
 10
180.88504111455899
 20
247.05811010343601
 30
0.0
 40
3.0
  1
6.5
  0
ENDBLK
  5
10D7C
  8
0
  0
BLOCK
  8
0
  2
*U201
 70
     1
 10
0.0
 20
0.0
 30
0.0
  3
*U201
  1

  0
TEXT
  5
10D7E
  8
0
  6
CONTINUOUS
 62
     3
 10
255.42818701533409
 20
232.4167298838027
 30
0.0
 40
3.0
  1
\U+220551
 50
90.0
  0
TEXT
  5
10D7F
  8
0
  6
CONTINUOUS
 62
     3
 10
252.73194685785381
 20
238.40172988380269
 30
0.0
 40
2.1000000000000001
  1
+0.06
 50
90.0
  0
TEXT
  5
10D80
  8
0
  6
CONTINUOUS
 62
     3
 10
255.42818701533409
 20
238.40172988380269
 30
0.0
 40
2.1000000000000001
  1
+0.02
 50
90.0
  0
ENDBLK
  5
10D82
  8
0
  0
BLOCK
  8
0
  2
*U202
 70
     1
 10
0.0
 20
0.0
 30
0.0
  3
*U202
  1

  0
TEXT
  5
10D84
  8
0
  6
CONTINUOUS
 62
     3
 10
247.52719292084569
 20
225.7097918916767
 30
0.0
 40
3.0
  1
\U+220540.4
 50
90.0
  0
TEXT
  5
10D85
  8
0
  6
CONTINUOUS
 62
     3
 10
244.93553937753859
 20
235.89479189167679
 30
0.0
 40
2.1000000000000001
  1
+0.4
 50
90.0
  0
TEXT
  5
10D86
  8
0
  6
CONTINUOUS
 62
     3
 10
247.52719292084569
 20
235.89479189167679
 30
0.0
 40
2.1000000000000001
  1
-0
 50
90.0
  0
ENDBLK
  5
10D88
  8
0
  0
BLOCK
  8
0
  2
*U203
 70
     1
 10
0.0
 20
0.0
 30
0.0
  3
*U203
  1

  0
TEXT
  5
10D8A
  8
0
  6
CONTINUOUS
 62
     3
 10
203.3636604778244
 20
272.28466061392652
 30
0.0
 40
3.0
  1
0.5
  0
ENDBLK
  5
10D8C
  8
0
  0
BLOCK
  8
0
  2
*U204
 70
     1
 10
0.0
 20
0.0
 30
0.0
  3
*U204
  1

  0
TEXT
  5
10D8E
  8
0
  6
CONTINUOUS
 62
     3
 10
217.502603915718
 20
230.17519262834
 30
0.0
 40
3.0
  1
45¡Æ
 50
22.500000000002771
  0
ENDBLK
  5
10D90
  8
0
  0
BLOCK
  8
0
  2
*U205
 70
     1
 10
0.0
 20
0.0
 30
0.0
  3
*U205
  1

  0
TEXT
  5
10D92
  8
0
  6
CONTINUOUS
 62
     3
 10
238.68411388262359
 20
226.57400975633391
 30
0.0
 40
3.0
  1
\U+220538.4
 50
90.0
  0
TEXT
  5
10D93
  8
0
  6
CONTINUOUS
 62
     3
 10
236.09246033931649
 20
236.4590097563339
 30
0.0
 40
2.1000000000000001
  1
+0.05
 50
90.0
  0
TEXT
  5
10D94
  8
0
  6
CONTINUOUS
 62
     3
 10
238.68411388262359
 20
236.4590097563339
 30
0.0
 40
2.1000000000000001
  1
-0
 50
90.0
  0
ENDBLK
  5
10D96
  8
0
  0
BLOCK
  8
0
  2
*U206
 70
     1
 10
0.0
 20
0.0
 30
0.0
  3
*U206
  1

  0
TEXT
  5
10D98
  8
0
  6
CONTINUOUS
 62
     3
 10
153.55708456623771
 20
138.21383973461451
 30
0.0
 40
3.0
  1
62
  0
ENDBLK
  5
10D9A
  8
0
  0
BLOCK
  8
0
  2
*U207
 70
     1
 10
0.0
 20
0.0
 30
0.0
  3
*U207
  1

  0
TEXT
  5
10D9C
  8
0
  6
CONTINUOUS
 62
     3
 10
124.58097694219759
 20
150.1256939942196
 30
0.0
 40
3.0
  1
R2
 50
301.56190646660951
  0
ENDBLK
  5
10D9E
  8
0
  0
BLOCK
  8
0
  2
*U208
 70
     1
 10
0.0
 20
0.0
 30
0.0
  3
*U208
  1

  0
TEXT
  5
10DA0
  8
0
  6
CONTINUOUS
 62
     3
 10
119.6441587989614
 20
167.51681634320701
 30
0.0
 40
3.0
  1
R2
 50
304.28298502218468
  0
ENDBLK
  5
10DA2
  8
0
  0
BLOCK
  8
0
  2
*U209
 70
     1
 10
0.0
 20
0.0
 30
0.0
  3
*U209
  1

  0
TEXT
  5
10DA4
  8
0
  6
CONTINUOUS
 62
     3
 10
116.3050284864955
 20
139.82357950410511
 30
0.0
 40
3.0
  1
30¡Æ
 50
344.99999999999909
  0
ENDBLK
  5
10DA6
  8
0
  0
BLOCK
  8
0
  2
*U210
 70
     1
 10
0.0
 20
0.0
 30
0.0
  3
*U210
  1

  0
TEXT
  5
10DA8
  8
0
  6
CONTINUOUS
 62
     3
 10
239.47323187769339
 20
178.48397940775411
 30
0.0
 40
3.0
  1
14.5
 50
90.0
  0
TEXT
  5
10DA9
  8
0
  6
CONTINUOUS
 62
     3
 10
236.88157833438629
 20
185.068979407754
 30
0.0
 40
2.1000000000000001
  1
+0.1
 50
90.0
  0
TEXT
  5
10DAA
  8
0
  6
CONTINUOUS
 62
     3
 10
239.47323187769339
 20
185.068979407754
 30
0.0
 40
2.1000000000000001
  1
-0
 50
90.0
  0
ENDBLK
  5
10DAC
  8
0
  0
BLOCK
  8
0
  2
*U211
 70
     1
 10
0.0
 20
0.0
 30
0.0
  3
*U211
  1

  0
TEXT
  5
10DAE
  8
0
  6
CONTINUOUS
 62
     3
 10
277.80652123325649
 20
145.85717849987259
 30
0.0
 40
3.0
  1
57
  0
ENDBLK
  5
10DB0
  8
0
  0
BLOCK
  8
0
  2
*U212
 70
     1
 10
0.0
 20
0.0
 30
0.0
  3
*U212
  1

  0
TEXT
  5
10DB2
  8
0
  6
CONTINUOUS
 62
     3
 10
290.09966558216053
 20
242.86371464900711
 30
0.0
 40
3.0
  1
12
  0
ENDBLK
  5
10DB4
  8
0
  0
BLOCK
  8
0
  2
*U213
 70
     1
 10
0.0
 20
0.0
 30
0.0
  3
*U213
  1

  0
TEXT
  5
10DB6
  8
0
  6
CONTINUOUS
 62
     3
 10
144.95001915088449
 20
263.05811010343598
 30
0.0
 40
3.0
  1
79
  0
ENDBLK
  5
10DB8
  8
0
  0
BLOCK
  8
0
  2
*U214
 70
     1
 10
0.0
 20
0.0
 30
0.0
  3
*U214
  1

  0
TEXT
  5
10DBA
  8
0
  6
CONTINUOUS
 62
     3
 10
159.60905390878131
 20
66.208952149361465
 30
0.0
 40
3.0
  1
30¡Æ
 50
285.0
  0
ENDBLK
  5
10DBC
  8
0
  0
BLOCK
  8
0
  2
*U215
 70
     1
 10
0.0
 20
0.0
 30
0.0
  3
*U215
  1

  0
TEXT
  5
10DBE
  8
0
  6
CONTINUOUS
 62
     3
 10
206.57654071434919
 20
58.915482020319651
 30
0.0
 40
3.0
  1
22.7
 50
90.0
  0
ENDBLK
  5
10DC0
  8
0
  0
BLOCK
  8
0
  2
*U216
 70
     1
 10
0.0
 20
0.0
 30
0.0
  3
*U216
  1

  0
TEXT
  5
10DC2
  8
0
  6
CONTINUOUS
 62
     3
 10
198.57654071434919
 20
65.21525943478261
 30
0.0
 40
3.0
  1
10.5
 50
90.0
  0
ENDBLK
  5
10DC4
  8
0
  0
BLOCK
  8
0
  2
*U217
 70
     1
 10
0.0
 20
0.0
 30
0.0
  3
*U217
  1

  0
TEXT
  5
10DC6
  8
0
  6
CONTINUOUS
 62
     3
 10
94.346154469925096
 20
94.610624400719047
 30
0.0
 40
3.0
  1
17
 50
90.0
  0
ENDBLK
  5
10DC8
  8
0
  0
BLOCK
  8
0
  2
*U218
 70
     1
 10
0.0
 20
0.0
 30
0.0
  3
*U218
  1

  0
TEXT
  5
10DCA
  8
0
  6
CONTINUOUS
 62
     3
 10
94.346154469925068
 20
68.860624400719345
 30
0.0
 40
3.0
  1
8
 50
90.0
  0
ENDBLK
  5
10DCC
  8
0
  0
BLOCK
  8
0
  2
*U219
 70
     1
 10
0.0
 20
0.0
 30
0.0
  3
*U219
  1

  0
TEXT
  5
10DCE
  8
0
  6
CONTINUOUS
 62
     3
 10
94.346154469925068
 20
79.548492366363163
 30
0.0
 40
3.0
  1
15
 50
90.0
  0
ENDBLK
  5
10DD0
  8
0
  0
BLOCK
  8
0
  2
*U220
 70
     1
 10
0.0
 20
0.0
 30
0.0
  3
*U220
  1

  0
TEXT
  5
10DD2
  8
0
  6
CONTINUOUS
 62
     3
 10
265.57095675043848
 20
35.607659310380228
 30
0.0
 40
3.0
  1
40¡Æ
 50
340.0
  0
ENDBLK
  5
10DD4
  8
0
  0
BLOCK
  8
0
  2
*U221
 70
     1
 10
0.0
 20
0.0
 30
0.0
  3
*U221
  1

  0
TEXT
  5
10DD6
  8
0
  6
CONTINUOUS
 62
     3
 10
167.54878357808329
 20
74.7838918398825
 30
0.0
 40
3.0
  1
110
  0
ENDBLK
  5
10DD8
  8
0
  0
BLOCK
  8
0
  2
*U222
 70
     1
 10
0.0
 20
0.0
 30
0.0
  3
*U222
  1

  0
TEXT
  5
10DDA
  8
0
  6
CONTINUOUS
 62
     3
 10
142.24878357808331
 20
66.783891839882529
 30
0.0
 40
3.0
  1
160
  0
ENDBLK
  5
10DDC
  8
0
  0
BLOCK
  8
0
  2
*U223
 70
     1
 10
0.0
 20
0.0
 30
0.0
  3
*U223
  1

  0
TEXT
  5
10DDE
  8
0
  6
CONTINUOUS
 62
     3
 10
255.61194271374239
 20
132.3740315130222
 30
0.0
 40
3.0
  1
\U+220564
 50
90.0
  0
ENDBLK
  5
10DE0
  8
0
  0
BLOCK
  8
0
  2
*U224
 70
     1
 10
0.0
 20
0.0
 30
0.0
  3
*U224
  1

  0
TEXT
  5
10DE2
  8
0
  6
CONTINUOUS
 62
     3
 10
191.99963987729589
 20
82.783891839882514
 30
0.0
 40
3.0
  1
62
  0
ENDBLK
  5
10DE4
  8
0
  0
BLOCK
  8
0
  2
*U225
 70
     1
 10
0.0
 20
0.0
 30
0.0
  3
*U225
  1

  0
TEXT
  5
10DE6
  8
0
  6
CONTINUOUS
 62
     3
 10
247.61194271374251
 20
130.2118994786662
 30
0.0
 40
3.0
  1
\U+220531.75
 50
90.0
  0
ENDBLK
  5
10DE8
  8
0
  0
BLOCK
  8
0
  2
*U226
 70
     1
 10
0.0
 20
0.0
 30
0.0
  3
*U226
  1

  0
TEXT
  5
10DEA
  8
0
  6
CONTINUOUS
 62
     3
 10
195.4378326460895
 20
184.27734429993711
 30
0.0
 40
3.0
  1
55
  0
ENDBLK
  5
10DEC
  8
0
  0
BLOCK
  8
0
  2
*U227
 70
     1
 10
0.0
 20
0.0
 30
0.0
  3
*U227
  1

  0
TEXT
  5
10DEE
  8
0
  6
CONTINUOUS
 62
     3
 10
263.61194271374239
 20
133.81189947866599
 30
0.0
 40
3.0
  1
75
 50
90.0
  0
ENDBLK
  5
10DF0
  8
0
  0
BLOCK
  8
0
  2
*U228
 70
     1
 10
0.0
 20
0.0
 30
0.0
  3
*U228
  1

  0
TEXT
  5
10DF2
  8
0
  6
CONTINUOUS
 62
     3
 10
40.822980105322593
 20
128.16653151302219
 30
0.0
 40
3.0
  1
HSK100A
 50
90.0
  0
ENDBLK
  5
10DF4
  8
0
  0
BLOCK
  8
0
  2
*U229
 70
     1
 10
0.0
 20
0.0
 30
0.0
  3
*U229
  1

  0
TEXT
  5
10E05
  8
0
  6
CONTINUOUS
 10
137.12578294018979
 20
50.186035180123071
 30
0.0
 40
3.0
  1
Techniks Inc.
  0
TEXT
  5
10E06
  8
0
  6
CONTINUOUS
 10
137.57578294018981
 20
45.186035180123071
 30
0.0
 40
3.0
  1
     9930 East 56th Street
  0
TEXT
  5
10E07
  8
0
  6
CONTINUOUS
 10
137.57578294018981
 20
40.177944628941972
 30
0.0
 40
3.0
  1
     Indianapolis, IN 46236
  0
TEXT
  5
10E08
  8
0
  6
CONTINUOUS
 10
137.57578294018981
 20
35.17445392364273
 30
0.0
 40
3.0
  1
     800.597.3921
  0
TEXT
  5
10E09
  8
0
  6
CONTINUOUS
 10
137.57578294018981
 20
30.17445392364273
 30
0.0
 40
3.0
  1
     www.techniksusa.com
  0
ENDBLK
  5
10E0B
  8
0
  0
BLOCK
  8
0
  2
*U230
 70
     1
 10
0.0
 20
0.0
 30
0.0
  3
*U230
  1

  0
TEXT
  5
10E1C
  8
0
  6
CONTINUOUS
 10
137.1257828854578
 20
49.686034879931839
 30
0.0
 40
3.0
  1
Techniks Inc.
  0
TEXT
  5
10E1D
  8
0
  6
CONTINUOUS
 10
137.5757828854577
 20
44.686034879931839
 30
0.0
 40
3.0
  1
     9930 East 56th Street
  0
TEXT
  5
10E1E
  8
0
  6
CONTINUOUS
 10
137.5757828854577
 20
39.677944328750741
 30
0.0
 40
3.0
  1
     Indianapolis, IN 46236
  0
TEXT
  5
10E1F
  8
0
  6
CONTINUOUS
 10
137.5757828854577
 20
34.674453623451491
 30
0.0
 40
3.0
  1
     800.597.3921
  0
TEXT
  5
10E20
  8
0
  6
CONTINUOUS
 10
137.5757828854577
 20
29.674453623451491
 30
0.0
 40
3.0
  1
     www.techniksusa.com
  0
ENDBLK
  5
10E22
  8
0
  0
ENDSEC
  0
SECTION
  2
ENTITIES
  0
TEXT
  5
1092D
  8
0
 62
     7
 10
199.72929511267941
 20
1.4855947851882541
 30
0.0
 40
4.0
  1
LOT NO :
  0
LINE
  5
1092E
  8
0
 62
     2
 10
198.8597031580839
 20
16.5
 30
0.0
 11
269.30000000000001
 21
16.5
 31
0.0
  0
LINE
  5
1092F
  8
0
 62
     2
 10
349.2999999999999
 20
7.0
 30
0.0
 11
198.8597031580839
 21
7.0
 31
0.0
  0
POLYLINE
  5
10930
  8
0
 66
     1
 10
0.0
 20
0.0
 30
0.0
 40
1.0
 41
1.0
  0
VERTEX
  5
10E0C
  8
0
 10
0.0
 20
241.5
 30
0.0
  0
VERTEX
  5
10E0D
  8
0
 10
349.78500327820348
 20
241.5
 30
0.0
  0
SEQEND
  5
10E0E
  8
0
  0
POLYLINE
  5
10931
  8
0
 66
     1
 10
0.0
 20
0.0
 30
0.0
 40
0.5
 41
0.5
  0
VERTEX
  5
10E0F
  8
0
 10
349.2999999999999
 20
24.0
 30
0.0
  0
VERTEX
  5
10E10
  8
0
 10
0.5
 20
24.0
 30
0.0
  0
SEQEND
  5
10E11
  8
0
  0
POLYLINE
  5
10932
  8
0
 66
     1
 10
0.0
 20
0.0
 30
0.0
 40
1.0
 41
1.0
  0
VERTEX
  5
10E12
  8
0
 10
0.0
 20
0.0
 30
0.0
  0
VERTEX
  5
10E13
  8
0
 10
349.80000000000001
 20
0.0
 30
0.0
  0
SEQEND
  5
10E14
  8
0
  0
POLYLINE
  5
10933
  8
0
 66
     1
 10
0.0
 20
0.0
 30
0.0
 40
1.0
 41
1.0
  0
VERTEX
  5
10E15
  8
0
 10
0.5
 20
241.0
 30
0.0
  0
VERTEX
  5
10E16
  8
0
 10
0.5
 20
-0.5
 30
0.0
  0
SEQEND
  5
10E17
  8
0
  0
TEXT
  5
10934
  8
0
  6
CONTINUOUS
 62
     3
 10
19.488127647663081
 20
15.53735654761635
 30
0.0
 40
4.0
  1
HYDRAULIC CHUCK
  0
LINE
  5
10935
  8
0
 62
     2
 10
150.9402968419158
 20
12.5
 30
0.0
 11
0.5
 21
12.5
 31
0.0
  0
TEXT
  5
10936
  8
0
 62
     7
 10
1.7756180239680359
 20
9.4939908967098745
 30
0.0
 40
2.0
  1
KIND
  0
TEXT
  5
10937
  8
0
 62
     7
 10
1.6906758171485301
 20
20.702138631114959
 30
0.0
 40
2.0
  1
DESCRIPTION
  0
LINE
  5
10938
  8
0
 62
     2
 10
106.5
 20
24.0
 30
0.0
 11
106.5
 21
0.0
 31
0.0
  0
LINE
  5
10939
  8
0
 62
     2
 10
79.5
 20
24.0
 30
0.0
 11
79.5
 21
0.0
 31
0.0
  0
TEXT
  5
1093A
  8
0
  6
CONTINUOUS
 62
     3
 10
90.015379108354637
 20
15.03976123407665
 30
0.0
 40
4.0
  1
-
  0
TEXT
  5
1093B
  8
0
 62
     7
 10
80.326115960252537
 20
9.6268716546485393
 30
0.0
 40
2.0
  1
HARDNESS
  0
TEXT
  5
1093C
  8
0
 62
     7
 10
107.4355084051569
 20
9.4608489407827392
 30
0.0
 40
2.0
  1
ORDER MAKER
  0
TEXT
  5
1093D
  8
0
 62
     7
 10
80.390774020364447
 20
20.753906392070579
 30
0.0
 40
2.0
  1
MATERIAL
  0
TEXT
  5
1093E
  8
0
 62
     7
 10
107.6221638096294
 20
20.571653327650889
 30
0.0
 40
2.0
  1
SURFACE TREATMENT
  0
TEXT
  5
1093F
  8
0
 62
     3
 10
170.16548944804501
 20
18.268672151280612
 30
0.0
 40
4.0
  1
-
  0
LINE
  5
10940
  8
0
 62
     2
 10
198.8597031580839
 20
24.0
 30
0.0
 11
198.8597031580839
 21
0.0
 31
0.0
  0
TEXT
  5
10941
  8
0
 62
     7
 10
151.84057408933469
 20
19.15847313115523
 30
0.0
 40
2.0
  1
DATE
  0
LINE
  5
10942
  8
0
 62
     2
 10
150.9402968419158
 20
24.0
 30
0.0
 11
150.9402968419158
 21
0.0
 31
0.0
  0
TEXT
  5
10943
  8
0
 62
     7
 10
171.570842804861
 20
7.5113250446388511
 30
0.0
 40
3.0
  1
-
  0
LINE
  5
10944
  8
0
 62
     2
 10
150.9402968419158
 20
16.5
 30
0.0
 11
198.8597031580839
 21
16.5
 31
0.0
  0
TEXT
  5
10945
  8
0
  6
CONTINUOUS
 62
     3
 10
51.985782108721878
 20
232.0612640121638
 30
0.0
 40
2.0
  1
+0.25
  0
TEXT
  5
10946
  8
0
  6
CONTINUOUS
 62
     7
 10
46.077913137616633
 20
236.6565042912882
 30
0.0
 40
3.0
  1
 100-250
  0
TEXT
  5
10947
  8
0
  6
CONTINUOUS
 62
     3
 10
52.19467757613824
 20
225.79696189791659
 30
0.0
 40
2.0
  1
+0.0
  0
TEXT
  5
10948
  8
0
  6
CONTINUOUS
 62
     3
 10
52.19467757613824
 20
223.2912414152556
 30
0.0
 40
2.0
  1
-0.25
  0
TEXT
  5
10949
  8
0
  6
CONTINUOUS
 62
     3
 10
51.985782108721878
 20
229.55554352950281
 30
0.0
 40
2.0
  1
-0.0
  0
TEXT
  5
1094A
  8
0
  6
CONTINUOUS
 62
     3
 10
50.836857037932297
 20
217.75777502163669
 30
0.0
 40
3.0
  1
%%P0.25
  0
LINE
  5
1094B
  8
0
  6
CONTINUOUS
 62
     2
 10
10.5
 20
235.09999999999991
 30
0.0
 11
80.5
 21
235.09999999999991
 31
0.0
  0
LINE
  5
1094C
  8
0
  6
CONTINUOUS
 62
     2
 10
10.5
 20
222.2999999999999
 30
0.0
 11
80.5
 21
222.2999999999999
 31
0.0
  0
LINE
  5
1094D
  8
0
  6
CONTINUOUS
 62
     2
 10
10.5
 20
228.69999999999999
 30
0.0
 11
80.5
 21
228.69999999999979
 31
0.0
  0
LINE
  5
1094E
  8
0
  6
CONTINUOUS
 62
     2
 10
0.5
 20
216.12385070146411
 30
0.0
 11
80.5
 21
216.12385070146411
 31
0.0
  0
TEXT
  5
1094F
  8
0
  6
CONTINUOUS
 10
13.985369668585919
 20
236.50445557104061
 30
0.0
 40
3.0
  1
±¸ºÐ 
  0
TEXT
  5
10950
  8
0
  6
CONTINUOUS
 10
13.985369668585919
 20
217.85439130880491
 30
0.0
 40
3.0
  1
ÀüÀå
  0
TEXT
  5
10951
  8
0
  6
CONTINUOUS
 10
13.985369668585919
 20
224.02224636897401
 30
0.0
 40
3.0
  1
¿Ü°æ
  0
TEXT
  5
10952
  8
0
  6
CONTINUOUS
 10
13.985369668585919
 20
230.26335097000739
 30
0.0
 40
3.0
  1
³»°æ
  0
LINE
  5
10953
  8
0
  6
CONTINUOUS
 62
     2
 10
10.5
 20
216.12385070146411
 30
0.0
 11
10.5
 21
241.5
 31
0.0
  0
TEXT
  5
10954
  8
0
  6
CONTINUOUS
 10
3.1647676081701088
 20
218.2742179534373
 30
0.0
 40
3.0
  1
mm
  0
TEXT
  5
10955
  8
0
  6
CONTINUOUS
 10
4.215931991601451
 20
222.24619052605519
 30
0.0
 40
3.0
  1
Â÷
  0
TEXT
  5
10956
  8
0
  6
CONTINUOUS
 10
4.215931991601451
 20
235.74619052605519
 30
0.0
 40
3.0
  1
±â
  0
TEXT
  5
10957
  8
0
  6
CONTINUOUS
 10
4.215931991601451
 20
226.74619052605519
 30
0.0
 40
3.0
  1
°ø
  0
TEXT
  5
10958
  8
0
  6
CONTINUOUS
 10
4.215931991601451
 20
231.24619052605519
 30
0.0
 40
3.0
  1
º»
  0
LINE
  5
10959
  8
0
  6
CONTINUOUS
 62
     2
 10
24.171359750135931
 20
228.92385070146429
 30
0.0
 11
24.171359750135931
 21
216.12385070146411
 31
0.0
  0
LINE
  5
1095A
  8
0
  6
CONTINUOUS
 62
     2
 10
24.171359750135931
 20
241.5
 30
0.0
 11
24.171359750135931
 21
222.2999999999999
 31
0.0
  0
LINE
  5
1095B
  8
0
  6
CONTINUOUS
 62
     2
 10
33.602988519801563
 20
241.5
 30
0.0
 11
33.602988519801563
 21
216.12385070146411
 31
0.0
  0
LINE
  5
1095C
  8
0
  6
CONTINUOUS
 62
     2
 10
47.598978969360587
 20
241.5
 30
0.0
 11
47.598978969360587
 21
216.12385070146411
 31
0.0
  0
TEXT
  5
1095D
  8
0
  6
CONTINUOUS
 62
     3
 10
25.45606948151795
 20
217.75777502163669
 30
0.0
 40
3.0
  1
%%P0.1
  0
TEXT
  5
1095E
  8
0
  6
CONTINUOUS
 62
     3
 10
26.500545980409019
 20
223.1868365716214
 30
0.0
 40
2.0
  1
-0.1
  0
TEXT
  5
1095F
  8
0
  6
CONTINUOUS
 62
     3
 10
37.572000724330337
 20
223.1868365716214
 30
0.0
 40
2.0
  1
-0.15
  0
TEXT
  5
10960
  8
0
  6
CONTINUOUS
 62
     3
 10
36.318628758022903
 20
217.75777502163669
 30
0.0
 40
3.0
  1
%%P0.15
  0
TEXT
  5
10961
  8
0
  6
CONTINUOUS
 62
     7
 10
34.36026770507965
 20
236.6565042912882
 30
0.0
 40
3.0
  1
50-100
  0
TEXT
  5
10962
  8
0
  6
CONTINUOUS
 62
     3
 10
26.396098246700831
 20
232.0612640121638
 30
0.0
 40
2.0
  1
+0.1
  0
TEXT
  5
10963
  8
0
  6
CONTINUOUS
 62
     7
 10
24.79814577365142
 20
236.6565042912882
 30
0.0
 40
3.0
  1
1-50
  0
TEXT
  5
10964
  8
0
  6
CONTINUOUS
 62
     3
 10
26.500545980409019
 20
225.69255705428259
 30
0.0
 40
2.0
  1
+0.0
  0
TEXT
  5
10965
  8
0
  6
CONTINUOUS
 62
     3
 10
26.500545980409019
 20
229.55554352950281
 30
0.0
 40
2.0
  1
-0.0
  0
TEXT
  5
10966
  8
0
  6
CONTINUOUS
 62
     3
 10
37.572000724330337
 20
232.0612640121638
 30
0.0
 40
2.0
  1
+0.15
  0
TEXT
  5
10967
  8
0
  6
CONTINUOUS
 62
     3
 10
37.572000724330337
 20
229.55554352950281
 30
0.0
 40
2.0
  1
-0.0
  0
TEXT
  5
10968
  8
0
  6
CONTINUOUS
 62
     3
 10
37.572000724330337
 20
225.69255705428259
 30
0.0
 40
2.0
  1
+0.0
  0
LINE
  5
10969
  8
0
  6
CONTINUOUS
 62
     2
 10
80.5
 20
241.5
 30
0.0
 11
80.5
 21
216.12385070146411
 31
0.0
  0
LINE
  5
1096A
  8
0
  6
CONTINUOUS
 62
     2
 10
63.4750269492854
 20
241.5
 30
0.0
 11
63.4750269492854
 21
216.12385070146411
 31
0.0
  0
TEXT
  5
1096B
  8
0
  6
CONTINUOUS
 62
     3
 10
67.548486887522358
 20
217.75777502163669
 30
0.0
 40
3.0
  1
%%P0.35
  0
TEXT
  5
1096C
  8
0
  6
CONTINUOUS
 62
     3
 10
69.010754321246168
 20
223.2912414152556
 30
0.0
 40
2.0
  1
-0.35
  0
TEXT
  5
1096D
  8
0
  6
CONTINUOUS
 62
     7
 10
64.371168366811617
 20
236.6565042912882
 30
0.0
 40
3.0
  1
250-500
  0
TEXT
  5
1096E
  8
0
  6
CONTINUOUS
 62
     3
 10
68.945115844585189
 20
232.0612640121638
 30
0.0
 40
2.0
  1
+0.35
  0
TEXT
  5
1096F
  8
0
  6
CONTINUOUS
 62
     3
 10
69.010754321246168
 20
225.79696189791659
 30
0.0
 40
2.0
  1
+0.0
  0
TEXT
  5
10970
  8
0
  6
CONTINUOUS
 62
     3
 10
68.945115844585189
 20
229.55554352950281
 30
0.0
 40
2.0
  1
-0.0
  0
POLYLINE
  5
10971
  8
0
 66
     1
 10
0.0
 20
0.0
 30
0.0
 40
1.0
 41
1.0
  0
VERTEX
  5
10E18
  8
0
 10
349.2999999999999
 20
0.0
 30
0.0
  0
VERTEX
  5
10E19
  8
0
 10
349.2999999999999
 20
242.0
 30
0.0
  0
SEQEND
  5
10E1A
  8
0
  0
TEXT
  5
10972
  8
0
 62
     7
 10
290.04549776086878
 20
2.2574114378329559
 30
0.0
 40
2.0
  1
CUTTING SIZE :
  0
LINE
  5
10973
  8
0
 62
     2
 10
289.30000000000001
 20
24.25
 30
0.0
 11
289.30000000000001
 21
7.0
 31
0.0
  0
LINE
  5
10974
  8
0
 62
     2
 10
269.30000000000001
 20
24.25
 30
0.0
 11
269.30000000000001
 21
7.0
 31
0.0
  0
TEXT
  5
10975
  8
0
  6
CONTINUOUS
 62
     7
 10
206.56099010974319
 20
17.658983523781782
 30
0.0
 40
4.0
  1
SSK CONTROL NUMBER
  0
TEXT
  5
10976
  8
0
 62
     7
 10
269.63681101545131
 20
1.3732767948552
 30
0.0
 40
4.0
  1
1 : 1
  0
LINE
  5
10977
  8
0
 62
     2
 10
254.30000000000001
 20
7.0
 30
0.0
 11
254.30000000000001
 21
0.0
 31
0.0
  0
TEXT
  5
10978
  8
0
 62
     7
 10
254.57527705715231
 20
2.2699550004307412
 30
0.0
 40
2.0
  1
SCALE
  0
LINE
  5
10979
  8
0
 62
     2
 10
289.30000000000001
 20
7.0
 30
0.0
 11
289.30000000000001
 21
0.0
 31
0.0
  0
LINE
  5
1097A
  8
0
 62
     2
 10
329.30000000000001
 20
24.25
 30
0.0
 11
329.30000000000001
 21
7.0
 31
0.0
  0
LINE
  5
1097B
  8
0
 62
     2
 10
309.2999999999999
 20
24.25
 30
0.0
 11
309.2999999999999
 21
7.0
 31
0.0
  0
TEXT
  5
1097C
  8
0
 62
     7
 10
308.61711858122322
 20
1.641182029994865
 30
0.0
 40
3.1360000000000001
  1
-
  0
TEXT
  5
1097D
  8
0
 62
     7
 10
310.26938148685667
 20
20.883893321049179
 30
0.0
 40
2.0
  1
CHECK
  0
TEXT
  5
1097E
  8
0
 62
     7
 10
330.49033471004373
 20
20.883893321049179
 30
0.0
 40
2.0
  1
APPROVE
  0
TEXT
  5
1097F
  8
0
 62
     7
 10
287.87643544357428
 20
236.5401664710821
 30
0.0
 40
2.5
  1
REVISIONS
  0
LINE
  5
10980
  8
0
  6
CONTINUOUS
 62
     2
 10
269.30000000000001
 20
235.09999999999991
 30
0.0
 11
349.2999999999999
 21
235.09999999999991
 31
0.0
  0
LINE
  5
10981
  8
0
  6
CONTINUOUS
 62
     2
 10
269.30000000000001
 20
228.69999999999911
 30
0.0
 11
349.2999999999999
 21
228.69999999999891
 31
0.0
  0
LINE
  5
10982
  8
0
  6
CONTINUOUS
 62
     2
 10
269.30000000000001
 20
222.2999999999999
 30
0.0
 11
349.2999999999999
 21
222.2999999999999
 31
0.0
  0
LINE
  5
10983
  8
0
  6
CONTINUOUS
 62
     2
 10
269.30000000000001
 20
216.12385070146411
 30
0.0
 11
349.2999999999999
 21
216.12385070146411
 31
0.0
  0
TEXT
  5
10984
  8
0
 62
     7
 10
271.36049426856789
 20
224.0855929990733
 30
0.0
 40
2.5
  1
2.
  0
LINE
  5
10985
  8
0
 62
     2
 10
269.30000000000001
 20
241.5
 30
0.0
 11
269.30000000000001
 21
216.12385070146411
 31
0.0
  0
LINE
  5
10986
  8
0
 62
     2
 10
275.30000000000001
 20
241.5
 30
0.0
 11
275.29999999999973
 21
216.12385070146411
 31
0.0
  0
TEXT
  5
10987
  8
0
 62
     7
 10
271.36049426856789
 20
218.24007257054271
 30
0.0
 40
2.5
  1
3.
  0
TEXT
  5
10988
  8
0
 62
     7
 10
270.34697788810348
 20
236.7501487527704
 30
0.0
 40
2.5
  1
NO.
  0
TEXT
  5
10989
  8
0
 62
     7
 10
271.36049426856789
 20
230.79486807554889
 30
0.0
 40
2.5
  1
1.
  0
LINE
  5
1098A
  8
0
 62
     2
 10
317.30000000000001
 20
241.5
 30
0.0
 11
317.30000000000001
 21
216.12385070146411
 31
0.0
  0
TEXT
  5
1098B
  8
0
 62
     7
 10
320.14935744422269
 20
236.5401664710821
 30
0.0
 40
2.5
  1
DATE
  0
LINE
  5
1098C
  8
0
 62
     2
 10
331.30000000000001
 20
241.5
 30
0.0
 11
331.30000000000001
 21
216.12385070146411
 31
0.0
  0
TEXT
  5
1098D
  8
0
 62
     7
 10
333.83882714560201
 20
236.6451559764227
 30
0.0
 40
2.5
  1
DEVISER
  0
TEXT
  5
1098E
  8
0
 62
     3
 10
265.187548430493
 20
27.127590477055271
 30
0.0
 40
3.0
  1
3.ANGLES  %%P0%%D15'
  0
TEXT
  5
1098F
  8
0
 62
     3
 10
265.187548430493
 20
38.051021325782813
 30
0.0
 40
3.0
  1
1.ROUND  R=0.4
  0
TEXT
  5
10990
  8
0
 62
     3
 10
265.187548430493
 20
32.510087232807336
 30
0.0
 40
3.0
  1
2.BREAK SHARP CORNERS  0.2*45%%D
  0
TEXT
  5
10991
  8
0
 62
     3
 10
264.54916131191339
 20
44.000081334326978
 30
0.0
 40
4.0
  1
NOTE
  0
TEXT
  5
10992
  8
0
 62
     7
 10
270.83722662870952
 20
20.746941907216179
 30
0.0
 40
2.0
  1
DESIGN
  0
TEXT
  5
10993
  8
0
 62
     7
 10
290.26938148685662
 20
20.883893321049179
 30
0.0
 40
2.0
  1
CHECK
  0
TEXT
  5
10994
  8
0
  6
CONTINUOUS
 62
     3
 10
90.015379108354637
 20
3.468382264738465
 30
0.0
 40
4.0
  1
-
  0
TEXT
  5
10995
  8
0
  6
CONTINUOUS
 62
     3
 10
114.0478918479656
 20
15.24946032825591
 30
0.0
 40
4.0
  1
SHOT BLAST
  0
TEXT
  5
10996
  8
0
  6
CONTINUOUS
 62
     3
 10
126.827723857951
 20
3.468382264738465
 30
0.0
 40
4.0
  1
-
  0
TEXT
  5
10997
  8
0
 62
     7
 10
137.2655367325842
 20
54.760615086423059
 30
0.0
 40
4.0
  1
CODE : 159125
  0
INSERT
  5
10998
  8
0
  6
CONTINUOUS
  2
*U230
 10
0.0
 20
0.0
 30
0.0
  0
TEXT
  5
10999
  8
0
  6
CONTINUOUS
 62
     3
 10
29.096442498657328
 20
4.3114532874629381
 30
0.0
 40
4.0
  1
ISO12164-1
  0
LINE
  5
1099A
  8
0
  6
CENTER
 62
     2
 10
63.099964680445389
 20
135.97403151302211
 30
0.0
 11
227.09996468044531
 21
135.97403151302211
 31
0.0
  0
LINE
  5
1099B
  8
0
  6
CONTINUOUS
 10
65.099964680445396
 20
169.57426636224429
 30
0.0
 11
65.099964680445396
 21
147.4840315130219
 31
0.0
  0
LINE
  5
1099C
  8
0
  6
CONTINUOUS
 10
115.0999646804454
 20
185.47403151302211
 30
0.0
 11
115.0999646804454
 21
135.97403151302211
 31
0.0
  0
LINE
  5
1099D
  8
0
  6
CONTINUOUS
 10
144.0999646804454
 20
184.9740315130224
 30
0.0
 11
144.09996468044591
 21
135.97403151302211
 31
0.0
  0
LINE
  5
1099E
  8
0
  6
CONTINUOUS
 10
115.5999646804454
 20
185.97403151302211
 30
0.0
 11
131.85236941625371
 21
185.9740315130224
 31
0.0
  0
LINE
  5
1099F
  8
0
  6
CONTINUOUS
 10
115.5999646804454
 20
85.974031513022155
 30
0.0
 11
131.85236941625419
 21
85.974031513022155
 31
0.0
  0
LINE
  5
109A0
  8
0
  6
CONTINUOUS
 10
112.5999646804454
 20
173.8562729921413
 30
0.0
 11
113.7195799227157
 21
173.55627299214109
 31
0.0
  0
ARC
  5
109A1
  8
0
  6
CONTINUOUS
 10
114.69996468044531
 20
174.156272992141
 30
0.0
 40
0.6
 50
270.0
 51
0.0
  0
LINE
  5
109A2
  8
0
  6
CONTINUOUS
 10
113.7195799227157
 20
173.55627299214109
 30
0.0
 11
114.69996468044531
 21
173.55627299214109
 31
0.0
  0
LINE
  5
109A3
  8
0
  6
CONTINUOUS
 10
115.2999646804452
 20
174.156272992141
 30
0.0
 11
115.2999646804452
 21
174.2331990476645
 31
0.0
  0
LINE
  5
109A4
  8
0
  6
CONTINUOUS
 10
115.0999646804454
 20
175.656272992141
 30
0.0
 11
115.2999646804452
 21
174.2331990476645
 31
0.0
  0
ARC
  5
109A5
  8
0
  6
CONTINUOUS
 10
114.69996468044531
 20
97.791790033903197
 30
0.0
 40
0.6
 50
48.189685104215769
 51
90.0
  0
LINE
  5
109A6
  8
0
  6
CONTINUOUS
 10
112.5999646804467
 20
98.091790033903351
 30
0.0
 11
112.5999646804467
 21
135.97403151302211
 31
0.0
  0
LINE
  5
109A7
  8
0
  6
CONTINUOUS
 10
113.7195799227157
 20
98.391790033903206
 30
0.0
 11
113.7195799227157
 21
135.97403151302211
 31
0.0
  0
LINE
  5
109A8
  8
0
  6
CONTINUOUS
 10
115.0999646804454
 20
86.474031513022169
 30
0.0
 11
115.0999646804454
 21
135.97403151302211
 31
0.0
  0
CIRCLE
  5
109A9
  8
0
  6
CONTINUOUS
 10
100.0999646804454
 20
135.97403151302211
 30
0.0
 40
6.0
  0
ARC
  5
109AA
  8
0
  6
CONTINUOUS
 10
100.0999646804454
 20
135.97403151302211
 30
0.0
 40
6.5
 50
180.0
 51
0.0
  0
LINE
  5
109AB
  8
0
  6
CONTINUOUS
 62
     2
 10
100.0999646804454
 20
134.97403151302211
 30
0.0
 11
100.0999646804454
 21
136.97403151302211
 31
0.0
  0
LINE
  5
109AC
  8
0
  6
CONTINUOUS
 62
     2
 10
100.0999646804454
 20
133.97403151302211
 30
0.0
 11
100.0999646804454
 21
128.9740315130222
 31
0.0
  0
LINE
  5
109AD
  8
0
  6
CONTINUOUS
 62
     2
 10
100.0999646804454
 20
137.97403151302211
 30
0.0
 11
100.0999646804454
 21
142.97403151302211
 31
0.0
  0
LINE
  5
109AE
  8
0
  6
CONTINUOUS
 10
130.0999646804454
 20
125.9740315130221
 30
0.0
 11
144.0999646804454
 21
125.9740315130221
 31
0.0
  0
ARC
  5
109AF
  8
0
  6
CONTINUOUS
 10
130.0999646804454
 20
135.97403151302211
 30
0.0
 40
10.0
 50
180.0
 51
270.0
  0
LINE
  5
109B0
  8
0
  6
CONTINUOUS
 10
133.72496468044491
 20
181.9740315130224
 30
0.0
 11
136.4749646804454
 21
181.97403151302171
 31
0.0
  0
LINE
  5
109B1
  8
0
  6
CONTINUOUS
 10
133.2249646804454
 20
145.97403151302211
 30
0.0
 11
133.2249646804454
 21
183.59662677721411
 31
0.0
  0
LINE
  5
109B2
  8
0
  6
CONTINUOUS
 10
136.9749646804454
 20
145.97403151302211
 30
0.0
 11
136.9749646804454
 21
183.596626777214
 31
0.0
  0
LINE
  5
109B3
  8
0
  6
CONTINUOUS
 10
136.9749646804454
 20
183.596626777214
 30
0.0
 11
138.347559944637
 21
185.9740315130224
 31
0.0
  0
LINE
  5
109B4
  8
0
  6
CONTINUOUS
 10
133.2249646804454
 20
183.596626777214
 30
0.0
 11
131.85236941625371
 21
185.9740315130224
 31
0.0
  0
LINE
  5
109B5
  8
0
  6
CONTINUOUS
 10
138.347559944637
 20
185.9740315130224
 30
0.0
 11
143.0999646804454
 21
185.9740315130224
 31
0.0
  0
LINE
  5
109B6
  8
0
  6
CONTINUOUS
 10
136.97496468044449
 20
125.9740315130221
 30
0.0
 11
136.9749646804454
 21
88.351436248830296
 31
0.0
  0
LINE
  5
109B7
  8
0
  6
CONTINUOUS
 10
133.72496468044491
 20
89.974031513021714
 30
0.0
 11
136.4749646804454
 21
89.974031513022396
 31
0.0
  0
LINE
  5
109B8
  8
0
  6
CONTINUOUS
 10
133.22496468044449
 20
125.9740315130221
 30
0.0
 11
133.2249646804454
 21
88.351436248830296
 31
0.0
  0
LINE
  5
109B9
  8
0
  6
CONTINUOUS
 10
133.2249646804454
 20
88.351436248830296
 30
0.0
 11
131.85236941625371
 21
85.974031513021927
 31
0.0
  0
LINE
  5
109BA
  8
0
  6
CONTINUOUS
 10
136.9749646804454
 20
88.351436248830296
 30
0.0
 11
138.347559944637
 21
85.974031513021927
 31
0.0
  0
LINE
  5
109BB
  8
0
  6
CONTINUOUS
 10
138.347559944637
 20
85.974031513022396
 30
0.0
 11
143.0999646804454
 21
85.974031513022155
 31
0.0
  0
LINE
  5
109BC
  8
0
  6
CONTINUOUS
 10
131.85236941625419
 20
85.974031513022155
 30
0.0
 11
131.85236941625419
 21
97.144274882314335
 31
0.0
  0
LINE
  5
109BD
  8
0
  6
CONTINUOUS
 10
138.347559944637
 20
85.974031513022396
 30
0.0
 11
138.3475599446366
 21
97.144274882314335
 31
0.0
  0
LINE
  5
109BE
  8
0
  6
CONTINUOUS
 10
75.099964680445396
 20
135.97403151302191
 30
0.0
 11
75.099964680445396
 21
121.0901957150168
 31
0.0
  0
LINE
  5
109BF
  8
0
  6
CONTINUOUS
 10
66.599964680445396
 20
125.96403151302221
 30
0.0
 11
73.099964680445396
 21
125.96403151302221
 31
0.0
  0
ARC
  5
109C0
  8
0
  6
CONTINUOUS
 10
73.099964680445396
 20
127.96403151302221
 30
0.0
 40
2.0
 50
270.0
 51
0.0
  0
LINE
  5
109C1
  8
0
  6
CONTINUOUS
 10
65.099964680445396
 20
124.46403151302221
 30
0.0
 11
65.099964680445396
 21
102.37379666379999
 31
0.0
  0
LINE
  5
109C2
  8
0
  6
HIDDEN
 62
     3
 10
66.599964680445396
 20
162.47403151302171
 30
0.0
 11
85.096589007470925
 21
162.47403151302171
 31
0.0
  0
LINE
  5
109C3
  8
0
  6
HIDDEN
 62
     3
 10
66.599964680445396
 20
162.47403151302171
 30
0.0
 11
66.599964680445396
 21
145.9840315130221
 31
0.0
  0
LINE
  5
109C4
  8
0
  6
CONTINUOUS
 10
65.099964680445396
 20
124.46403151302221
 30
0.0
 11
66.599964680445396
 21
125.96403151302221
 31
0.0
  0
LINE
  5
109C5
  8
0
  6
CONTINUOUS
 10
66.599964680445396
 20
125.96403151302221
 30
0.0
 11
66.599964680445396
 21
121.515195715017
 31
0.0
  0
LINE
  5
109C6
  8
0
  6
HIDDEN
 62
     3
 10
66.599964680445396
 20
162.47403151302171
 30
0.0
 11
65.099964680445396
 21
163.34005691680599
 31
0.0
  0
LINE
  5
109C7
  8
0
  6
CONTINUOUS
 10
75.099964680445396
 20
121.0901957150171
 30
0.0
 11
66.599964680445396
 21
121.515195715017
 31
0.0
  0
LINE
  5
109C8
  8
0
  6
CONTINUOUS
 10
66.599964680445396
 20
121.515195715017
 30
0.0
 11
65.099964680445396
 21
121.1132719263706
 31
0.0
  0
ARC
  5
109C9
  8
0
  6
HIDDEN
 62
     3
 10
78.099964680445396
 20
127.96403151302169
 30
0.0
 40
2.0
 50
270.0
 51
0.0
  0
LINE
  5
109CA
  8
0
  6
HIDDEN
 62
     3
 10
80.099964680445396
 20
127.96403151302169
 30
0.0
 11
80.099964680445396
 21
135.97403151302171
 31
0.0
  0
LINE
  5
109CB
  8
0
  6
HIDDEN
 62
     3
 10
73.099964680445396
 20
125.96403151302221
 30
0.0
 11
78.099964680444941
 21
125.96403151302169
 31
0.0
  0
LINE
  5
109CC
  8
0
  6
HIDDEN
 62
     3
 10
88.560690622609044
 20
167.4740315130222
 30
0.0
 11
105.35317033563609
 21
167.4740315130222
 31
0.0
  0
LINE
  5
109CD
  8
0
  6
HIDDEN
 62
     3
 10
85.096589007470925
 20
162.47403151302191
 30
0.0
 11
87.694665218824525
 21
166.97403151302211
 31
0.0
  0
ARC
  5
109CE
  8
0
  6
HIDDEN
 62
     3
 10
88.560690622609044
 20
166.4740315130222
 30
0.0
 40
1.0
 50
90.0
 51
150.00000000000389
  0
LINE
  5
109CF
  8
0
  6
HIDDEN
 62
     3
 10
115.0999646804454
 20
162.47403151302171
 30
0.0
 11
115.0999646804454
 21
135.97403151302211
 31
0.0
  0
LINE
  5
109D0
  8
0
  6
HIDDEN
 62
     3
 10
115.0999646804454
 20
162.47403151302171
 30
0.0
 11
124.3999646804446
 21
162.47403151302191
 31
0.0
  0
LINE
  5
109D1
  8
0
  6
HIDDEN
 62
     3
 10
85.096589007470925
 20
162.47403151302171
 30
0.0
 11
85.096589007470925
 21
135.97403151302211
 31
0.0
  0
LINE
  5
109D2
  8
0
  6
HIDDEN
 62
     3
 10
87.983340353419521
 20
167.29052809395
 30
0.0
 11
87.983340353419521
 21
135.97403151302211
 31
0.0
  0
LINE
  5
109D3
  8
0
  6
HIDDEN
 62
     3
 10
127.5999646804454
 20
160.87403151302249
 30
0.0
 11
127.5999646804454
 21
135.97403151302211
 31
0.0
  0
ARC
  5
109D4
  8
0
  6
HIDDEN
 62
     3
 10
125.5999646804454
 20
160.87403151302249
 30
0.0
 40
2.0
 50
0.0
 51
126.86989764587
  0
LINE
  5
109D5
  8
0
  6
HIDDEN
 62
     3
 10
143.5999646804454
 20
148.47403151302211
 30
0.0
 11
143.5999646804454
 21
135.97403151302211
 31
0.0
  0
LINE
  5
109D6
  8
0
  6
HIDDEN
 62
     3
 10
127.89996468044529
 20
147.97403151302211
 30
0.0
 11
137.5999646804454
 21
147.97403151302211
 31
0.0
  0
LINE
  5
109D7
  8
0
  6
CONTINUOUS
 10
144.0999646804454
 20
86.974031513022155
 30
0.0
 11
144.0999646804454
 21
135.97403151302211
 31
0.0
  0
LINE
  5
109D8
  8
0
  6
HIDDEN
 62
     3
 10
128.5999646804454
 20
147.27403151302209
 30
0.0
 11
137.5999646804454
 21
147.27403151302209
 31
0.0
  0
LINE
  5
109D9
  8
0
  6
HIDDEN
 62
     3
 10
128.5999646804454
 20
147.27403151302209
 30
0.0
 11
127.5999646804454
 21
148.27403151302209
 31
0.0
  0
LINE
  5
109DA
  8
0
  6
HIDDEN
 62
     3
 10
128.5999646804454
 20
147.27403151302209
 30
0.0
 11
128.5999646804454
 21
135.97403151302211
 31
0.0
  0
LINE
  5
109DB
  8
0
  6
HIDDEN
 62
     3
 10
137.5999646804454
 20
148.47403151302211
 30
0.0
 11
137.5999646804454
 21
135.97403151302211
 31
0.0
  0
LINE
  5
109DC
  8
0
  6
HIDDEN
 62
     3
 10
137.5999646804454
 20
148.47403151302211
 30
0.0
 11
143.5999646804454
 21
148.47403151302211
 31
0.0
  0
LINE
  5
109DD
  8
0
  6
HIDDEN
 62
     3
 10
117.0999646804454
 20
185.9740315130224
 30
0.0
 11
117.0999646804454
 21
181.374031513022
 31
0.0
  0
LINE
  5
109DE
  8
0
  6
HIDDEN
 62
     3
 10
127.0999646804454
 20
185.9740315130224
 30
0.0
 11
127.0999646804454
 21
181.3740315130226
 31
0.0
  0
LINE
  5
109DF
  8
0
  6
HIDDEN
 62
     3
 10
117.39996468044509
 20
181.07403151302199
 30
0.0
 11
126.7999646804456
 21
181.0740315130227
 31
0.0
  0
ARC
  5
109E0
  8
0
  6
HIDDEN
 62
     3
 10
117.39996468044509
 20
181.374031513022
 30
0.0
 40
0.3
 50
180.0
 51
270.0
  0
ARC
  5
109E1
  8
0
  6
HIDDEN
 62
     3
 10
126.7999646804456
 20
181.3740315130226
 30
0.0
 40
0.3
 50
270.0
 51
0.0
  0
LINE
  5
109E2
  8
0
  6
HIDDEN
 62
     3
 10
122.0999646804454
 20
180.07403151302219
 30
0.0
 11
123.8320154880149
 21
181.0740315130225
 31
0.0
  0
LINE
  5
109E3
  8
0
  6
HIDDEN
 62
     3
 10
122.09996468044579
 20
180.0740315130225
 30
0.0
 11
120.3679138728772
 21
181.07403151302219
 31
0.0
  0
LINE
  5
109E4
  8
0
  6
CONTINUOUS
 10
115.5999646804454
 20
85.974031513022155
 30
0.0
 11
115.0999646804454
 21
86.474031513022169
 31
0.0
  0
LINE
  5
109E5
  8
0
  6
CONTINUOUS
 10
115.5999646804454
 20
85.974031513022155
 30
0.0
 11
115.5999646804454
 21
135.97403151302211
 31
0.0
  0
LINE
  5
109E6
  8
0
  6
CONTINUOUS
 10
115.0999646804454
 20
185.47403151302211
 30
0.0
 11
115.5999646804454
 21
185.97403151302211
 31
0.0
  0
LINE
  5
109E7
  8
0
  6
CONTINUOUS
 10
133.22496468044491
 20
104.4740315130224
 30
0.0
 11
129.7368625396503
 21
104.4740315130224
 31
0.0
  0
LINE
  5
109E8
  8
0
  6
CONTINUOUS
 10
131.85236941625419
 20
97.144274882314335
 30
0.0
 11
120.0999646804454
 21
97.144274882314335
 31
0.0
  0
ARC
  5
109E9
  8
0
  6
CONTINUOUS
 10
129.7368625396503
 20
94.474031513022155
 30
0.0
 40
10.0
 50
90.0
 51
164.51272600120441
  0
LINE
  5
109EA
  8
0
  6
CONTINUOUS
 10
131.85236941625419
 20
97.144274882314335
 30
0.0
 11
133.22496468044491
 21
102.45165092929879
 31
0.0
  0
LINE
  5
109EB
  8
0
  6
CONTINUOUS
 10
136.9749646804454
 20
102.45165092929879
 30
0.0
 11
138.347559944637
 21
97.144274882314335
 31
0.0
  0
LINE
  5
109EC
  8
0
  6
CONTINUOUS
 10
138.3475599446366
 20
97.144274882314335
 30
0.0
 11
144.0999646804454
 21
97.144274882314335
 31
0.0
  0
LINE
  5
109ED
  8
0
  6
CONTINUOUS
 10
136.9749646804454
 20
104.4740315130224
 30
0.0
 11
144.0999646804454
 21
104.4740315130221
 31
0.0
  0
LINE
  5
109EE
  8
0
  6
CONTINUOUS
 10
131.85236941625419
 20
104.4740315130224
 30
0.0
 11
131.85236941625419
 21
125.9740315130221
 31
0.0
  0
LINE
  5
109EF
  8
0
  6
CONTINUOUS
 10
138.3475599446366
 20
104.4740315130224
 30
0.0
 11
138.347559944637
 21
125.9740315130221
 31
0.0
  0
ARC
  5
109F0
  8
0
  6
CONTINUOUS
 10
143.0999646804454
 20
184.9740315130224
 30
0.0
 40
1.0
 50
0.0
 51
90.0
  0
ARC
  5
109F1
  8
0
  6
CONTINUOUS
 10
143.0999646804454
 20
86.974031513022155
 30
0.0
 40
1.0
 50
270.0
 51
0.0
  0
ARC
  5
109F2
  8
0
  6
CONTINUOUS
 10
133.7249646804454
 20
182.4740315130224
 30
0.0
 40
0.5
 50
179.9999999999967
 51
269.99999999998698
  0
ARC
  5
109F3
  8
0
  6
CONTINUOUS
 10
136.4749646804454
 20
182.47403151302171
 30
0.0
 40
0.5
 50
269.99999999998698
 51
0.0
  0
ARC
  5
109F4
  8
0
  6
CONTINUOUS
 10
133.7249646804454
 20
89.474031513021714
 30
0.0
 40
0.5
 50
90.000000000013031
 51
180.00000000000321
  0
ARC
  5
109F5
  8
0
  6
CONTINUOUS
 10
136.4749646804454
 20
89.474031513022396
 30
0.0
 40
0.5
 50
0.0
 51
90.000000000013031
  0
LINE
  5
109F6
  8
0
  6
CONTINUOUS
 10
66.999892459419243
 20
171.57176118090561
 30
0.0
 11
112.5999646804454
 21
173.8562729921413
 31
0.0
  0
ARC
  5
109F7
  8
0
  6
CONTINUOUS
 10
67.099964680445396
 20
169.57426636224429
 30
0.0
 40
2.0
 50
92.868055555556964
 51
180.0
  0
ARC
  5
109F8
  8
0
  6
HIDDEN
 62
     3
 10
105.35317033563609
 20
155.47403151302211
 30
0.0
 40
12.0
 50
35.685334712651027
 51
90.0
  0
LINE
  5
109F9
  8
0
  6
HIDDEN
 62
     3
 10
124.3999646804446
 20
162.47403151302191
 30
0.0
 11
124.3999646804446
 21
135.97403151302211
 31
0.0
  0
LINE
  5
109FA
  8
0
  6
CONTINUOUS
 10
112.5999646804454
 20
98.09179003390301
 30
0.0
 11
113.7195799227157
 21
98.391790033903206
 31
0.0
  0
LINE
  5
109FB
  8
0
  6
CONTINUOUS
 10
113.7195799227157
 20
98.391790033903206
 30
0.0
 11
114.69996468044531
 21
98.391790033903206
 31
0.0
  0
LINE
  5
109FC
  8
0
  6
CONTINUOUS
 10
66.999892459419243
 20
100.3763018451387
 30
0.0
 11
112.5999646804454
 21
98.09179003390301
 31
0.0
  0
ARC
  5
109FD
  8
0
  6
CONTINUOUS
 10
67.099964680445396
 20
102.37379666379999
 30
0.0
 40
2.0
 50
180.0
 51
267.13194444444309
  0
DIMENSION
  5
109FE
  8
0
  6
CONTINUOUS
  2
*D117
 10
225.09996468044559
 20
74.183891839882506
 30
0.0
 11
170.09996468044551
 21
76.2838918398825
 31
0.0
 70
     0
 13
115.0999646804454
 23
86.474031513022169
 33
0.0
 14
225.09996468044559
 24
107.65223077537669
 34
0.0
1001
ACAD
1000
DSTYLE
1002
{
1070
   287
1070
     2
1070
    42
1040
0.6
1070
    43
1040
1.0
1070
    44
1040
1.0
1070
    47
1040
0.1
1070
    48
1040
0.1
1070
    73
1070
     0
1070
   140
1040
3.0
1070
   141
1040
-0.3
1070
   146
1040
0.7
1070
   147
1040
0.6
1070
   178
1070
     3
1070
   271
1070
     8
1070
   272
1070
     8
1070
   275
1070
     1
1070
   283
1070
     0
1070
   284
1070
     8
1070
   289
1070
     2
1002
}
  0
DIMENSION
  5
109FF
  8
0
  6
CONTINUOUS
  2
*D118
 10
225.09996468044559
 20
66.183891839882534
 30
0.0
 11
145.09996468044551
 21
68.283891839882529
 31
0.0
 70
     0
 13
65.099964680445396
 23
102.37379666379999
 33
0.0
 14
225.09996468044559
 24
107.65223077537669
 34
0.0
1001
ACAD
1000
DSTYLE
1002
{
1070
   287
1070
     2
1070
    42
1040
0.6
1070
    43
1040
1.0
1070
    44
1040
1.0
1070
    47
1040
0.1
1070
    48
1040
0.1
1070
    73
1070
     0
1070
   140
1040
3.0
1070
   141
1040
-0.3
1070
   146
1040
0.7
1070
   147
1040
0.6
1070
   178
1070
     3
1070
   271
1070
     8
1070
   272
1070
     8
1070
   275
1070
     1
1070
   283
1070
     0
1070
   284
1070
     8
1070
   289
1070
     2
1002
}
  0
LINE
  5
10A00
  8
0
  6
PHANTOM
 62
     4
 10
105.0999646804453
 20
176.4777791721973
 30
0.0
 11
105.0999646804453
 21
95.470283853847292
 31
0.0
  0
LINE
  5
10A01
  8
0
  6
HIDDEN
 62
     3
 10
144.0999646804454
 20
141.974031513022
 30
0.0
 11
145.2050717632014
 21
141.97403151302211
 31
0.0
  0
LINE
  5
10A02
  8
0
  6
HIDDEN
 62
     3
 10
144.0999646804454
 20
141.97403151302211
 30
0.0
 11
144.0999646804454
 21
135.97403151302211
 31
0.0
  0
LINE
  5
10A03
  8
0
  6
HIDDEN
 62
     3
 10
144.0999646804454
 20
141.97403151302211
 30
0.0
 11
143.5999646804454
 21
142.47403151302211
 31
0.0
  0
ARC
  5
10A04
  8
0
  6
CONTINUOUS
 10
145.09996468044551
 20
174.474031513022
 30
0.0
 40
1.0
 50
180.0
 51
270.0
  0
ARC
  5
10A05
  8
0
  6
CONTINUOUS
 10
145.0999646804454
 20
97.474031513022027
 30
0.0
 40
1.0
 50
90.0
 51
180.0
1001
ACAD
1000
ASC_BOUNDS
1002
{
1070
    19
1002
}
  0
LINE
  5
10A06
  8
0
  6
HIDDEN
 62
     3
 10
148.09996468044551
 20
135.97403151302211
 30
0.0
 11
148.09996468044551
 21
143.52403151302221
 31
0.0
  0
DIMENSION
  5
10A07
  8
0
  6
CONTINUOUS
  2
*D119
 10
256.21194271374247
 20
167.97403151302211
 30
0.0
 11
254.11194271374239
 21
135.97403151302211
 31
0.0
 70
     0
 13
213.7574010412103
 23
103.9740315130221
 33
0.0
 14
213.7574010412099
 24
167.97403151302211
 34
0.0
 50
90.0
1001
ACAD
1000
DSTYLE
1002
{
1070
   287
1070
     2
1070
     3
1000
%%C<>
1070
    42
1040
0.6
1070
    43
1040
1.0
1070
    44
1040
1.0
1070
    47
1040
-0.03
1070
    48
1040
0.02
1070
    73
1070
     0
1070
   140
1040
3.0
1070
   141
1040
-0.35
1070
   146
1040
0.7
1070
   147
1040
0.6
1070
   178
1070
     3
1070
   179
1070
     8
1070
   271
1070
     8
1070
   272
1070
     8
1070
   275
1070
     1
1070
   283
1070
     0
1070
   284
1070
     8
1070
   289
1070
     2
1002
}
  0
LINE
  5
10A08
  8
0
  6
HIDDEN
 62
     3
 10
162.0999646804454
 20
152.22403151302211
 30
0.0
 11
162.0999646804454
 21
135.97403151302211
 31
0.0
1001
ACAD
1000
ASC_BOUNDS
1002
{
1070
    19
1002
}
  0
LINE
  5
10A09
  8
0
  6
HIDDEN
 62
     3
 10
148.0999646804454
 20
143.974031513022
 30
0.0
 11
148.0999646804454
 21
135.97403151302211
 31
0.0
1001
ACAD
1000
ASC_BOUNDS
1002
{
1070
    19
1002
}
  0
LINE
  5
10A0A
  8
0
  6
HIDDEN
 62
     3
 10
146.0999646804454
 20
143.52403151302209
 30
0.0
 11
146.0999646804454
 21
135.97403151302211
 31
0.0
1001
ACAD
1000
ASC_BOUNDS
1002
{
1070
    19
1002
}
  0
LINE
  5
10A0B
  8
0
  6
HIDDEN
 62
     3
 10
163.09996468044531
 20
153.27403151302209
 30
0.0
 11
163.0999646804454
 21
135.97403151302211
 31
0.0
1001
ACAD
1000
ASC_BOUNDS
1002
{
1070
    19
1002
}
  0
LINE
  5
10A0C
  8
0
  6
CONTINUOUS
 10
225.0999646804454
 20
164.2958322506675
 30
0.0
 11
225.09996468044559
 21
107.65223077537669
 31
0.0
  0
LINE
  5
10A0D
  8
0
  6
HIDDEN
 62
     3
 10
165.48034943817461
 20
153.77403151302209
 30
0.0
 11
165.48034943817461
 21
135.97403151302211
 31
0.0
  0
LINE
  5
10A0E
  8
0
  6
HIDDEN
 62
     3
 10
174.8320154880135
 20
155.17403151302219
 30
0.0
 11
174.8320154880135
 21
154.07403151302211
 31
0.0
  0
ARC
  5
10A0F
  8
0
  6
HIDDEN
 62
     3
 10
175.8320154880135
 20
154.07403151302211
 30
0.0
 40
1.0
 50
180.0
 51
270.0
  0
LINE
  5
10A10
  8
0
  6
HIDDEN
 62
     3
 10
161.5999646804454
 20
143.57403151302199
 30
0.0
 11
161.5999646804454
 21
135.97403151302211
 31
0.0
1001
ACAD
1000
ASC_BOUNDS
1002
{
1070
    19
1002
}
  0
LINE
  5
10A11
  8
0
  6
CONTINUOUS
 62
     2
 10
151.59996468044551
 20
121.4740315130222
 30
0.0
 11
153.59996468044551
 21
121.4740315130222
 31
0.0
  0
LINE
  5
10A12
  8
0
 62
     0
 10
145.0999646804454
 20
98.474031513022027
 30
0.0
 11
158.76983766152321
 21
98.474031513022027
 31
0.0
1001
ACAD
1000
ASC_BOUNDS
1002
{
1070
    19
1002
}
  0
ARC
  5
10A13
  8
0
  6
CONTINUOUS
 10
152.59996468044551
 20
121.4740315130222
 30
0.0
 40
5.5499999999999989
 50
0.0
 51
180.0
  0
CIRCLE
  5
10A14
  8
0
  6
CONTINUOUS
 10
152.59996468044551
 20
121.4740315130222
 30
0.0
 40
3.8999999999999999
  0
CIRCLE
  5
10A15
  8
0
  6
CONTINUOUS
 10
152.59996468044551
 20
121.4740315130222
 30
0.0
 40
4.2999999999999989
  0
ARC
  5
10A16
  8
0
  6
CONTINUOUS
 62
     2
 10
152.59996468044551
 20
121.4740315130222
 30
0.0
 40
5.0
 50
258.51078572523068
 51
165.48820019012109
  0
LINE
  5
10A17
  8
0
  6
CONTINUOUS
 62
     2
 10
150.59996468044551
 20
121.4740315130222
 30
0.0
 11
146.0499646804455
 21
121.4740315130222
 31
0.0
  0
LINE
  5
10A18
  8
0
  6
CONTINUOUS
 10
159.92453819990251
 20
98.841038351166588
 30
0.0
 11
159.92453819990251
 21
135.97403151302211
 31
0.0
  0
LINE
  5
10A19
  8
0
  6
CONTINUOUS
 10
162.5226144112558
 20
102.974031513022
 30
0.0
 11
160.50188846909199
 21
99.474031513022041
 31
0.0
  0
ARC
  5
10A1A
  8
0
  6
CONTINUOUS
 10
164.2546652188247
 20
101.974031513022
 30
0.0
 40
2.0
 50
90.0
 51
149.9999999999998
1001
ACAD
1000
ASC_BOUNDS
1002
{
1070
    19
1002
}
  0
ARC
  5
10A1B
  8
0
  6
CONTINUOUS
 10
158.76983766152321
 20
100.474031513022
 30
0.0
 40
2.0
 50
270.0
 51
330.00000000000028
  0
LINE
  5
10A1C
  8
0
  6
CONTINUOUS
 62
     2
 10
152.59996468044551
 20
120.4740315130222
 30
0.0
 11
152.59996468044551
 21
122.4740315130222
 31
0.0
  0
LINE
  5
10A1D
  8
0
  6
CONTINUOUS
 62
     2
 10
152.59996468044551
 20
119.4740315130222
 30
0.0
 11
152.59996468044551
 21
114.9240315130222
 31
0.0
  0
LINE
  5
10A1E
  8
0
  6
CONTINUOUS
 62
     2
 10
152.59996468044551
 20
123.4740315130222
 30
0.0
 11
152.59996468044551
 21
128.02403151302221
 31
0.0
  0
LINE
  5
10A1F
  8
0
  6
CONTINUOUS
 62
     2
 10
154.59996468044551
 20
121.4740315130222
 30
0.0
 11
159.14996468044541
 21
121.4740315130222
 31
0.0
  0
LINE
  5
10A20
  8
0
  6
CONTINUOUS
 10
223.4472610357796
 20
105.6826152693522
 30
0.0
 11
213.92972006949239
 21
104.0044160069976
 31
0.0
  0
LINE
  5
10A21
  8
0
  6
CONTINUOUS
 10
213.75740104121039
 20
103.981700482541
 30
0.0
 11
213.7574010412105
 21
135.97403151302211
 31
0.0
  0
LINE
  5
10A22
  8
0
  6
CONTINUOUS
 10
205.70603755241279
 20
103.97403151302269
 30
0.0
 11
205.70603755241279
 21
135.97403151302211
 31
0.0
  0
LINE
  5
10A23
  8
0
  6
CONTINUOUS
 10
205.2864877452439
 20
104.3509640880071
 30
0.0
 11
205.28648774524439
 21
135.97403151302211
 31
0.0
  0
ARC
  5
10A24
  8
0
  6
CONTINUOUS
 10
213.58242371415849
 20
105.9740315130221
 30
0.0
 40
2.0
 50
270.0
 51
279.99999999999858
  0
LINE
  5
10A25
  8
0
 62
     0
 10
205.70603755241311
 20
103.974031513022
 30
0.0
 11
213.58242371415849
 21
103.9740315130221
 31
0.0
1001
ACAD
1000
ASC_BOUNDS
1002
{
1070
    19
1002
}
  0
ARC
  5
10A26
  8
0
  6
CONTINUOUS
 10
223.09996468044559
 20
107.65223077537669
 30
0.0
 40
2.0
 50
279.99999999999858
 51
0.0
  0
LINE
  5
10A27
  8
0
  6
HIDDEN
 62
     3
 10
161.5999646804454
 20
143.52403151302209
 30
0.0
 11
146.0999646804454
 21
143.52403151302209
 31
0.0
  0
LINE
  5
10A28
  8
0
  6
HIDDEN
 62
     3
 10
148.0999646804454
 20
143.97403151302211
 30
0.0
 11
161.99996468044549
 21
143.97403151302211
 31
0.0
1001
ACAD
1000
ASC_BOUNDS
1002
{
1070
    19
1002
}
  0
LINE
  5
10A29
  8
0
 62
     0
 10
145.09996468044551
 20
173.474031513022
 30
0.0
 11
158.76983766152321
 21
173.474031513022
 31
0.0
1001
ACAD
1000
ASC_BOUNDS
1002
{
1070
    19
1002
}
  0
LINE
  5
10A2A
  8
0
  6
HIDDEN
 62
     3
 10
148.0999646804454
 20
143.97403151302211
 30
0.0
 11
147.32054181703941
 21
143.52403151302209
 31
0.0
  0
LINE
  5
10A2B
  8
0
  6
HIDDEN
 62
     3
 10
174.8320154880135
 20
155.17403151302219
 30
0.0
 11
218.59996468044551
 21
155.17403151302219
 31
0.0
1001
ACAD
1000
ASC_BOUNDS
1002
{
1070
    19
1002
}
  0
LINE
  5
10A2C
  8
0
  6
CONTINUOUS
 10
162.52261441125609
 20
168.974031513022
 30
0.0
 11
160.50188846909199
 21
172.47403151302211
 31
0.0
  0
ARC
  5
10A2D
  8
0
  6
CONTINUOUS
 10
164.2546652188249
 20
169.97403151302211
 30
0.0
 40
2.0
 50
210.00000000000381
 51
270.0
1001
ACAD
1000
ASC_BOUNDS
1002
{
1070
    19
1002
}
  0
LINE
  5
10A2E
  8
0
  6
HIDDEN
 62
     3
 10
162.0999646804454
 20
152.22403151302211
 30
0.0
 11
163.0999646804454
 21
152.22403151302211
 31
0.0
1001
ACAD
1000
ASC_BOUNDS
1002
{
1070
    19
1002
}
  0
LINE
  5
10A2F
  8
0
  6
HIDDEN
 62
     3
 10
161.5999646804454
 20
143.57403151302199
 30
0.0
 11
162.0999646804454
 21
144.07403151302199
 31
0.0
  0
ARC
  5
10A30
  8
0
  6
CONTINUOUS
 10
158.76983766152321
 20
171.474031513022
 30
0.0
 40
2.0
 50
30.000000000003769
 51
90.0
  0
LINE
  5
10A31
  8
0
  6
CONTINUOUS
 10
223.44726103577921
 20
166.26544775669191
 30
0.0
 11
213.92972006949179
 21
167.94364701904649
 31
0.0
  0
ARC
  5
10A32
  8
0
  6
CONTINUOUS
 10
213.58242371415801
 20
165.97403151302211
 30
0.0
 40
2.0
 50
80.000000000001407
 51
90.0
  0
LINE
  5
10A33
  8
0
 62
     0
 10
205.70603755241291
 20
167.97403151302211
 30
0.0
 11
213.58242371415801
 21
167.97403151302211
 31
0.0
1001
ACAD
1000
ASC_BOUNDS
1002
{
1070
    19
1002
}
  0
ARC
  5
10A34
  8
0
  6
CONTINUOUS
 10
223.0999646804454
 20
164.2958322506675
 30
0.0
 40
2.0
 50
0.0
 51
80.000000000001407
  0
LINE
  5
10A35
  8
0
  6
CONTINUOUS
 10
203.0999646804452
 20
167.4740315130222
 30
0.0
 11
205.0999646804452
 21
167.4740315130222
 31
0.0
  0
LINE
  5
10A36
  8
0
  6
CONTINUOUS
 10
196.09996468044511
 20
167.4740315130222
 30
0.0
 11
198.0999646804452
 21
167.4740315130222
 31
0.0
  0
ARC
  5
10A37
  8
0
  6
CONTINUOUS
 62
     7
 10
198.0999646804452
 20
167.6740315130223
 30
0.0
 40
0.2
 50
270.0
 51
329.99999999999261
  0
LINE
  5
10A38
  8
0
  6
CONTINUOUS
 62
     7
 10
198.27316976120201
 20
167.57403151302231
 30
0.0
 11
198.38863981503999
 21
167.77403151302241
 31
0.0
  0
ARC
  5
10A39
  8
0
  6
CONTINUOUS
 62
     7
 10
198.7350499765538
 20
167.57403151302239
 30
0.0
 40
0.4
 50
90.0
 51
149.99999999998849
  0
LINE
  5
10A3A
  8
0
  6
CONTINUOUS
 62
     7
 10
198.7350499765538
 20
167.97403151302231
 30
0.0
 11
202.4648793843364
 21
167.97403151302231
 31
0.0
  0
ARC
  5
10A3B
  8
0
  6
CONTINUOUS
 62
     7
 10
202.4648793843364
 20
167.57403151302239
 30
0.0
 40
0.4
 50
29.99999999998883
 51
90.0
  0
LINE
  5
10A3C
  8
0
  6
CONTINUOUS
 62
     7
 10
202.9267595996881
 20
167.57403151302231
 30
0.0
 11
202.81128954585029
 21
167.77403151302229
 31
0.0
  0
ARC
  5
10A3D
  8
0
  6
CONTINUOUS
 62
     7
 10
203.0999646804452
 20
167.6740315130223
 30
0.0
 40
0.2
 50
209.9999999999925
 51
270.0
  0
LINE
  5
10A3E
  8
0
  6
CONTINUOUS
 62
     7
 10
205.27316976120201
 20
167.57403151302231
 30
0.0
 11
205.38863981503991
 21
167.77403151302221
 31
0.0
  0
ARC
  5
10A3F
  8
0
  6
CONTINUOUS
 62
     7
 10
205.0999646804452
 20
167.6740315130223
 30
0.0
 40
0.2
 50
270.0
 51
329.99999999999261
  0
ARC
  5
10A40
  8
0
  6
CONTINUOUS
 10
205.73504997655371
 20
167.57403151302211
 30
0.0
 40
0.4
 50
90.000000000058634
 51
149.99999999998849
  0
LINE
  5
10A41
  8
0
  6
CONTINUOUS
 10
203.0999646804452
 20
104.4740315130219
 30
0.0
 11
205.0999646804452
 21
104.4740315130219
 31
0.0
  0
LINE
  5
10A42
  8
0
  6
CONTINUOUS
 10
196.09996468044511
 20
104.4740315130219
 30
0.0
 11
198.0999646804452
 21
104.4740315130219
 31
0.0
  0
ARC
  5
10A43
  8
0
  6
CONTINUOUS
 62
     7
 10
198.0999646804452
 20
104.274031513022
 30
0.0
 40
0.2
 50
30.000000000007411
 51
90.0
  0
LINE
  5
10A44
  8
0
  6
CONTINUOUS
 62
     7
 10
198.27316976120201
 20
104.374031513022
 30
0.0
 11
198.38863981503999
 21
104.1740315130218
 31
0.0
  0
ARC
  5
10A45
  8
0
  6
CONTINUOUS
 62
     7
 10
198.7350499765538
 20
104.3740315130219
 30
0.0
 40
0.4
 50
210.00000000000739
 51
270.0
  0
LINE
  5
10A46
  8
0
  6
CONTINUOUS
 62
     7
 10
198.7350499765538
 20
103.9740315130219
 30
0.0
 11
202.4648793843364
 21
103.9740315130219
 31
0.0
  0
ARC
  5
10A47
  8
0
  6
CONTINUOUS
 62
     7
 10
202.4648793843364
 20
104.3740315130219
 30
0.0
 40
0.4
 50
270.0
 51
330.0000000000112
  0
LINE
  5
10A48
  8
0
  6
CONTINUOUS
 62
     7
 10
202.9267595996881
 20
104.374031513022
 30
0.0
 11
202.81128954585029
 21
104.1740315130219
 31
0.0
  0
ARC
  5
10A49
  8
0
  6
CONTINUOUS
 62
     7
 10
203.0999646804452
 20
104.274031513022
 30
0.0
 40
0.2
 50
90.0
 51
150.00000000000389
  0
LINE
  5
10A4A
  8
0
  6
CONTINUOUS
 62
     7
 10
205.27316976120201
 20
104.374031513022
 30
0.0
 11
205.38863981503991
 21
104.174031513022
 31
0.0
  0
ARC
  5
10A4B
  8
0
  6
CONTINUOUS
 62
     7
 10
205.0999646804452
 20
104.274031513022
 30
0.0
 40
0.2
 50
30.000000000007411
 51
90.0
  0
ARC
  5
10A4C
  8
0
  6
CONTINUOUS
 10
205.73504997655371
 20
104.3740315130221
 30
0.0
 40
0.4
 50
210.00000000000739
 51
269.99999999994139
  0
LINE
  5
10A4D
  8
0
  6
CONTINUOUS
 10
202.99996468044509
 20
104.4472365937788
 30
0.0
 11
202.99996468044509
 21
135.97403151302211
 31
0.0
  0
LINE
  5
10A4E
  8
0
  6
CONTINUOUS
 10
202.6648793843365
 20
104.0276213515082
 30
0.0
 11
202.6648793843365
 21
135.97403151302211
 31
0.0
  0
LINE
  5
10A4F
  8
0
  6
CONTINUOUS
 10
198.53504997655381
 20
104.0276213515081
 30
0.0
 11
198.53504997655381
 21
135.97403151302211
 31
0.0
  0
LINE
  5
10A50
  8
0
  6
CONTINUOUS
 10
198.19996468044519
 20
104.4472365937788
 30
0.0
 11
198.19996468044519
 21
135.974031513022
 31
0.0
  0
LINE
  5
10A51
  8
0
  6
CONTINUOUS
 10
195.69581949201239
 20
104.047432880651
 30
0.0
 11
195.69581949201239
 21
135.97403151302211
 31
0.0
  0
LINE
  5
10A52
  8
0
  6
CONTINUOUS
 10
196.03090478812061
 20
104.4617300246627
 30
0.0
 11
196.03090478812069
 21
135.97403151302211
 31
0.0
  0
LINE
  5
10A53
  8
0
 62
     0
 10
164.2546652188249
 20
167.97403151302211
 30
0.0
 11
195.4648793843364
 21
167.97403151302211
 31
0.0
1001
ACAD
1000
ASC_BOUNDS
1002
{
1070
    19
1002
}
  0
LINE
  5
10A54
  8
0
  6
CONTINUOUS
 10
163.09996468044551
 20
135.97403151302211
 30
0.0
 11
163.09996468044551
 21
103.60702467487749
 31
0.0
  0
LINE
  5
10A55
  8
0
 62
     0
 10
164.2546652188247
 20
103.974031513022
 30
0.0
 11
195.4648793843364
 21
103.9740315130221
 31
0.0
1001
ACAD
1000
ASC_BOUNDS
1002
{
1070
    19
1002
}
  0
DIMENSION
  5
10A56
  8
0
  6
CONTINUOUS
  2
*D120
 10
225.09996468044559
 20
82.183891839882506
 30
0.0
 11
194.09996468044551
 21
84.284187115473074
 31
0.0
 70
     0
 13
163.09996468044551
 23
103.60702467487749
 33
0.0
 14
225.09996468044559
 24
107.65223077537669
 34
0.0
1001
ACAD
1000
DSTYLE
1002
{
1070
   287
1070
     2
1070
    42
1040
0.6
1070
    43
1040
1.0
1070
    44
1040
1.0
1070
    47
1040
0.1
1070
    48
1040
0.1
1070
    73
1070
     0
1070
   140
1040
3.0
1070
   141
1040
-1.0
1070
   146
1040
0.7
1070
   147
1040
0.6
1070
   178
1070
     3
1070
   271
1070
     8
1070
   272
1070
     8
1070
   275
1070
     1
1070
   283
1070
     0
1070
   284
1070
     8
1070
   289
1070
     2
1002
}
  0
LINE
  5
10A57
  8
0
  6
HIDDEN
 62
     3
 10
149.5999646804454
 20
143.47403151302211
 30
0.0
 11
160.0999646804454
 21
143.47403151302211
 31
0.0
  0
LINE
  5
10A58
  8
0
  6
HIDDEN
 62
     3
 10
150.0999646804454
 20
143.97403151302211
 30
0.0
 11
159.5999646804454
 21
143.97403151302211
 31
0.0
  0
LINE
  5
10A59
  8
0
  6
HIDDEN
 62
     3
 10
150.0999646804454
 20
143.97403151302211
 30
0.0
 11
150.0999646804454
 21
135.97403151302211
 31
0.0
  0
LINE
  5
10A5A
  8
0
  6
HIDDEN
 62
     3
 10
149.0999646804454
 20
142.97403151302211
 30
0.0
 11
149.0999646804454
 21
135.97403151302211
 31
0.0
  0
LINE
  5
10A5B
  8
0
  6
HIDDEN
 62
     3
 10
150.0999646804454
 20
143.97403151302211
 30
0.0
 11
149.0999646804454
 21
142.97403151302211
 31
0.0
  0
LINE
  5
10A5C
  8
0
  6
HIDDEN
 62
     3
 10
163.89996468044529
 20
143.97403151302211
 30
0.0
 11
163.89996468044529
 21
135.97403151302211
 31
0.0
  0
LINE
  5
10A5D
  8
0
  6
HIDDEN
 62
     3
 10
164.0999646804454
 20
143.77403151302209
 30
0.0
 11
164.0999646804454
 21
135.97403151302211
 31
0.0
  0
LINE
  5
10A5E
  8
0
  6
HIDDEN
 62
     3
 10
163.89996468044529
 20
143.97403151302211
 30
0.0
 11
164.0999646804454
 21
143.77403151302209
 31
0.0
  0
LINE
  5
10A5F
  8
0
  6
HIDDEN
 62
     3
 10
162.0999646804454
 20
143.97403151302211
 30
0.0
 11
162.0999646804454
 21
135.97403151302211
 31
0.0
  0
LINE
  5
10A60
  8
0
  6
HIDDEN
 62
     3
 10
160.3499646804454
 20
143.224031513022
 30
0.0
 11
162.0999646804454
 21
143.22403151302211
 31
0.0
  0
LINE
  5
10A61
  8
0
  6
HIDDEN
 62
     3
 10
160.3499646804454
 20
135.97403151302211
 30
0.0
 11
160.3499646804454
 21
143.224031513022
 31
0.0
  0
LINE
  5
10A62
  8
0
  6
HIDDEN
 62
     3
 10
159.5999646804454
 20
143.97403151302211
 30
0.0
 11
159.5999646804454
 21
135.97403151302211
 31
0.0
  0
LINE
  5
10A63
  8
0
  6
HIDDEN
 62
     3
 10
159.5999646804454
 20
143.97403151302211
 30
0.0
 11
160.3499646804454
 21
143.224031513022
 31
0.0
  0
LINE
  5
10A64
  8
0
  6
HIDDEN
 62
     3
 10
162.0999646804454
 20
143.97403151302211
 30
0.0
 11
163.89996468044529
 21
143.97403151302211
 31
0.0
  0
LINE
  5
10A65
  8
0
  6
HIDDEN
 62
     3
 10
146.0999646804454
 20
143.52403151302209
 30
0.0
 11
145.2050717632014
 21
141.97403151302211
 31
0.0
  0
LINE
  5
10A66
  8
0
  6
CONTINUOUS
 10
158.14996468044561
 20
113.58543851604659
 30
0.0
 11
147.0499646804455
 21
113.58543851604649
 31
0.0
  0
LINE
  5
10A67
  8
0
  6
CONTINUOUS
 10
147.0499646804455
 20
121.4740315130222
 30
0.0
 11
147.0499646804455
 21
113.58543851604659
 31
0.0
  0
LINE
  5
10A68
  8
0
  6
CONTINUOUS
 10
158.14996468044561
 20
121.4740315130222
 30
0.0
 11
158.14996468044561
 21
113.58543851604659
 31
0.0
  0
LINE
  5
10A69
  8
0
  6
HIDDEN
 62
     3
 10
145.2050717632014
 20
141.97403151302211
 30
0.0
 11
145.2050717632014
 21
135.97403151302211
 31
0.0
  0
LINE
  5
10A6A
  8
0
  6
HIDDEN
 62
     3
 10
162.09996468044531
 20
152.22403151302211
 30
0.0
 11
163.0999646804452
 21
152.22403151302211
 31
0.0
1001
ACAD
1000
ASC_BOUNDS
1002
{
1070
    19
1002
}
  0
ARC
  5
10A6B
  8
0
  6
HIDDEN
 62
     3
 10
163.59996468044531
 20
153.27403151302209
 30
0.0
 40
0.5
 50
90.0
 51
180.0
1001
ACAD
1000
ASC_BOUNDS
1002
{
1070
    19
1002
}
  0
LINE
  5
10A6C
  8
0
  6
HIDDEN
 62
     3
 10
163.59996468044531
 20
153.77403151302209
 30
0.0
 11
165.48034943817439
 21
153.77403151302209
 31
0.0
1001
ACAD
1000
ASC_BOUNDS
1002
{
1070
    19
1002
}
  0
LINE
  5
10A6D
  8
0
  6
HIDDEN
 62
     3
 10
166.09996468044551
 20
153.60800610923749
 30
0.0
 11
165.48034943817439
 21
153.77403151302209
 31
0.0
1001
ACAD
1000
ASC_BOUNDS
1002
{
1070
    19
1002
}
  0
ARC
  5
10A6E
  8
0
  6
CONTINUOUS
 62
     7
 10
195.4648793843364
 20
167.57403151302239
 30
0.0
 40
0.4
 50
29.99999999998883
 51
90.0
  0
LINE
  5
10A6F
  8
0
  6
CONTINUOUS
 62
     7
 10
195.9267595996881
 20
167.57403151302231
 30
0.0
 11
195.81128954585029
 21
167.77403151302229
 31
0.0
  0
ARC
  5
10A70
  8
0
  6
CONTINUOUS
 62
     7
 10
196.09996468044511
 20
167.6740315130223
 30
0.0
 40
0.2
 50
209.9999999999925
 51
270.0
  0
ARC
  5
10A71
  8
0
  6
CONTINUOUS
 62
     7
 10
195.4648793843364
 20
104.3740315130219
 30
0.0
 40
0.4
 50
270.0
 51
330.0000000000112
  0
LINE
  5
10A72
  8
0
  6
CONTINUOUS
 62
     7
 10
195.9267595996881
 20
104.374031513022
 30
0.0
 11
195.81128954585029
 21
104.174031513022
 31
0.0
  0
ARC
  5
10A73
  8
0
  6
CONTINUOUS
 62
     7
 10
196.09996468044511
 20
104.274031513022
 30
0.0
 40
0.2
 50
90.0
 51
150.0000000000075
  0
LINE
  5
10A74
  8
0
  6
HIDDEN
 62
     3
 10
170.3164710313915
 20
151.84903151302211
 30
0.0
 11
223.59996468044551
 21
151.84903151302211
 31
0.0
  0
LINE
  5
10A75
  8
0
  6
HIDDEN
 62
     3
 10
170.09996468044551
 20
152.22403151302211
 30
0.0
 11
170.09996468044551
 21
135.97403151302211
 31
0.0
  0
LINE
  5
10A76
  8
0
  6
HIDDEN
 62
     3
 10
166.09996468044551
 20
153.60800610923749
 30
0.0
 11
166.09996468044531
 21
135.97403151302211
 31
0.0
  0
LINE
  5
10A77
  8
0
  6
HIDDEN
 62
     3
 10
166.59996468044571
 20
152.22403151302211
 30
0.0
 11
166.59996468044531
 21
135.97403151302211
 31
0.0
  0
LINE
  5
10A78
  8
0
  6
HIDDEN
 62
     3
 10
170.3164710313915
 20
151.84903151302211
 30
0.0
 11
170.3164710313915
 21
135.97403151302211
 31
0.0
1001
ACAD
1000
ASC_BOUNDS
1002
{
1070
    19
1005
0
1002
}
  0
LINE
  5
10A79
  8
0
  6
HIDDEN
 62
     3
 10
166.59996468044571
 20
152.22403151302211
 30
0.0
 11
170.09996468044551
 21
152.22403151302211
 31
0.0
  0
LINE
  5
10A7A
  8
0
  6
HIDDEN
 62
     3
 10
218.59996468044551
 20
155.17403151302219
 30
0.0
 11
218.59996468044551
 21
154.07403151302211
 31
0.0
  0
ARC
  5
10A7B
  8
0
  6
HIDDEN
 62
     3
 10
217.59996468044551
 20
154.07403151302211
 30
0.0
 40
1.0
 50
270.0
 51
0.0
  0
ARC
  5
10A7C
  8
0
  6
HIDDEN
 62
     3
 10
223.59996468044551
 20
153.34903151302211
 30
0.0
 40
1.5
 50
270.0
 51
0.0
1001
ACAD
1000
ASC_BOUNDS
1002
{
1070
    19
1005
0
1005
0
1005
0
1002
}
  0
LINE
  5
10A7D
  8
0
  6
HIDDEN
 62
     3
 10
170.09996468044551
 20
152.22403151302211
 30
0.0
 11
170.3164710313915
 21
151.84903151302211
 31
0.0
  0
LINE
  5
10A7E
  8
0
  6
HIDDEN
 62
     3
 10
166.59996468044551
 20
152.22403151302211
 30
0.0
 11
166.09996468044531
 21
152.51270664761691
 31
0.0
  0
DIMENSION
  5
10A7F
  8
0
  6
CONTINUOUS
  2
*D121
 10
248.2119427137425
 20
151.84903151302211
 30
0.0
 11
248.2119427137425
 21
135.97403151302211
 31
0.0
 70
   128
 13
223.59996468044551
 23
120.0990315130221
 33
0.0
 14
223.59996468044551
 24
151.84903151302211
 34
0.0
 50
90.0
1001
ACAD
1000
DSTYLE
1002
{
1070
   287
1070
     2
1070
    72
1070
     0
1070
    71
1070
     0
1070
     3
1000
%%C<>
1070
    42
1040
0.6
1070
    43
1040
1.0
1070
    44
1040
1.0
1070
    47
1040
-0.03
1070
    48
1040
0.02
1070
    73
1070
     0
1070
   140
1040
3.0
1070
   141
1040
-0.35
1070
   146
1040
0.7
1070
   147
1040
0.6
1070
   178
1070
     3
1070
   179
1070
     8
1070
   271
1070
     8
1070
   272
1070
     8
1070
   275
1070
     1
1070
   283
1070
     0
1070
   284
1070
     8
1070
   289
1070
     2
1002
}
  0
LINE
  5
10A80
  8
0
  6
HIDDEN
 62
     3
 10
204.29996468044561
 20
154.57403151302211
 30
0.0
 11
205.7999646804455
 21
153.07403151302211
 31
0.0
  0
LINE
  5
10A81
  8
0
  6
HIDDEN
 62
     3
 10
187.89996468044521
 20
154.57403151302199
 30
0.0
 11
204.29996468044561
 21
154.57403151302211
 31
0.0
  0
LINE
  5
10A82
  8
0
  6
HIDDEN
 62
     3
 10
187.89996468044521
 20
154.57403151302199
 30
0.0
 11
186.39996468044541
 21
153.07403151302211
 31
0.0
  0
LINE
  5
10A83
  8
0
  6
HIDDEN
 62
     3
 10
217.59996468044551
 20
153.07403151302211
 30
0.0
 11
205.7999646804455
 21
153.07403151302211
 31
0.0
  0
LINE
  5
10A84
  8
0
  6
HIDDEN
 62
     3
 10
186.39996468044541
 20
153.07403151302211
 30
0.0
 11
175.8320154880135
 21
153.07403151302211
 31
0.0
  0
LINE
  5
10A85
  8
0
  6
CENTER
 62
     2
 10
122.09996468044579
 20
178.07403151302239
 30
0.0
 11
122.09996468044569
 21
187.9740315130222
 31
0.0
  0
LINE
  5
10A86
  8
0
  6
CONTINUOUS
 10
112.5999646804467
 20
173.8562729921409
 30
0.0
 11
112.5999646804467
 21
135.97403151302211
 31
0.0
  0
LINE
  5
10A87
  8
0
  6
CONTINUOUS
 10
113.7195799227157
 20
173.55627299214109
 30
0.0
 11
113.7195799227157
 21
135.97403151302211
 31
0.0
  0
LINE
  5
10A88
  8
0
  6
CONTINUOUS
 10
130.0999646804454
 20
145.97403151302211
 30
0.0
 11
144.0999646804454
 21
145.97403151302211
 31
0.0
  0
ARC
  5
10A89
  8
0
  6
CONTINUOUS
 10
130.0999646804454
 20
135.97403151302211
 30
0.0
 40
10.0
 50
90.0
 51
180.0
  0
LINE
  5
10A8A
  8
0
  6
CONTINUOUS
 10
75.099964680445396
 20
135.97403151302231
 30
0.0
 11
75.099964680445396
 21
150.85786731102741
 31
0.0
  0
LINE
  5
10A8B
  8
0
  6
CONTINUOUS
 10
66.599964680445396
 20
145.9840315130221
 30
0.0
 11
73.099964680445396
 21
145.9840315130221
 31
0.0
  0
ARC
  5
10A8C
  8
0
  6
CONTINUOUS
 10
73.099964680445396
 20
143.9840315130221
 30
0.0
 40
2.0
 50
0.0
 51
90.0
  0
LINE
  5
10A8D
  8
0
  6
HIDDEN
 62
     3
 10
66.599964680445396
 20
109.4740315130225
 30
0.0
 11
85.096589007470925
 21
109.4740315130225
 31
0.0
  0
LINE
  5
10A8E
  8
0
  6
HIDDEN
 62
     3
 10
66.599964680445396
 20
109.4740315130225
 30
0.0
 11
66.599964680445396
 21
125.96403151302211
 31
0.0
  0
LINE
  5
10A8F
  8
0
  6
CONTINUOUS
 10
65.099964680445396
 20
147.4840315130221
 30
0.0
 11
66.599964680445396
 21
145.9840315130221
 31
0.0
  0
LINE
  5
10A90
  8
0
  6
CONTINUOUS
 10
66.599964680445396
 20
145.9840315130221
 30
0.0
 11
66.599964680445396
 21
150.4328673110272
 31
0.0
  0
LINE
  5
10A91
  8
0
  6
HIDDEN
 62
     3
 10
66.599964680445396
 20
109.4740315130225
 30
0.0
 11
65.099964680445396
 21
108.6080061092382
 31
0.0
  0
LINE
  5
10A92
  8
0
  6
CONTINUOUS
 10
75.099964680445396
 20
150.85786731102709
 30
0.0
 11
66.599964680445396
 21
150.4328673110272
 31
0.0
  0
LINE
  5
10A93
  8
0
  6
CONTINUOUS
 10
66.599964680445396
 20
150.4328673110272
 30
0.0
 11
65.099964680445396
 21
150.83479109967359
 31
0.0
  0
ARC
  5
10A94
  8
0
  6
HIDDEN
 62
     3
 10
78.099964680445396
 20
143.9840315130225
 30
0.0
 40
2.0
 50
0.0
 51
90.0
  0
LINE
  5
10A95
  8
0
  6
HIDDEN
 62
     3
 10
80.099964680445396
 20
143.9840315130225
 30
0.0
 11
80.099964680445396
 21
135.97403151302251
 31
0.0
  0
LINE
  5
10A96
  8
0
  6
HIDDEN
 62
     3
 10
73.099964680445396
 20
145.9840315130221
 30
0.0
 11
78.099964680444941
 21
145.9840315130225
 31
0.0
  0
LINE
  5
10A97
  8
0
  6
HIDDEN
 62
     3
 10
88.560690622609044
 20
104.4740315130221
 30
0.0
 11
105.35317033563609
 21
104.4740315130221
 31
0.0
  0
LINE
  5
10A98
  8
0
  6
HIDDEN
 62
     3
 10
85.096589007470925
 20
109.4740315130223
 30
0.0
 11
87.694665218824525
 21
104.9740315130221
 31
0.0
  0
ARC
  5
10A99
  8
0
  6
HIDDEN
 62
     3
 10
88.560690622609044
 20
105.4740315130221
 30
0.0
 40
1.0
 50
209.99999999999611
 51
270.0
  0
LINE
  5
10A9A
  8
0
  6
HIDDEN
 62
     3
 10
115.0999646804454
 20
109.4740315130225
 30
0.0
 11
115.0999646804454
 21
135.97403151302211
 31
0.0
  0
LINE
  5
10A9B
  8
0
  6
HIDDEN
 62
     3
 10
115.0999646804454
 20
109.4740315130225
 30
0.0
 11
124.3999646804446
 21
109.4740315130223
 31
0.0
  0
LINE
  5
10A9C
  8
0
  6
HIDDEN
 62
     3
 10
85.096589007470925
 20
109.4740315130225
 30
0.0
 11
85.096589007470925
 21
135.97403151302211
 31
0.0
  0
LINE
  5
10A9D
  8
0
  6
HIDDEN
 62
     3
 10
87.983340353419521
 20
104.65753493209429
 30
0.0
 11
87.983340353419521
 21
135.97403151302211
 31
0.0
  0
LINE
  5
10A9E
  8
0
  6
HIDDEN
 62
     3
 10
127.5999646804454
 20
111.07403151302179
 30
0.0
 11
127.5999646804454
 21
135.97403151302211
 31
0.0
  0
ARC
  5
10A9F
  8
0
  6
HIDDEN
 62
     3
 10
125.5999646804454
 20
111.07403151302179
 30
0.0
 40
2.0
 50
233.13010235412989
 51
0.0
  0
LINE
  5
10AA0
  8
0
  6
HIDDEN
 62
     3
 10
143.5999646804454
 20
123.4740315130221
 30
0.0
 11
143.5999646804454
 21
135.97403151302211
 31
0.0
  0
LINE
  5
10AA1
  8
0
  6
HIDDEN
 62
     3
 10
127.89996468044529
 20
123.9740315130221
 30
0.0
 11
137.5999646804454
 21
123.9740315130221
 31
0.0
  0
LINE
  5
10AA2
  8
0
  6
HIDDEN
 62
     3
 10
128.5999646804454
 20
124.6740315130221
 30
0.0
 11
137.5999646804454
 21
124.6740315130221
 31
0.0
  0
LINE
  5
10AA3
  8
0
  6
HIDDEN
 62
     3
 10
128.5999646804454
 20
124.6740315130221
 30
0.0
 11
127.5999646804454
 21
123.6740315130221
 31
0.0
  0
LINE
  5
10AA4
  8
0
  6
HIDDEN
 62
     3
 10
128.5999646804454
 20
124.6740315130221
 30
0.0
 11
128.5999646804454
 21
135.97403151302211
 31
0.0
  0
LINE
  5
10AA5
  8
0
  6
HIDDEN
 62
     3
 10
137.5999646804454
 20
123.4740315130221
 30
0.0
 11
137.5999646804454
 21
135.97403151302211
 31
0.0
  0
LINE
  5
10AA6
  8
0
  6
HIDDEN
 62
     3
 10
137.5999646804454
 20
123.4740315130221
 30
0.0
 11
143.5999646804454
 21
123.4740315130221
 31
0.0
  0
LINE
  5
10AA7
  8
0
  6
CONTINUOUS
 10
115.5999646804454
 20
185.97403151302211
 30
0.0
 11
115.5999646804454
 21
135.97403151302211
 31
0.0
  0
LINE
  5
10AA8
  8
0
  6
CONTINUOUS
 10
131.85236941625419
 20
185.97403151302231
 30
0.0
 11
131.85236941625419
 21
145.97403151302211
 31
0.0
  0
LINE
  5
10AA9
  8
0
  6
CONTINUOUS
 10
138.3475599446362
 20
185.9740315130224
 30
0.0
 11
138.347559944637
 21
145.97403151302211
 31
0.0
  0
ARC
  5
10AAA
  8
0
  6
HIDDEN
 62
     3
 10
105.35317033563609
 20
116.4740315130221
 30
0.0
 40
12.0
 50
270.0
 51
324.3146652873495
  0
LINE
  5
10AAB
  8
0
  6
HIDDEN
 62
     3
 10
124.3999646804446
 20
109.4740315130223
 30
0.0
 11
124.3999646804446
 21
135.97403151302211
 31
0.0
  0
LINE
  5
10AAC
  8
0
  6
HIDDEN
 62
     3
 10
144.0999646804454
 20
129.9740315130222
 30
0.0
 11
145.2050717632014
 21
129.9740315130222
 31
0.0
  0
LINE
  5
10AAD
  8
0
  6
HIDDEN
 62
     3
 10
144.0999646804454
 20
129.97403151302211
 30
0.0
 11
144.0999646804454
 21
135.97403151302211
 31
0.0
  0
LINE
  5
10AAE
  8
0
  6
HIDDEN
 62
     3
 10
144.0999646804454
 20
129.97403151302211
 30
0.0
 11
143.5999646804454
 21
129.47403151302211
 31
0.0
  0
LINE
  5
10AAF
  8
0
  6
HIDDEN
 62
     3
 10
148.09996468044551
 20
135.97403151302211
 30
0.0
 11
148.09996468044551
 21
128.4240315130221
 31
0.0
  0
LINE
  5
10AB0
  8
0
  6
HIDDEN
 62
     3
 10
162.0999646804454
 20
119.7240315130221
 30
0.0
 11
162.0999646804454
 21
135.97403151302211
 31
0.0
1001
ACAD
1000
ASC_BOUNDS
1002
{
1070
    19
1002
}
  0
LINE
  5
10AB1
  8
0
  6
HIDDEN
 62
     3
 10
148.0999646804454
 20
127.9740315130222
 30
0.0
 11
148.0999646804454
 21
135.97403151302211
 31
0.0
1001
ACAD
1000
ASC_BOUNDS
1002
{
1070
    19
1002
}
  0
LINE
  5
10AB2
  8
0
  6
HIDDEN
 62
     3
 10
146.0999646804454
 20
128.42403151302219
 30
0.0
 11
146.0999646804454
 21
135.97403151302211
 31
0.0
1001
ACAD
1000
ASC_BOUNDS
1002
{
1070
    19
1002
}
  0
LINE
  5
10AB3
  8
0
  6
HIDDEN
 62
     3
 10
163.09996468044531
 20
118.6740315130222
 30
0.0
 11
163.0999646804454
 21
135.97403151302211
 31
0.0
1001
ACAD
1000
ASC_BOUNDS
1002
{
1070
    19
1002
}
  0
LINE
  5
10AB4
  8
0
  6
HIDDEN
 62
     3
 10
165.48034943817461
 20
118.1740315130222
 30
0.0
 11
165.48034943817461
 21
135.97403151302211
 31
0.0
  0
LINE
  5
10AB5
  8
0
  6
HIDDEN
 62
     3
 10
174.8320154880135
 20
116.77403151302209
 30
0.0
 11
174.8320154880135
 21
117.8740315130221
 31
0.0
  0
ARC
  5
10AB6
  8
0
  6
HIDDEN
 62
     3
 10
175.8320154880135
 20
117.8740315130221
 30
0.0
 40
1.0
 50
90.0
 51
180.0
  0
LINE
  5
10AB7
  8
0
  6
HIDDEN
 62
     3
 10
161.5999646804454
 20
128.3740315130222
 30
0.0
 11
161.5999646804454
 21
135.97403151302211
 31
0.0
1001
ACAD
1000
ASC_BOUNDS
1002
{
1070
    19
1002
}
  0
LINE
  5
10AB8
  8
0
  6
CONTINUOUS
 10
159.92453819990251
 20
173.10702467487769
 30
0.0
 11
159.92453819990251
 21
135.97403151302211
 31
0.0
  0
LINE
  5
10AB9
  8
0
  6
CONTINUOUS
 10
213.75740104121039
 20
167.96636254350329
 30
0.0
 11
213.7574010412105
 21
135.97403151302211
 31
0.0
  0
LINE
  5
10ABA
  8
0
  6
CONTINUOUS
 10
205.70603755241279
 20
167.97403151302149
 30
0.0
 11
205.70603755241279
 21
135.97403151302211
 31
0.0
  0
LINE
  5
10ABB
  8
0
  6
CONTINUOUS
 10
205.2864877452439
 20
167.59709893803719
 30
0.0
 11
205.28648774524439
 21
135.97403151302211
 31
0.0
  0
LINE
  5
10ABC
  8
0
  6
HIDDEN
 62
     3
 10
161.5999646804454
 20
128.42403151302219
 30
0.0
 11
146.0999646804454
 21
128.42403151302219
 31
0.0
  0
LINE
  5
10ABD
  8
0
  6
HIDDEN
 62
     3
 10
148.0999646804454
 20
127.9740315130221
 30
0.0
 11
161.99996468044549
 21
127.9740315130221
 31
0.0
1001
ACAD
1000
ASC_BOUNDS
1002
{
1070
    19
1002
}
  0
LINE
  5
10ABE
  8
0
  6
HIDDEN
 62
     3
 10
148.0999646804454
 20
127.9740315130221
 30
0.0
 11
147.32054181703941
 21
128.42403151302219
 31
0.0
  0
LINE
  5
10ABF
  8
0
  6
HIDDEN
 62
     3
 10
174.8320154880135
 20
116.77403151302209
 30
0.0
 11
218.59996468044551
 21
116.77403151302209
 31
0.0
1001
ACAD
1000
ASC_BOUNDS
1002
{
1070
    19
1002
}
  0
LINE
  5
10AC0
  8
0
  6
HIDDEN
 62
     3
 10
162.0999646804454
 20
119.7240315130221
 30
0.0
 11
163.0999646804454
 21
119.7240315130221
 31
0.0
1001
ACAD
1000
ASC_BOUNDS
1002
{
1070
    19
1002
}
  0
LINE
  5
10AC1
  8
0
  6
HIDDEN
 62
     3
 10
161.5999646804454
 20
128.3740315130222
 30
0.0
 11
162.0999646804454
 21
127.8740315130222
 31
0.0
  0
LINE
  5
10AC2
  8
0
  6
CONTINUOUS
 10
202.99996468044509
 20
167.50082643226551
 30
0.0
 11
202.99996468044509
 21
135.97403151302211
 31
0.0
  0
LINE
  5
10AC3
  8
0
  6
CONTINUOUS
 10
202.6648793843365
 20
167.92044167453611
 30
0.0
 11
202.6648793843365
 21
135.97403151302211
 31
0.0
  0
LINE
  5
10AC4
  8
0
  6
CONTINUOUS
 10
198.53504997655381
 20
167.92044167453611
 30
0.0
 11
198.53504997655381
 21
135.97403151302211
 31
0.0
  0
LINE
  5
10AC5
  8
0
  6
CONTINUOUS
 10
198.19996468044519
 20
167.5008264322654
 30
0.0
 11
198.19996468044519
 21
135.9740315130222
 31
0.0
  0
LINE
  5
10AC6
  8
0
  6
CONTINUOUS
 10
195.69581949201239
 20
167.90063014539319
 30
0.0
 11
195.69581949201239
 21
135.97403151302211
 31
0.0
  0
LINE
  5
10AC7
  8
0
  6
CONTINUOUS
 10
196.03090478812061
 20
167.4863330013815
 30
0.0
 11
196.03090478812069
 21
135.97403151302211
 31
0.0
  0
LINE
  5
10AC8
  8
0
  6
CONTINUOUS
 10
163.09996468044551
 20
135.97403151302211
 30
0.0
 11
163.09996468044551
 21
168.3410383511667
 31
0.0
  0
LINE
  5
10AC9
  8
0
  6
HIDDEN
 62
     3
 10
149.5999646804454
 20
128.47403151302211
 30
0.0
 11
160.0999646804454
 21
128.47403151302211
 31
0.0
  0
LINE
  5
10ACA
  8
0
  6
HIDDEN
 62
     3
 10
150.0999646804454
 20
127.9740315130222
 30
0.0
 11
159.5999646804454
 21
127.9740315130222
 31
0.0
  0
LINE
  5
10ACB
  8
0
  6
HIDDEN
 62
     3
 10
150.0999646804454
 20
127.9740315130222
 30
0.0
 11
150.0999646804454
 21
135.97403151302211
 31
0.0
  0
LINE
  5
10ACC
  8
0
  6
HIDDEN
 62
     3
 10
149.0999646804454
 20
128.9740315130222
 30
0.0
 11
149.0999646804454
 21
135.97403151302211
 31
0.0
  0
LINE
  5
10ACD
  8
0
  6
HIDDEN
 62
     3
 10
150.0999646804454
 20
127.9740315130222
 30
0.0
 11
149.0999646804454
 21
128.9740315130222
 31
0.0
  0
LINE
  5
10ACE
  8
0
  6
HIDDEN
 62
     3
 10
163.89996468044529
 20
127.9740315130222
 30
0.0
 11
163.89996468044529
 21
135.97403151302211
 31
0.0
  0
LINE
  5
10ACF
  8
0
  6
HIDDEN
 62
     3
 10
164.0999646804454
 20
128.1740315130221
 30
0.0
 11
164.0999646804454
 21
135.97403151302211
 31
0.0
  0
LINE
  5
10AD0
  8
0
  6
HIDDEN
 62
     3
 10
163.89996468044529
 20
127.9740315130222
 30
0.0
 11
164.0999646804454
 21
128.1740315130221
 31
0.0
  0
LINE
  5
10AD1
  8
0
  6
HIDDEN
 62
     3
 10
162.0999646804454
 20
127.9740315130222
 30
0.0
 11
162.0999646804454
 21
135.97403151302211
 31
0.0
  0
LINE
  5
10AD2
  8
0
  6
HIDDEN
 62
     3
 10
160.3499646804454
 20
128.7240315130222
 30
0.0
 11
162.0999646804454
 21
128.72403151302211
 31
0.0
  0
LINE
  5
10AD3
  8
0
  6
HIDDEN
 62
     3
 10
160.3499646804454
 20
135.97403151302211
 30
0.0
 11
160.3499646804454
 21
128.7240315130222
 31
0.0
  0
LINE
  5
10AD4
  8
0
  6
HIDDEN
 62
     3
 10
159.5999646804454
 20
127.9740315130222
 30
0.0
 11
159.5999646804454
 21
135.97403151302211
 31
0.0
  0
LINE
  5
10AD5
  8
0
  6
HIDDEN
 62
     3
 10
159.5999646804454
 20
127.9740315130222
 30
0.0
 11
160.3499646804454
 21
128.7240315130222
 31
0.0
  0
LINE
  5
10AD6
  8
0
  6
HIDDEN
 62
     3
 10
162.0999646804454
 20
127.9740315130222
 30
0.0
 11
163.89996468044529
 21
127.9740315130222
 31
0.0
  0
LINE
  5
10AD7
  8
0
  6
HIDDEN
 62
     3
 10
146.0999646804454
 20
128.42403151302219
 30
0.0
 11
145.2050717632014
 21
129.9740315130222
 31
0.0
  0
LINE
  5
10AD8
  8
0
  6
HIDDEN
 62
     3
 10
145.2050717632014
 20
129.9740315130222
 30
0.0
 11
145.2050717632014
 21
135.97403151302211
 31
0.0
  0
LINE
  5
10AD9
  8
0
  6
HIDDEN
 62
     3
 10
162.09996468044531
 20
119.7240315130221
 30
0.0
 11
163.0999646804452
 21
119.7240315130221
 31
0.0
1001
ACAD
1000
ASC_BOUNDS
1002
{
1070
    19
1002
}
  0
ARC
  5
10ADA
  8
0
  6
HIDDEN
 62
     3
 10
163.59996468044531
 20
118.6740315130222
 30
0.0
 40
0.5
 50
180.0
 51
270.0
1001
ACAD
1000
ASC_BOUNDS
1002
{
1070
    19
1002
}
  0
LINE
  5
10ADB
  8
0
  6
HIDDEN
 62
     3
 10
163.59996468044531
 20
118.1740315130222
 30
0.0
 11
165.48034943817439
 21
118.1740315130222
 31
0.0
1001
ACAD
1000
ASC_BOUNDS
1002
{
1070
    19
1002
}
  0
LINE
  5
10ADC
  8
0
  6
HIDDEN
 62
     3
 10
166.09996468044551
 20
118.3400569168067
 30
0.0
 11
165.48034943817439
 21
118.1740315130222
 31
0.0
1001
ACAD
1000
ASC_BOUNDS
1002
{
1070
    19
1002
}
  0
LINE
  5
10ADD
  8
0
  6
HIDDEN
 62
     3
 10
170.3164710313915
 20
120.0990315130221
 30
0.0
 11
223.59996468044551
 21
120.0990315130221
 31
0.0
  0
LINE
  5
10ADE
  8
0
  6
HIDDEN
 62
     3
 10
170.09996468044551
 20
119.7240315130222
 30
0.0
 11
170.09996468044551
 21
135.97403151302211
 31
0.0
  0
LINE
  5
10ADF
  8
0
  6
HIDDEN
 62
     3
 10
166.09996468044551
 20
118.3400569168067
 30
0.0
 11
166.09996468044531
 21
135.97403151302211
 31
0.0
  0
LINE
  5
10AE0
  8
0
  6
HIDDEN
 62
     3
 10
166.59996468044571
 20
119.7240315130221
 30
0.0
 11
166.59996468044531
 21
135.97403151302211
 31
0.0
  0
LINE
  5
10AE1
  8
0
  6
HIDDEN
 62
     3
 10
170.3164710313915
 20
120.0990315130221
 30
0.0
 11
170.3164710313915
 21
135.97403151302211
 31
0.0
1001
ACAD
1000
ASC_BOUNDS
1002
{
1070
    19
1005
0
1002
}
  0
LINE
  5
10AE2
  8
0
  6
HIDDEN
 62
     3
 10
166.59996468044571
 20
119.7240315130221
 30
0.0
 11
170.09996468044551
 21
119.7240315130222
 31
0.0
  0
LINE
  5
10AE3
  8
0
  6
HIDDEN
 62
     3
 10
218.59996468044551
 20
116.77403151302209
 30
0.0
 11
218.59996468044551
 21
117.8740315130221
 31
0.0
  0
ARC
  5
10AE4
  8
0
  6
HIDDEN
 62
     3
 10
217.59996468044551
 20
117.8740315130221
 30
0.0
 40
1.0
 50
0.0
 51
90.0
  0
ARC
  5
10AE5
  8
0
  6
HIDDEN
 62
     3
 10
223.59996468044551
 20
118.5990315130222
 30
0.0
 40
1.5
 50
0.0
 51
90.0
1001
ACAD
1000
ASC_BOUNDS
1002
{
1070
    19
1005
0
1005
0
1005
0
1002
}
  0
LINE
  5
10AE6
  8
0
  6
HIDDEN
 62
     3
 10
170.09996468044551
 20
119.7240315130222
 30
0.0
 11
170.3164710313915
 21
120.0990315130221
 31
0.0
  0
LINE
  5
10AE7
  8
0
  6
HIDDEN
 62
     3
 10
166.59996468044551
 20
119.7240315130222
 30
0.0
 11
166.09996468044531
 21
119.4353563784273
 31
0.0
  0
LINE
  5
10AE8
  8
0
  6
HIDDEN
 62
     3
 10
204.29996468044561
 20
117.3740315130221
 30
0.0
 11
205.7999646804455
 21
118.8740315130221
 31
0.0
  0
LINE
  5
10AE9
  8
0
  6
HIDDEN
 62
     3
 10
187.89996468044521
 20
117.3740315130222
 30
0.0
 11
204.29996468044561
 21
117.3740315130221
 31
0.0
  0
LINE
  5
10AEA
  8
0
  6
HIDDEN
 62
     3
 10
187.89996468044521
 20
117.3740315130222
 30
0.0
 11
186.39996468044541
 21
118.8740315130221
 31
0.0
  0
LINE
  5
10AEB
  8
0
  6
HIDDEN
 62
     3
 10
217.59996468044551
 20
118.8740315130221
 30
0.0
 11
205.7999646804455
 21
118.8740315130221
 31
0.0
  0
LINE
  5
10AEC
  8
0
  6
HIDDEN
 62
     3
 10
186.39996468044541
 20
118.8740315130221
 30
0.0
 11
175.8320154880135
 21
118.8740315130221
 31
0.0
  0
DIMENSION
  5
10AED
  8
0
  6
CONTINUOUS
  2
*D114
 10
225.0999646804454
 20
183.6773442999372
 30
0.0
 11
197.5999646804454
 21
185.7773442999372
 31
0.0
 70
     0
 13
170.09996468044551
 23
152.22403151302211
 33
0.0
 14
225.0999646804454
 24
164.2958322506675
 34
0.0
1001
ACAD
1000
DSTYLE
1002
{
1070
   287
1070
     2
1070
    42
1040
0.6
1070
    43
1040
1.0
1070
    44
1040
1.0
1070
    47
1040
0.1
1070
    48
1040
0.1
1070
    73
1070
     0
1070
   140
1040
3.0
1070
   141
1040
-0.5
1070
   146
1040
0.7
1070
   147
1040
0.6
1070
   178
1070
     3
1070
   271
1070
     8
1070
   272
1070
     8
1070
   275
1070
     1
1070
   283
1070
     0
1070
   284
1070
     8
1070
   289
1070
     2
1002
}
  0
DIMENSION
  5
10AEE
  8
0
  6
CONTINUOUS
  2
*D115
 10
264.21194271374247
 20
98.474031513021998
 30
0.0
 11
262.11194271374251
 21
135.974031513022
 31
0.0
 70
     0
 13
158.76983766152321
 23
173.474031513022
 33
0.0
 14
158.76983766152321
 24
98.474031513022027
 34
0.0
 50
90.0
1001
ACAD
1000
DSTYLE
1002
{
1070
   287
1070
     2
1070
    42
1040
0.6
1070
    43
1040
1.0
1070
    44
1040
1.0
1070
    47
1040
0.1
1070
    48
1040
0.1
1070
    73
1070
     0
1070
   140
1040
3.0
1070
   141
1040
-0.5
1070
   146
1040
0.7
1070
   147
1040
0.6
1070
   178
1070
     3
1070
   271
1070
     8
1070
   272
1070
     8
1070
   275
1070
     1
1070
   283
1070
     0
1070
   284
1070
     8
1070
   289
1070
     2
1002
}
  0
DIMENSION
  5
10AEF
  8
0
  6
CONTINUOUS
  2
*D116
 10
41.422980105322601
 20
85.974031513022183
 30
0.0
 11
39.322980105322593
 21
135.9740315130222
 31
0.0
 70
     0
 13
115.5999646804454
 23
185.97403151302211
 33
0.0
 14
115.5999646804454
 24
85.974031513022155
 34
0.0
 50
90.0
1001
ACAD
1000
DSTYLE
1002
{
1070
   287
1070
     2
1070
     3
1000
HSK<>A
1070
    42
1040
0.6
1070
    43
1040
1.0
1070
    44
1040
1.0
1070
    47
1040
0.1
1070
    48
1040
0.1
1070
    73
1070
     0
1070
   140
1040
3.0
1070
   141
1040
-0.5
1070
   146
1040
0.7
1070
   147
1040
0.6
1070
   178
1070
     3
1070
   271
1070
     8
1070
   272
1070
     8
1070
   275
1070
     1
1070
   283
1070
     0
1070
   284
1070
     8
1070
   289
1070
     2
1002
}
  0
TEXT
  5
10AF0
  8
0
  6
CONTINUOUS
 62
     3
 10
200.64558294272101
 20
9.1653349109177498
 30
0.0
 40
4.0
  1
HSK100A-HC31.75-110-PB25
  0
ENDSEC
  0
EOF
