  0
SECTION
  2
HEADER
  9
$ACADVER
  1
AC1009
  9
$INSBASE
 10
0.0
 20
0.0
 30
0.0
  9
$EXTMIN
 10
-0.0128164049386896
 20
-0.5091698325811649
 30
-0.0015258207003583
  9
$EXTMAX
 10
349.80560392351549
 20
241.5011755583123
 30
0.0000000349246037
  9
$LIMMIN
 10
0.0
 20
0.0
  9
$LIMMAX
 10
420.0
 20
300.0
  9
$ORTHOMODE
 70
     1
  9
$REGENMODE
 70
     1
  9
$FILLMODE
 70
     1
  9
$QTEXTMODE
 70
     0
  9
$MIRRTEXT
 70
     1
  9
$DRAGMODE
 70
     2
  9
$LTSCALE
 40
7.0
  9
$OSMODE
 70
   951
  9
$ATTMODE
 70
     1
  9
$TEXTSIZE
 40
3.0
  9
$TRACEWID
 40
1.0
  9
$TEXTSTYLE
  7
STANDARD
  9
$CLAYER
  8
0
  9
$CELTYPE
  6
CONTINUOUS
  9
$CECOLOR
 62
   256
  9
$DIMSCALE
 40
1.0
  9
$DIMASZ
 40
2.5
  9
$DIMEXO
 40
0.6
  9
$DIMDLI
 40
1.0
  9
$DIMRND
 40
0.0
  9
$DIMDLE
 40
0.0
  9
$DIMEXE
 40
1.0
  9
$DIMTP
 40
0.1
  9
$DIMTM
 40
0.1
  9
$DIMTXT
 40
3.0
  9
$DIMCEN
 40
-0.5
  9
$DIMTSZ
 40
0.0
  9
$DIMTOL
 70
     0
  9
$DIMLIM
 70
     0
  9
$DIMTIH
 70
     0
  9
$DIMTOH
 70
     0
  9
$DIMSE1
 70
     0
  9
$DIMSE2
 70
     0
  9
$DIMTAD
 70
     1
  9
$DIMZIN
 70
     8
  9
$DIMBLK
  1

  9
$DIMASO
 70
     1
  9
$DIMSHO
 70
     1
  9
$DIMPOST
  1

  9
$DIMAPOST
  1

  9
$DIMALT
 70
     0
  9
$DIMALTD
 70
     2
  9
$DIMALTF
 40
0.0394
  9
$DIMLFAC
 40
1.0
  9
$DIMTOFL
 70
     1
  9
$DIMTVP
 40
1.0
  9
$DIMTIX
 70
     0
  9
$DIMSOXD
 70
     0
  9
$DIMSAH
 70
     0
  9
$DIMBLK1
  1

  9
$DIMBLK2
  1

  9
$DIMSTYLE
  2
ISO-25
  9
$DIMCLRD
 70
     2
  9
$DIMCLRE
 70
     2
  9
$DIMCLRT
 70
     3
  9
$DIMTFAC
 40
0.7
  9
$DIMGAP
 40
0.6
  9
$LUNITS
 70
     2
  9
$LUPREC
 70
     4
  9
$SKETCHINC
 40
1.0
  9
$FILLETRAD
 40
0.0
  9
$AUNITS
 70
     0
  9
$AUPREC
 70
     0
  9
$MENU
  1
acad
  9
$ELEVATION
 40
0.0
  9
$PELEVATION
 40
0.0
  9
$THICKNESS
 40
0.0
  9
$LIMCHECK
 70
     0
  9
$BLIPMODE
 70
     0
  9
$CHAMFERA
 40
0.5
  9
$CHAMFERB
 40
0.5
  9
$SKPOLY
 70
     0
  9
$TDCREATE
 40
2450166.8692156249
  9
$TDUPDATE
 40
2457472.8481407641
  9
$TDINDWG
 40
10.693304317100001
  9
$TDUSRTIMER
 40
10.693304317100001
  9
$USRTIMER
 70
     1
  9
$ANGBASE
 50
0.0
  9
$ANGDIR
 70
     0
  9
$PDMODE
 70
     0
  9
$PDSIZE
 40
0.0
  9
$PLINEWID
 40
1.0
  9
$COORDS
 70
     0
  9
$SPLFRAME
 70
     0
  9
$SPLINETYPE
 70
     6
  9
$SPLINESEGS
 70
     8
  9
$ATTDIA
 70
     0
  9
$ATTREQ
 70
     1
  9
$HANDLING
 70
     1
  9
$HANDSEED
  5
AD73
  9
$SURFTAB1
 70
     6
  9
$SURFTAB2
 70
     6
  9
$SURFTYPE
 70
     6
  9
$SURFU
 70
     6
  9
$SURFV
 70
     6
  9
$UCSNAME
  2

  9
$UCSORG
 10
0.0
 20
0.0
 30
0.0
  9
$UCSXDIR
 10
1.0
 20
0.0
 30
0.0
  9
$UCSYDIR
 10
0.0
 20
1.0
 30
0.0
  9
$PUCSNAME
  2

  9
$PUCSORG
 10
0.0
 20
0.0
 30
0.0
  9
$PUCSXDIR
 10
1.0
 20
0.0
 30
0.0
  9
$PUCSYDIR
 10
0.0
 20
1.0
 30
0.0
  9
$USERI1
 70
     0
  9
$USERI2
 70
     0
  9
$USERI3
 70
     0
  9
$USERI4
 70
     0
  9
$USERI5
 70
     0
  9
$USERR1
 40
0.0
  9
$USERR2
 40
0.0
  9
$USERR3
 40
0.0
  9
$USERR4
 40
0.0
  9
$USERR5
 40
0.0
  9
$WORLDVIEW
 70
     1
  9
$SHADEDGE
 70
     3
  9
$SHADEDIF
 70
    70
  9
$TILEMODE
 70
     1
  9
$MAXACTVP
 70
    16
  9
$PLIMCHECK
 70
     0
  9
$PEXTMIN
 10
1.0000000000000000E+020
 20
1.0000000000000000E+020
 30
1.0000000000000000E+020
  9
$PEXTMAX
 10
-1.0000000000000000E+020
 20
-1.0000000000000000E+020
 30
-1.0000000000000000E+020
  9
$PLIMMIN
 10
0.0
 20
0.0
  9
$PLIMMAX
 10
420.0
 20
297.0
  9
$UNITMODE
 70
     0
  9
$VISRETAIN
 70
     0
  9
$PLINEGEN
 70
     0
  9
$PSLTSCALE
 70
     1
  0
ENDSEC
  0
SECTION
  2
TABLES
  0
TABLE
  2
VPORT
 70
     1
  0
VPORT
  2
*ACTIVE
 70
     0
 10
0.0
 20
0.0
 11
1.0
 21
1.0
 12
174.8963937592884
 22
120.49600286286559
 13
0.0
 23
0.0
 14
1.0
 24
1.0
 15
2.0
 25
2.0
 16
0.0
 26
0.0
 36
1.0
 17
0.0
 27
0.0
 37
0.0
 40
243.68902986759329
 41
2.1307870370370372
 42
50.0
 43
0.0
 44
0.0
 50
0.0
 51
0.0
 71
     0
 72
   100
 73
     1
 74
     1
 75
     0
 76
     0
 77
     0
 78
     1
  0
ENDTAB
  0
TABLE
  2
LTYPE
 70
     7
  0
LTYPE
  2
CONTINUOUS
 70
     0
  3
Solid line
 72
    65
 73
     0
 40
0.0
  0
LTYPE
  2
CENTER
 70
     0
  3
____ _ ____ _ ____ _ ____ _ ____ _ ____ _ ____ 
 72
    65
 73
     4
 40
2.0
 49
1.25
 49
-0.25
 49
0.25
 49
-0.25
  0
LTYPE
  2
HIDDEN
 70
     0
  3
Hidden __ __ __ __ __ __ __ __ __ __ __ __ __ _
 72
    65
 73
     2
 40
0.375
 49
0.25
 49
-0.125
  0
LTYPE
  2
PHANTOM2
 70
     0
  3
___ _ _ ___ _ _ ___ _ _ ___ _ _ ___ _ _ ___ _ _
 72
    65
 73
     6
 40
1.25
 49
0.625
 49
-0.125
 49
0.125
 49
-0.125
 49
0.125
 49
-0.125
  0
LTYPE
  2
PHANTOM
 70
     0
  3
______  __  __  ______  __  __  ______  __  __ 
 72
    65
 73
     6
 40
2.5
 49
1.25
 49
-0.25
 49
0.25
 49
-0.25
 49
0.25
 49
-0.25
  0
LTYPE
  2
CENTER2
 70
     0
  3
___ _ ___ _ ___ _ ___ _ ___ _ ___ _ ___ _ ___ _
 72
    65
 73
     4
 40
1.125
 49
0.75
 49
-0.125
 49
0.125
 49
-0.125
  0
ENDTAB
  0
TABLE
  2
LAYER
 70
     3
  0
LAYER
  2
0
 70
     0
 62
     7
  6
CONTINUOUS
  0
LAYER
  2
DEFPOINTS
 70
     0
 62
     7
  6
CONTINUOUS
  0
LAYER
  2
CT
 70
     0
 62
     2
  6
CENTER
  0
ENDTAB
  0
TABLE
  2
STYLE
 70
     1
  0
STYLE
  2
STANDARD
 70
     0
 40
3.0
 41
1.0
 50
0.0
 71
     0
 42
3.0
  3
ISOCP
  4
WHGTXT.SHX
  0
ENDTAB
  0
TABLE
  2
VIEW
 70
     0
  0
ENDTAB
  0
TABLE
  2
UCS
 70
     0
  0
ENDTAB
  0
TABLE
  2
APPID
 70
     8
  0
APPID
  2
ACAD
 70
     0
  0
APPID
  2
ACAD_DSTYLE_DIMRADIAL_EXTENSION
 70
     0
  0
APPID
  2
ACAD_MLEADERVER
 70
     0
  0
APPID
  2
ACAD_EXEMPT_FROM_CAD_STANDARDS
 70
     0
  0
APPID
  2
ACAD_DSTYLE_DIMJAG
 70
     0
  0
APPID
  2
ACAD_DSTYLE_DIMTALN
 70
     0
  0
APPID
  2
ACAD_DSTYLE_DIMBREAK
 70
     0
  0
APPID
  2
CONTENTBLOCKICON
 70
     0
  0
ENDTAB
  0
TABLE
  2
DIMSTYLE
 70
     4
  0
DIMSTYLE
  2
ISO-25
 70
     0
  3

  4

  5

  6

  7

 40
1.0
 41
2.5
 42
0.625
 43
3.75
 44
1.25
 45
0.0
 46
0.0
 47
0.0
 48
0.0
140
2.5
141
2.5
142
0.0
143
0.0394
144
1.0
145
1.0
146
1.0
147
0.625
 71
     0
 72
     0
 73
     1
 74
     0
 75
     0
 76
     0
 77
     1
 78
     8
170
     0
171
     2
172
     1
173
     0
174
     0
175
     0
176
     2
177
     2
178
     0
  0
DIMSTYLE
  2
KSM
 70
     0
  3

  4

  5

  6

  7

 40
1.0
 41
2.0
 42
0.0
 43
0.1
 44
1.1999999999999991
 45
0.0
 46
0.0
 47
0.25
 48
0.25
140
3.0
141
0.0
142
0.0
143
0.0394
144
1.0
145
1.0
146
1.0
147
1.0
 71
     1
 72
     0
 73
     0
 74
     0
 75
     0
 76
     0
 77
     1
 78
     8
170
     0
171
     2
172
     1
173
     0
174
     0
175
     0
176
     2
177
     2
178
     3
  0
DIMSTYLE
  2
ISO-25$2
 70
     0
  3

  4

  5

  6

  7

 40
1.0
 41
2.5
 42
0.625
 43
3.75
 44
1.25
 45
0.0
 46
0.0
 47
0.0
 48
0.0
140
2.5
141
2.5
142
0.0
143
0.0394
144
1.0
145
1.0
146
1.0
147
0.625
 71
     0
 72
     0
 73
     1
 74
     0
 75
     0
 76
     0
 77
     1
 78
     8
170
     0
171
     2
172
     1
173
     0
174
     0
175
     0
176
     2
177
     2
178
     0
  0
DIMSTYLE
  2
ISO-25$0
 70
     0
  3

  4

  5

  6

  7

 40
1.0
 41
2.5
 42
0.625
 43
3.75
 44
1.25
 45
0.0
 46
0.0
 47
0.0
 48
0.0
140
3.0
141
2.5
142
0.0
143
0.0394
144
1.0
145
1.0
146
1.0
147
0.625
 71
     0
 72
     0
 73
     0
 74
     0
 75
     0
 76
     0
 77
     1
 78
     8
170
     0
171
     2
172
     1
173
     0
174
     0
175
     0
176
     2
177
     2
178
     3
  0
ENDTAB
  0
ENDSEC
  0
SECTION
  2
BLOCKS
  0
BLOCK
  8
0
  2
$MODEL_SPACE
 70
     0
 10
0.0
 20
0.0
 30
0.0
  3
$MODEL_SPACE
  1

  0
ENDBLK
  5
16
  8
0
  0
BLOCK
 67
     1
  8
0
  2
$PAPER_SPACE
 70
     0
 10
0.0
 20
0.0
 30
0.0
  3
$PAPER_SPACE
  1

  0
ENDBLK
  5
1B
 67
     1
  8
0
  0
BLOCK
  8
0
  2
_CLOSEDBLANK
 70
     0
 10
0.0
 20
0.0
 30
0.0
  3
_CLOSEDBLANK
  1

  0
LINE
  5
28D
  8
0
  6
BYBLOCK
 62
     0
 10
-1.0
 20
0.1666666666666666
 30
0.0
 11
0.0
 21
0.0
 31
0.0
  0
LINE
  5
28E
  8
0
  6
BYBLOCK
 62
     0
 10
0.0
 20
0.0
 30
0.0
 11
-1.0
 21
-0.1666666666666666
 31
0.0
  0
LINE
  5
28F
  8
0
  6
BYBLOCK
 62
     0
 10
-1.0
 20
0.1666666666666666
 30
0.0
 11
-1.0
 21
-0.1666666666666666
 31
0.0
  0
ENDBLK
  5
290
  8
0
  0
BLOCK
  8
0
  2
DFG
 70
     0
 10
0.0
 20
0.0
 30
0.0
  3
DFG
  1

  0
LINE
  5
B0F
  8
0
  6
CONTINUOUS
 62
     4
 10
86.283570637268895
 20
194.3173600391579
 30
0.0
 11
87.100067218196514
 21
195.13385662008551
 31
0.0
  0
LINE
  5
B10
  8
0
  6
CONTINUOUS
 62
     4
 10
85.827275012060909
 20
196.40664882622119
 30
0.0
 11
85.010778431133076
 21
195.5901522452935
 31
0.0
  0
LINE
  5
B11
  8
0
  6
CONTINUOUS
 62
     4
 10
85.364331821726182
 20
196.65081241707321
 30
0.0
 11
84.657225040539743
 21
195.94370563588669
 31
0.0
  0
LINE
  5
B12
  8
0
  6
CONTINUOUS
 62
     4
 10
85.364331821726182
 20
196.65081241707321
 30
0.0
 11
84.248976750075826
 21
196.35195392635069
 31
0.0
  0
LINE
  5
B13
  8
0
  6
CONTINUOUS
 10
87.953595175868358
 20
196.1995166121132
 30
0.0
 11
84.418061269935833
 21
192.6639827061806
 31
0.0
  0
LINE
  5
B14
  8
0
  6
CONTINUOUS
 10
84.913036016766455
 20
199.24007577121549
 30
0.0
 11
81.377502110833461
 21
195.70454186528281
 31
0.0
  0
LINE
  5
B15
  8
0
  6
CONTINUOUS
 10
84.418061269935606
 20
199.24007577121529
 30
0.0
 11
81.377502110833802
 21
196.1995166121134
 31
0.0
  0
LINE
  5
B16
  8
0
  6
CONTINUOUS
 10
87.953595175868585
 20
195.70454186528261
 30
0.0
 11
84.913036016766227
 21
192.66398270618041
 31
0.0
  0
LINE
  5
B17
  8
0
  6
CONTINUOUS
 10
84.418061269935606
 20
199.24007577121529
 30
0.0
 11
84.913036016766455
 21
199.24007577121549
 31
0.0
  0
LINE
  5
B18
  8
0
  6
CONTINUOUS
 62
     4
 10
85.717885212319516
 20
196.29725902647991
 30
0.0
 11
85.364331821726182
 21
196.65081241707321
 31
0.0
  0
LINE
  5
B19
  8
0
  6
CONTINUOUS
 62
     4
 10
87.100067218196514
 20
195.13385662008551
 30
0.0
 11
85.827275012060909
 21
196.40664882622119
 31
0.0
  0
LINE
  5
B1A
  8
0
  6
CONTINUOUS
 62
     4
 10
86.691818927732811
 20
194.72560832962171
 30
0.0
 11
85.419026721596978
 21
195.9984005357575
 31
0.0
  0
LINE
  5
B1B
  8
0
  6
CONTINUOUS
 10
87.953595175868585
 20
195.70454186528261
 30
0.0
 11
87.953595175868358
 21
196.1995166121132
 31
0.0
  0
LINE
  5
B1C
  8
0
  6
CONTINUOUS
 62
     4
 10
87.100067218196514
 20
195.13385662008551
 30
0.0
 11
87.382909930671289
 21
195.1338566200854
 31
0.0
  0
LINE
  5
B1D
  8
0
  6
CONTINUOUS
 10
81.377502110833802
 20
196.1995166121134
 30
0.0
 11
81.377502110833802
 21
195.70454186528269
 31
0.0
  0
LINE
  5
B1E
  8
0
  6
CONTINUOUS
 62
     4
 10
85.467074056341076
 20
193.5008634582301
 30
0.0
 11
85.467074056341175
 21
193.21802074575541
 31
0.0
  0
LINE
  5
B1F
  8
0
  6
CONTINUOUS
 62
     4
 10
86.283570637268653
 20
194.31736003915771
 30
0.0
 11
85.467074056341076
 21
193.5008634582301
 31
0.0
  0
LINE
  5
B20
  8
0
  6
CONTINUOUS
 62
     4
 10
84.194281850205485
 20
194.7736556643658
 30
0.0
 11
85.010778431133076
 21
195.5901522452935
 31
0.0
  0
LINE
  5
B21
  8
0
  6
CONTINUOUS
 62
     4
 10
83.950118259353076
 20
195.23659885470019
 30
0.0
 11
84.657225040539743
 21
195.94370563588669
 31
0.0
  0
LINE
  5
B22
  8
0
  6
CONTINUOUS
 62
     4
 10
83.950118259353076
 20
195.23659885470019
 30
0.0
 11
84.248976750075826
 21
196.35195392635069
 31
0.0
  0
LINE
  5
B23
  8
0
  6
CONTINUOUS
 62
     4
 10
84.303671649946395
 20
194.88304546410691
 30
0.0
 11
83.950118259353076
 21
195.23659885470019
 31
0.0
  0
LINE
  5
B24
  8
0
  6
CONTINUOUS
 62
     4
 10
85.467074056341076
 20
193.5008634582301
 30
0.0
 11
84.194281850205485
 21
194.7736556643658
 31
0.0
  0
LINE
  5
B25
  8
0
  6
CONTINUOUS
 62
     4
 10
85.875322346804978
 20
193.9091117486939
 30
0.0
 11
84.60253014066916
 21
195.18190395482961
 31
0.0
  0
LINE
  5
B26
  8
0
  6
CONTINUOUS
 10
84.913036016766569
 20
192.66398270618069
 30
0.0
 11
84.418061269935606
 21
192.66398270618069
 31
0.0
  0
LINE
  5
B27
  8
0
  6
CONTINUOUS
 10
81.377502110833461
 20
195.70454186528229
 30
0.0
 11
84.418061269935833
 21
192.66398270618041
 31
0.0
  0
LINE
  5
B28
  8
0
  6
CONTINUOUS
 10
84.913036016766455
 20
199.24007577121549
 30
0.0
 11
87.953595175868713
 21
196.19951661211331
 31
0.0
  0
ENDBLK
  5
B29
  8
0
  0
BLOCK
  8
0
  2
DFGFG
 70
     0
 10
0.0
 20
0.0
 30
0.0
  3
DFGFG
  1

  0
LINE
  5
DD7
  8
0
  6
CONTINUOUS
 62
     4
 10
339.34007301468301
 20
-145.93340977249039
 30
0.0
 11
339.34007301468301
 21
-144.77870923411129
 31
0.0
  0
LINE
  5
DD8
  8
0
  6
CONTINUOUS
 62
     4
 10
337.54007301468317
 20
-144.7787092341112
 30
0.0
 11
337.54007301468312
 21
-145.93340977249051
 31
0.0
  0
LINE
  5
DD9
  8
0
  6
CONTINUOUS
 62
     4
 10
337.04007301468312
 20
-144.93340977249079
 30
0.0
 11
337.04007301468312
 21
-145.93340977249059
 31
0.0
  0
LINE
  5
DDA
  8
0
  6
CONTINUOUS
 62
     4
 10
337.04007301468312
 20
-144.93340977249079
 30
0.0
 11
336.46272274549341
 21
-145.93340977249059
 31
0.0
  0
LINE
  5
DDB
  8
0
  6
CONTINUOUS
 62
     4
 10
339.19007301468309
 20
-143.42163842050729
 30
0.0
 11
339.19007301468321
 21
-148.42163842050701
 31
0.0
  0
LINE
  5
DDC
  8
0
  6
CONTINUOUS
 62
     4
 10
334.89007301468308
 20
-143.42163842050701
 30
0.0
 11
334.89007301468303
 21
-148.42163842050709
 31
0.0
  0
LINE
  5
DDD
  8
0
  6
CONTINUOUS
 62
     4
 10
334.54007301468312
 20
-143.77163842050729
 30
0.0
 11
334.54007301468317
 21
-148.07163842050679
 31
0.0
  0
LINE
  5
DDE
  8
0
  6
CONTINUOUS
 62
     4
 10
339.54007301468317
 20
-143.77163842050709
 30
0.0
 11
339.54007301468317
 21
-148.0716384205073
 31
0.0
  0
LINE
  5
DDF
  8
0
  6
CONTINUOUS
 62
     4
 10
334.54007301468312
 20
-143.77163842050729
 30
0.0
 11
334.89007301468308
 21
-143.42163842050701
 31
0.0
  0
LINE
  5
DE0
  8
0
  6
CONTINUOUS
 62
     4
 10
337.54007301468312
 20
-144.93340977249071
 30
0.0
 11
337.04007301468312
 21
-144.93340977249079
 31
0.0
  0
LINE
  5
DE1
  8
0
  6
CONTINUOUS
 62
     4
 10
339.34007301468301
 20
-144.77870923411129
 30
0.0
 11
337.54007301468317
 21
-144.7787092341112
 31
0.0
  0
LINE
  5
DE2
  8
0
  6
CONTINUOUS
 62
     4
 10
339.34007301468301
 20
-145.35605950330071
 30
0.0
 11
337.54007301468312
 21
-145.3560595033008
 31
0.0
  0
LINE
  5
DE3
  8
0
  6
CONTINUOUS
 62
     4
 10
339.54007301468317
 20
-143.77163842050709
 30
0.0
 11
339.19007301468309
 21
-143.42163842050729
 31
0.0
  0
LINE
  5
DE4
  8
0
  6
CONTINUOUS
 62
     4
 10
339.34007301468301
 20
-144.77870923411129
 30
0.0
 11
339.54007301468317
 21
-144.57870923411119
 31
0.0
  0
LINE
  5
DE5
  8
0
  6
CONTINUOUS
 62
     4
 10
334.54007301468317
 20
-148.07163842050679
 30
0.0
 11
334.89007301468331
 21
-148.42163842050689
 31
0.0
  0
LINE
  5
DE6
  8
0
  6
CONTINUOUS
 62
     4
 10
339.34007301468301
 20
-147.08811031086969
 30
0.0
 11
339.54007301468312
 21
-147.2881103108698
 31
0.0
  0
LINE
  5
DE7
  8
0
  6
CONTINUOUS
 62
     4
 10
339.34007301468301
 20
-145.93340977249059
 30
0.0
 11
339.34007301468301
 21
-147.08811031086969
 31
0.0
  0
LINE
  5
DE8
  8
0
  6
CONTINUOUS
 62
     4
 10
337.54007301468317
 20
-147.08811031086969
 30
0.0
 11
337.54007301468312
 21
-145.93340977249051
 31
0.0
  0
LINE
  5
DE9
  8
0
  6
CONTINUOUS
 62
     4
 10
337.040073014683
 20
-146.93340977249071
 30
0.0
 11
337.04007301468312
 21
-145.93340977249059
 31
0.0
  0
LINE
  5
DEA
  8
0
  6
CONTINUOUS
 62
     4
 10
337.040073014683
 20
-146.93340977249071
 30
0.0
 11
336.46272274549341
 21
-145.93340977249059
 31
0.0
  0
LINE
  5
DEB
  8
0
  6
CONTINUOUS
 62
     4
 10
337.54007301468312
 20
-146.93340977249071
 30
0.0
 11
337.040073014683
 21
-146.93340977249071
 31
0.0
  0
LINE
  5
DEC
  8
0
  6
CONTINUOUS
 62
     4
 10
339.34007301468301
 20
-147.08811031086969
 30
0.0
 11
337.54007301468317
 21
-147.08811031086969
 31
0.0
  0
LINE
  5
DED
  8
0
  6
CONTINUOUS
 62
     4
 10
339.34007301468313
 20
-146.5107600416801
 30
0.0
 11
337.540073014683
 21
-146.51076004168019
 31
0.0
  0
LINE
  5
DEE
  8
0
  6
CONTINUOUS
 62
     4
 10
339.54007301468312
 20
-148.07163842050679
 30
0.0
 11
339.19007301468292
 21
-148.42163842050709
 31
0.0
  0
LINE
  5
DEF
  8
0
  6
CONTINUOUS
 62
     4
 10
334.89007301468331
 20
-148.42163842050749
 30
0.0
 11
339.19007301468332
 21
-148.42163842050709
 31
0.0
  0
LINE
  5
DF0
  8
0
  6
CONTINUOUS
 62
     4
 10
334.89007301468308
 20
-143.42163842050701
 30
0.0
 11
339.19007301468321
 21
-143.42163842050689
 31
0.0
  0
ENDBLK
  5
DF1
  8
0
  0
BLOCK
  8
0
  2
SRRG
 70
     0
 10
0.0
 20
0.0
 30
0.0
  3
SRRG
  1

  0
POLYLINE
  5
CC7
  8
0
  6
BYBLOCK
 62
     4
 66
     1
 10
0.0
 20
0.0
 30
0.0
 70
     1
  0
VERTEX
  5
ABF7
  8
0
  6
BYBLOCK
 62
     4
 10
224.8644200539471
 20
-157.74382108239669
 30
0.0
  0
VERTEX
  5
ABF8
  8
0
  6
BYBLOCK
 62
     4
 10
224.6644200539472
 20
-158.27715441573011
 30
0.0
  0
VERTEX
  5
ABF9
  8
0
  6
BYBLOCK
 62
     4
 10
224.6644200539472
 20
-159.0469299737214
 30
0.0
  0
VERTEX
  5
ABFA
  8
0
  6
BYBLOCK
 62
     4
 10
224.95130026929891
 20
-159.54382108239679
 30
0.0
  0
VERTEX
  5
ABFB
  8
0
  6
BYBLOCK
 62
     4
 10
225.66846470254791
 20
-159.54382108239679
 30
0.0
  0
VERTEX
  5
ABFC
  8
0
  6
BYBLOCK
 62
     4
 10
226.21442005394709
 20
-161.04382108239679
 30
0.0
  0
VERTEX
  5
ABFD
  8
0
  6
BYBLOCK
 62
     4
 10
227.71442005394709
 20
-161.04382108239679
 30
0.0
  0
VERTEX
  5
ABFE
  8
0
  6
BYBLOCK
 62
     4
 10
229.21442005394721
 20
-161.04382108239679
 30
0.0
  0
VERTEX
  5
ABFF
  8
0
  6
BYBLOCK
 62
     4
 10
229.76037540534651
 20
-159.54382108239679
 30
0.0
  0
VERTEX
  5
AC00
  8
0
  6
BYBLOCK
 62
     4
 10
230.4775398385955
 20
-159.54382108239679
 30
0.0
  0
VERTEX
  5
AC01
  8
0
  6
BYBLOCK
 62
     4
 10
230.76442005394719
 20
-159.0469299737214
 30
0.0
  0
VERTEX
  5
AC02
  8
0
  6
BYBLOCK
 62
     4
 10
230.76442005394719
 20
-158.27715441573011
 30
0.0
  0
VERTEX
  5
AC03
  8
0
  6
BYBLOCK
 62
     4
 10
230.5644200539472
 20
-157.74382108239669
 30
0.0
  0
VERTEX
  5
AC04
  8
0
  6
BYBLOCK
 62
     4
 10
230.5644200539472
 20
-154.44382108239679
 30
0.0
  0
VERTEX
  5
AC05
  8
0
  6
BYBLOCK
 62
     4
 10
227.71442005394709
 20
-154.44382108239679
 30
0.0
  0
VERTEX
  5
AC06
  8
0
  6
BYBLOCK
 62
     4
 10
224.8644200539473
 20
-154.44382108239679
 30
0.0
  0
SEQEND
  5
AC07
  8
0
  6
BYBLOCK
 62
     4
  0
LINE
  5
CC8
  8
0
  6
BYBLOCK
 62
     4
 10
224.8644200539471
 20
-157.74382108239669
 30
0.0
 11
230.5644200539472
 21
-157.74382108239669
 31
0.0
  0
LINE
  5
CC9
  8
0
  6
BYBLOCK
 62
     4
 10
224.6644200539472
 20
-158.27715441573011
 30
0.0
 11
230.76442005394719
 21
-158.27715441573011
 31
0.0
  0
LINE
  5
CCA
  8
0
  6
BYBLOCK
 62
     4
 10
224.6644200539472
 20
-159.0469299737214
 30
0.0
 11
230.76442005394719
 21
-159.0469299737214
 31
0.0
  0
LINE
  5
CCB
  8
0
  6
BYBLOCK
 62
     4
 10
225.66846470254791
 20
-159.54382108239679
 30
0.0
 11
229.76037540534651
 21
-159.54382108239679
 31
0.0
  0
LINE
  5
CCC
  8
0
  6
BYBLOCK
 62
     4
 10
223.71442005394709
 20
-144.44382108239699
 30
0.0
 11
223.71442005394709
 21
-146.24382108239749
 31
0.0
  0
LINE
  5
CCD
  8
0
  6
BYBLOCK
 62
     4
 10
231.71442005394729
 20
-144.44382108239711
 30
0.0
 11
231.71442005394701
 21
-146.2438210823972
 31
0.0
  0
LINE
  5
CCE
  8
0
  6
BYBLOCK
 62
     4
 10
230.71442005394729
 20
-154.24382108239709
 30
0.0
 11
230.71442005394729
 21
-146.44382108239739
 31
0.0
  0
LINE
  5
CCF
  8
0
  6
BYBLOCK
 62
     4
 10
224.71442005394721
 20
-146.44382108239711
 30
0.0
 11
224.71442005394721
 21
-154.24382108239701
 31
0.0
  0
LINE
  5
CD0
  8
0
  6
BYBLOCK
 62
     4
 10
224.71442005394721
 20
-154.24382108239701
 30
0.0
 11
230.71442005394729
 21
-154.24382108239709
 31
0.0
  0
LINE
  5
CD1
  8
0
  6
BYBLOCK
 62
     4
 10
224.71442005394721
 20
-154.24382108239701
 30
0.0
 11
224.9144200539474
 21
-154.44382108239679
 31
0.0
  0
LINE
  5
CD2
  8
0
  6
BYBLOCK
 62
     4
 10
230.51442005394711
 20
-154.44382108239679
 30
0.0
 11
230.71442005394729
 21
-154.24382108239709
 31
0.0
  0
LINE
  5
CD3
  8
0
  6
BYBLOCK
 62
     4
 10
227.71442005394729
 20
-146.4438210823615
 30
0.0
 11
223.91442005394731
 21
-146.44382108239711
 31
0.0
  0
LINE
  5
CD4
  8
0
  6
BYBLOCK
 62
     4
 10
223.91442005394731
 20
-146.44382108239711
 30
0.0
 11
223.71442005394709
 21
-146.24382108239749
 31
0.0
  0
LINE
  5
CD5
  8
0
  6
BYBLOCK
 62
     4
 10
231.51442005394711
 20
-146.44382108239751
 30
0.0
 11
227.71442005394729
 21
-146.4438210823981
 31
0.0
  0
LINE
  5
CD6
  8
0
  6
BYBLOCK
 62
     4
 10
231.51442005394711
 20
-146.44382108239751
 30
0.0
 11
231.71442005394701
 21
-146.2438210823972
 31
0.0
  0
LINE
  5
CD7
  8
0
  6
BYBLOCK
 62
     4
 10
232.71442005394729
 20
-136.94382108239679
 30
0.0
 11
232.71442005394729
 21
-132.94382108239699
 31
0.0
  0
LINE
  5
CD8
  8
0
  6
BYBLOCK
 62
     4
 10
222.71442005394741
 20
-132.94382108239679
 30
0.0
 11
222.71442005394729
 21
-136.94382108239711
 31
0.0
  0
LINE
  5
CD9
  8
0
  6
BYBLOCK
 62
     4
 10
223.51442005394719
 20
-131.64382108239721
 30
0.0
 11
223.51442005394719
 21
-144.24382108239701
 31
0.0
  0
LINE
  5
CDA
  8
0
  6
BYBLOCK
 62
     4
 10
224.82766870799949
 20
-131.94382108239691
 30
0.0
 11
224.82766870799961
 21
-137.44382108239631
 31
0.0
  0
LINE
  5
CDB
  8
0
  6
BYBLOCK
 62
     4
 10
226.27104438097339
 20
-131.94382108239679
 30
0.0
 11
226.27104438097311
 21
-137.4438210823966
 31
0.0
  0
LINE
  5
CDC
  8
0
  6
BYBLOCK
 62
     4
 10
231.9144200539472
 20
-131.64382108239721
 30
0.0
 11
231.91442005394711
 21
-144.24382108239701
 31
0.0
  0
LINE
  5
CDD
  8
0
  6
BYBLOCK
 62
     4
 10
229.15779572692159
 20
-131.94382108239699
 30
0.0
 11
229.15779572692091
 21
-137.4438210823966
 31
0.0
  0
LINE
  5
CDE
  8
0
  6
BYBLOCK
 62
     4
 10
230.60117139989521
 20
-131.94382108239699
 30
0.0
 11
230.60117139989521
 21
-137.44382108239631
 31
0.0
  0
LINE
  5
CDF
  8
0
  6
BYBLOCK
 62
     4
 10
230.60117139989521
 20
-137.44382108239631
 30
0.0
 11
224.8276687079989
 21
-137.4438210823962
 31
0.0
  0
LINE
  5
CE0
  8
0
  6
BYBLOCK
 62
     4
 10
230.21442005394709
 20
-139.44382108239651
 30
0.0
 11
225.21442005394701
 21
-139.4438210823966
 31
0.0
  0
LINE
  5
CE1
  8
0
  6
BYBLOCK
 62
     4
 10
230.21442005394729
 20
-139.4438210823966
 30
0.0
 11
227.71442005394709
 21
-140.88719675537041
 31
0.0
  0
LINE
  5
CE2
  8
0
  6
BYBLOCK
 62
     4
 10
222.71442005394721
 20
-137.94382108239671
 30
0.0
 11
222.7144200539469
 21
-143.44382108239699
 31
0.0
  0
LINE
  5
CE3
  8
0
  6
BYBLOCK
 62
     4
 10
225.21442005394701
 20
-139.4438210823966
 30
0.0
 11
227.71442005394709
 21
-140.88719675537041
 31
0.0
  0
LINE
  5
CE4
  8
0
  6
BYBLOCK
 62
     4
 10
222.7144200539469
 20
-143.44382108239699
 30
0.0
 11
223.71442005394709
 21
-144.44382108239699
 31
0.0
  0
LINE
  5
CE5
  8
0
  6
BYBLOCK
 62
     4
 10
222.71442005394729
 20
-136.94382108239711
 30
0.0
 11
222.71442005394721
 21
-137.94382108239671
 31
0.0
  0
LINE
  5
CE6
  8
0
  6
BYBLOCK
 62
     4
 10
225.2144200539469
 20
-137.4438210823962
 30
0.0
 11
225.21442005394701
 21
-139.4438210823966
 31
0.0
  0
LINE
  5
CE7
  8
0
  6
BYBLOCK
 62
     4
 10
232.71442005394709
 20
-143.44382108239699
 30
0.0
 11
232.71442005394701
 21
-137.94382108239691
 31
0.0
  0
LINE
  5
CE8
  8
0
  6
BYBLOCK
 62
     4
 10
231.71442005394729
 20
-144.44382108239711
 30
0.0
 11
232.71442005394709
 21
-143.44382108239699
 31
0.0
  0
LINE
  5
CE9
  8
0
  6
BYBLOCK
 62
     4
 10
230.21442005394709
 20
-137.44382108239671
 30
0.0
 11
230.21442005394709
 21
-139.44382108239651
 31
0.0
  0
LINE
  5
CEA
  8
0
  6
BYBLOCK
 62
     4
 10
232.71442005394701
 20
-137.94382108239691
 30
0.0
 11
232.71442005394729
 21
-136.94382108239679
 31
0.0
  0
LINE
  5
CEB
  8
0
  6
BYBLOCK
 62
     4
 10
231.71442005394741
 20
-131.44382108239679
 30
0.0
 11
223.71442005394709
 21
-131.44382108239679
 31
0.0
  0
LINE
  5
CEC
  8
0
  6
BYBLOCK
 62
     4
 10
230.60117139989521
 20
-131.94382108239699
 30
0.0
 11
227.71442005394729
 21
-131.94382108239699
 31
0.0
  0
LINE
  5
CED
  8
0
  6
BYBLOCK
 62
     4
 10
222.71442005394761
 20
-132.44382108239691
 30
0.0
 11
232.71442005394729
 21
-132.44382108239671
 31
0.0
  0
LINE
  5
CEE
  8
0
  6
BYBLOCK
 62
     4
 10
224.82766870799949
 20
-131.94382108239691
 30
0.0
 11
227.71442005394729
 21
-131.94382108239699
 31
0.0
  0
LINE
  5
CEF
  8
0
  6
BYBLOCK
 62
     4
 10
222.71442005394741
 20
-132.94382108239679
 30
0.0
 11
222.71442005394741
 21
-132.94382108239679
 31
0.0
  0
LINE
  5
CF0
  8
0
  6
BYBLOCK
 62
     4
 10
222.71442005394761
 20
-132.44382108239691
 30
0.0
 11
222.71442005394741
 21
-132.94382108239679
 31
0.0
  0
LINE
  5
CF1
  8
0
  6
BYBLOCK
 62
     4
 10
223.71442005394709
 20
-131.44382108239679
 30
0.0
 11
222.71442005394761
 21
-132.44382108239691
 31
0.0
  0
LINE
  5
CF2
  8
0
  6
BYBLOCK
 62
     4
 10
224.32766870799961
 20
-131.44382108239671
 30
0.0
 11
224.82766870799949
 21
-131.94382108239691
 31
0.0
  0
LINE
  5
CF3
  8
0
  6
BYBLOCK
 62
     4
 10
231.10117139989521
 20
-131.44382108239711
 30
0.0
 11
230.60117139989521
 21
-131.94382108239699
 31
0.0
  0
LINE
  5
CF4
  8
0
  6
BYBLOCK
 62
     4
 10
232.71442005394729
 20
-132.44382108239699
 30
0.0
 11
231.71442005394741
 21
-131.44382108239679
 31
0.0
  0
LINE
  5
CF5
  8
0
  6
BYBLOCK
 62
     4
 10
232.71442005394729
 20
-132.94382108239699
 30
0.0
 11
232.71442005394729
 21
-132.44382108239699
 31
0.0
  0
LINE
  5
CF6
  8
0
  6
BYBLOCK
 62
     4
 10
232.71442005394729
 20
-132.94382108239699
 30
0.0
 11
232.71442005394729
 21
-132.94382108239699
 31
0.0
  0
LINE
  5
CF7
  8
0
  6
BYBLOCK
 62
     4
 10
224.9144200539474
 20
-154.44382108239679
 30
0.0
 11
227.71442005394709
 21
-154.44382108239679
 31
0.0
  0
LINE
  5
CF8
  8
0
  6
BYBLOCK
 62
     4
 10
227.71442005394709
 20
-154.44382108239679
 30
0.0
 11
230.51442005394711
 21
-154.44382108239679
 31
0.0
  0
LINE
  5
CF9
  8
0
  6
BYBLOCK
 62
     4
 10
223.71442005394709
 20
-146.24382108239749
 30
0.0
 11
227.71442005394709
 21
-146.24382108239749
 31
0.0
  0
LINE
  5
CFA
  8
0
  6
BYBLOCK
 62
     4
 10
227.71442005394709
 20
-146.24382108239749
 30
0.0
 11
231.71442005394701
 21
-146.2438210823972
 31
0.0
  0
LINE
  5
CFB
  8
0
  6
BYBLOCK
 62
     4
 10
223.71442005394709
 20
-144.44382108239699
 30
0.0
 11
227.71442005394709
 21
-144.44382108239699
 31
0.0
  0
LINE
  5
CFC
  8
0
  6
BYBLOCK
 62
     4
 10
227.71442005394709
 20
-144.44382108239699
 30
0.0
 11
231.71442005394729
 21
-144.44382108239751
 31
0.0
  0
LINE
  5
CFD
  8
0
  6
BYBLOCK
 62
     4
 10
222.7144200539469
 20
-143.44382108239699
 30
0.0
 11
227.71442005394729
 21
-143.44382108239699
 31
0.0
  0
LINE
  5
CFE
  8
0
  6
BYBLOCK
 62
     4
 10
227.71442005394729
 20
-143.44382108239699
 30
0.0
 11
232.71442005394709
 21
-143.44382108239699
 31
0.0
  0
ENDBLK
  5
CFF
  8
0
  0
BLOCK
  8
0
  2
*D4
 70
     1
 10
0.0
 20
0.0
 30
0.0
  3
*D4
  1

  0
LINE
  5
ABD6
  8
0
  6
CONTINUOUS
 62
     2
 10
97.509907404360092
 20
116.0294657598036
 30
0.0
 11
97.509907404360092
 21
73.587380963121063
 31
0.0
  0
LINE
  5
ABD7
  8
0
  6
CONTINUOUS
 62
     2
 10
274.50990740436021
 20
125.0774489794909
 30
0.0
 11
274.50990740436021
 21
73.587380963121063
 31
0.0
  0
LINE
  5
ABD8
  8
0
  6
CONTINUOUS
 62
     2
 10
100.00990740436011
 20
74.587380963121063
 30
0.0
 11
272.00990740436021
 21
74.587380963121063
 31
0.0
  0
SOLID
  5
ABD9
  8
0
  6
CONTINUOUS
 62
     2
 10
100.00990740436011
 20
75.004047629787735
 30
0.0
 11
100.00990740436011
 21
74.170714296454392
 31
0.0
 12
97.509907404360092
 22
74.587380963121063
 32
0.0
 13
97.509907404360092
 23
74.587380963121063
 33
0.0
  0
SOLID
  5
ABDA
  8
0
  6
CONTINUOUS
 62
     2
 10
272.00990740436021
 20
75.004047629787735
 30
0.0
 11
272.00990740436021
 21
74.170714296454392
 31
0.0
 12
274.50990740436021
 22
74.587380963121063
 32
0.0
 13
274.50990740436021
 23
74.587380963121063
 33
0.0
  0
TEXT
  8
0
  40
3
  5
AC6A
  62
3
  72
0
  71
0
 10
186.010
 20
72.7874
 30
0.000000
  1
177
  0
POINT
  5
ABDC
  8
DEFPOINTS
  6
CONTINUOUS
 62
     0
 10
97.509907404360092
 20
116.62946575980359
 30
0.0
  0
POINT
  5
ABDD
  8
DEFPOINTS
  6
CONTINUOUS
 62
     0
 10
274.50990740436021
 20
125.6774489794909
 30
0.0
  0
POINT
  5
ABDE
  8
DEFPOINTS
  6
CONTINUOUS
 62
     0
 10
274.50990740436021
 20
74.587380963121063
 30
0.0
  0
ENDBLK
  5
21F9
  8
0
  0
BLOCK
  8
0
  2
*D5
 70
     1
 10
0.0
 20
0.0
 30
0.0
  3
*D5
  1

  0
LINE
  5
ABDF
  8
0
  6
CONTINUOUS
 62
     2
 10
129.50990740436009
 20
106.60296669613339
 30
0.0
 11
129.50990740436009
 21
81.587380963121063
 31
0.0
  0
LINE
  5
ABE0
  8
0
  6
CONTINUOUS
 62
     2
 10
274.50990740436021
 20
125.0774489794909
 30
0.0
 11
274.50990740436021
 21
81.587380963121063
 31
0.0
  0
LINE
  5
ABE1
  8
0
  6
CONTINUOUS
 62
     2
 10
132.00990740436009
 20
82.587380963121049
 30
0.0
 11
272.00990740436021
 21
82.587380963121049
 31
0.0
  0
SOLID
  5
ABE2
  8
0
  6
CONTINUOUS
 62
     2
 10
132.00990740436009
 20
83.004047629787735
 30
0.0
 11
132.00990740436009
 21
82.170714296454392
 31
0.0
 12
129.50990740436009
 22
82.587380963121049
 32
0.0
 13
129.50990740436009
 23
82.587380963121049
 33
0.0
  0
SOLID
  5
ABE3
  8
0
  6
CONTINUOUS
 62
     2
 10
272.00990740436021
 20
83.004047629787735
 30
0.0
 11
272.00990740436021
 21
82.170714296454392
 31
0.0
 12
274.50990740436021
 22
82.587380963121049
 32
0.0
 13
274.50990740436021
 23
82.587380963121049
 33
0.0
  0
TEXT
  8
0
  40
3
  5
AC6B
  62
3
  72
0
  71
0
 10
202.010
 20
80.7874
 30
0.000000
  1
145
  0
POINT
  5
ABE5
  8
DEFPOINTS
  6
CONTINUOUS
 62
     0
 10
129.50990740436009
 20
107.2029666961334
 30
0.0
  0
POINT
  5
ABE6
  8
DEFPOINTS
  6
CONTINUOUS
 62
     0
 10
274.50990740436021
 20
125.6774489794909
 30
0.0
  0
POINT
  5
ABE7
  8
DEFPOINTS
  6
CONTINUOUS
 62
     0
 10
274.50990740436021
 20
82.587380963121049
 30
0.0
  0
ENDBLK
  5
2205
  8
0
  0
BLOCK
  8
0
  2
*D6
 70
     1
 10
0.0
 20
0.0
 30
0.0
  3
*D6
  1

  0
LINE
  5
ABE8
  8
0
  6
CONTINUOUS
 62
     2
 10
184.50990740435989
 20
119.88626656065991
 30
0.0
 11
184.50990740435989
 21
89.587380963121063
 31
0.0
  0
LINE
  5
ABE9
  8
0
  6
CONTINUOUS
 62
     2
 10
274.50990740436021
 20
125.0774489794909
 30
0.0
 11
274.50990740436021
 21
89.587380963121063
 31
0.0
  0
LINE
  5
ABEA
  8
0
  6
CONTINUOUS
 62
     2
 10
187.00990740436001
 20
90.587380963121063
 30
0.0
 11
272.00990740436021
 21
90.587380963121063
 31
0.0
  0
SOLID
  5
ABEB
  8
0
  6
CONTINUOUS
 62
     2
 10
187.00990740436001
 20
91.004047629787735
 30
0.0
 11
187.00990740436001
 21
90.170714296454378
 31
0.0
 12
184.50990740435989
 22
90.587380963121063
 32
0.0
 13
184.50990740435989
 23
90.587380963121063
 33
0.0
  0
SOLID
  5
ABEC
  8
0
  6
CONTINUOUS
 62
     2
 10
272.00990740436021
 20
91.004047629787735
 30
0.0
 11
272.00990740436021
 21
90.170714296454378
 31
0.0
 12
274.50990740436021
 22
90.587380963121063
 32
0.0
 13
274.50990740436021
 23
90.587380963121063
 33
0.0
  0
TEXT
  8
0
  40
3
  5
AC6C
  62
3
  72
0
  71
0
 10
229.510
 20
88.7874
 30
0.000000
  1
90
  0
POINT
  5
ABEE
  8
DEFPOINTS
  6
CONTINUOUS
 62
     0
 10
184.50990740435989
 20
120.4862665606599
 30
0.0
  0
POINT
  5
ABEF
  8
DEFPOINTS
  6
CONTINUOUS
 62
     0
 10
274.50990740436021
 20
125.6774489794909
 30
0.0
  0
POINT
  5
ABF0
  8
DEFPOINTS
  6
CONTINUOUS
 62
     0
 10
274.50990740436021
 20
90.587380963121063
 30
0.0
  0
ENDBLK
  5
2235
  8
0
  0
BLOCK
  8
0
  2
_OBLIQUE
 70
     0
 10
0.0
 20
0.0
 30
0.0
  3
_OBLIQUE
  1

  0
LINE
  5
5E6B
  8
0
  6
BYBLOCK
 62
     0
 10
-0.5
 20
-0.5
 30
0.0
 11
0.5
 21
0.5
 31
0.0
  0
ENDBLK
  5
5E6C
  8
0
  0
BLOCK
  8
0
  2
SEFSRF
 70
     0
 10
0.0
 20
0.0
 30
0.0
  3
SEFSRF
  1

  0
LINE
  5
7DA2
  8
0
 62
     4
 10
565.79354578904156
 20
199.40588144428301
 30
0.0
 11
565.79354578904156
 21
194.90588144428301
 31
0.0
  0
LINE
  5
7DA3
  8
0
 62
     4
 10
580.79354578904156
 20
199.65588144428301
 30
0.0
 11
580.79354578904156
 21
194.90588144428301
 31
0.0
  0
LINE
  5
7DA4
  8
0
 62
     4
 10
566.29354578904167
 20
199.90588144428301
 30
0.0
 11
576.79354578904145
 21
199.90588144428301
 31
0.0
  0
LINE
  5
7DA5
  8
0
 62
     4
 10
577.29354578904145
 20
199.40588144428301
 30
0.0
 11
577.29354578904156
 21
194.90588144428301
 31
0.0
  0
LINE
  5
7DA6
  8
0
 62
     4
 10
565.79354578904156
 20
199.40588144428301
 30
0.0
 11
577.29354578904145
 21
199.40588144428301
 31
0.0
  0
LINE
  5
7DA7
  8
0
 62
     4
 10
565.79354578904156
 20
199.40588144428301
 30
0.0
 11
566.29354578904167
 21
199.90588144428301
 31
0.0
  0
LINE
  5
7DA8
  8
0
 62
     4
 10
576.79354578904145
 20
199.90588144428301
 30
0.0
 11
577.29354578904145
 21
199.40588144428301
 31
0.0
  0
LINE
  5
7DA9
  8
0
 62
     4
 10
578.79354578904167
 20
199.90588144428301
 30
0.0
 11
580.54354578904167
 21
199.90588144428301
 31
0.0
  0
LINE
  5
7DAA
  8
0
 62
     4
 10
577.29354578904145
 20
199.15588144428301
 30
0.0
 11
578.79354578904167
 21
199.15588144428301
 31
0.0
  0
LINE
  5
7DAB
  8
0
 62
     4
 10
566.29354578904167
 20
199.90588144428301
 30
0.0
 11
566.29354578904167
 21
194.90588144428301
 31
0.0
  0
LINE
  5
7DAC
  8
0
  6
CONTINUOUS
 62
     4
 10
576.79354578904145
 20
199.90588144428301
 30
0.0
 11
576.79354578904145
 21
194.90588144428301
 31
0.0
  0
LINE
  5
7DAD
  8
0
 62
     4
 10
580.54354578904167
 20
199.90588144428301
 30
0.0
 11
580.79354578904156
 21
199.65588144428301
 31
0.0
  0
LINE
  5
7DAE
  8
0
 62
     4
 10
580.54354578904167
 20
194.90588144428301
 30
0.0
 11
580.54354578904167
 21
199.90588144428301
 31
0.0
  0
LINE
  5
7DAF
  8
0
  6
CONTINUOUS
 62
     4
 10
578.79354578904167
 20
199.90588144428301
 30
0.0
 11
578.79354578904145
 21
194.90588144428301
 31
0.0
  0
ENDBLK
  5
7DB0
  8
0
  0
BLOCK
  8
0
  2
*D9
 70
     1
 10
0.0
 20
0.0
 30
0.0
  3
*D9
  1

  0
LINE
  5
AC20
  8
0
  6
CONTINUOUS
 62
     2
 10
275.10990740436119
 20
125.2029666961334
 30
0.0
 11
295.75971448437792
 21
125.2029666961334
 31
0.0
  0
LINE
  5
AC21
  8
0
  6
CONTINUOUS
 62
     2
 10
275.10990740436119
 20
151.20296669613339
 30
0.0
 11
295.75971448437792
 21
151.20296669613339
 31
0.0
  0
LINE
  5
AC22
  8
0
  6
CONTINUOUS
 62
     2
 10
294.75971448437792
 20
127.7029666961334
 30
0.0
 11
294.75971448437792
 21
148.70296669613339
 31
0.0
  0
SOLID
  5
AC23
  8
0
  6
CONTINUOUS
 62
     2
 10
294.34304781771118
 20
127.7029666961334
 30
0.0
 11
295.17638115104461
 21
127.7029666961334
 31
0.0
 12
294.75971448437792
 22
125.2029666961334
 32
0.0
 13
294.75971448437792
 23
125.2029666961334
 33
0.0
  0
SOLID
  5
AC24
  8
0
  6
CONTINUOUS
 62
     2
 10
294.34304781771118
 20
148.70296669613339
 30
0.0
 11
295.17638115104461
 21
148.70296669613339
 31
0.0
 12
294.75971448437792
 22
151.20296669613339
 32
0.0
 13
294.75971448437792
 23
151.20296669613339
 33
0.0
  0
TEXT
  8
0
  40
3
  5
AC6D
  62
3
  72
0
  71
0
 10
292.659
 20
134.303
 30
0.000000
  1
%%C26
  0
POINT
  5
AC26
  8
DEFPOINTS
  6
CONTINUOUS
 62
     0
 10
274.50990740436112
 20
125.2029666961334
 30
0.0
  0
POINT
  5
AC27
  8
DEFPOINTS
  6
CONTINUOUS
 62
     0
 10
274.50990740436112
 20
151.20296669613339
 30
0.0
  0
POINT
  5
AC28
  8
DEFPOINTS
  6
CONTINUOUS
 62
     0
 10
294.75971448437792
 20
151.20296669613339
 30
0.0
  0
ENDBLK
  5
8E40
  8
0
  0
BLOCK
  8
0
  2
SFGSG
 70
     0
 10
0.0
 20
0.0
 30
0.0
  3
SFGSG
  1

  0
POLYLINE
  5
A4C4
  8
0
  6
BYBLOCK
 62
     4
 66
     1
 10
0.0
 20
0.0
 30
0.0
 70
     1
  0
VERTEX
  5
AC36
  8
0
  6
BYBLOCK
 62
     4
 10
-28.45639112519132
 20
73.248778647945187
 30
0.0
  0
VERTEX
  5
AC37
  8
0
  6
BYBLOCK
 62
     4
 10
-28.656391125191249
 20
72.715445314611827
 30
0.0
  0
VERTEX
  5
AC38
  8
0
  6
BYBLOCK
 62
     4
 10
-28.656391125191249
 20
71.945669756620589
 30
0.0
  0
VERTEX
  5
AC39
  8
0
  6
BYBLOCK
 62
     4
 10
-28.369510909839509
 20
71.448778647945119
 30
0.0
  0
VERTEX
  5
AC3A
  8
0
  6
BYBLOCK
 62
     4
 10
-27.652346476590541
 20
71.448778647945119
 30
0.0
  0
VERTEX
  5
AC3B
  8
0
  6
BYBLOCK
 62
     4
 10
-27.106391125191301
 20
69.948778647945119
 30
0.0
  0
VERTEX
  5
AC3C
  8
0
  6
BYBLOCK
 62
     4
 10
-25.606391125191301
 20
69.948778647945119
 30
0.0
  0
VERTEX
  5
AC3D
  8
0
  6
BYBLOCK
 62
     4
 10
-24.106391125191301
 20
69.948778647945119
 30
0.0
  0
VERTEX
  5
AC3E
  8
0
  6
BYBLOCK
 62
     4
 10
-23.560435773791941
 20
71.448778647945119
 30
0.0
  0
VERTEX
  5
AC3F
  8
0
  6
BYBLOCK
 62
     4
 10
-22.843271340542969
 20
71.448778647945119
 30
0.0
  0
VERTEX
  5
AC40
  8
0
  6
BYBLOCK
 62
     4
 10
-22.556391125191229
 20
71.945669756620589
 30
0.0
  0
VERTEX
  5
AC41
  8
0
  6
BYBLOCK
 62
     4
 10
-22.556391125191229
 20
72.715445314611827
 30
0.0
  0
VERTEX
  5
AC42
  8
0
  6
BYBLOCK
 62
     4
 10
-22.756391125191271
 20
73.248778647945187
 30
0.0
  0
VERTEX
  5
AC43
  8
0
  6
BYBLOCK
 62
     4
 10
-22.756391125191271
 20
76.548778647945142
 30
0.0
  0
VERTEX
  5
AC44
  8
0
  6
BYBLOCK
 62
     4
 10
-25.606391125191301
 20
76.548778647945142
 30
0.0
  0
VERTEX
  5
AC45
  8
0
  6
BYBLOCK
 62
     4
 10
-28.45639112519121
 20
76.548778647945142
 30
0.0
  0
SEQEND
  5
AC46
  8
0
  6
BYBLOCK
 62
     4
  0
LINE
  5
A4C5
  8
0
  6
BYBLOCK
 62
     4
 10
-28.45639112519132
 20
73.248778647945187
 30
0.0
 11
-22.756391125191271
 21
73.248778647945187
 31
0.0
  0
LINE
  5
A4C6
  8
0
  6
BYBLOCK
 62
     4
 10
-28.656391125191249
 20
72.715445314611827
 30
0.0
 11
-22.556391125191229
 21
72.715445314611827
 31
0.0
  0
LINE
  5
A4C7
  8
0
  6
BYBLOCK
 62
     4
 10
-28.656391125191249
 20
71.945669756620589
 30
0.0
 11
-22.556391125191229
 21
71.945669756620589
 31
0.0
  0
LINE
  5
A4C8
  8
0
  6
BYBLOCK
 62
     4
 10
-27.652346476590541
 20
71.448778647945119
 30
0.0
 11
-23.560435773791941
 21
71.448778647945119
 31
0.0
  0
LINE
  5
A4C9
  8
0
  6
BYBLOCK
 62
     4
 10
-29.606391125191301
 20
88.548778647944914
 30
0.0
 11
-29.606391125191301
 21
86.748778647944391
 31
0.0
  0
LINE
  5
A4CA
  8
0
  6
BYBLOCK
 62
     4
 10
-21.60639112519118
 20
88.548778647944786
 30
0.0
 11
-21.606391125191411
 21
86.748778647944718
 31
0.0
  0
LINE
  5
A4CB
  8
0
  6
BYBLOCK
 62
     4
 10
-22.60639112519118
 20
76.748778647944846
 30
0.0
 11
-22.60639112519118
 21
86.548778647944573
 31
0.0
  0
LINE
  5
A4CC
  8
0
  6
BYBLOCK
 62
     4
 10
-28.606391125191291
 20
86.5487786479448
 30
0.0
 11
-28.606391125191291
 21
76.748778647944945
 31
0.0
  0
LINE
  5
A4CD
  8
0
  6
BYBLOCK
 62
     4
 10
-28.606391125191291
 20
76.748778647944945
 30
0.0
 11
-22.60639112519118
 21
76.748778647944846
 31
0.0
  0
LINE
  5
A4CE
  8
0
  6
BYBLOCK
 62
     4
 10
-28.606391125191291
 20
76.748778647944945
 30
0.0
 11
-28.406391125191021
 21
76.548778647945142
 31
0.0
  0
LINE
  5
A4CF
  8
0
  6
BYBLOCK
 62
     4
 10
-22.80639112519134
 20
76.548778647945142
 30
0.0
 11
-22.60639112519118
 21
76.748778647944846
 31
0.0
  0
LINE
  5
A4D0
  8
0
  6
BYBLOCK
 62
     4
 10
-25.60639112519118
 20
86.548778647980427
 30
0.0
 11
-29.406391125191139
 21
86.5487786479448
 31
0.0
  0
LINE
  5
A4D1
  8
0
  6
BYBLOCK
 62
     4
 10
-29.406391125191139
 20
86.5487786479448
 30
0.0
 11
-29.606391125191301
 21
86.748778647944391
 31
0.0
  0
LINE
  5
A4D2
  8
0
  6
BYBLOCK
 62
     4
 10
-21.80639112519134
 20
86.548778647944459
 30
0.0
 11
-25.60639112519118
 21
86.548778647943891
 31
0.0
  0
LINE
  5
A4D3
  8
0
  6
BYBLOCK
 62
     4
 10
-21.80639112519134
 20
86.548778647944459
 30
0.0
 11
-21.606391125191411
 21
86.748778647944718
 31
0.0
  0
LINE
  5
A4D4
  8
0
  6
BYBLOCK
 62
     4
 10
-20.60639112519118
 20
96.048778647945156
 30
0.0
 11
-20.60639112519118
 21
100.0487786479449
 31
0.0
  0
LINE
  5
A4D5
  8
0
  6
BYBLOCK
 62
     4
 10
-30.60639112519107
 20
100.0487786479451
 30
0.0
 11
-30.60639112519118
 21
96.048778647944815
 31
0.0
  0
LINE
  5
A4D6
  8
0
  6
BYBLOCK
 62
     4
 10
-29.806391125191229
 20
101.3487786479447
 30
0.0
 11
-29.806391125191229
 21
88.748778647944974
 31
0.0
  0
LINE
  5
A4D7
  8
0
  6
BYBLOCK
 62
     4
 10
-28.493142471138981
 20
101.048778647945
 30
0.0
 11
-28.493142471138871
 21
95.548778647945596
 31
0.0
  0
LINE
  5
A4D8
  8
0
  6
BYBLOCK
 62
     4
 10
-27.04976679816502
 20
101.0487786479451
 30
0.0
 11
-27.049766798165368
 21
95.548778647945369
 31
0.0
  0
LINE
  5
A4D9
  8
0
  6
BYBLOCK
 62
     4
 10
-21.406391125191249
 20
101.3487786479447
 30
0.0
 11
-21.406391125191359
 21
88.748778647944974
 31
0.0
  0
LINE
  5
A4DA
  8
0
  6
BYBLOCK
 62
     4
 10
-24.163015452216879
 20
101.0487786479449
 30
0.0
 11
-24.163015452217561
 21
95.548778647945369
 31
0.0
  0
LINE
  5
A4DB
  8
0
  6
BYBLOCK
 62
     4
 10
-22.71963977924327
 20
101.0487786479449
 30
0.0
 11
-22.71963977924327
 21
95.548778647945596
 31
0.0
  0
LINE
  5
A4DC
  8
0
  6
BYBLOCK
 62
     4
 10
-22.71963977924327
 20
95.548778647945596
 30
0.0
 11
-28.493142471139549
 21
95.54877864794571
 31
0.0
  0
LINE
  5
A4DD
  8
0
  6
BYBLOCK
 62
     4
 10
-23.106391125191301
 20
93.548778647945483
 30
0.0
 11
-28.106391125191411
 21
93.548778647945355
 31
0.0
  0
LINE
  5
A4DE
  8
0
  6
BYBLOCK
 62
     4
 10
-23.10639112519118
 20
93.548778647945355
 30
0.0
 11
-25.606391125191301
 21
92.105402974971526
 31
0.0
  0
LINE
  5
A4DF
  8
0
  6
BYBLOCK
 62
     4
 10
-30.606391125191301
 20
95.048778647945255
 30
0.0
 11
-30.606391125191521
 21
89.548778647944914
 31
0.0
  0
LINE
  5
A4E0
  8
0
  6
BYBLOCK
 62
     4
 10
-28.106391125191411
 20
93.548778647945355
 30
0.0
 11
-25.606391125191301
 21
92.105402974971526
 31
0.0
  0
LINE
  5
A4E1
  8
0
  6
BYBLOCK
 62
     4
 10
-30.606391125191521
 20
89.548778647944914
 30
0.0
 11
-29.606391125191301
 21
88.548778647944914
 31
0.0
  0
LINE
  5
A4E2
  8
0
  6
BYBLOCK
 62
     4
 10
-30.60639112519118
 20
96.048778647944815
 30
0.0
 11
-30.606391125191301
 21
95.048778647945255
 31
0.0
  0
LINE
  5
A4E3
  8
0
  6
BYBLOCK
 62
     4
 10
-28.106391125191521
 20
95.54877864794571
 30
0.0
 11
-28.106391125191411
 21
93.548778647945355
 31
0.0
  0
LINE
  5
A4E4
  8
0
  6
BYBLOCK
 62
     4
 10
-20.606391125191301
 20
89.548778647944914
 30
0.0
 11
-20.606391125191411
 21
95.048778647945028
 31
0.0
  0
LINE
  5
A4E5
  8
0
  6
BYBLOCK
 62
     4
 10
-21.60639112519118
 20
88.548778647944786
 30
0.0
 11
-20.606391125191301
 21
89.548778647944914
 31
0.0
  0
LINE
  5
A4E6
  8
0
  6
BYBLOCK
 62
     4
 10
-23.106391125191301
 20
95.548778647945255
 30
0.0
 11
-23.106391125191301
 21
93.548778647945483
 31
0.0
  0
LINE
  5
A4E7
  8
0
  6
BYBLOCK
 62
     4
 10
-20.606391125191411
 20
95.048778647945028
 30
0.0
 11
-20.60639112519118
 21
96.048778647945156
 31
0.0
  0
LINE
  5
A4E8
  8
0
  6
BYBLOCK
 62
     4
 10
-21.60639112519107
 20
101.5487786479451
 30
0.0
 11
-29.606391125191301
 21
101.5487786479451
 31
0.0
  0
LINE
  5
A4E9
  8
0
  6
BYBLOCK
 62
     4
 10
-22.71963977924327
 20
101.0487786479449
 30
0.0
 11
-25.60639112519118
 21
101.0487786479449
 31
0.0
  0
LINE
  5
A4EA
  8
0
  6
BYBLOCK
 62
     4
 10
-30.606391125190839
 20
100.548778647945
 30
0.0
 11
-20.60639112519118
 21
100.5487786479452
 31
0.0
  0
LINE
  5
A4EB
  8
0
  6
BYBLOCK
 62
     4
 10
-28.493142471138981
 20
101.048778647945
 30
0.0
 11
-25.60639112519118
 21
101.0487786479449
 31
0.0
  0
LINE
  5
A4EC
  8
0
  6
BYBLOCK
 62
     4
 10
-30.60639112519107
 20
100.0487786479451
 30
0.0
 11
-30.60639112519107
 21
100.0487786479451
 31
0.0
  0
LINE
  5
A4ED
  8
0
  6
BYBLOCK
 62
     4
 10
-30.606391125190839
 20
100.548778647945
 30
0.0
 11
-30.60639112519107
 21
100.0487786479451
 31
0.0
  0
LINE
  5
A4EE
  8
0
  6
BYBLOCK
 62
     4
 10
-29.606391125191301
 20
101.5487786479451
 30
0.0
 11
-30.606391125190839
 21
100.548778647945
 31
0.0
  0
LINE
  5
A4EF
  8
0
  6
BYBLOCK
 62
     4
 10
-28.993142471138871
 20
101.5487786479452
 30
0.0
 11
-28.493142471138981
 21
101.048778647945
 31
0.0
  0
LINE
  5
A4F0
  8
0
  6
BYBLOCK
 62
     4
 10
-22.219639779243259
 20
101.5487786479448
 30
0.0
 11
-22.71963977924327
 21
101.0487786479449
 31
0.0
  0
LINE
  5
A4F1
  8
0
  6
BYBLOCK
 62
     4
 10
-20.60639112519118
 20
100.5487786479449
 30
0.0
 11
-21.60639112519107
 21
101.5487786479451
 31
0.0
  0
LINE
  5
A4F2
  8
0
  6
BYBLOCK
 62
     4
 10
-20.60639112519118
 20
100.0487786479449
 30
0.0
 11
-20.60639112519118
 21
100.5487786479449
 31
0.0
  0
LINE
  5
A4F3
  8
0
  6
BYBLOCK
 62
     4
 10
-20.60639112519118
 20
100.0487786479449
 30
0.0
 11
-20.60639112519118
 21
100.0487786479449
 31
0.0
  0
LINE
  5
A4F4
  8
0
  6
BYBLOCK
 62
     4
 10
-28.406391125191021
 20
76.548778647945142
 30
0.0
 11
-25.606391125191301
 21
76.548778647945142
 31
0.0
  0
LINE
  5
A4F5
  8
0
  6
BYBLOCK
 62
     4
 10
-25.606391125191301
 20
76.548778647945142
 30
0.0
 11
-22.80639112519134
 21
76.548778647945142
 31
0.0
  0
LINE
  5
A4F6
  8
0
  6
BYBLOCK
 62
     4
 10
-29.606391125191301
 20
86.748778647944391
 30
0.0
 11
-25.606391125191301
 21
86.748778647944391
 31
0.0
  0
LINE
  5
A4F7
  8
0
  6
BYBLOCK
 62
     4
 10
-25.606391125191301
 20
86.748778647944391
 30
0.0
 11
-21.606391125191411
 21
86.748778647944718
 31
0.0
  0
LINE
  5
A4F8
  8
0
  6
BYBLOCK
 62
     4
 10
-29.606391125191301
 20
88.548778647944914
 30
0.0
 11
-25.606391125191301
 21
88.548778647944914
 31
0.0
  0
LINE
  5
A4F9
  8
0
  6
BYBLOCK
 62
     4
 10
-25.606391125191301
 20
88.548778647944914
 30
0.0
 11
-21.60639112519118
 21
88.548778647944403
 31
0.0
  0
LINE
  5
A4FA
  8
0
  6
BYBLOCK
 62
     4
 10
-30.606391125191521
 20
89.548778647944914
 30
0.0
 11
-25.60639112519118
 21
89.548778647944914
 31
0.0
  0
LINE
  5
A4FB
  8
0
  6
BYBLOCK
 62
     4
 10
-25.60639112519118
 20
89.548778647944914
 30
0.0
 11
-20.606391125191301
 21
89.548778647944914
 31
0.0
  0
ENDBLK
  5
A4FC
  8
0
  0
BLOCK
  8
0
  2
*D11
 70
     1
 10
0.0
 20
0.0
 30
0.0
  3
*D11
  1

  0
LINE
  5
AC47
  8
0
  6
CONTINUOUS
 62
     2
 10
129.40990740436291
 20
169.70296669613339
 30
0.0
 11
84.962170589208441
 21
169.70296669613339
 31
0.0
  0
LINE
  5
AC48
  8
0
  6
CONTINUOUS
 62
     2
 10
129.40990740436291
 20
106.7029666961334
 30
0.0
 11
84.962170589208426
 21
106.7029666961334
 31
0.0
  0
LINE
  5
AC49
  8
0
  6
CONTINUOUS
 62
     2
 10
85.962170589208441
 20
167.2029666961335
 30
0.0
 11
85.962170589208426
 21
109.2029666961334
 31
0.0
  0
SOLID
  5
AC4A
  8
0
  6
CONTINUOUS
 62
     2
 10
85.545503922541755
 20
167.2029666961335
 30
0.0
 11
86.378837255875126
 21
167.2029666961335
 31
0.0
 12
85.962170589208441
 22
169.70296669613339
 32
0.0
 13
85.962170589208441
 23
169.70296669613339
 33
0.0
  0
SOLID
  5
AC4B
  8
0
  6
CONTINUOUS
 62
     2
 10
85.545503922541755
 20
109.2029666961334
 30
0.0
 11
86.378837255875098
 21
109.2029666961334
 31
0.0
 12
85.962170589208426
 22
106.7029666961334
 32
0.0
 13
85.962170589208426
 23
106.7029666961334
 33
0.0
  0
TEXT
  8
0
  40
3
  5
AC6E
  62
3
  72
0
  71
0
 10
83.8622
 20
134.303
 30
0.000000
  1
HSK63A
  0
POINT
  5
AC4D
  8
DEFPOINTS
  6
CONTINUOUS
 62
     0
 10
130.00990740436291
 20
169.70296669613339
 30
0.0
  0
POINT
  5
AC4E
  8
DEFPOINTS
  6
CONTINUOUS
 62
     0
 10
130.00990740436291
 20
106.7029666961334
 30
0.0
  0
POINT
  5
AC4F
  8
DEFPOINTS
  6
CONTINUOUS
 62
     0
 10
85.962170589208426
 20
106.7029666961334
 30
0.0
  0
ENDBLK
  5
A5DD
  8
0
  0
BLOCK
  8
0
  2
*D12
 70
     1
 10
0.0
 20
0.0
 30
0.0
  3
*D12
  1

  0
LINE
  5
AC50
  8
0
  6
CONTINUOUS
 62
     2
 10
273.60990740436011
 20
131.85296669613339
 30
0.0
 11
287.75971448437798
 21
131.85296669613339
 31
0.0
  0
LINE
  5
AC51
  8
0
  6
CONTINUOUS
 62
     2
 10
273.60990740436011
 20
144.55296669613341
 30
0.0
 11
287.75971448437798
 21
144.55296669613341
 31
0.0
  0
LINE
  5
AC52
  8
0
  6
CONTINUOUS
 62
     2
 10
286.75971448437798
 20
134.35296669613339
 30
0.0
 11
286.75971448437798
 21
142.05296669613341
 31
0.0
  0
SOLID
  5
AC53
  8
0
  6
CONTINUOUS
 62
     2
 10
286.34304781771129
 20
134.35296669613339
 30
0.0
 11
287.17638115104472
 21
134.35296669613339
 31
0.0
 12
286.75971448437798
 22
131.85296669613339
 32
0.0
 13
286.75971448437798
 23
131.85296669613339
 33
0.0
  0
SOLID
  5
AC54
  8
0
  6
CONTINUOUS
 62
     2
 10
286.34304781771129
 20
142.05296669613341
 30
0.0
 11
287.17638115104472
 21
142.05296669613341
 31
0.0
 12
286.75971448437798
 22
144.55296669613341
 32
0.0
 13
286.75971448437798
 23
144.55296669613341
 33
0.0
  0
TEXT
  8
0
  40
3
  5
AC6F
  62
3
  72
0
  71
0
 10
284.659
 20
134.303
 30
0.000000
  1
%%c12.7
  0
POINT
  5
AC56
  8
DEFPOINTS
  6
CONTINUOUS
 62
     0
 10
273.00990740436009
 20
131.85296669613339
 30
0.0
  0
POINT
  5
AC57
  8
DEFPOINTS
  6
CONTINUOUS
 62
     0
 10
273.00990740436009
 20
144.55296669613341
 30
0.0
  0
POINT
  5
AC58
  8
DEFPOINTS
  6
CONTINUOUS
 62
     0
 10
286.75971448437798
 20
144.55296669613341
 30
0.0
  0
ENDBLK
  5
A697
  8
0
  0
BLOCK
  8
0
  2
*D13
 70
     1
 10
0.0
 20
0.0
 30
0.0
  3
*D13
  1

  0
LINE
  5
AC59
  8
0
  6
CONTINUOUS
 62
     2
 10
179.75019172860749
 20
163.20296669613339
 30
0.0
 11
303.75971448437792
 21
163.20296669613339
 31
0.0
  0
LINE
  5
AC5A
  8
0
  6
CONTINUOUS
 62
     2
 10
178.77023616629609
 20
113.2029666961335
 30
0.0
 11
303.75971448437792
 21
113.2029666961335
 31
0.0
  0
LINE
  5
AC5B
  8
0
  6
CONTINUOUS
 62
     2
 10
302.75971448437792
 20
160.70296669613339
 30
0.0
 11
302.75971448437792
 21
115.7029666961334
 31
0.0
  0
SOLID
  5
AC5C
  8
0
  6
CONTINUOUS
 62
     2
 10
302.34304781771118
 20
160.70296669613339
 30
0.0
 11
303.17638115104461
 21
160.70296669613339
 31
0.0
 12
302.75971448437792
 22
163.20296669613339
 32
0.0
 13
302.75971448437792
 23
163.20296669613339
 33
0.0
  0
SOLID
  5
AC5D
  8
0
  6
CONTINUOUS
 62
     2
 10
302.34304781771118
 20
115.7029666961334
 30
0.0
 11
303.17638115104461
 21
115.7029666961334
 31
0.0
 12
302.75971448437792
 22
113.2029666961335
 32
0.0
 13
302.75971448437792
 23
113.2029666961335
 33
0.0
  0
TEXT
  8
0
  40
3
  5
AC70
  62
3
  72
0
  71
0
 10
300.660
 20
134.303
 30
0.000000
  1
%%C50
  0
POINT
  5
AC5F
  8
DEFPOINTS
  6
CONTINUOUS
 62
     0
 10
179.1501917286075
 20
163.20296669613339
 30
0.0
  0
POINT
  5
AC60
  8
DEFPOINTS
  6
CONTINUOUS
 62
     0
 10
178.17023616629609
 20
113.2029666961335
 30
0.0
  0
POINT
  5
AC61
  8
DEFPOINTS
  6
CONTINUOUS
 62
     0
 10
302.75971448437792
 20
113.2029666961335
 30
0.0
  0
ENDBLK
  5
A992
  8
0
  0
BLOCK
  8
0
  2
*U14
 70
     1
 10
0.0
 20
0.0
 30
0.0
  3
*U14
  1

  0
SOLID
  5
AC2A
  8
0
  6
CONTINUOUS
 62
     2
 10
-234.4138345253065
 20
120.8645563691059
 30
0.0
 11
-233.10153426014671
 21
123.0328458159217
 31
0.0
 12
-233.6396703660603
 22
120.5561503072604
 32
0.0
 13
-233.6396703660603
 23
120.5561503072604
 33
0.0
210
0.0
220
0.0
230
-1.0
  0
POLYLINE
  5
AC2B
  8
0
  6
CONTINUOUS
 62
     2
 66
     1
 10
0.0
 20
0.0
 30
0.0
210
0.0
220
0.0
230
-1.0
  0
VERTEX
  5
AC2C
  8
0
  6
CONTINUOUS
 62
     2
 10
-234.0267524456834
 20
120.7103533381831
 30
0.0
  0
VERTEX
  5
AC2D
  8
0
  6
CONTINUOUS
 62
     2
 10
-239.80684652214131
 20
106.2011000365863
 30
0.0
  0
VERTEX
  5
AC2E
  8
0
  6
CONTINUOUS
 62
     2
 10
-251.64205079843211
 20
106.2011000365863
 30
0.0
  0
VERTEX
  5
AC2F
  8
0
  6
CONTINUOUS
 62
     2
 10
-253.44205079843221
 20
106.2011000365863
 30
0.0
  0
SEQEND
  5
AC30
  8
0
  6
CONTINUOUS
 62
     2
  0
ENDBLK
  5
AC32
  8
0
  0
BLOCK
  8
0
  2
*U15
 70
     1
 10
0.0
 20
0.0
 30
0.0
  3
*U15
  1

  0
TEXT
  5
AC63
  8
0
  6
CONTINUOUS
 10
150.056177219283
 20
46.183869406785533
 30
0.0
 40
3.0
  1
Techniks Inc.
  0
TEXT
  5
AC64
  8
0
  6
CONTINUOUS
 10
150.50617721928299
 20
41.183869406785533
 30
0.0
 40
3.0
  1
     9930 East 56th Street
  0
TEXT
  5
AC65
  8
0
  6
CONTINUOUS
 10
150.50617721928299
 20
36.175778855604428
 30
0.0
 40
3.0
  1
     Indianapolis, IN 46236
  0
TEXT
  5
AC66
  8
0
  6
CONTINUOUS
 10
150.50617721928299
 20
31.172288150305182
 30
0.0
 40
3.0
  1
     800.597.3921
  0
TEXT
  5
AC67
  8
0
  6
CONTINUOUS
 10
150.50617721928299
 20
26.172288150305182
 30
0.0
 40
3.0
  1
     www.techniksusa.com
  0
ENDBLK
  5
AC69
  8
0
  0
ENDSEC
  0
SECTION
  2
ENTITIES
  0
DIMENSION
  5
168
  8
0
  6
CONTINUOUS
  2
*D4
 10
274.50990740436021
 20
74.587380963121063
 30
0.0
 11
186.00990740436009
 21
76.687380963121058
 31
0.0
 70
     0
 13
97.509907404360092
 23
116.62946575980359
 33
0.0
 14
274.50990740436021
 24
125.6774489794909
 34
0.0
1001
ACAD
1000
DSTYLE
1002
{
1070
   287
1070
     2
1070
    42
1040
0.6
1070
    43
1040
1.0
1070
    44
1040
1.0
1070
    47
1040
0.1
1070
    48
1040
0.1
1070
    73
1070
     0
1070
   140
1040
3.0
1070
   141
1040
-0.5
1070
   146
1040
0.7
1070
   147
1040
0.6
1070
   178
1070
     3
1070
   271
1070
     8
1070
   272
1070
     8
1070
   275
1070
     1
1070
   283
1070
     0
1070
   284
1070
     8
1070
   289
1070
     2
1002
}
  0
DIMENSION
  5
175
  8
0
  6
CONTINUOUS
  2
*D5
 10
274.50990740436021
 20
82.587380963121049
 30
0.0
 11
202.00990740436021
 21
84.687380963121058
 31
0.0
 70
     0
 13
129.50990740436009
 23
107.2029666961334
 33
0.0
 14
274.50990740436021
 24
125.6774489794909
 34
0.0
1001
ACAD
1000
DSTYLE
1002
{
1070
   287
1070
     2
1070
    42
1040
0.6
1070
    43
1040
1.0
1070
    44
1040
1.0
1070
    47
1040
0.1
1070
    48
1040
0.1
1070
    73
1070
     0
1070
   140
1040
3.0
1070
   141
1040
-0.5
1070
   146
1040
0.7
1070
   147
1040
0.6
1070
   178
1070
     3
1070
   271
1070
     8
1070
   272
1070
     8
1070
   275
1070
     1
1070
   283
1070
     0
1070
   284
1070
     8
1070
   289
1070
     2
1002
}
  0
DIMENSION
  5
1B4
  8
0
  6
CONTINUOUS
  2
*D6
 10
274.50990740436021
 20
90.587380963121063
 30
0.0
 11
229.50990740436009
 21
92.687380963121043
 31
0.0
 70
     0
 13
184.50990740435989
 23
120.4862665606599
 33
0.0
 14
274.50990740436021
 24
125.6774489794909
 34
0.0
1001
ACAD
1000
DSTYLE
1002
{
1070
   287
1070
     2
1070
    42
1040
0.6
1070
    43
1040
1.0
1070
    44
1040
1.0
1070
    47
1040
0.1
1070
    48
1040
0.1
1070
    73
1070
     0
1070
   140
1040
3.0
1070
   141
1040
-0.5
1070
   146
1040
0.7
1070
   147
1040
0.6
1070
   178
1070
     3
1070
   271
1070
     8
1070
   272
1070
     8
1070
   275
1070
     1
1070
   283
1070
     0
1070
   284
1070
     8
1070
   289
1070
     2
1002
}
  0
LINE
  5
B53
  8
0
  6
CENTER
 62
     2
 10
95.509907404362806
 20
138.20296669613339
 30
0.0
 11
276.50990740436282
 21
138.20296669613339
 31
0.0
  0
LINE
  5
B54
  8
0
  6
CONTINUOUS
 10
129.50990740436279
 20
169.2029666961335
 30
0.0
 11
129.50990740436279
 21
138.20296669613339
 31
0.0
  0
LINE
  5
B55
  8
0
  6
CONTINUOUS
 10
130.00990740436279
 20
169.70296669613339
 30
0.0
 11
144.13240832960349
 21
169.7029666961335
 31
0.0
  0
LINE
  5
B56
  8
0
  6
CONTINUOUS
 10
130.00990740436279
 20
106.7029666961334
 30
0.0
 11
144.13240832960349
 21
106.7029666961334
 31
0.0
  0
CIRCLE
  5
B57
  8
0
  6
CONTINUOUS
 10
120.50990740436281
 20
138.20296669613339
 30
0.0
 40
3.75
  0
LINE
  5
B58
  8
0
  6
PHANTOM2
 62
     4
 10
123.2099074043628
 20
164.2104750193744
 30
0.0
 11
123.2099074043628
 21
112.1954583728925
 31
0.0
  0
LINE
  5
B59
  8
0
  6
CONTINUOUS
 10
98.649864071747174
 20
160.97753642826331
 30
0.0
 11
127.50990740436281
 21
162.42339181082841
 31
0.0
  0
LINE
  5
B5A
  8
0
  6
CONTINUOUS
 10
97.509907404362934
 20
159.77903953706641
 30
0.0
 11
97.509907404362821
 21
145.4729666961334
 31
0.0
  0
ARC
  5
B5B
  8
0
  6
CONTINUOUS
 10
98.709907404362866
 20
159.77903953706641
 30
0.0
 40
1.1999999999999991
 50
92.868055555557021
 51
180.0
  0
LINE
  5
B5C
  8
0
  6
CONTINUOUS
 10
98.509907404362821
 20
144.4729666961334
 30
0.0
 11
102.00990740436281
 21
144.4729666961334
 31
0.0
  0
LINE
  5
B5E
  8
0
  6
CONTINUOUS
 10
98.509907404362821
 20
131.93296669613341
 30
0.0
 11
102.00990740436281
 21
131.93296669613341
 31
0.0
  0
LINE
  5
B5F
  8
0
  6
CONTINUOUS
 10
97.509907404362821
 20
116.62689385520051
 30
0.0
 11
97.509907404362821
 21
130.93296669613349
 31
0.0
  0
LINE
  5
B60
  8
0
  6
CONTINUOUS
 10
103.50990740436281
 20
128.25431286018039
 30
0.0
 11
103.50990740436281
 21
138.20296669613339
 31
0.0
  0
LINE
  5
B61
  8
0
  6
CONTINUOUS
 10
98.649864071747174
 20
115.4283969640036
 30
0.0
 11
127.50990740436281
 21
113.9825415814385
 31
0.0
  0
ARC
  5
B62
  8
0
  6
CONTINUOUS
 10
98.709907404362866
 20
116.62689385520051
 30
0.0
 40
1.1999999999999991
 50
180.0
 51
267.13194444444298
  0
LINE
  5
B63
  8
0
  6
CONTINUOUS
 10
97.509907404362821
 20
145.4729666961334
 30
0.0
 11
98.509907404362821
 21
144.4729666961334
 31
0.0
  0
LINE
  5
B64
  8
0
  6
CONTINUOUS
 10
97.509907404362821
 20
130.93296669613341
 30
0.0
 11
98.509907404362821
 21
131.93296669613341
 31
0.0
  0
ARC
  5
B66
  8
0
  6
CONTINUOUS
 10
102.00990740436281
 20
133.43296669613341
 30
0.0
 40
1.5
 50
270.0
 51
0.0
  0
CIRCLE
  5
B67
  8
0
  6
CONTINUOUS
 10
120.50990740436281
 20
138.20296669613339
 30
0.0
 40
4.25
  0
LINE
  5
B68
  8
0
  6
CONTINUOUS
 10
127.50990740436281
 20
162.42339181082841
 30
0.0
 11
128.18001763736771
 21
162.24383631505489
 31
0.0
  0
LINE
  5
B69
  8
0
  6
CONTINUOUS
 10
129.00990740436291
 20
162.22339181082839
 30
0.0
 11
128.33530906442931
 21
162.2233918108283
 31
0.0
  0
ARC
  5
B6B
  8
0
  6
CONTINUOUS
 10
129.00990740436279
 20
162.8233918108283
 30
0.0
 40
0.6
 50
270.0
 51
326.44269023807931
  0
LINE
  5
B6D
  8
0
  6
CONTINUOUS
 10
127.50990740436259
 20
162.42339181082841
 30
0.0
 11
127.50990740436281
 21
113.9825415814385
 31
0.0
  0
LINE
  5
B6E
  8
0
  6
CONTINUOUS
 10
128.2563175658766
 20
114.1773191391493
 30
0.0
 11
128.2563175658766
 21
162.2233918108283
 31
0.0
  0
LINE
  5
B6F
  8
0
  6
HIDDEN
 62
     3
 10
98.509907404362821
 20
155.20296669613339
 30
0.0
 11
110.51388200057841
 21
155.20296669613339
 31
0.0
  0
LINE
  5
B70
  8
0
  6
HIDDEN
 62
     3
 10
98.509907404362821
 20
144.4729666961334
 30
0.0
 11
98.509907404362821
 21
155.20296669613339
 31
0.0
  0
LINE
  5
B71
  8
0
  6
HIDDEN
 62
     3
 10
98.509907404362821
 20
155.20296669613339
 30
0.0
 11
97.509907404362821
 21
155.7803169653231
 31
0.0
  0
LINE
  5
B72
  8
0
  6
CONTINUOUS
 10
98.509907404362821
 20
131.93296669613341
 30
0.0
 11
98.509907404362821
 21
128.5048071795932
 31
0.0
  0
LINE
  5
B73
  8
0
  6
CONTINUOUS
 10
98.509907404362821
 20
128.5048071795932
 30
0.0
 11
103.50990740436281
 21
128.25431286018039
 31
0.0
  0
LINE
  5
B74
  8
0
  6
CONTINUOUS
 10
97.509907404362821
 20
127.5048071795932
 30
0.0
 11
98.509907404362821
 21
128.5048071795932
 31
0.0
  0
LINE
  5
B75
  8
0
  6
CONTINUOUS
 10
129.50990740436279
 20
107.2029666961334
 30
0.0
 11
129.50990740436279
 21
138.20296669613339
 31
0.0
  0
LINE
  5
B76
  8
0
  6
HIDDEN
 62
     3
 10
110.51388200057841
 20
155.20296669613339
 30
0.0
 11
112.0727277273903
 21
157.9029666961334
 31
0.0
  0
LINE
  5
B77
  8
0
  6
HIDDEN
 62
     3
 10
112.592342969661
 20
158.20296669613339
 30
0.0
 11
123.2649094059644
 21
158.20296669613339
 31
0.0
  0
LINE
  5
B78
  8
0
  6
HIDDEN
 62
     3
 10
110.51388200057841
 20
155.20296669613339
 30
0.0
 11
110.51388200057841
 21
138.20296669613339
 31
0.0
  0
LINE
  5
B79
  8
0
  6
HIDDEN
 62
     3
 10
112.2459328081473
 20
158.09286464469011
 30
0.0
 11
112.2459328081473
 21
138.20296669613339
 31
0.0
  0
ARC
  5
B7A
  8
0
  6
HIDDEN
 62
     3
 10
112.592342969661
 20
157.60296669613339
 30
0.0
 40
0.6
 50
90.0
 51
149.99999999999801
  0
LINE
  5
B7B
  8
0
  6
HIDDEN
 62
     3
 10
129.50990740436291
 20
155.20296669613339
 30
0.0
 11
137.180751206774
 21
155.20296669613339
 31
0.0
  0
ARC
  5
B7C
  8
0
  6
HIDDEN
 62
     3
 10
123.2649094059644
 20
150.20296669613339
 30
0.0
 40
8.0
 50
38.682187453488297
 51
90.0
  0
LINE
  5
B7D
  8
0
  6
HIDDEN
 62
     3
 10
139.50990740436279
 20
153.95296669613339
 30
0.0
 11
139.50990740436279
 21
138.20296669613339
 31
0.0
  0
ARC
  5
B7F
  8
0
  6
HIDDEN
 62
     3
 10
138.00990740436279
 20
153.95296669613339
 30
0.0
 40
1.5
 50
0.0
 51
123.5573097619191
  0
LINE
  5
B80
  8
0
  6
HIDDEN
 62
     3
 10
137.18075120677389
 20
155.20296669613339
 30
0.0
 11
137.18075120677389
 21
138.20296669613339
 31
0.0
  0
LINE
  5
B81
  8
0
  6
CONTINUOUS
 10
129.50990740436291
 20
169.2029666961335
 30
0.0
 11
130.00990740436291
 21
169.70296669613339
 31
0.0
  0
LINE
  5
B82
  8
0
  6
CONTINUOUS
 10
129.50990740436279
 20
107.2029666961334
 30
0.0
 11
130.00990740436279
 21
106.7029666961334
 31
0.0
  0
LINE
  5
B83
  8
0
  6
CONTINUOUS
 10
130.00990740436279
 20
106.7029666961334
 30
0.0
 11
130.00990740436279
 21
169.7029666961333
 31
0.0
  0
LINE
  5
B84
  8
0
  6
HIDDEN
 62
     3
 10
136.50990740436279
 20
164.20296669613339
 30
0.0
 11
135.6438820005784
 21
164.70296669613339
 31
0.0
  0
LINE
  5
B85
  8
0
  6
HIDDEN
 62
     3
 10
136.50990740436279
 20
164.70296669613339
 30
0.0
 11
131.80990740436289
 21
164.70296669613339
 31
0.0
  0
LINE
  5
B86
  8
0
  6
HIDDEN
 62
     3
 10
131.50990740436279
 20
165.0029666961334
 30
0.0
 11
131.50990740436279
 21
169.70296669613339
 31
0.0
  0
ARC
  5
B87
  8
0
  6
HIDDEN
 62
     3
 10
131.80990740436289
 20
165.0029666961334
 30
0.0
 40
0.3
 50
180.0
 51
270.0
  0
LINE
  5
B88
  8
CT
  6
CENTER
 10
136.50990740436279
 20
162.65251260151589
 30
0.0
 11
136.50990740436279
 21
170.827749026519
 31
0.0
  0
LINE
  5
B89
  8
0
  6
HIDDEN
 62
     3
 10
141.50990740436279
 20
169.70296669613339
 30
0.0
 11
141.50990740436271
 21
165.0029666961334
 31
0.0
  0
LINE
  5
B8A
  8
0
  6
HIDDEN
 62
     3
 10
136.50990740436279
 20
164.70296669613339
 30
0.0
 11
141.2099074043627
 21
164.70296669613339
 31
0.0
  0
LINE
  5
B8B
  8
0
  6
HIDDEN
 62
     3
 10
136.50990740436279
 20
164.20296669613339
 30
0.0
 11
137.37593280814721
 21
164.70296669613339
 31
0.0
  0
ARC
  5
B8C
  8
0
  6
HIDDEN
 62
     3
 10
141.2099074043627
 20
165.0029666961334
 30
0.0
 40
0.3
 50
270.0
 51
0.0
  0
LINE
  5
B8D
  8
0
  6
HIDDEN
 62
     3
 10
140.00990740436291
 20
146.7029666961335
 30
0.0
 11
146.50990740436291
 21
146.7029666961335
 31
0.0
  0
LINE
  5
B8E
  8
0
  6
HIDDEN
 62
     3
 10
139.50990740436291
 20
147.20296669613339
 30
0.0
 11
146.50990740436291
 21
147.20296669613339
 31
0.0
  0
LINE
  5
B8F
  8
0
  6
HIDDEN
 62
     3
 10
140.00990740436291
 20
146.7029666961335
 30
0.0
 11
140.00990740436291
 21
138.20296669613339
 31
0.0
  0
LINE
  5
B90
  8
0
  6
HIDDEN
 62
     3
 10
140.00990740436291
 20
146.70296669613339
 30
0.0
 11
139.50990740436291
 21
147.20296669613339
 31
0.0
  0
LINE
  5
B91
  8
0
  6
HIDDEN
 62
     3
 10
151.50990740436291
 20
147.70296669613339
 30
0.0
 11
151.50990740436291
 21
138.20296669613339
 31
0.0
  0
LINE
  5
B92
  8
0
  6
HIDDEN
 62
     3
 10
146.50990740436291
 20
147.70296669613339
 30
0.0
 11
146.50990740436291
 21
138.20296669613339
 31
0.0
  0
LINE
  5
B93
  8
0
  6
HIDDEN
 62
     3
 10
146.50990740436291
 20
147.70296669613339
 30
0.0
 11
151.50990740436291
 21
147.70296669613339
 31
0.0
  0
LINE
  5
B94
  8
0
  6
HIDDEN
 62
     3
 10
151.50990740436291
 20
142.70296669613339
 30
0.0
 11
152.00990740436291
 21
142.2029666961335
 31
0.0
  0
LINE
  5
B95
  8
0
  6
HIDDEN
 62
     3
 10
152.00990740436291
 20
142.20296669613339
 30
0.0
 11
152.00990740436291
 21
138.20296669613339
 31
0.0
  0
LINE
  5
B96
  8
0
  6
CONTINUOUS
 10
155.50990740436279
 20
107.2029666961334
 30
0.0
 11
155.50990740436279
 21
138.20296669613339
 31
0.0
  0
LINE
  5
B97
  8
0
  6
CONTINUOUS
 10
155.50990740436279
 20
169.20296669613339
 30
0.0
 11
155.5099074043635
 21
138.20296669613339
 31
0.0
  0
LINE
  5
B98
  8
0
  6
CONTINUOUS
 10
142.50990740436279
 20
130.20296669613339
 30
0.0
 11
155.50990740436279
 21
130.20296669613339
 31
0.0
  0
ARC
  5
B99
  8
0
  6
CONTINUOUS
 10
142.50990740436279
 20
138.20296669613339
 30
0.0
 40
8.0
 50
90.0
 51
270.0
  0
LINE
  5
B9A
  8
0
  6
CONTINUOUS
 10
155.50990740436279
 20
118.2029666961334
 30
0.0
 11
149.38490740436279
 21
118.2029666961334
 31
0.0
  0
LINE
  5
B9B
  8
0
  6
CONTINUOUS
 10
155.50990740436279
 20
113.8667796488575
 30
0.0
 11
150.88740647912221
 21
113.8667796488574
 31
0.0
  0
POLYLINE
  8
0
  5
AC71
  66
     1
 10
0.000000
 20
0.000000
 30
0.000000
  70
     8
  0
VERTEX
  8
0
  5
AC72
 10
134.510
 20
113.867
 30
0.000000
  70
    32
  0
VERTEX
  8
0
  5
AC73
 10
134.529
 20
113.899
 30
0.000000
  70
    32
  0
VERTEX
  8
0
  5
AC74
 10
134.549
 20
113.932
 30
0.000000
  70
    32
  0
VERTEX
  8
0
  5
AC75
 10
134.568
 20
113.964
 30
0.000000
  70
    32
  0
VERTEX
  8
0
  5
AC76
 10
134.587
 20
113.996
 30
0.000000
  70
    32
  0
VERTEX
  8
0
  5
AC77
 10
134.607
 20
114.029
 30
0.000000
  70
    32
  0
VERTEX
  8
0
  5
AC78
 10
134.626
 20
114.061
 30
0.000000
  70
    32
  0
VERTEX
  8
0
  5
AC79
 10
134.645
 20
114.094
 30
0.000000
  70
    32
  0
VERTEX
  8
0
  5
AC7A
 10
134.665
 20
114.126
 30
0.000000
  70
    32
  0
VERTEX
  8
0
  5
AC7B
 10
134.684
 20
114.158
 30
0.000000
  70
    32
  0
VERTEX
  8
0
  5
AC7C
 10
134.704
 20
114.190
 30
0.000000
  70
    32
  0
VERTEX
  8
0
  5
AC7D
 10
134.723
 20
114.223
 30
0.000000
  70
    32
  0
VERTEX
  8
0
  5
AC7E
 10
134.743
 20
114.255
 30
0.000000
  70
    32
  0
VERTEX
  8
0
  5
AC7F
 10
134.763
 20
114.287
 30
0.000000
  70
    32
  0
VERTEX
  8
0
  5
AC80
 10
134.783
 20
114.319
 30
0.000000
  70
    32
  0
VERTEX
  8
0
  5
AC81
 10
134.802
 20
114.351
 30
0.000000
  70
    32
  0
VERTEX
  8
0
  5
AC82
 10
134.822
 20
114.383
 30
0.000000
  70
    32
  0
VERTEX
  8
0
  5
AC83
 10
134.842
 20
114.415
 30
0.000000
  70
    32
  0
VERTEX
  8
0
  5
AC84
 10
134.862
 20
114.446
 30
0.000000
  70
    32
  0
VERTEX
  8
0
  5
AC85
 10
134.883
 20
114.478
 30
0.000000
  70
    32
  0
VERTEX
  8
0
  5
AC86
 10
134.903
 20
114.510
 30
0.000000
  70
    32
  0
VERTEX
  8
0
  5
AC87
 10
134.923
 20
114.541
 30
0.000000
  70
    32
  0
VERTEX
  8
0
  5
AC88
 10
134.944
 20
114.573
 30
0.000000
  70
    32
  0
VERTEX
  8
0
  5
AC89
 10
134.964
 20
114.604
 30
0.000000
  70
    32
  0
VERTEX
  8
0
  5
AC8A
 10
134.985
 20
114.636
 30
0.000000
  70
    32
  0
VERTEX
  8
0
  5
AC8B
 10
135.006
 20
114.667
 30
0.000000
  70
    32
  0
VERTEX
  8
0
  5
AC8C
 10
135.027
 20
114.698
 30
0.000000
  70
    32
  0
VERTEX
  8
0
  5
AC8D
 10
135.048
 20
114.729
 30
0.000000
  70
    32
  0
VERTEX
  8
0
  5
AC8E
 10
135.069
 20
114.760
 30
0.000000
  70
    32
  0
VERTEX
  8
0
  5
AC8F
 10
135.091
 20
114.791
 30
0.000000
  70
    32
  0
VERTEX
  8
0
  5
AC90
 10
135.112
 20
114.821
 30
0.000000
  70
    32
  0
VERTEX
  8
0
  5
AC91
 10
135.134
 20
114.852
 30
0.000000
  70
    32
  0
VERTEX
  8
0
  5
AC92
 10
135.156
 20
114.882
 30
0.000000
  70
    32
  0
VERTEX
  8
0
  5
AC93
 10
135.178
 20
114.912
 30
0.000000
  70
    32
  0
VERTEX
  8
0
  5
AC94
 10
135.200
 20
114.943
 30
0.000000
  70
    32
  0
VERTEX
  8
0
  5
AC95
 10
135.222
 20
114.973
 30
0.000000
  70
    32
  0
VERTEX
  8
0
  5
AC96
 10
135.245
 20
115.002
 30
0.000000
  70
    32
  0
VERTEX
  8
0
  5
AC97
 10
135.267
 20
115.032
 30
0.000000
  70
    32
  0
VERTEX
  8
0
  5
AC98
 10
135.290
 20
115.062
 30
0.000000
  70
    32
  0
VERTEX
  8
0
  5
AC99
 10
135.313
 20
115.091
 30
0.000000
  70
    32
  0
VERTEX
  8
0
  5
AC9A
 10
135.337
 20
115.120
 30
0.000000
  70
    32
  0
VERTEX
  8
0
  5
AC9B
 10
135.360
 20
115.149
 30
0.000000
  70
    32
  0
VERTEX
  8
0
  5
AC9C
 10
135.384
 20
115.178
 30
0.000000
  70
    32
  0
VERTEX
  8
0
  5
AC9D
 10
135.408
 20
115.207
 30
0.000000
  70
    32
  0
VERTEX
  8
0
  5
AC9E
 10
135.432
 20
115.236
 30
0.000000
  70
    32
  0
VERTEX
  8
0
  5
AC9F
 10
135.456
 20
115.264
 30
0.000000
  70
    32
  0
VERTEX
  8
0
  5
ACA0
 10
135.480
 20
115.292
 30
0.000000
  70
    32
  0
VERTEX
  8
0
  5
ACA1
 10
135.505
 20
115.320
 30
0.000000
  70
    32
  0
VERTEX
  8
0
  5
ACA2
 10
135.530
 20
115.348
 30
0.000000
  70
    32
  0
VERTEX
  8
0
  5
ACA3
 10
135.555
 20
115.376
 30
0.000000
  70
    32
  0
VERTEX
  8
0
  5
ACA4
 10
135.580
 20
115.404
 30
0.000000
  70
    32
  0
VERTEX
  8
0
  5
ACA5
 10
135.606
 20
115.431
 30
0.000000
  70
    32
  0
VERTEX
  8
0
  5
ACA6
 10
135.631
 20
115.459
 30
0.000000
  70
    32
  0
VERTEX
  8
0
  5
ACA7
 10
135.657
 20
115.486
 30
0.000000
  70
    32
  0
VERTEX
  8
0
  5
ACA8
 10
135.683
 20
115.513
 30
0.000000
  70
    32
  0
VERTEX
  8
0
  5
ACA9
 10
135.709
 20
115.540
 30
0.000000
  70
    32
  0
VERTEX
  8
0
  5
ACAA
 10
135.735
 20
115.567
 30
0.000000
  70
    32
  0
VERTEX
  8
0
  5
ACAB
 10
135.762
 20
115.593
 30
0.000000
  70
    32
  0
VERTEX
  8
0
  5
ACAC
 10
135.788
 20
115.620
 30
0.000000
  70
    32
  0
VERTEX
  8
0
  5
ACAD
 10
135.815
 20
115.646
 30
0.000000
  70
    32
  0
VERTEX
  8
0
  5
ACAE
 10
135.842
 20
115.672
 30
0.000000
  70
    32
  0
VERTEX
  8
0
  5
ACAF
 10
135.869
 20
115.698
 30
0.000000
  70
    32
  0
VERTEX
  8
0
  5
ACB0
 10
135.896
 20
115.724
 30
0.000000
  70
    32
  0
VERTEX
  8
0
  5
ACB1
 10
135.924
 20
115.750
 30
0.000000
  70
    32
  0
VERTEX
  8
0
  5
ACB2
 10
135.951
 20
115.776
 30
0.000000
  70
    32
  0
VERTEX
  8
0
  5
ACB3
 10
135.979
 20
115.802
 30
0.000000
  70
    32
  0
VERTEX
  8
0
  5
ACB4
 10
136.006
 20
115.827
 30
0.000000
  70
    32
  0
VERTEX
  8
0
  5
ACB5
 10
136.034
 20
115.852
 30
0.000000
  70
    32
  0
VERTEX
  8
0
  5
ACB6
 10
136.062
 20
115.878
 30
0.000000
  70
    32
  0
VERTEX
  8
0
  5
ACB7
 10
136.090
 20
115.903
 30
0.000000
  70
    32
  0
VERTEX
  8
0
  5
ACB8
 10
136.118
 20
115.928
 30
0.000000
  70
    32
  0
VERTEX
  8
0
  5
ACB9
 10
136.147
 20
115.952
 30
0.000000
  70
    32
  0
VERTEX
  8
0
  5
ACBA
 10
136.175
 20
115.977
 30
0.000000
  70
    32
  0
VERTEX
  8
0
  5
ACBB
 10
136.204
 20
116.002
 30
0.000000
  70
    32
  0
VERTEX
  8
0
  5
ACBC
 10
136.232
 20
116.026
 30
0.000000
  70
    32
  0
VERTEX
  8
0
  5
ACBD
 10
136.261
 20
116.051
 30
0.000000
  70
    32
  0
VERTEX
  8
0
  5
ACBE
 10
136.290
 20
116.075
 30
0.000000
  70
    32
  0
VERTEX
  8
0
  5
ACBF
 10
136.319
 20
116.100
 30
0.000000
  70
    32
  0
VERTEX
  8
0
  5
ACC0
 10
136.348
 20
116.124
 30
0.000000
  70
    32
  0
VERTEX
  8
0
  5
ACC1
 10
136.377
 20
116.148
 30
0.000000
  70
    32
  0
VERTEX
  8
0
  5
ACC2
 10
136.406
 20
116.172
 30
0.000000
  70
    32
  0
VERTEX
  8
0
  5
ACC3
 10
136.436
 20
116.196
 30
0.000000
  70
    32
  0
VERTEX
  8
0
  5
ACC4
 10
136.465
 20
116.219
 30
0.000000
  70
    32
  0
VERTEX
  8
0
  5
ACC5
 10
136.494
 20
116.243
 30
0.000000
  70
    32
  0
VERTEX
  8
0
  5
ACC6
 10
136.524
 20
116.267
 30
0.000000
  70
    32
  0
VERTEX
  8
0
  5
ACC7
 10
136.554
 20
116.290
 30
0.000000
  70
    32
  0
VERTEX
  8
0
  5
ACC8
 10
136.583
 20
116.313
 30
0.000000
  70
    32
  0
VERTEX
  8
0
  5
ACC9
 10
136.613
 20
116.337
 30
0.000000
  70
    32
  0
VERTEX
  8
0
  5
ACCA
 10
136.643
 20
116.360
 30
0.000000
  70
    32
  0
VERTEX
  8
0
  5
ACCB
 10
136.672
 20
116.383
 30
0.000000
  70
    32
  0
VERTEX
  8
0
  5
ACCC
 10
136.702
 20
116.406
 30
0.000000
  70
    32
  0
VERTEX
  8
0
  5
ACCD
 10
136.732
 20
116.429
 30
0.000000
  70
    32
  0
VERTEX
  8
0
  5
ACCE
 10
136.762
 20
116.452
 30
0.000000
  70
    32
  0
VERTEX
  8
0
  5
ACCF
 10
136.792
 20
116.475
 30
0.000000
  70
    32
  0
VERTEX
  8
0
  5
ACD0
 10
136.822
 20
116.498
 30
0.000000
  70
    32
  0
VERTEX
  8
0
  5
ACD1
 10
136.852
 20
116.521
 30
0.000000
  70
    32
  0
VERTEX
  8
0
  5
ACD2
 10
136.883
 20
116.543
 30
0.000000
  70
    32
  0
VERTEX
  8
0
  5
ACD3
 10
136.913
 20
116.566
 30
0.000000
  70
    32
  0
VERTEX
  8
0
  5
ACD4
 10
136.943
 20
116.588
 30
0.000000
  70
    32
  0
VERTEX
  8
0
  5
ACD5
 10
136.974
 20
116.610
 30
0.000000
  70
    32
  0
VERTEX
  8
0
  5
ACD6
 10
137.004
 20
116.633
 30
0.000000
  70
    32
  0
VERTEX
  8
0
  5
ACD7
 10
137.035
 20
116.655
 30
0.000000
  70
    32
  0
VERTEX
  8
0
  5
ACD8
 10
137.065
 20
116.677
 30
0.000000
  70
    32
  0
VERTEX
  8
0
  5
ACD9
 10
137.096
 20
116.698
 30
0.000000
  70
    32
  0
VERTEX
  8
0
  5
ACDA
 10
137.127
 20
116.720
 30
0.000000
  70
    32
  0
VERTEX
  8
0
  5
ACDB
 10
137.157
 20
116.742
 30
0.000000
  70
    32
  0
VERTEX
  8
0
  5
ACDC
 10
137.188
 20
116.763
 30
0.000000
  70
    32
  0
VERTEX
  8
0
  5
ACDD
 10
137.219
 20
116.785
 30
0.000000
  70
    32
  0
VERTEX
  8
0
  5
ACDE
 10
137.250
 20
116.806
 30
0.000000
  70
    32
  0
VERTEX
  8
0
  5
ACDF
 10
137.281
 20
116.827
 30
0.000000
  70
    32
  0
VERTEX
  8
0
  5
ACE0
 10
137.312
 20
116.848
 30
0.000000
  70
    32
  0
VERTEX
  8
0
  5
ACE1
 10
137.344
 20
116.869
 30
0.000000
  70
    32
  0
VERTEX
  8
0
  5
ACE2
 10
137.375
 20
116.890
 30
0.000000
  70
    32
  0
VERTEX
  8
0
  5
ACE3
 10
137.406
 20
116.910
 30
0.000000
  70
    32
  0
VERTEX
  8
0
  5
ACE4
 10
137.438
 20
116.931
 30
0.000000
  70
    32
  0
VERTEX
  8
0
  5
ACE5
 10
137.470
 20
116.951
 30
0.000000
  70
    32
  0
VERTEX
  8
0
  5
ACE6
 10
137.501
 20
116.971
 30
0.000000
  70
    32
  0
VERTEX
  8
0
  5
ACE7
 10
137.533
 20
116.991
 30
0.000000
  70
    32
  0
VERTEX
  8
0
  5
ACE8
 10
137.565
 20
117.011
 30
0.000000
  70
    32
  0
VERTEX
  8
0
  5
ACE9
 10
137.597
 20
117.031
 30
0.000000
  70
    32
  0
VERTEX
  8
0
  5
ACEA
 10
137.629
 20
117.050
 30
0.000000
  70
    32
  0
VERTEX
  8
0
  5
ACEB
 10
137.661
 20
117.069
 30
0.000000
  70
    32
  0
VERTEX
  8
0
  5
ACEC
 10
137.693
 20
117.089
 30
0.000000
  70
    32
  0
VERTEX
  8
0
  5
ACED
 10
137.725
 20
117.108
 30
0.000000
  70
    32
  0
VERTEX
  8
0
  5
ACEE
 10
137.758
 20
117.127
 30
0.000000
  70
    32
  0
VERTEX
  8
0
  5
ACEF
 10
137.790
 20
117.145
 30
0.000000
  70
    32
  0
VERTEX
  8
0
  5
ACF0
 10
137.823
 20
117.164
 30
0.000000
  70
    32
  0
VERTEX
  8
0
  5
ACF1
 10
137.856
 20
117.182
 30
0.000000
  70
    32
  0
VERTEX
  8
0
  5
ACF2
 10
137.888
 20
117.200
 30
0.000000
  70
    32
  0
VERTEX
  8
0
  5
ACF3
 10
137.921
 20
117.218
 30
0.000000
  70
    32
  0
VERTEX
  8
0
  5
ACF4
 10
137.954
 20
117.236
 30
0.000000
  70
    32
  0
VERTEX
  8
0
  5
ACF5
 10
137.987
 20
117.254
 30
0.000000
  70
    32
  0
VERTEX
  8
0
  5
ACF6
 10
138.020
 20
117.271
 30
0.000000
  70
    32
  0
VERTEX
  8
0
  5
ACF7
 10
138.054
 20
117.288
 30
0.000000
  70
    32
  0
VERTEX
  8
0
  5
ACF8
 10
138.087
 20
117.305
 30
0.000000
  70
    32
  0
VERTEX
  8
0
  5
ACF9
 10
138.121
 20
117.322
 30
0.000000
  70
    32
  0
VERTEX
  8
0
  5
ACFA
 10
138.154
 20
117.339
 30
0.000000
  70
    32
  0
VERTEX
  8
0
  5
ACFB
 10
138.188
 20
117.355
 30
0.000000
  70
    32
  0
VERTEX
  8
0
  5
ACFC
 10
138.222
 20
117.372
 30
0.000000
  70
    32
  0
VERTEX
  8
0
  5
ACFD
 10
138.256
 20
117.388
 30
0.000000
  70
    32
  0
VERTEX
  8
0
  5
ACFE
 10
138.290
 20
117.403
 30
0.000000
  70
    32
  0
VERTEX
  8
0
  5
ACFF
 10
138.324
 20
117.419
 30
0.000000
  70
    32
  0
VERTEX
  8
0
  5
AD00
 10
138.358
 20
117.435
 30
0.000000
  70
    32
  0
VERTEX
  8
0
  5
AD01
 10
138.393
 20
117.450
 30
0.000000
  70
    32
  0
VERTEX
  8
0
  5
AD02
 10
138.427
 20
117.465
 30
0.000000
  70
    32
  0
VERTEX
  8
0
  5
AD03
 10
138.461
 20
117.480
 30
0.000000
  70
    32
  0
VERTEX
  8
0
  5
AD04
 10
138.496
 20
117.495
 30
0.000000
  70
    32
  0
VERTEX
  8
0
  5
AD05
 10
138.531
 20
117.509
 30
0.000000
  70
    32
  0
VERTEX
  8
0
  5
AD06
 10
138.565
 20
117.523
 30
0.000000
  70
    32
  0
VERTEX
  8
0
  5
AD07
 10
138.600
 20
117.538
 30
0.000000
  70
    32
  0
VERTEX
  8
0
  5
AD08
 10
138.635
 20
117.552
 30
0.000000
  70
    32
  0
VERTEX
  8
0
  5
AD09
 10
138.670
 20
117.565
 30
0.000000
  70
    32
  0
VERTEX
  8
0
  5
AD0A
 10
138.705
 20
117.579
 30
0.000000
  70
    32
  0
VERTEX
  8
0
  5
AD0B
 10
138.741
 20
117.592
 30
0.000000
  70
    32
  0
VERTEX
  8
0
  5
AD0C
 10
138.776
 20
117.605
 30
0.000000
  70
    32
  0
VERTEX
  8
0
  5
AD0D
 10
138.811
 20
117.619
 30
0.000000
  70
    32
  0
VERTEX
  8
0
  5
AD0E
 10
138.847
 20
117.631
 30
0.000000
  70
    32
  0
VERTEX
  8
0
  5
AD0F
 10
138.882
 20
117.644
 30
0.000000
  70
    32
  0
VERTEX
  8
0
  5
AD10
 10
138.918
 20
117.657
 30
0.000000
  70
    32
  0
VERTEX
  8
0
  5
AD11
 10
138.953
 20
117.669
 30
0.000000
  70
    32
  0
VERTEX
  8
0
  5
AD12
 10
138.989
 20
117.681
 30
0.000000
  70
    32
  0
VERTEX
  8
0
  5
AD13
 10
139.025
 20
117.693
 30
0.000000
  70
    32
  0
VERTEX
  8
0
  5
AD14
 10
139.060
 20
117.705
 30
0.000000
  70
    32
  0
VERTEX
  8
0
  5
AD15
 10
139.096
 20
117.716
 30
0.000000
  70
    32
  0
VERTEX
  8
0
  5
AD16
 10
139.132
 20
117.728
 30
0.000000
  70
    32
  0
VERTEX
  8
0
  5
AD17
 10
139.168
 20
117.739
 30
0.000000
  70
    32
  0
VERTEX
  8
0
  5
AD18
 10
139.204
 20
117.750
 30
0.000000
  70
    32
  0
VERTEX
  8
0
  5
AD19
 10
139.240
 20
117.761
 30
0.000000
  70
    32
  0
VERTEX
  8
0
  5
AD1A
 10
139.276
 20
117.771
 30
0.000000
  70
    32
  0
VERTEX
  8
0
  5
AD1B
 10
139.313
 20
117.782
 30
0.000000
  70
    32
  0
VERTEX
  8
0
  5
AD1C
 10
139.349
 20
117.792
 30
0.000000
  70
    32
  0
VERTEX
  8
0
  5
AD1D
 10
139.385
 20
117.803
 30
0.000000
  70
    32
  0
VERTEX
  8
0
  5
AD1E
 10
139.422
 20
117.813
 30
0.000000
  70
    32
  0
VERTEX
  8
0
  5
AD1F
 10
139.458
 20
117.822
 30
0.000000
  70
    32
  0
VERTEX
  8
0
  5
AD20
 10
139.494
 20
117.832
 30
0.000000
  70
    32
  0
VERTEX
  8
0
  5
AD21
 10
139.531
 20
117.842
 30
0.000000
  70
    32
  0
VERTEX
  8
0
  5
AD22
 10
139.567
 20
117.851
 30
0.000000
  70
    32
  0
VERTEX
  8
0
  5
AD23
 10
139.604
 20
117.860
 30
0.000000
  70
    32
  0
VERTEX
  8
0
  5
AD24
 10
139.640
 20
117.869
 30
0.000000
  70
    32
  0
VERTEX
  8
0
  5
AD25
 10
139.677
 20
117.878
 30
0.000000
  70
    32
  0
VERTEX
  8
0
  5
AD26
 10
139.714
 20
117.886
 30
0.000000
  70
    32
  0
VERTEX
  8
0
  5
AD27
 10
139.750
 20
117.895
 30
0.000000
  70
    32
  0
VERTEX
  8
0
  5
AD28
 10
139.787
 20
117.903
 30
0.000000
  70
    32
  0
VERTEX
  8
0
  5
AD29
 10
139.824
 20
117.911
 30
0.000000
  70
    32
  0
VERTEX
  8
0
  5
AD2A
 10
139.861
 20
117.919
 30
0.000000
  70
    32
  0
VERTEX
  8
0
  5
AD2B
 10
139.897
 20
117.927
 30
0.000000
  70
    32
  0
VERTEX
  8
0
  5
AD2C
 10
139.934
 20
117.935
 30
0.000000
  70
    32
  0
VERTEX
  8
0
  5
AD2D
 10
139.971
 20
117.942
 30
0.000000
  70
    32
  0
VERTEX
  8
0
  5
AD2E
 10
140.008
 20
117.950
 30
0.000000
  70
    32
  0
VERTEX
  8
0
  5
AD2F
 10
140.045
 20
117.957
 30
0.000000
  70
    32
  0
VERTEX
  8
0
  5
AD30
 10
140.082
 20
117.964
 30
0.000000
  70
    32
  0
VERTEX
  8
0
  5
AD31
 10
140.119
 20
117.971
 30
0.000000
  70
    32
  0
VERTEX
  8
0
  5
AD32
 10
140.156
 20
117.978
 30
0.000000
  70
    32
  0
VERTEX
  8
0
  5
AD33
 10
140.193
 20
117.984
 30
0.000000
  70
    32
  0
VERTEX
  8
0
  5
AD34
 10
140.229
 20
117.991
 30
0.000000
  70
    32
  0
VERTEX
  8
0
  5
AD35
 10
140.266
 20
117.997
 30
0.000000
  70
    32
  0
VERTEX
  8
0
  5
AD36
 10
140.304
 20
118.003
 30
0.000000
  70
    32
  0
VERTEX
  8
0
  5
AD37
 10
140.341
 20
118.009
 30
0.000000
  70
    32
  0
VERTEX
  8
0
  5
AD38
 10
140.378
 20
118.015
 30
0.000000
  70
    32
  0
VERTEX
  8
0
  5
AD39
 10
140.415
 20
118.021
 30
0.000000
  70
    32
  0
VERTEX
  8
0
  5
AD3A
 10
140.452
 20
118.026
 30
0.000000
  70
    32
  0
VERTEX
  8
0
  5
AD3B
 10
140.489
 20
118.032
 30
0.000000
  70
    32
  0
VERTEX
  8
0
  5
AD3C
 10
140.526
 20
118.037
 30
0.000000
  70
    32
  0
VERTEX
  8
0
  5
AD3D
 10
140.563
 20
118.043
 30
0.000000
  70
    32
  0
VERTEX
  8
0
  5
AD3E
 10
140.600
 20
118.048
 30
0.000000
  70
    32
  0
VERTEX
  8
0
  5
AD3F
 10
140.637
 20
118.053
 30
0.000000
  70
    32
  0
VERTEX
  8
0
  5
AD40
 10
140.675
 20
118.058
 30
0.000000
  70
    32
  0
VERTEX
  8
0
  5
AD41
 10
140.712
 20
118.062
 30
0.000000
  70
    32
  0
VERTEX
  8
0
  5
AD42
 10
140.749
 20
118.067
 30
0.000000
  70
    32
  0
VERTEX
  8
0
  5
AD43
 10
140.786
 20
118.072
 30
0.000000
  70
    32
  0
VERTEX
  8
0
  5
AD44
 10
140.824
 20
118.076
 30
0.000000
  70
    32
  0
VERTEX
  8
0
  5
AD45
 10
140.861
 20
118.080
 30
0.000000
  70
    32
  0
VERTEX
  8
0
  5
AD46
 10
140.898
 20
118.085
 30
0.000000
  70
    32
  0
VERTEX
  8
0
  5
AD47
 10
140.935
 20
118.089
 30
0.000000
  70
    32
  0
VERTEX
  8
0
  5
AD48
 10
140.973
 20
118.093
 30
0.000000
  70
    32
  0
VERTEX
  8
0
  5
AD49
 10
141.010
 20
118.097
 30
0.000000
  70
    32
  0
VERTEX
  8
0
  5
AD4A
 10
141.047
 20
118.101
 30
0.000000
  70
    32
  0
VERTEX
  8
0
  5
AD4B
 10
141.085
 20
118.104
 30
0.000000
  70
    32
  0
VERTEX
  8
0
  5
AD4C
 10
141.122
 20
118.108
 30
0.000000
  70
    32
  0
VERTEX
  8
0
  5
AD4D
 10
141.159
 20
118.112
 30
0.000000
  70
    32
  0
VERTEX
  8
0
  5
AD4E
 10
141.197
 20
118.115
 30
0.000000
  70
    32
  0
VERTEX
  8
0
  5
AD4F
 10
141.234
 20
118.119
 30
0.000000
  70
    32
  0
VERTEX
  8
0
  5
AD50
 10
141.272
 20
118.122
 30
0.000000
  70
    32
  0
VERTEX
  8
0
  5
AD51
 10
141.309
 20
118.125
 30
0.000000
  70
    32
  0
VERTEX
  8
0
  5
AD52
 10
141.346
 20
118.128
 30
0.000000
  70
    32
  0
VERTEX
  8
0
  5
AD53
 10
141.384
 20
118.131
 30
0.000000
  70
    32
  0
VERTEX
  8
0
  5
AD54
 10
141.421
 20
118.134
 30
0.000000
  70
    32
  0
VERTEX
  8
0
  5
AD55
 10
141.459
 20
118.137
 30
0.000000
  70
    32
  0
VERTEX
  8
0
  5
AD56
 10
141.496
 20
118.140
 30
0.000000
  70
    32
  0
VERTEX
  8
0
  5
AD57
 10
141.534
 20
118.143
 30
0.000000
  70
    32
  0
VERTEX
  8
0
  5
AD58
 10
141.571
 20
118.146
 30
0.000000
  70
    32
  0
VERTEX
  8
0
  5
AD59
 10
141.609
 20
118.149
 30
0.000000
  70
    32
  0
VERTEX
  8
0
  5
AD5A
 10
141.646
 20
118.151
 30
0.000000
  70
    32
  0
VERTEX
  8
0
  5
AD5B
 10
141.684
 20
118.154
 30
0.000000
  70
    32
  0
VERTEX
  8
0
  5
AD5C
 10
141.721
 20
118.157
 30
0.000000
  70
    32
  0
VERTEX
  8
0
  5
AD5D
 10
141.759
 20
118.159
 30
0.000000
  70
    32
  0
VERTEX
  8
0
  5
AD5E
 10
141.796
 20
118.162
 30
0.000000
  70
    32
  0
VERTEX
  8
0
  5
AD5F
 10
141.834
 20
118.164
 30
0.000000
  70
    32
  0
VERTEX
  8
0
  5
AD60
 10
141.871
 20
118.166
 30
0.000000
  70
    32
  0
VERTEX
  8
0
  5
AD61
 10
141.909
 20
118.169
 30
0.000000
  70
    32
  0
VERTEX
  8
0
  5
AD62
 10
141.946
 20
118.171
 30
0.000000
  70
    32
  0
VERTEX
  8
0
  5
AD63
 10
141.984
 20
118.173
 30
0.000000
  70
    32
  0
VERTEX
  8
0
  5
AD64
 10
142.021
 20
118.176
 30
0.000000
  70
    32
  0
VERTEX
  8
0
  5
AD65
 10
142.059
 20
118.178
 30
0.000000
  70
    32
  0
VERTEX
  8
0
  5
AD66
 10
142.097
 20
118.180
 30
0.000000
  70
    32
  0
VERTEX
  8
0
  5
AD67
 10
142.134
 20
118.182
 30
0.000000
  70
    32
  0
VERTEX
  8
0
  5
AD68
 10
142.172
 20
118.184
 30
0.000000
  70
    32
  0
VERTEX
  8
0
  5
AD69
 10
142.209
 20
118.186
 30
0.000000
  70
    32
  0
VERTEX
  8
0
  5
AD6A
 10
142.247
 20
118.189
 30
0.000000
  70
    32
  0
VERTEX
  8
0
  5
AD6B
 10
142.284
 20
118.191
 30
0.000000
  70
    32
  0
VERTEX
  8
0
  5
AD6C
 10
142.322
 20
118.193
 30
0.000000
  70
    32
  0
VERTEX
  8
0
  5
AD6D
 10
142.360
 20
118.195
 30
0.000000
  70
    32
  0
VERTEX
  8
0
  5
AD6E
 10
142.397
 20
118.197
 30
0.000000
  70
    32
  0
VERTEX
  8
0
  5
AD6F
 10
142.435
 20
118.199
 30
0.000000
  70
    32
  0
VERTEX
  8
0
  5
AD70
 10
142.472
 20
118.201
 30
0.000000
  70
    32
  0
VERTEX
  8
0
  5
AD71
 10
142.510
 20
118.203
 30
0.000000
  70
    32
  0
SEQEND
  8
0
  5
AD72
  0
LINE
  5
B9D
  8
0
  6
CONTINUOUS
 10
145.63490740436291
 20
167.10056196032511
 30
0.0
 11
144.13240832960361
 21
169.70296669613339
 31
0.0
  0
LINE
  5
B9E
  8
0
  6
CONTINUOUS
 10
145.63490740436291
 20
146.20296669613339
 30
0.0
 11
145.63490740436291
 21
167.100561960325
 31
0.0
  0
LINE
  5
B9F
  8
0
  6
CONTINUOUS
 10
149.38490740436291
 20
146.20296669613339
 30
0.0
 11
149.38490740436291
 21
167.100561960325
 31
0.0
  0
LINE
  5
BA0
  8
0
  6
CONTINUOUS
 10
148.88490740436291
 20
165.7029666961335
 30
0.0
 11
147.50990740436291
 21
165.7029666961335
 31
0.0
  0
LINE
  5
BA1
  8
0
  6
CONTINUOUS
 10
146.13490740436291
 20
165.7029666961335
 30
0.0
 11
147.50990740436291
 21
165.7029666961335
 31
0.0
  0
ARC
  5
BA2
  8
0
  6
CONTINUOUS
 10
146.13490740436291
 20
166.2029666961335
 30
0.0
 40
0.5
 50
180.0
 51
270.0
  0
ARC
  5
BA3
  8
0
  6
CONTINUOUS
 10
148.88490740436291
 20
166.2029666961335
 30
0.0
 40
0.5
 50
270.0
 51
0.0
  0
LINE
  5
BA4
  8
0
  6
CONTINUOUS
 10
149.38490740436291
 20
167.10056196032511
 30
0.0
 11
150.88740647912221
 21
169.70296669613339
 31
0.0
  0
LINE
  5
BA5
  8
0
  6
CONTINUOUS
 10
150.88740647912221
 20
169.7029666961335
 30
0.0
 11
155.00990740436279
 21
169.70296669613339
 31
0.0
  0
LINE
  5
BA6
  8
0
  6
CONTINUOUS
 10
145.63490740436291
 20
109.30537143194179
 30
0.0
 11
144.13240832960361
 21
106.7029666961334
 31
0.0
  0
LINE
  5
BA7
  8
0
  6
CONTINUOUS
 10
145.63490740436291
 20
130.20296669613339
 30
0.0
 11
145.63490740436291
 21
109.30537143194189
 31
0.0
  0
LINE
  5
BA8
  8
0
  6
CONTINUOUS
 10
149.38490740436279
 20
130.20296669613339
 30
0.0
 11
149.38490740436291
 21
109.30537143194189
 31
0.0
  0
LINE
  5
BA9
  8
0
  6
CONTINUOUS
 10
148.88490740436291
 20
110.7029666961334
 30
0.0
 11
147.50990740436291
 21
110.7029666961334
 31
0.0
  0
LINE
  5
BAA
  8
0
  6
CONTINUOUS
 10
146.13490740436291
 20
110.7029666961334
 30
0.0
 11
147.50990740436291
 21
110.7029666961334
 31
0.0
  0
ARC
  5
BAB
  8
0
  6
CONTINUOUS
 10
146.13490740436291
 20
110.2029666961334
 30
0.0
 40
0.5
 50
90.0
 51
180.0
  0
ARC
  5
BAC
  8
0
  6
CONTINUOUS
 10
148.88490740436291
 20
110.2029666961334
 30
0.0
 40
0.5
 50
0.0
 51
90.0
  0
LINE
  5
BAD
  8
0
  6
CONTINUOUS
 10
149.38490740436291
 20
109.30537143194179
 30
0.0
 11
150.88740647912221
 21
106.7029666961334
 31
0.0
  0
LINE
  5
BAE
  8
0
  6
CONTINUOUS
 10
144.13240832960361
 20
106.7029666961334
 30
0.0
 11
144.13240832960349
 21
113.8667796488574
 31
0.0
  0
LINE
  5
BAF
  8
0
  6
CONTINUOUS
 10
150.88740647912221
 20
106.7029666961334
 30
0.0
 11
150.88740647912221
 21
113.8667796488574
 31
0.0
  0
LINE
  5
BB0
  8
0
  6
CONTINUOUS
 10
150.88740647912221
 20
106.7029666961334
 30
0.0
 11
155.00990740436279
 21
106.7029666961335
 31
0.0
  0
LINE
  5
BB1
  8
0
  6
CONTINUOUS
 10
150.88740647912221
 20
118.2029666961334
 30
0.0
 11
150.88740647912221
 21
130.20296669613339
 31
0.0
  0
LINE
  5
BB2
  8
0
  6
CONTINUOUS
 10
144.13240832960361
 20
118.2029666961334
 30
0.0
 11
144.13240832960361
 21
130.20296669613339
 31
0.0
  0
LINE
  5
BB3
  8
0
  6
CONTINUOUS
 10
144.13240832960349
 20
113.8667796488575
 30
0.0
 11
134.50990740436279
 21
113.8667796488575
 31
0.0
  0
LINE
  5
BB4
  8
0
  6
CONTINUOUS
 10
145.63490740436291
 20
118.2029666961334
 30
0.0
 11
142.50990740436279
 21
118.2029666961334
 31
0.0
  0
LINE
  5
BB5
  8
0
  6
CONTINUOUS
 10
149.38490740436291
 20
117.3446107673207
 30
0.0
 11
150.88740647912221
 21
113.8667796488574
 31
0.0
  0
LINE
  5
BB6
  8
0
  6
CONTINUOUS
 10
145.63490740436291
 20
117.3446107673207
 30
0.0
 11
144.13240832960349
 21
113.8667796488574
 31
0.0
  0
ARC
  5
BB7
  8
0
  6
CONTINUOUS
 10
155.00990740436279
 20
107.2029666961334
 30
0.0
 40
0.5
 50
270.0
 51
0.0
  0
ARC
  5
BB8
  8
0
  6
CONTINUOUS
 10
155.00990740436279
 20
169.20296669613339
 30
0.0
 40
0.5
 50
0.0
 51
90.0
  0
LINE
  5
BB9
  8
0
  6
HIDDEN
 62
     3
 10
107.50990740436281
 20
133.43296669613341
 30
0.0
 11
107.50990740436281
 21
142.9729666961334
 31
0.0
  0
ARC
  5
BBA
  8
0
  6
HIDDEN
 62
     3
 10
106.00990740436281
 20
133.43296669613341
 30
0.0
 40
1.5
 50
270.0
 51
0.0
  0
LINE
  5
BBB
  8
0
  6
HIDDEN
 62
     3
 10
102.00990740436281
 20
131.93296669613341
 30
0.0
 11
106.00990740436281
 21
131.93296669613341
 31
0.0
  0
LINE
  5
BBC
  8
0
  6
CONTINUOUS
 62
     2
 10
120.00990740436281
 20
138.20296669613339
 30
0.0
 11
121.00990740436281
 21
138.20296669613339
 31
0.0
  0
LINE
  5
BBD
  8
0
  6
CONTINUOUS
 62
     2
 10
120.50990740436281
 20
137.70296669613339
 30
0.0
 11
120.50990740436281
 21
138.70296669613339
 31
0.0
  0
LINE
  5
BBE
  8
0
  6
CONTINUOUS
 62
     2
 10
119.50990740436281
 20
138.20296669613339
 30
0.0
 11
115.75990740436281
 21
138.20296669613339
 31
0.0
  0
LINE
  5
BBF
  8
0
  6
CONTINUOUS
 62
     2
 10
121.50990740436281
 20
138.20296669613339
 30
0.0
 11
125.25990740436281
 21
138.20296669613339
 31
0.0
  0
LINE
  5
BC0
  8
0
  6
CONTINUOUS
 62
     2
 10
120.50990740436281
 20
137.20296669613339
 30
0.0
 11
120.50990740436281
 21
133.45296669613339
 31
0.0
  0
LINE
  5
BC1
  8
0
  6
CONTINUOUS
 62
     2
 10
120.50990740436281
 20
139.20296669613339
 30
0.0
 11
120.50990740436281
 21
142.95296669613339
 31
0.0
  0
ARC
  5
BC2
  8
0
  6
CONTINUOUS
 10
129.00990740436279
 20
113.58254158143851
 30
0.0
 40
0.6
 50
33.557309761928487
 51
90.0
  0
LINE
  5
BC3
  8
0
  6
CONTINUOUS
 10
129.00990740436291
 20
114.1825415814385
 30
0.0
 11
128.33530906442911
 21
114.1825415814385
 31
0.0
  0
LINE
  5
BC4
  8
0
  6
CONTINUOUS
 10
127.50990740436281
 20
113.9825415814385
 30
0.0
 11
128.1800176373676
 21
114.1620970772119
 31
0.0
  0
ARC
  5
BC5
  8
0
  6
CONTINUOUS
 10
128.33530906442911
 20
113.58254158143851
 30
0.0
 40
0.6
 50
90.0
 51
104.9999999999944
  0
ARC
  5
BC6
  8
0
  6
CONTINUOUS
 10
128.3353090644292
 20
162.8233918108283
 30
0.0
 40
0.6
 50
254.99999999999881
 51
270.00000000000648
  0
ARC
  5
BC7
  8
0
  6
CONTINUOUS
 10
156.50990740436291
 20
164.20296669613089
 30
0.0
 40
1.0
 50
180.0
 51
270.0
  0
ARC
  5
BC8
  8
0
  6
CONTINUOUS
 10
156.50990740436271
 20
112.2029666961334
 30
0.0
 40
1.0
 50
90.0
 51
180.0
  0
LINE
  5
BCA
  8
0
  6
CONTINUOUS
 62
     2
 10
166.50990740436129
 20
128.7029666961335
 30
0.0
 11
166.50990740436129
 21
123.6529666961335
 31
0.0
  0
LINE
  5
BCB
  8
0
  6
CONTINUOUS
 62
     7
 10
156.50990740435961
 20
113.2029666961335
 30
0.0
 11
179.1501917286075
 21
113.2029666961335
 31
0.0
1001
ACAD
1000
ASC_BOUNDS
1002
{
1070
    19
1005
0
1005
0
1005
0
1002
}
  0
LINE
  5
BCC
  8
0
  6
CONTINUOUS
 62
     2
 10
166.50990740436129
 20
130.7029666961335
 30
0.0
 11
166.50990740436129
 21
135.7529666961334
 31
0.0
  0
LINE
  5
BCD
  8
0
  6
CONTINUOUS
 10
171.75990740436129
 20
129.7029666961335
 30
0.0
 11
171.7599074043614
 21
123.90912832618901
 31
0.0
  0
LINE
  5
BCE
  8
0
  6
CONTINUOUS
 62
     2
 10
166.50990740436129
 20
129.20296669613339
 30
0.0
 11
166.50990740436129
 21
130.20296669613339
 31
0.0
  0
CIRCLE
  5
BCF
  8
0
  6
CONTINUOUS
 10
166.50990740436129
 20
129.7029666961335
 30
0.0
 40
3.0499999999999989
  0
LINE
  5
BD0
  8
0
  6
CONTINUOUS
 10
161.25990740436129
 20
129.7029666961335
 30
0.0
 11
161.25990740436129
 21
123.90912832618901
 31
0.0
  0
CIRCLE
  5
BD1
  8
0
  6
CONTINUOUS
 10
166.50990740436129
 20
129.7029666961335
 30
0.0
 40
4.3000000000000114
  0
ARC
  5
BD2
  8
0
  6
CONTINUOUS
 62
     2
 10
166.50990740436129
 20
129.7029666961335
 30
0.0
 40
5.0
 50
256.11628774983211
 51
160.4763173324009
  0
LINE
  5
BD3
  8
0
  6
CONTINUOUS
 10
171.75990740436129
 20
123.90912832618901
 30
0.0
 11
161.25990740436129
 21
123.90912832618901
 31
0.0
  0
ARC
  5
BD4
  8
0
  6
CONTINUOUS
 10
166.50990740436129
 20
129.7029666961335
 30
0.0
 40
5.25
 50
0.0
 51
180.0
  0
LINE
  5
BD5
  8
0
  6
CONTINUOUS
 62
     2
 10
165.50990740436129
 20
129.7029666961335
 30
0.0
 11
160.45990740436159
 21
129.7029666961335
 31
0.0
  0
LINE
  5
BD6
  8
0
  6
CONTINUOUS
 62
     2
 10
166.00990740436129
 20
129.7029666961335
 30
0.0
 11
167.00990740436129
 21
129.7029666961335
 31
0.0
  0
LINE
  5
BD7
  8
0
  6
CONTINUOUS
 62
     2
 10
167.50990740436129
 20
129.7029666961335
 30
0.0
 11
172.5599074043615
 21
129.7029666961335
 31
0.0
  0
LINE
  5
BD8
  8
0
  6
CONTINUOUS
 62
     7
 10
156.50990740435961
 20
163.2029666961335
 30
0.0
 11
179.1501917286075
 21
163.20296669613359
 31
0.0
1001
ACAD
1000
ASC_BOUNDS
1002
{
1070
    19
1005
0
1005
0
1005
0
1002
}
  0
LINE
  5
BD9
  8
0
  6
CONTINUOUS
 10
184.50990740435989
 20
120.1539606011593
 30
0.0
 11
184.50990740435981
 21
138.2029666961335
 31
0.0
  0
LINE
  5
C65
  8
0
  6
CONTINUOUS
 10
180.3048922669868
 20
113.56997353427801
 30
0.0
 11
180.3048922669868
 21
138.2029666961335
 31
0.0
  0
LINE
  5
6ACB
  8
0
  6
HIDDEN
 62
     3
 10
152.00990740436291
 20
142.20296669613339
 30
0.0
 11
206.19236475630589
 21
142.20296669613359
 31
0.0
1001
ACAD
1000
ASC_BOUNDS
1002
{
1070
    19
1002
}
  0
POLYLINE
  5
87D9
  8
0
 66
     1
 10
0.0
 20
0.0
 30
0.0
 40
1.0
 41
1.0
  0
VERTEX
  5
AC0E
  8
0
 10
0.5
 20
241.5000000000004
 30
0.0
  0
VERTEX
  5
AC0F
  8
0
 10
0.5
 20
-0.5
 30
0.0
  0
SEQEND
  5
AC10
  8
0
  0
POLYLINE
  5
87DA
  8
0
 66
     1
 10
0.0
 20
0.0
 30
0.0
 40
1.0
 41
1.0
  0
VERTEX
  5
AC11
  8
0
 10
349.30000000000018
 20
0.0
 30
0.0
  0
VERTEX
  5
AC12
  8
0
 10
349.30000000000018
 20
241.5000000000004
 30
0.0
  0
SEQEND
  5
AC13
  8
0
  0
TEXT
  5
87DF
  8
0
 62
     3
 10
265.18754843049328
 20
38.051021325782813
 30
0.0
 40
3.0
  1
1.ROUND  R=1.0
  0
TEXT
  5
87E0
  8
0
 62
     3
 10
264.54916131191339
 20
44.000081334326978
 30
0.0
 40
4.0
  1
NOTE
  0
TEXT
  5
87E1
  8
0
 62
     3
 10
265.18754843049328
 20
27.127590477055271
 30
0.0
 40
3.0
  1
3.ANGLES  %%P0%%D15'
  0
TEXT
  5
87E2
  8
0
  6
CONTINUOUS
 62
     7
 10
207.19664104857631
 20
17.658983523781899
 30
0.0
 40
4.0
  1
SSK CONTROL NUMBER
  0
LINE
  5
87E3
  8
0
 62
     2
 10
198.8597031580843
 20
16.5
 30
0.0
 11
269.30000000000018
 21
16.5
 31
0.0
  0
TEXT
  5
87E4
  8
0
 62
     7
 10
270.10520091895302
 20
2.2574114378329559
 30
0.0
 40
2.0
  1
CUTTING SIZE :
  0
LINE
  5
87E5
  8
0
 62
     2
 10
281.30000000000018
 20
6.5
 30
0.0
 11
198.8597031580843
 21
6.5
 31
0.0
  0
TEXT
  5
87E6
  8
0
 62
     3
 10
265.18754843049328
 20
32.510087232807336
 30
0.0
 40
3.0
  1
2.BREAK SHARP CORNERS  0.5*45%%D
  0
POLYLINE
  5
87E7
  8
0
 66
     1
 10
0.0
 20
0.0
 30
0.0
 40
0.5
 41
0.5
  0
VERTEX
  5
AC14
  8
0
 10
349.30000000000018
 20
24.0
 30
0.0
  0
VERTEX
  5
AC15
  8
0
 10
0.5
 20
24.0
 30
0.0
  0
SEQEND
  5
AC16
  8
0
  0
POLYLINE
  5
87E8
  8
0
 66
     1
 10
0.0
 20
0.0
 30
0.0
 40
1.0
 41
1.0
  0
VERTEX
  5
AC17
  8
0
 10
0.0
 20
0.0
 30
0.0
  0
VERTEX
  5
AC18
  8
0
 10
349.80000000000018
 20
0.0
 30
0.0
  0
SEQEND
  5
AC19
  8
0
  0
TEXT
  5
87E9
  8
0
  6
CONTINUOUS
 62
     3
 10
19.488127647663081
 20
15.53735654761635
 30
0.0
 40
4.0
  1
HYDRAULIC CHUCK
  0
LINE
  5
87EB
  8
0
 62
     2
 10
150.9402968419158
 20
12.5
 30
0.0
 11
0.5
 21
12.5
 31
0.0
  0
TEXT
  5
87EC
  8
0
 62
     7
 10
1.7756180239680359
 20
9.4939908967098745
 30
0.0
 40
2.0
  1
KIND
  0
TEXT
  5
87ED
  8
0
 62
     7
 10
1.6906758171485301
 20
20.70213863111508
 30
0.0
 40
2.0
  1
DESCRIPTION
  0
TEXT
  5
87EE
  8
0
 62
     7
 10
151.84057408933489
 20
19.15847313115523
 30
0.0
 40
2.0
  1
DATE
  0
LINE
  5
87EF
  8
0
 62
     2
 10
150.9402968419158
 20
16.5
 30
0.0
 11
198.8597031580839
 21
16.5
 31
0.0
  0
TEXT
  5
87F0
  8
0
 62
     7
 10
172.56998530749109
 20
6.278392202562145
 30
0.0
 40
3.0
  1
-
  0
LINE
  5
87F1
  8
0
 62
     2
 10
79.5
 20
24.0
 30
0.0
 11
79.5
 21
0.0
 31
0.0
  0
LINE
  5
87F2
  8
0
 62
     2
 10
106.5
 20
24.0
 30
0.0
 11
106.5
 21
0.0
 31
0.0
  0
LINE
  5
87F3
  8
0
 62
     2
 10
150.9402968419158
 20
24.0
 30
0.0
 11
150.9402968419158
 21
0.0
 31
0.0
  0
TEXT
  5
87F4
  8
0
  6
CONTINUOUS
 62
     3
 10
91.297501597574865
 20
15.03976123407665
 30
0.0
 40
4.0
  1
-
  0
TEXT
  5
87F5
  8
0
 62
     7
 10
80.326115960252537
 20
9.6268716546485393
 30
0.0
 40
2.0
  1
HARDNESS
  0
TEXT
  5
87F6
  8
0
 62
     7
 10
80.390774020364447
 20
20.753906392070579
 30
0.0
 40
2.0
  1
MATERIAL
  0
TEXT
  5
87F7
  8
0
 62
     7
 10
107.43550840515719
 20
9.4608489407828529
 30
0.0
 40
2.0
  1
ORDER MAKER
  0
TEXT
  5
87F8
  8
0
 62
     7
 10
107.6221638096294
 20
20.57165332765112
 30
0.0
 40
2.0
  1
SURFACE TREATMENT
  0
TEXT
  5
87F9
  8
0
 62
     7
 10
249.69651417353541
 20
0.9519807885211548
 30
0.0
 40
4.0
  1
1 : 1
  0
LINE
  5
87FA
  8
0
 62
     2
 10
268.8597031580839
 20
6.5
 30
0.0
 11
268.8597031580839
 21
0.0
 31
0.0
  0
TEXT
  5
87FB
  8
0
 62
     7
 10
234.13498021523631
 20
2.269955000430854
 30
0.0
 40
2.0
  1
SCALE
  0
LINE
  5
87FC
  8
0
 62
     2
 10
233.8597031580839
 20
6.5
 30
0.0
 11
233.8597031580839
 21
0.0
 31
0.0
  0
TEXT
  5
87FD
  8
0
 62
     7
 10
199.72929511267961
 20
2.2574114378330701
 30
0.0
 40
2.0
  1
Q'TY
  0
LINE
  5
87FE
  8
0
 62
     2
 10
198.8597031580839
 20
24.0
 30
0.0
 11
198.8597031580839
 21
0.0
 31
0.0
  0
TEXT
  5
87FF
  8
0
 62
     3
 10
171.78143518235629
 20
18.268672151280722
 30
0.0
 40
4.0
  1
-
  0
TEXT
  5
880C
  8
0
 62
     7
 10
313.20717981679542
 20
0.9519807885211548
 30
0.0
 40
4.0
  1
-
  0
LINE
  5
880D
  8
0
 62
     2
 10
281.30000000000018
 20
6.5
 30
0.0
 11
349.30000000000018
 21
6.5
 31
0.0
  0
LINE
  5
880E
  8
0
 62
     2
 10
309.30000000000018
 20
24.25
 30
0.0
 11
309.30000000000018
 21
6.5
 31
0.0
  0
LINE
  5
880F
  8
0
 62
     2
 10
289.30000000000018
 20
24.25
 30
0.0
 11
289.30000000000018
 21
6.5
 31
0.0
  0
LINE
  5
8810
  8
0
 62
     2
 10
269.30000000000018
 20
24.25
 30
0.0
 11
269.30000000000018
 21
6.5
 31
0.0
  0
TEXT
  5
8811
  8
0
 62
     7
 10
310.26938148685667
 20
20.8838933210493
 30
0.0
 40
2.0
  1
CHECK
  0
LINE
  5
8812
  8
0
 62
     2
 10
329.30000000000018
 20
24.25
 30
0.0
 11
329.30000000000018
 21
6.5
 31
0.0
  0
TEXT
  5
8813
  8
0
 62
     7
 10
330.4903347100439
 20
20.8838933210493
 30
0.0
 40
2.0
  1
APPROVE
  0
TEXT
  5
8814
  8
0
 62
     7
 10
270.34697788810348
 20
236.25014875277051
 30
0.0
 40
2.5
  1
NO.
  0
LINE
  5
8815
  8
0
  6
CONTINUOUS
 62
     2
 10
269.30000000000018
 20
215.62385070146451
 30
0.0
 11
349.30000000000018
 21
215.62385070146451
 31
0.0
  0
LINE
  5
8816
  8
0
  6
CONTINUOUS
 62
     2
 10
269.30000000000018
 20
234.60000000000031
 30
0.0
 11
349.30000000000018
 21
234.60000000000031
 31
0.0
  0
LINE
  5
8817
  8
0
  6
CONTINUOUS
 62
     2
 10
269.30000000000018
 20
228.19999999999951
 30
0.0
 11
349.30000000000018
 21
228.19999999999919
 31
0.0
  0
LINE
  5
8818
  8
0
  6
CONTINUOUS
 62
     2
 10
269.30000000000018
 20
221.8000000000003
 30
0.0
 11
349.30000000000018
 21
221.8000000000001
 31
0.0
  0
POLYLINE
  5
8819
  8
0
 66
     1
 10
0.0
 20
0.0
 30
0.0
 40
1.0
 41
1.0
  0
VERTEX
  5
AC1A
  8
0
 10
0.0
 20
241.00000000000011
 30
0.0
  0
VERTEX
  5
AC1B
  8
0
 10
349.78500327820348
 20
241.00000000000031
 30
0.0
  0
SEQEND
  5
AC1C
  8
0
  0
POLYLINE
  5
881A
  8
0
 66
     1
 10
0.0
 20
0.0
 30
0.0
 40
1.0
 41
1.0
1001
ACAD
1000
ASC_BOUNDS
1002
{
1070
    19
1002
}
  0
VERTEX
  5
AC1D
  8
0
 10
9.9498014649834658
 20
241.00000000000031
 30
0.0
  0
VERTEX
  5
AC1E
  8
0
 10
341.5
 20
241.00000000000031
 30
0.0
  0
SEQEND
  5
AC1F
  8
0
  0
LINE
  5
881B
  8
0
 62
     2
 10
269.30000000000018
 20
241.00000000000031
 30
0.0
 11
269.30000000000018
 21
215.62385070146451
 31
0.0
  0
TEXT
  5
881C
  8
0
  6
CONTINUOUS
 62
     3
 10
63.438554281229251
 20
229.0555435295031
 30
0.0
 40
2.0
  1
-0.0
  0
TEXT
  5
881D
  8
0
  6
CONTINUOUS
 62
     3
 10
32.065439160974158
 20
229.0555435295031
 30
0.0
 40
2.0
  1
-0.0
  0
TEXT
  5
881E
  8
0
  6
CONTINUOUS
 62
     3
 10
20.993984417053071
 20
229.0555435295031
 30
0.0
 40
2.0
  1
-0.0
  0
TEXT
  5
881F
  8
0
  6
CONTINUOUS
 62
     3
 10
46.479220545365934
 20
229.0555435295031
 30
0.0
 40
2.0
  1
-0.0
  0
LINE
  5
8820
  8
0
  6
CONTINUOUS
 62
     2
 10
0.0
 20
241.00000000000031
 30
0.0
 11
0.0
 21
215.62385070146451
 31
0.0
  0
LINE
  5
8821
  8
0
  6
CONTINUOUS
 62
     2
 10
6.664798186779989
 20
221.8000000000003
 30
0.0
 11
6.664798186779989
 21
241.00000000000031
 31
0.0
  0
LINE
  5
8822
  8
0
  6
CONTINUOUS
 62
     2
 10
18.66479818677999
 20
241.00000000000031
 30
0.0
 11
18.66479818677999
 21
221.8000000000003
 31
0.0
  0
LINE
  5
8823
  8
0
  6
CONTINUOUS
 62
     2
 10
42.092417406004643
 20
241.00000000000031
 30
0.0
 11
42.092417406004643
 21
215.62385070146451
 31
0.0
  0
LINE
  5
8824
  8
0
  6
CONTINUOUS
 62
     2
 10
28.096426956445612
 20
241.00000000000031
 30
0.0
 11
28.096426956445612
 21
215.62385070146451
 31
0.0
  0
LINE
  5
8825
  8
0
  6
CONTINUOUS
 62
     2
 10
74.993438436643828
 20
241.00000000000031
 30
0.0
 11
74.993438436643828
 21
215.62385070146451
 31
0.0
  0
LINE
  5
8826
  8
0
  6
CONTINUOUS
 62
     2
 10
57.968465385929441
 20
241.00000000000031
 30
0.0
 11
57.968465385929441
 21
215.62385070146451
 31
0.0
  0
LINE
  5
8827
  8
0
  6
CONTINUOUS
 62
     2
 10
0.0
 20
215.62385070146451
 30
0.0
 11
74.993438436643828
 21
215.62385070146451
 31
0.0
  0
LINE
  5
8828
  8
0
  6
CONTINUOUS
 62
     2
 10
6.664798186779989
 20
221.8000000000003
 30
0.0
 11
74.993438436643828
 21
221.8000000000003
 31
0.0
  0
LINE
  5
8829
  8
0
  6
CONTINUOUS
 62
     2
 10
6.664798186779989
 20
228.20000000000019
 30
0.0
 11
74.993438436643828
 21
228.20000000000019
 31
0.0
  0
LINE
  5
882A
  8
0
  6
CONTINUOUS
 62
     2
 10
6.664798186779989
 20
215.62385070146451
 30
0.0
 11
6.664798186779989
 21
221.8000000000003
 31
0.0
  0
LINE
  5
882B
  8
0
  6
CONTINUOUS
 62
     2
 10
18.66479818677999
 20
228.4238507014646
 30
0.0
 11
18.66479818677999
 21
215.62385070146451
 31
0.0
  0
TEXT
  5
882C
  8
0
  6
CONTINUOUS
 10
9.1748491995331278
 20
223.52224636897441
 30
0.0
 40
3.0
  1
寇版
  0
TEXT
  5
882D
  8
0
  6
CONTINUOUS
 10
9.1748491995331278
 20
217.3543913088053
 30
0.0
 40
3.0
  1
傈厘
  0
TEXT
  5
882E
  8
0
  6
CONTINUOUS
 10
2.289011192062389
 20
221.7461905260555
 30
0.0
 40
3.0
  1
瞒
  0
TEXT
  5
882F
  8
0
  6
CONTINUOUS
 10
1.237846808631047
 20
217.77421795343761
 30
0.0
 40
3.0
  1
mm
  0
TEXT
  5
8830
  8
0
  6
CONTINUOUS
 10
2.289011192062389
 20
226.2461905260555
 30
0.0
 40
3.0
  1
傍
  0
TEXT
  5
8831
  8
0
  6
CONTINUOUS
 62
     3
 10
32.065439160974158
 20
222.68683657162171
 30
0.0
 40
2.0
  1
-0.15
  0
TEXT
  5
8832
  8
0
  6
CONTINUOUS
 62
     3
 10
20.993984417053071
 20
222.68683657162171
 30
0.0
 40
2.0
  1
-0.1
  0
TEXT
  5
8833
  8
0
  6
CONTINUOUS
 62
     3
 10
19.949507918161999
 20
217.257775021637
 30
0.0
 40
3.0
  1
%%P0.1
  0
TEXT
  5
8834
  8
0
  6
CONTINUOUS
 62
     3
 10
30.812067194667179
 20
217.257775021637
 30
0.0
 40
3.0
  1
%%P0.15
  0
TEXT
  5
8835
  8
0
  6
CONTINUOUS
 62
     3
 10
20.993984417053071
 20
225.1925570542829
 30
0.0
 40
2.0
  1
+0.0
  0
TEXT
  5
8836
  8
0
  6
CONTINUOUS
 62
     3
 10
32.065439160974158
 20
225.1925570542829
 30
0.0
 40
2.0
  1
+0.0
  0
TEXT
  5
883A
  8
0
  6
CONTINUOUS
 62
     3
 10
46.688116012782302
 20
222.791241415256
 30
0.0
 40
2.0
  1
-0.25
  0
TEXT
  5
883B
  8
0
  6
CONTINUOUS
 62
     3
 10
63.504192757890003
 20
222.791241415256
 30
0.0
 40
2.0
  1
-0.35
  0
TEXT
  5
883C
  8
0
  6
CONTINUOUS
 62
     3
 10
45.33029547457636
 20
217.257775021637
 30
0.0
 40
3.0
  1
%%P0.25
  0
TEXT
  5
883D
  8
0
  6
CONTINUOUS
 62
     3
 10
62.041925324166641
 20
217.257775021637
 30
0.0
 40
3.0
  1
%%P0.35
  0
TEXT
  5
883E
  8
0
  6
CONTINUOUS
 62
     3
 10
46.688116012782302
 20
225.2969618979169
 30
0.0
 40
2.0
  1
+0.0
  0
TEXT
  5
883F
  8
0
  6
CONTINUOUS
 62
     3
 10
63.504192757890003
 20
225.2969618979169
 30
0.0
 40
2.0
  1
+0.0
  0
TEXT
  5
8840
  8
0
  6
CONTINUOUS
 62
     7
 10
40.571351574260909
 20
236.1565042912884
 30
0.0
 40
3.0
  1
 100-250
  0
LINE
  5
8841
  8
0
  6
CONTINUOUS
 62
     2
 10
74.993438436643828
 20
241.00000000000031
 30
0.0
 11
6.664798186779989
 21
241.00000000000031
 31
0.0
  0
LINE
  5
8842
  8
0
  6
CONTINUOUS
 62
     2
 10
6.664798186779989
 20
234.60000000000031
 30
0.0
 11
74.993438436643828
 21
234.60000000000031
 31
0.0
  0
TEXT
  5
8843
  8
0
  6
CONTINUOUS
 10
9.1748491995331278
 20
229.76335097000751
 30
0.0
 40
3.0
  1
郴版
  0
TEXT
  5
8844
  8
0
  6
CONTINUOUS
 10
9.1748491995331278
 20
236.00445557104089
 30
0.0
 40
3.0
  1
备盒 
  0
TEXT
  5
8845
  8
0
  6
CONTINUOUS
 10
2.289011192062389
 20
235.24619052605561
 30
0.0
 40
3.0
  1
扁
  0
TEXT
  5
8846
  8
0
  6
CONTINUOUS
 10
2.289011192062389
 20
230.74619052605561
 30
0.0
 40
3.0
  1
夯
  0
LINE
  5
8847
  8
0
  6
CONTINUOUS
 62
     2
 10
6.664798186779989
 20
241.00000000000031
 30
0.0
 11
0.0
 21
241.00000000000031
 31
0.0
  0
TEXT
  5
8848
  8
0
  6
CONTINUOUS
 62
     3
 10
20.88953668334489
 20
231.56126401216429
 30
0.0
 40
2.0
  1
+0.1
  0
TEXT
  5
8849
  8
0
  6
CONTINUOUS
 62
     3
 10
32.065439160974158
 20
231.56126401216429
 30
0.0
 40
2.0
  1
+0.15
  0
TEXT
  5
884A
  8
0
  6
CONTINUOUS
 62
     7
 10
19.291584210295241
 20
236.1565042912884
 30
0.0
 40
3.0
  1
1-50
  0
TEXT
  5
884B
  8
0
  6
CONTINUOUS
 62
     7
 10
28.853706141723709
 20
236.1565042912884
 30
0.0
 40
3.0
  1
50-100
  0
TEXT
  5
884C
  8
0
  6
CONTINUOUS
 62
     7
 10
58.864606803455438
 20
236.1565042912884
 30
0.0
 40
3.0
  1
250-500
  0
TEXT
  5
884D
  8
0
  6
CONTINUOUS
 62
     3
 10
46.479220545365934
 20
231.56126401216429
 30
0.0
 40
2.0
  1
+0.25
  0
TEXT
  5
884E
  8
0
  6
CONTINUOUS
 62
     3
 10
63.438554281229251
 20
231.56126401216429
 30
0.0
 40
2.0
  1
+0.35
  0
LINE
  5
884F
  8
0
 62
     2
 10
317.30000000000018
 20
241.00000000000031
 30
0.0
 11
317.30000000000018
 21
215.62385070146451
 31
0.0
  0
LINE
  5
8850
  8
0
 62
     2
 10
331.30000000000018
 20
241.00000000000031
 30
0.0
 11
331.30000000000018
 21
215.62385070146451
 31
0.0
  0
LINE
  5
8851
  8
0
 62
     2
 10
275.30000000000018
 20
241.00000000000031
 30
0.0
 11
275.29999999999973
 21
215.62385070146451
 31
0.0
  0
TEXT
  5
8852
  8
0
 62
     7
 10
271.36049426856789
 20
217.74007257054279
 30
0.0
 40
2.5
  1
3.
  0
TEXT
  5
8853
  8
0
 62
     7
 10
271.36049426856789
 20
223.58559299907341
 30
0.0
 40
2.5
  1
2.
  0
TEXT
  5
8854
  8
0
 62
     7
 10
287.87643544357428
 20
236.04016647108219
 30
0.0
 40
2.5
  1
REVISIONS
  0
TEXT
  5
8855
  8
0
 62
     7
 10
271.36049426856789
 20
230.29486807554909
 30
0.0
 40
2.5
  1
1.
  0
TEXT
  5
8856
  8
0
 62
     7
 10
320.14935744422291
 20
236.04016647108219
 30
0.0
 40
2.5
  1
DATE
  0
TEXT
  5
8857
  8
0
 62
     7
 10
333.83882714560201
 20
236.1451559764231
 30
0.0
 40
2.5
  1
DEVISER
  0
TEXT
  5
885A
  8
0
 62
     7
 10
270.83722662870969
 20
20.7469419072163
 30
0.0
 40
2.0
  1
DESIGN
  0
TEXT
  5
885B
  8
0
 62
     7
 10
290.26938148685662
 20
20.8838933210493
 30
0.0
 40
2.0
  1
CHECK
  0
LINE
  5
8991
  8
0
  6
HIDDEN
 62
     3
 10
206.50990740436021
 20
142.75296669613371
 30
0.0
 11
226.00990740436021
 21
142.75296669613371
 31
0.0
  0
DIMENSION
  5
89AB
  8
0
  6
CONTINUOUS
  2
*D9
 10
294.75971448437792
 20
151.20296669613339
 30
0.0
 11
292.65941920878731
 21
138.2029666961335
 31
0.0
 70
     0
 13
274.50990740436112
 23
125.2029666961334
 33
0.0
 14
274.50990740436112
 24
151.20296669613339
 34
0.0
 50
90.0
1001
ACAD
1000
DSTYLE
1002
{
1070
   287
1070
     2
1070
     3
1000
%%C<>
1070
    42
1040
0.6
1070
    43
1040
1.0
1070
    44
1040
1.0
1070
    47
1040
0.1
1070
    48
1040
0.1
1070
    73
1070
     0
1070
   140
1040
3.0
1070
   141
1040
-0.2
1070
   146
1040
0.7
1070
   147
1040
0.6
1070
   178
1070
     3
1070
   271
1070
     2
1070
   272
1070
     2
1070
   275
1070
     1
1070
   283
1070
     0
1070
   284
1070
     8
1070
   289
1070
     2
1002
}
  0
TEXT
  5
89C5
  8
0
  6
CONTINUOUS
 62
     3
 10
240.1726377399541
 20
107.1964264342749
 30
0.0
 40
3.0
  1
3%%d(Q/2)
  0
INSERT
  5
89C6
  8
0
  6
CONTINUOUS
  2
*U14
 10
0.0
 20
0.0
 30
0.0
1001
ACAD
1000
DSTYLE
1002
{
1070
   284
1070
     8
1070
   140
1040
3.0
1070
   283
1070
     0
1070
    48
1040
0.8
1070
    73
1070
     0
1070
   146
1040
0.7
1070
   272
1070
     6
1070
   147
1040
0.6
1070
    42
1040
0.6
1070
    44
1040
1.0
1070
    43
1040
1.0
1070
   178
1070
     3
1070
   141
1040
0.0
1070
   275
1070
     1
1002
}
  0
LINE
  5
89E1
  8
0
  6
CONTINUOUS
 10
247.8907675882775
 20
123.8079166919478
 30
0.0
 11
185.59433059980449
 21
120.5430987721362
 31
0.0
  0
LINE
  5
89E3
  8
0
  6
CONTINUOUS
 10
247.8907675882775
 20
152.59801670031919
 30
0.0
 11
185.59433059980449
 21
155.86283462013091
 31
0.0
  0
LINE
  5
89E5
  8
0
  6
HIDDEN
 62
     3
 10
211.50990740436021
 20
143.20296669613339
 30
0.0
 11
226.45990740436
 21
143.20296669613339
 31
0.0
1001
ACAD
1000
ASC_BOUNDS
1002
{
1070
    19
1005
0
1005
0
1005
0
1002
}
  0
LINE
  5
89E6
  8
0
  6
HIDDEN
 62
     3
 10
211.50990740436021
 20
143.20296669613339
 30
0.0
 11
210.81708708133289
 21
142.8029666961333
 31
0.0
  0
LINE
  5
89E7
  8
0
  6
HIDDEN
 62
     3
 10
211.50990740436021
 20
138.20296669613339
 30
0.0
 11
211.50990740436021
 21
143.20296669613339
 31
0.0
  0
LINE
  5
89E8
  8
0
  6
HIDDEN
 62
     3
 10
226.00990740436021
 20
142.75296669613371
 30
0.0
 11
226.50990740436021
 21
143.2529666961336
 31
0.0
  0
LINE
  5
89E9
  8
0
  6
HIDDEN
 62
     3
 10
226.50990740436021
 20
138.20296669613339
 30
0.0
 11
226.50990740436021
 21
144.5029666961332
 31
0.0
  0
LINE
  5
89EA
  8
0
  6
HIDDEN
 62
     3
 10
226.00990740436021
 20
138.20296669613339
 30
0.0
 11
226.00990740436021
 21
142.75296669613371
 31
0.0
  0
LINE
  5
89EB
  8
0
  6
CONTINUOUS
 10
274.0360753824815
 20
125.17813421211351
 30
0.0
 11
260.14412233814221
 21
124.4500878031556
 31
0.0
  0
ARC
  5
89EC
  8
0
  6
CONTINUOUS
 10
274.00990740435998
 20
125.6774489794909
 30
0.0
 40
0.5
 50
272.99999999999909
 51
0.0
  0
LINE
  5
89ED
  8
0
  6
CONTINUOUS
 10
274.0360753824815
 20
151.2277991801534
 30
0.0
 11
260.14412233814221
 21
151.9558455891115
 31
0.0
  0
LINE
  5
89EE
  8
0
  6
CONTINUOUS
 10
274.50990740436021
 20
138.20296669613359
 30
0.0
 11
274.50990740435998
 21
125.6774489794909
 31
0.0
  0
ARC
  5
89F0
  8
0
  6
CONTINUOUS
 10
274.00990740435998
 20
150.7284844127762
 30
0.0
 40
0.5
 50
0.0
 51
87.000000000000924
  0
LINE
  5
89F1
  8
0
  6
CONTINUOUS
 10
274.50990740436021
 20
138.20296669613339
 30
0.0
 11
274.50990740435998
 21
150.7284844127762
 31
0.0
  0
LINE
  5
89F2
  8
0
  6
HIDDEN
 62
     3
 10
211.50990740436021
 20
143.20296669613339
 30
0.0
 11
226.45990740436
 21
143.20296669613339
 31
0.0
1001
ACAD
1000
ASC_BOUNDS
1002
{
1070
    19
1005
0
1005
0
1005
0
1002
}
  0
LINE
  5
89F3
  8
0
  6
HIDDEN
 62
     3
 10
211.50990740436021
 20
143.20296669613339
 30
0.0
 11
210.7304845409551
 21
142.75296669613371
 31
0.0
  0
LINE
  5
89F4
  8
0
  6
HIDDEN
 62
     3
 10
211.50990740436021
 20
138.20296669613339
 30
0.0
 11
211.50990740436021
 21
143.20296669613339
 31
0.0
  0
LINE
  5
89F5
  8
0
  6
HIDDEN
 62
     3
 10
206.50990740436021
 20
138.20296669613339
 30
0.0
 11
206.50990740436021
 21
142.75296669613371
 31
0.0
  0
LINE
  5
89F6
  8
0
  6
HIDDEN
 62
     3
 10
226.00990740436021
 20
142.75296669613371
 30
0.0
 11
226.50990740436021
 21
143.2529666961336
 31
0.0
  0
LINE
  5
89F7
  8
0
  6
HIDDEN
 62
     3
 10
226.50990740436021
 20
138.20296669613339
 30
0.0
 11
226.50990740436021
 21
144.8029666961333
 31
0.0
  0
LINE
  5
89F8
  8
0
  6
HIDDEN
 62
     3
 10
226.00990740436021
 20
138.20296669613339
 30
0.0
 11
226.00990740436021
 21
142.75296669613371
 31
0.0
  0
LINE
  5
89F9
  8
0
  6
CONTINUOUS
 10
248.49881454393841
 20
152.06546413667451
 30
0.0
 11
252.4933326829568
 21
151.85612031170271
 31
0.0
  0
ARC
  5
89FA
  8
0
  6
CONTINUOUS
 62
     7
 10
248.5092817351871
 20
152.26519004362549
 30
0.0
 40
0.2
 50
206.99999999999559
 51
267.00000000000091
  0
LINE
  5
89FB
  8
0
  6
CONTINUOUS
 62
     7
 10
248.33108043034909
 20
152.17439194367739
 30
0.0
 11
248.22623581545611
 21
152.38016108631251
 31
0.0
  0
ARC
  5
89FC
  8
0
  6
CONTINUOUS
 62
     7
 10
247.86983320578031
 20
152.19856488641679
 30
0.0
 40
0.4
 50
26.9999999999872
 51
87.000000000000924
1001
ACAD
1000
ASC_BOUNDS
1002
{
1070
    19
1005
0
1005
0
1002
}
  0
LINE
  5
89FD
  8
0
  6
CONTINUOUS
 62
     7
 10
259.66194073107653
 20
151.58056671794989
 30
0.0
 11
259.78771972846681
 21
151.77424938921541
 31
0.0
  0
ARC
  5
89FE
  8
0
  6
CONTINUOUS
 10
260.12318795564499
 20
151.5563937752097
 30
0.0
 40
0.4
 50
87.000000000066166
 51
146.99999999998749
  0
ARC
  5
89FF
  8
0
  6
CONTINUOUS
 62
     7
 10
259.49420661748729
 20
151.68949452495309
 30
0.0
 40
0.2
 50
267.00000000000091
 51
326.99999999998943
  0
LINE
  5
8A00
  8
0
  6
CONTINUOUS
 10
257.4864803567296
 20
151.59444053048799
 30
0.0
 11
259.48373942623869
 21
151.4897686180021
 31
0.0
  0
ARC
  5
8A01
  8
0
  6
CONTINUOUS
 62
     7
 10
256.8574990185711
 20
151.72754128023121
 30
0.0
 40
0.4
 50
26.9999999999872
 51
87.000000000000924
  0
LINE
  5
8A02
  8
0
  6
CONTINUOUS
 62
     7
 10
257.3187462431402
 20
151.7033683374909
 30
0.0
 11
257.21390162824662
 21
151.9091374801269
 31
0.0
  0
ARC
  5
8A03
  8
0
  6
CONTINUOUS
 62
     7
 10
257.49694754797821
 20
151.794166437439
 30
0.0
 40
0.2
 50
206.99999999999559
 51
267.00000000000091
  0
LINE
  5
8A04
  8
0
  6
CONTINUOUS
 62
     7
 10
253.1537155948607
 20
152.32219728281231
 30
0.0
 11
256.87843340106832
 21
152.12699309413301
 31
0.0
  0
ARC
  5
8A05
  8
0
  6
CONTINUOUS
 62
     7
 10
253.13278121236351
 20
151.92274546891051
 30
0.0
 40
0.4
 50
87.000000000000924
 51
146.99999999998749
  0
LINE
  5
8A06
  8
0
  6
CONTINUOUS
 62
     7
 10
252.67153398779431
 20
151.94691841165061
 30
0.0
 11
252.7973129851849
 21
152.14060108291659
 31
0.0
  0
ARC
  5
8A07
  8
0
  6
CONTINUOUS
 62
     7
 10
252.50379987420541
 20
152.0558462186537
 30
0.0
 40
0.2
 50
267.00000000000091
 51
326.99999999998943
  0
LINE
  5
8A0B
  8
0
  6
HIDDEN
 62
     3
 10
241.62234296965889
 20
146.9529666961333
 30
0.0
 11
269.50990740436021
 21
146.95296669613319
 31
0.0
1001
ACAD
1000
ASC_BOUNDS
1002
{
1070
    19
1005
0
1005
0
1005
0
1005
0
1005
0
1005
0
1005
0
1002
}
  0
LINE
  5
8A0C
  8
0
  6
HIDDEN
 62
     3
 10
233.5768947024691
 20
145.95296669613339
 30
0.0
 11
233.5768947024691
 21
138.20296669613339
 31
0.0
  0
LINE
  5
8A0D
  8
0
  6
HIDDEN
 62
     3
 10
231.50990740436109
 20
138.20296669613339
 30
0.0
 11
231.50990740436109
 21
145.45296669613339
 31
0.0
  0
LINE
  5
8A0F
  8
0
  6
HIDDEN
 62
     3
 10
241.62234296965889
 20
146.9529666961333
 30
0.0
 11
241.62234296965889
 21
146.55296669613341
 31
0.0
  0
LINE
  5
8A13
  8
0
  6
HIDDEN
 62
     3
 10
233.5768947024691
 20
145.95296669613339
 30
0.0
 11
234.00990740436021
 21
145.8369412923492
 31
0.0
  0
ARC
  5
8A14
  8
0
  6
HIDDEN
 62
     3
 10
232.00990740436109
 20
145.45296669613339
 30
0.0
 40
0.5
 50
90.0
 51
180.0
  0
LINE
  5
8A15
  8
0
  6
HIDDEN
 62
     3
 10
232.00990740436109
 20
145.95296669613339
 30
0.0
 11
233.5768947024691
 21
145.95296669613339
 31
0.0
  0
LINE
  5
8A18
  8
0
  6
HIDDEN
 62
     3
 10
226.50990740436109
 20
144.8029666961333
 30
0.0
 11
231.50990740436109
 21
144.8029666961333
 31
0.0
  0
LINE
  5
8A1F
  8
0
  6
HIDDEN
 62
     3
 10
269.50990740436112
 20
146.55296669613341
 30
0.0
 11
269.50990740436112
 21
146.95296669613319
 31
0.0
1001
ACAD
1000
ASC_BOUNDS
1002
{
1070
    19
1005
0
1002
}
  0
LINE
  5
8A22
  8
0
  6
HIDDEN
 62
     3
 10
231.50990740436109
 20
138.20296669613339
 30
0.0
 11
231.50990740436109
 21
145.20296669613339
 31
0.0
  0
LINE
  5
8A40
  8
0
  6
CONTINUOUS
 10
248.49881454393841
 20
124.34046925559279
 30
0.0
 11
252.4933326829568
 21
124.5498130805646
 31
0.0
  0
ARC
  5
8A41
  8
0
  6
CONTINUOUS
 62
     7
 10
248.5092817351871
 20
124.14074334864181
 30
0.0
 40
0.2
 50
92.999999999999076
 51
153.00000000000429
  0
LINE
  5
8A42
  8
0
  6
CONTINUOUS
 62
     7
 10
248.33108043034909
 20
124.23154144858989
 30
0.0
 11
248.22623581545611
 21
124.0257723059548
 31
0.0
  0
ARC
  5
8A43
  8
0
  6
CONTINUOUS
 62
     7
 10
247.86983320578031
 20
124.2073685058505
 30
0.0
 40
0.4
 50
272.99999999999909
 51
333.00000000001279
1001
ACAD
1000
ASC_BOUNDS
1002
{
1070
    19
1005
0
1005
0
1002
}
  0
LINE
  5
8A44
  8
0
  6
CONTINUOUS
 62
     7
 10
259.6619407310767
 20
124.8253666743171
 30
0.0
 11
259.78771972846693
 21
124.6316840030519
 31
0.0
  0
ARC
  5
8A45
  8
0
  6
CONTINUOUS
 10
260.12318795564499
 20
124.8495396170576
 30
0.0
 40
0.4
 50
213.00000000001251
 51
272.99999999993378
  0
ARC
  5
8A46
  8
0
  6
CONTINUOUS
 62
     7
 10
259.49420661748729
 20
124.7164388673142
 30
0.0
 40
0.2
 50
33.00000000001053
 51
92.999999999999076
  0
LINE
  5
8A47
  8
0
  6
CONTINUOUS
 10
257.4864803567296
 20
124.8114928617793
 30
0.0
 11
259.48373942623869
 21
124.9161647742652
 31
0.0
  0
ARC
  5
8A48
  8
0
  6
CONTINUOUS
 62
     7
 10
256.8574990185711
 20
124.67839211203609
 30
0.0
 40
0.4
 50
272.99999999999909
 51
333.00000000001279
  0
LINE
  5
8A49
  8
0
  6
CONTINUOUS
 62
     7
 10
257.3187462431402
 20
124.7025650547763
 30
0.0
 11
257.21390162824662
 21
124.4967959121403
 31
0.0
  0
ARC
  5
8A4A
  8
0
  6
CONTINUOUS
 62
     7
 10
257.49694754797821
 20
124.6117669548283
 30
0.0
 40
0.2
 50
92.999999999999076
 51
153.00000000000429
  0
LINE
  5
8A4B
  8
0
  6
CONTINUOUS
 62
     7
 10
253.1537155948607
 20
124.083736109455
 30
0.0
 11
256.87843340106832
 21
124.2789402981343
 31
0.0
  0
ARC
  5
8A4C
  8
0
  6
CONTINUOUS
 62
     7
 10
253.13278121236351
 20
124.48318792335679
 30
0.0
 40
0.4
 50
213.00000000001251
 51
272.99999999999909
  0
LINE
  5
8A4D
  8
0
  6
CONTINUOUS
 62
     7
 10
252.6715339877945
 20
124.4590149806164
 30
0.0
 11
252.79731298518479
 21
124.2653323093509
 31
0.0
  0
ARC
  5
8A4E
  8
0
  6
CONTINUOUS
 62
     7
 10
252.50379987420541
 20
124.3500871736136
 30
0.0
 40
0.2
 50
33.00000000001053
 51
92.999999999999076
  0
LINE
  5
8A7E
  8
0
  6
HIDDEN
 62
     3
 10
206.50990740436021
 20
142.75296669613371
 30
0.0
 11
206.19236475630589
 21
142.20296669613359
 31
0.0
  0
LINE
  5
9F3C
  8
0
  6
HIDDEN
 62
     3
 10
206.19236475630589
 20
142.20296669613359
 30
0.0
 11
206.19236475630589
 21
138.20296669613339
 31
0.0
  0
LINE
  5
9F55
  8
0
  6
CONTINUOUS
 10
183.96695170472151
 20
119.54583970262711
 30
0.0
 11
180.88224253617639
 21
114.2029666961335
 31
0.0
  0
ARC
  5
9F64
  8
0
  6
CONTINUOUS
 10
179.1501917286075
 20
115.2029666961335
 30
0.0
 40
2.0
 50
270.0
 51
329.99999999999909
  0
ARC
  5
9F65
  8
0
  6
CONTINUOUS
 10
185.69900251229029
 20
118.54583970262711
 30
0.0
 40
2.0
 50
92.999999999999076
 51
149.99999999999901
  0
ARC
  5
9F90
  8
0
  6
CONTINUOUS
 10
185.69900251229029
 20
157.8600936896398
 30
0.0
 40
2.0
 50
210.00000000000091
 51
267.00000000000091
  0
LINE
  5
9F91
  8
0
  6
CONTINUOUS
 10
183.96695170472151
 20
156.8600936896398
 30
0.0
 11
180.88224253617639
 21
162.20296669613339
 31
0.0
  0
ARC
  5
9F92
  8
0
  6
CONTINUOUS
 10
179.1501917286075
 20
161.20296669613339
 30
0.0
 40
2.0
 50
30.000000000000941
 51
90.0
  0
DIMENSION
  5
A5DA
  8
0
  6
CONTINUOUS
  2
*D11
 10
85.962170589208426
 20
106.7029666961334
 30
0.0
 11
83.862170589208404
 21
138.2029666961335
 31
0.0
 70
     0
 13
130.00990740436291
 23
169.70296669613339
 33
0.0
 14
130.00990740436291
 24
106.7029666961334
 34
0.0
 50
90.0
1001
ACAD
1000
DSTYLE
1002
{
1070
   287
1070
     2
1070
     3
1000
HSK<>A
1070
    42
1040
0.6
1070
    43
1040
1.0
1070
    44
1040
1.0
1070
    47
1040
0.1
1070
    48
1040
0.1
1070
   141
1040
-0.5
1070
   146
1040
0.7
1070
   147
1040
0.6
1070
   271
1070
     8
1070
   272
1070
     8
1070
   275
1070
     1
1070
   283
1070
     0
1070
   284
1070
     8
1070
   289
1070
     2
1002
}
  0
DIMENSION
  5
A629
  8
0
  6
CONTINUOUS
  2
*D12
 10
286.75971448437798
 20
144.55296669613341
 30
0.0
 11
286.75971448437792
 21
138.20296669613339
 31
0.0
 70
   128
 13
273.00990740436009
 23
131.85296669613339
 33
0.0
 14
273.00990740436009
 24
144.55296669613341
 34
0.0
 50
90.0
1001
ACAD
1000
DSTYLE
1002
{
1070
   287
1070
     2
1070
     3
1000
%%c<>
1070
    72
1070
     0
1070
    71
1070
     0
1070
    42
1040
0.6
1070
    43
1040
1.0
1070
    44
1040
1.0
1070
    47
1040
-0.02
1070
    48
1040
0.03
1070
    73
1070
     0
1070
   140
1040
3.0
1070
   141
1040
-0.2
1070
   144
1040
1.0
1070
   146
1040
0.7
1070
   147
1040
0.6
1070
   178
1070
     3
1070
   271
1070
     5
1070
   272
1070
     5
1070
   275
1070
     1
1070
   283
1070
     0
1070
   284
1070
     8
1070
   289
1070
     2
1002
}
  0
LINE
  5
A643
  8
0
  6
CONTINUOUS
 62
     7
 10
274.50990740436021
 20
149.95296669613339
 30
0.0
 11
274.50990740436021
 21
138.20296669613339
 31
0.0
1001
ACAD
1000
ASC_BOUNDS
1002
{
1070
    19
1005
0
1005
0
1005
0
1005
0
1002
}
  0
LINE
  5
A646
  8
0
  6
HIDDEN
 62
     3
 10
268.50990740436021
 20
145.55296669613341
 30
0.0
 11
261.9099074043603
 21
145.55296669613341
 31
0.0
  0
LINE
  5
A647
  8
0
  6
HIDDEN
 62
     3
 10
237.62537745819799
 20
144.55296669613341
 30
0.0
 11
273.00990740436009
 21
144.55296669613341
 31
0.0
1001
ACAD
1000
ASC_BOUNDS
1002
{
1070
    19
1005
0
1005
0
1005
0
1005
0
1002
}
  0
LINE
  5
A648
  8
0
  6
HIDDEN
 62
     3
 10
242.62234296965889
 20
145.55296669613341
 30
0.0
 11
248.70990740436
 21
145.55296669613341
 31
0.0
1001
ACAD
1000
ASC_BOUNDS
1002
{
1070
    19
1005
0
1005
0
1005
0
1005
0
1002
}
  0
LINE
  5
A64C
  8
0
  6
HIDDEN
 62
     3
 10
234.00990740436021
 20
145.8369412923492
 30
0.0
 11
234.00990740436021
 21
138.20296669613339
 31
0.0
  0
LINE
  5
A64D
  8
0
  6
HIDDEN
 62
     3
 10
234.3099074043601
 20
144.7529666961334
 30
0.0
 11
234.3099074043603
 21
138.20296669613339
 31
0.0
  0
LINE
  5
A64E
  8
0
  6
HIDDEN
 62
     3
 10
237.50990740436021
 20
144.7529666961334
 30
0.0
 11
237.50990740436021
 21
138.20296669613339
 31
0.0
  0
LINE
  5
A64F
  8
0
  6
HIDDEN
 62
     3
 10
237.62537745819799
 20
144.55296669613341
 30
0.0
 11
237.62537745819799
 21
138.20296669613339
 31
0.0
1001
ACAD
1000
ASC_BOUNDS
1002
{
1070
    19
1002
}
  0
LINE
  5
A651
  8
0
  6
HIDDEN
 62
     3
 10
234.3099074043601
 20
144.7529666961334
 30
0.0
 11
237.50990740436021
 21
144.7529666961334
 31
0.0
  0
LINE
  5
A652
  8
0
  6
HIDDEN
 62
     3
 10
249.60990740436
 20
146.45296669613339
 30
0.0
 11
261.00990740436009
 21
146.45296669613339
 31
0.0
1001
ACAD
1000
ASC_BOUNDS
1002
{
1070
    19
1005
0
1002
}
  0
LINE
  5
A657
  8
0
  6
HIDDEN
 62
     3
 10
261.00990740436009
 20
146.45296669613339
 30
0.0
 11
261.9099074043603
 21
145.55296669613341
 31
0.0
  0
ARC
  5
A659
  8
0
  6
HIDDEN
 62
     3
 10
273.00990740436009
 20
146.05296669613341
 30
0.0
 40
1.5
 50
270.0
 51
0.0
1001
ACAD
1000
ASC_BOUNDS
1002
{
1070
    19
1005
0
1005
0
1005
0
1005
0
1002
}
  0
LINE
  5
A65F
  8
0
  6
HIDDEN
 62
     3
 10
249.60990740436
 20
146.45296669613339
 30
0.0
 11
248.70990740436
 21
145.55296669613341
 31
0.0
  0
LINE
  5
A660
  8
0
  6
HIDDEN
 62
     3
 10
237.50990740436021
 20
144.7529666961334
 30
0.0
 11
237.62537745819799
 21
144.55296669613341
 31
0.0
  0
LINE
  5
A661
  8
0
  6
HIDDEN
 62
     3
 10
234.3099074043601
 20
144.7529666961334
 30
0.0
 11
234.00990740436021
 21
144.92617177689019
 31
0.0
  0
ARC
  5
A8B0
  8
0
  6
HIDDEN
 62
     3
 10
268.50990740436021
 20
146.55296669613341
 30
0.0
 40
1.0
 50
270.0
 51
0.0
  0
ARC
  5
A8B1
  8
0
  6
HIDDEN
 62
     3
 10
242.62234296965889
 20
146.55296669613341
 30
0.0
 40
1.0
 50
180.0
 51
270.0
  0
LINE
  5
A8BD
  8
0
  6
CONTINUOUS
 10
248.38350273779579
 20
124.2962413994824
 30
0.0
 11
248.38350273779579
 21
138.20296669613339
 31
0.0
  0
LINE
  5
A8BE
  8
0
  6
CONTINUOUS
 10
248.12139120056241
 20
123.8963724041687
 30
0.0
 11
248.1213912005625
 21
138.2029666961335
 31
0.0
  0
LINE
  5
A8BF
  8
0
  6
CONTINUOUS
 10
252.60864448909911
 20
124.52040336993031
 30
0.0
 11
252.60864448909911
 21
138.20296669613339
 31
0.0
  0
LINE
  5
A8C0
  8
0
  6
CONTINUOUS
 10
252.92309198257539
 20
124.1425555307238
 30
0.0
 11
252.92309198257539
 21
138.20296669613339
 31
0.0
  0
LINE
  5
A8C1
  8
0
  6
CONTINUOUS
 10
257.10905701335309
 20
124.3673960103544
 30
0.0
 11
257.10905701335321
 21
138.20296669613339
 31
0.0
  0
LINE
  5
A8C2
  8
0
  6
CONTINUOUS
 10
257.37116855058702
 20
124.7672650056689
 30
0.0
 11
257.37116855058702
 21
138.20296669613339
 31
0.0
  0
LINE
  5
A8C3
  8
0
  6
CONTINUOUS
 10
259.59905123238121
 20
124.8867550636308
 30
0.0
 11
259.59905123238121
 21
138.20296669613339
 31
0.0
  0
LINE
  5
A8C4
  8
0
  6
CONTINUOUS
 10
259.91349872585772
 20
124.50890722442399
 30
0.0
 11
259.91349872585772
 21
138.2029666961335
 31
0.0
  0
LINE
  5
A8C5
  8
0
  6
HIDDEN
 62
     3
 10
213.50990740436029
 20
142.70296669613359
 30
0.0
 11
213.50990740436029
 21
138.20296669613359
 31
0.0
  0
LINE
  5
A8C6
  8
0
  6
HIDDEN
 62
     3
 10
228.50990740436029
 20
142.95296669613359
 30
0.0
 11
228.50990740436029
 21
138.20296669613359
 31
0.0
  0
LINE
  5
A8C7
  8
0
  6
HIDDEN
 62
     3
 10
214.00990740436029
 20
143.20296669613359
 30
0.0
 11
224.50990740436021
 21
143.20296669613359
 31
0.0
  0
LINE
  5
A8C8
  8
0
  6
HIDDEN
 62
     3
 10
225.00990740436021
 20
142.70296669613359
 30
0.0
 11
225.00990740436029
 21
138.20296669613359
 31
0.0
  0
LINE
  5
A8C9
  8
0
  6
HIDDEN
 62
     3
 10
213.50990740436029
 20
142.70296669613359
 30
0.0
 11
225.00990740436021
 21
142.70296669613359
 31
0.0
  0
LINE
  5
A8CA
  8
0
  6
HIDDEN
 62
     3
 10
213.50990740436029
 20
142.70296669613359
 30
0.0
 11
214.00990740436029
 21
143.20296669613359
 31
0.0
  0
LINE
  5
A8CB
  8
0
  6
HIDDEN
 62
     3
 10
224.50990740436021
 20
143.20296669613359
 30
0.0
 11
225.00990740436021
 21
142.70296669613359
 31
0.0
  0
LINE
  5
A8CC
  8
0
  6
HIDDEN
 62
     3
 10
226.50990740436029
 20
143.20296669613359
 30
0.0
 11
228.25990740436029
 21
143.20296669613359
 31
0.0
  0
LINE
  5
A8CD
  8
0
  6
HIDDEN
 62
     3
 10
225.00990740436021
 20
142.45296669613359
 30
0.0
 11
226.50990740436029
 21
142.45296669613359
 31
0.0
  0
LINE
  5
A8CE
  8
0
  6
HIDDEN
 62
     3
 10
214.00990740436029
 20
143.20296669613359
 30
0.0
 11
214.00990740436029
 21
138.20296669613359
 31
0.0
  0
LINE
  5
A8CF
  8
0
  6
HIDDEN
 62
     3
 10
224.50990740436021
 20
143.20296669613359
 30
0.0
 11
224.50990740436021
 21
138.20296669613359
 31
0.0
  0
LINE
  5
A8D0
  8
0
  6
HIDDEN
 62
     3
 10
228.25990740436029
 20
143.20296669613359
 30
0.0
 11
228.50990740436029
 21
142.95296669613359
 31
0.0
  0
LINE
  5
A8D1
  8
0
  6
HIDDEN
 62
     3
 10
228.25990740436029
 20
138.20296669613359
 30
0.0
 11
228.25990740436029
 21
143.20296669613359
 31
0.0
  0
LINE
  5
A8D2
  8
0
  6
HIDDEN
 62
     3
 10
226.50990740436029
 20
143.20296669613359
 30
0.0
 11
226.50990740436021
 21
138.20296669613359
 31
0.0
  0
LINE
  5
A8D3
  8
0
  6
CONTINUOUS
 10
98.509907404362821
 20
144.4729666961334
 30
0.0
 11
102.00990740436281
 21
144.4729666961334
 31
0.0
  0
LINE
  5
A8D4
  8
0
  6
CONTINUOUS
 10
103.50990740436281
 20
148.15162053208641
 30
0.0
 11
103.50990740436281
 21
138.20296669613339
 31
0.0
  0
ARC
  5
A8D5
  8
0
  6
CONTINUOUS
 10
102.00990740436281
 20
142.97296669613351
 30
0.0
 40
1.5
 50
0.0
 51
90.0
  0
LINE
  5
A8D6
  8
0
  6
HIDDEN
 62
     3
 10
98.509907404362821
 20
121.2029666961334
 30
0.0
 11
110.51388200057841
 21
121.2029666961334
 31
0.0
  0
LINE
  5
A8D7
  8
0
  6
HIDDEN
 62
     3
 10
98.509907404362821
 20
131.93296669613341
 30
0.0
 11
98.509907404362821
 21
121.2029666961334
 31
0.0
  0
LINE
  5
A8D8
  8
0
  6
HIDDEN
 62
     3
 10
98.509907404362821
 20
121.2029666961334
 30
0.0
 11
97.509907404362821
 21
120.62561642694379
 31
0.0
  0
LINE
  5
A8D9
  8
0
  6
CONTINUOUS
 10
98.509907404362821
 20
144.4729666961334
 30
0.0
 11
98.509907404362821
 21
147.90112621267369
 31
0.0
  0
LINE
  5
A8DA
  8
0
  6
CONTINUOUS
 10
98.509907404362821
 20
147.90112621267369
 30
0.0
 11
103.50990740436281
 21
148.15162053208641
 31
0.0
  0
LINE
  5
A8DB
  8
0
  6
CONTINUOUS
 10
97.509907404362821
 20
148.90112621267369
 30
0.0
 11
98.509907404362821
 21
147.90112621267369
 31
0.0
  0
LINE
  5
A8DC
  8
0
  6
HIDDEN
 62
     3
 10
110.51388200057841
 20
121.2029666961334
 30
0.0
 11
112.0727277273903
 21
118.5029666961334
 31
0.0
  0
LINE
  5
A8DD
  8
0
  6
HIDDEN
 62
     3
 10
112.592342969661
 20
118.2029666961334
 30
0.0
 11
123.2649094059644
 21
118.2029666961334
 31
0.0
  0
LINE
  5
A8DE
  8
0
  6
HIDDEN
 62
     3
 10
110.51388200057841
 20
121.2029666961334
 30
0.0
 11
110.51388200057841
 21
138.20296669613339
 31
0.0
  0
LINE
  5
A8DF
  8
0
  6
HIDDEN
 62
     3
 10
112.2459328081473
 20
118.31306874757681
 30
0.0
 11
112.2459328081473
 21
138.20296669613339
 31
0.0
  0
ARC
  5
A8E0
  8
0
  6
HIDDEN
 62
     3
 10
112.592342969661
 20
118.8029666961334
 30
0.0
 40
0.6
 50
210.00000000000281
 51
270.0
  0
LINE
  5
A8E1
  8
0
  6
HIDDEN
 62
     3
 10
129.50990740436291
 20
121.2029666961334
 30
0.0
 11
137.180751206774
 21
121.2029666961334
 31
0.0
  0
ARC
  5
A8E2
  8
0
  6
HIDDEN
 62
     3
 10
123.2649094059644
 20
126.2029666961334
 30
0.0
 40
8.0
 50
270.0
 51
321.3178125465115
  0
LINE
  5
A8E3
  8
0
  6
HIDDEN
 62
     3
 10
139.50990740436279
 20
122.4529666961334
 30
0.0
 11
139.50990740436279
 21
138.20296669613339
 31
0.0
  0
LINE
  5
A8E4
  8
0
  6
HIDDEN
 62
     3
 10
129.50990740436291
 20
121.2029666961334
 30
0.0
 11
129.50990740436291
 21
145.20296669613359
 31
0.0
  0
ARC
  5
A8E5
  8
0
  6
HIDDEN
 62
     3
 10
138.00990740436279
 20
122.4529666961334
 30
0.0
 40
1.5
 50
236.4426902380809
 51
0.0
  0
LINE
  5
A8E6
  8
0
  6
HIDDEN
 62
     3
 10
137.18075120677389
 20
121.2029666961334
 30
0.0
 11
137.18075120677389
 21
138.20296669613339
 31
0.0
  0
LINE
  5
A8E7
  8
0
  6
HIDDEN
 62
     3
 10
140.00990740436291
 20
129.70296669613339
 30
0.0
 11
146.50990740436291
 21
129.70296669613339
 31
0.0
  0
LINE
  5
A8E8
  8
0
  6
HIDDEN
 62
     3
 10
139.50990740436291
 20
129.20296669613339
 30
0.0
 11
146.50990740436291
 21
129.20296669613339
 31
0.0
  0
LINE
  5
A8E9
  8
0
  6
HIDDEN
 62
     3
 10
140.00990740436291
 20
129.70296669613339
 30
0.0
 11
140.00990740436291
 21
138.20296669613339
 31
0.0
  0
LINE
  5
A8EA
  8
0
  6
HIDDEN
 62
     3
 10
140.00990740436291
 20
129.70296669613339
 30
0.0
 11
139.50990740436291
 21
129.20296669613339
 31
0.0
  0
LINE
  5
A8EB
  8
0
  6
HIDDEN
 62
     3
 10
151.50990740436291
 20
128.70296669613339
 30
0.0
 11
151.50990740436291
 21
138.20296669613339
 31
0.0
  0
LINE
  5
A8EC
  8
0
  6
HIDDEN
 62
     3
 10
146.50990740436291
 20
128.70296669613339
 30
0.0
 11
146.50990740436291
 21
138.20296669613339
 31
0.0
  0
LINE
  5
A8ED
  8
0
  6
HIDDEN
 62
     3
 10
146.50990740436291
 20
128.70296669613339
 30
0.0
 11
151.50990740436291
 21
128.70296669613339
 31
0.0
  0
LINE
  5
A8EE
  8
0
  6
HIDDEN
 62
     3
 10
151.50990740436291
 20
133.70296669613339
 30
0.0
 11
152.00990740436291
 21
134.20296669613339
 31
0.0
  0
LINE
  5
A8EF
  8
0
  6
HIDDEN
 62
     3
 10
152.00990740436291
 20
134.20296669613339
 30
0.0
 11
152.00990740436291
 21
138.20296669613339
 31
0.0
  0
LINE
  5
A8F0
  8
0
  6
CONTINUOUS
 10
142.50990740436279
 20
146.20296669613339
 30
0.0
 11
155.50990740436279
 21
146.20296669613339
 31
0.0
  0
LINE
  5
A8F1
  8
0
  6
CONTINUOUS
 10
150.88740647912221
 20
169.7029666961335
 30
0.0
 11
150.88740647912221
 21
146.20296669613339
 31
0.0
  0
LINE
  5
A8F2
  8
0
  6
CONTINUOUS
 10
144.13240832960361
 20
169.7029666961335
 30
0.0
 11
144.13240832960361
 21
146.20296669613339
 31
0.0
  0
LINE
  5
A8F3
  8
0
  6
CONTINUOUS
 10
184.50990740435989
 20
156.25197279110759
 30
0.0
 11
184.50990740435981
 21
138.20296669613339
 31
0.0
  0
LINE
  5
A8F4
  8
0
  6
CONTINUOUS
 10
180.3048922669868
 20
162.8359598579888
 30
0.0
 11
180.3048922669868
 21
138.20296669613339
 31
0.0
  0
LINE
  5
A8F5
  8
0
  6
HIDDEN
 62
     3
 10
152.00990740436291
 20
134.20296669613339
 30
0.0
 11
206.19236475630589
 21
134.20296669613319
 31
0.0
1001
ACAD
1000
ASC_BOUNDS
1002
{
1070
    19
1002
}
  0
LINE
  5
A8F6
  8
0
  6
HIDDEN
 62
     3
 10
206.50990740436021
 20
133.65296669613321
 30
0.0
 11
226.00990740436021
 21
133.65296669613321
 31
0.0
  0
LINE
  5
A8F7
  8
0
  6
HIDDEN
 62
     3
 10
213.50990740436029
 20
133.7029666961333
 30
0.0
 11
213.50990740436029
 21
138.2029666961333
 31
0.0
  0
LINE
  5
A8F8
  8
0
  6
HIDDEN
 62
     3
 10
228.50990740436029
 20
133.45296669613319
 30
0.0
 11
228.50990740436029
 21
138.2029666961333
 31
0.0
  0
LINE
  5
A8F9
  8
0
  6
HIDDEN
 62
     3
 10
214.00990740436029
 20
133.20296669613319
 30
0.0
 11
224.50990740436021
 21
133.20296669613319
 31
0.0
  0
LINE
  5
A8FA
  8
0
  6
HIDDEN
 62
     3
 10
225.00990740436021
 20
133.7029666961333
 30
0.0
 11
225.00990740436029
 21
138.2029666961333
 31
0.0
  0
LINE
  5
A8FB
  8
0
  6
HIDDEN
 62
     3
 10
213.50990740436029
 20
133.7029666961333
 30
0.0
 11
225.00990740436021
 21
133.7029666961333
 31
0.0
  0
LINE
  5
A8FC
  8
0
  6
HIDDEN
 62
     3
 10
213.50990740436029
 20
133.7029666961333
 30
0.0
 11
214.00990740436029
 21
133.20296669613319
 31
0.0
  0
LINE
  5
A8FD
  8
0
  6
HIDDEN
 62
     3
 10
224.50990740436021
 20
133.20296669613319
 30
0.0
 11
225.00990740436021
 21
133.7029666961333
 31
0.0
  0
LINE
  5
A8FE
  8
0
  6
HIDDEN
 62
     3
 10
226.50990740436029
 20
133.20296669613319
 30
0.0
 11
228.25990740436029
 21
133.20296669613319
 31
0.0
  0
LINE
  5
A8FF
  8
0
  6
HIDDEN
 62
     3
 10
225.00990740436021
 20
133.9529666961333
 30
0.0
 11
226.50990740436029
 21
133.9529666961333
 31
0.0
  0
LINE
  5
A900
  8
0
  6
HIDDEN
 62
     3
 10
214.00990740436029
 20
133.20296669613319
 30
0.0
 11
214.00990740436029
 21
138.2029666961333
 31
0.0
  0
LINE
  5
A901
  8
0
  6
HIDDEN
 62
     3
 10
224.50990740436021
 20
133.20296669613319
 30
0.0
 11
224.50990740436021
 21
138.2029666961333
 31
0.0
  0
LINE
  5
A902
  8
0
  6
HIDDEN
 62
     3
 10
228.25990740436029
 20
133.20296669613319
 30
0.0
 11
228.50990740436029
 21
133.45296669613319
 31
0.0
  0
LINE
  5
A903
  8
0
  6
HIDDEN
 62
     3
 10
228.25990740436029
 20
138.2029666961333
 30
0.0
 11
228.25990740436029
 21
133.20296669613319
 31
0.0
  0
LINE
  5
A904
  8
0
  6
HIDDEN
 62
     3
 10
226.50990740436029
 20
133.20296669613319
 30
0.0
 11
226.50990740436021
 21
138.2029666961333
 31
0.0
  0
LINE
  5
A905
  8
0
  6
HIDDEN
 62
     3
 10
211.50990740436021
 20
133.20296669613339
 30
0.0
 11
226.45990740436
 21
133.20296669613339
 31
0.0
1001
ACAD
1000
ASC_BOUNDS
1002
{
1070
    19
1005
0
1005
0
1005
0
1002
}
  0
LINE
  5
A906
  8
0
  6
HIDDEN
 62
     3
 10
211.50990740436021
 20
133.20296669613339
 30
0.0
 11
210.81708708133289
 21
133.60296669613351
 31
0.0
  0
LINE
  5
A907
  8
0
  6
HIDDEN
 62
     3
 10
211.50990740436021
 20
138.20296669613339
 30
0.0
 11
211.50990740436021
 21
133.20296669613339
 31
0.0
  0
LINE
  5
A908
  8
0
  6
HIDDEN
 62
     3
 10
226.00990740436021
 20
133.65296669613321
 30
0.0
 11
226.50990740436021
 21
133.15296669613321
 31
0.0
  0
LINE
  5
A909
  8
0
  6
HIDDEN
 62
     3
 10
226.50990740436021
 20
138.20296669613339
 30
0.0
 11
226.50990740436021
 21
131.90296669613369
 31
0.0
  0
LINE
  5
A90A
  8
0
  6
HIDDEN
 62
     3
 10
226.00990740436021
 20
138.20296669613339
 30
0.0
 11
226.00990740436021
 21
133.65296669613321
 31
0.0
  0
LINE
  5
A90B
  8
0
  6
HIDDEN
 62
     3
 10
211.50990740436021
 20
133.20296669613339
 30
0.0
 11
226.45990740436
 21
133.20296669613339
 31
0.0
1001
ACAD
1000
ASC_BOUNDS
1002
{
1070
    19
1005
0
1005
0
1005
0
1002
}
  0
LINE
  5
A90C
  8
0
  6
HIDDEN
 62
     3
 10
211.50990740436021
 20
133.20296669613339
 30
0.0
 11
210.7304845409551
 21
133.65296669613321
 31
0.0
  0
LINE
  5
A90D
  8
0
  6
HIDDEN
 62
     3
 10
211.50990740436021
 20
138.20296669613339
 30
0.0
 11
211.50990740436021
 21
133.20296669613339
 31
0.0
  0
LINE
  5
A90E
  8
0
  6
HIDDEN
 62
     3
 10
206.50990740436021
 20
138.20296669613339
 30
0.0
 11
206.50990740436021
 21
133.65296669613321
 31
0.0
  0
LINE
  5
A90F
  8
0
  6
HIDDEN
 62
     3
 10
226.00990740436021
 20
133.65296669613321
 30
0.0
 11
226.50990740436021
 21
133.15296669613321
 31
0.0
  0
LINE
  5
A910
  8
0
  6
HIDDEN
 62
     3
 10
226.50990740436021
 20
138.20296669613339
 30
0.0
 11
226.50990740436021
 21
131.60296669613359
 31
0.0
  0
LINE
  5
A911
  8
0
  6
HIDDEN
 62
     3
 10
226.00990740436021
 20
138.20296669613339
 30
0.0
 11
226.00990740436021
 21
133.65296669613321
 31
0.0
  0
LINE
  5
A912
  8
0
  6
HIDDEN
 62
     3
 10
241.62234296965889
 20
129.4529666961335
 30
0.0
 11
269.50990740436021
 21
129.45296669613359
 31
0.0
1001
ACAD
1000
ASC_BOUNDS
1002
{
1070
    19
1005
0
1005
0
1005
0
1005
0
1005
0
1005
0
1005
0
1002
}
  0
LINE
  5
A913
  8
0
  6
HIDDEN
 62
     3
 10
233.5768947024691
 20
130.45296669613339
 30
0.0
 11
233.5768947024691
 21
138.20296669613339
 31
0.0
  0
LINE
  5
A914
  8
0
  6
HIDDEN
 62
     3
 10
231.50990740436109
 20
138.20296669613339
 30
0.0
 11
231.50990740436109
 21
130.95296669613339
 31
0.0
  0
LINE
  5
A915
  8
0
  6
HIDDEN
 62
     3
 10
241.62234296965889
 20
129.4529666961335
 30
0.0
 11
241.62234296965889
 21
129.85296669613351
 31
0.0
  0
ARC
  5
A916
  8
0
  6
HIDDEN
 62
     3
 10
242.62234296965889
 20
129.85296669613351
 30
0.0
 40
1.0
 50
90.0
 51
180.0
  0
LINE
  5
A917
  8
0
  6
HIDDEN
 62
     3
 10
233.5768947024691
 20
130.45296669613339
 30
0.0
 11
234.00990740436021
 21
130.56899209991761
 31
0.0
  0
ARC
  5
A918
  8
0
  6
HIDDEN
 62
     3
 10
232.00990740436109
 20
130.95296669613339
 30
0.0
 40
0.5
 50
180.0
 51
270.0
  0
LINE
  5
A919
  8
0
  6
HIDDEN
 62
     3
 10
232.00990740436109
 20
130.45296669613339
 30
0.0
 11
233.5768947024691
 21
130.45296669613339
 31
0.0
  0
LINE
  5
A91A
  8
0
  6
HIDDEN
 62
     3
 10
226.50990740436109
 20
131.60296669613359
 30
0.0
 11
231.50990740436109
 21
131.60296669613359
 31
0.0
  0
LINE
  5
A91B
  8
0
  6
HIDDEN
 62
     3
 10
269.50990740436112
 20
129.85296669613351
 30
0.0
 11
269.50990740436112
 21
129.45296669613359
 31
0.0
1001
ACAD
1000
ASC_BOUNDS
1002
{
1070
    19
1005
0
1002
}
  0
LINE
  5
A91C
  8
0
  6
HIDDEN
 62
     3
 10
231.50990740436109
 20
138.20296669613339
 30
0.0
 11
231.50990740436109
 21
131.20296669613339
 31
0.0
  0
LINE
  5
A91D
  8
0
  6
HIDDEN
 62
     3
 10
206.50990740436021
 20
133.65296669613321
 30
0.0
 11
206.19236475630589
 21
134.20296669613319
 31
0.0
  0
LINE
  5
A91E
  8
0
  6
HIDDEN
 62
     3
 10
206.19236475630589
 20
134.20296669613319
 30
0.0
 11
206.19236475630589
 21
138.20296669613339
 31
0.0
  0
ARC
  5
A91F
  8
0
  6
HIDDEN
 62
     3
 10
268.50990740436021
 20
129.85296669613351
 30
0.0
 40
1.0
 50
0.0
 51
90.0
  0
LINE
  5
A920
  8
0
  6
HIDDEN
 62
     3
 10
268.50990740436021
 20
130.85296669613351
 30
0.0
 11
261.9099074043603
 21
130.85296669613351
 31
0.0
  0
LINE
  5
A921
  8
0
  6
HIDDEN
 62
     3
 10
237.62537745819799
 20
131.85296669613351
 30
0.0
 11
273.00990740436009
 21
131.85296669613339
 31
0.0
1001
ACAD
1000
ASC_BOUNDS
1002
{
1070
    19
1005
0
1005
0
1005
0
1005
0
1002
}
  0
LINE
  5
A922
  8
0
  6
HIDDEN
 62
     3
 10
242.62234296965889
 20
130.85296669613351
 30
0.0
 11
248.70990740436
 21
130.85296669613351
 31
0.0
1001
ACAD
1000
ASC_BOUNDS
1002
{
1070
    19
1005
0
1005
0
1005
0
1005
0
1002
}
  0
LINE
  5
A923
  8
0
  6
HIDDEN
 62
     3
 10
234.00990740436021
 20
130.56899209991761
 30
0.0
 11
234.00990740436021
 21
138.2029666961335
 31
0.0
  0
LINE
  5
A924
  8
0
  6
HIDDEN
 62
     3
 10
234.3099074043601
 20
131.65296669613349
 30
0.0
 11
234.3099074043603
 21
138.2029666961335
 31
0.0
  0
LINE
  5
A925
  8
0
  6
HIDDEN
 62
     3
 10
237.50990740436021
 20
131.65296669613349
 30
0.0
 11
237.50990740436021
 21
138.2029666961335
 31
0.0
  0
LINE
  5
A926
  8
0
  6
HIDDEN
 62
     3
 10
237.62537745819799
 20
131.85296669613351
 30
0.0
 11
237.62537745819799
 21
138.20296669613339
 31
0.0
1001
ACAD
1000
ASC_BOUNDS
1002
{
1070
    19
1002
}
  0
LINE
  5
A927
  8
0
  6
HIDDEN
 62
     3
 10
234.3099074043601
 20
131.65296669613349
 30
0.0
 11
237.50990740436021
 21
131.65296669613349
 31
0.0
  0
LINE
  5
A928
  8
0
  6
HIDDEN
 62
     3
 10
249.60990740436
 20
129.95296669613339
 30
0.0
 11
261.00990740436009
 21
129.9529666961335
 31
0.0
1001
ACAD
1000
ASC_BOUNDS
1002
{
1070
    19
1005
0
1002
}
  0
LINE
  5
A929
  8
0
  6
HIDDEN
 62
     3
 10
261.00990740436009
 20
129.9529666961335
 30
0.0
 11
261.9099074043603
 21
130.85296669613351
 31
0.0
  0
ARC
  5
A92A
  8
0
  6
HIDDEN
 62
     3
 10
273.00990740436009
 20
130.35296669613339
 30
0.0
 40
1.5
 50
0.0
 51
90.0
1001
ACAD
1000
ASC_BOUNDS
1002
{
1070
    19
1005
0
1005
0
1005
0
1005
0
1002
}
  0
LINE
  5
A92B
  8
0
  6
HIDDEN
 62
     3
 10
249.60990740436
 20
129.95296669613339
 30
0.0
 11
248.70990740436
 21
130.85296669613351
 31
0.0
  0
LINE
  5
A92C
  8
0
  6
HIDDEN
 62
     3
 10
237.50990740436021
 20
131.65296669613349
 30
0.0
 11
237.62537745819799
 21
131.85296669613351
 31
0.0
  0
LINE
  5
A92D
  8
0
  6
HIDDEN
 62
     3
 10
234.3099074043601
 20
131.65296669613349
 30
0.0
 11
234.00990740436021
 21
131.47976161537659
 31
0.0
  0
LINE
  5
A92E
  8
0
  6
CONTINUOUS
 10
248.38350273779579
 20
152.10969199278449
 30
0.0
 11
248.38350273779579
 21
138.20296669613339
 31
0.0
  0
LINE
  5
A92F
  8
0
  6
CONTINUOUS
 10
248.12139120056241
 20
152.50956098809809
 30
0.0
 11
248.1213912005625
 21
138.20296669613339
 31
0.0
  0
LINE
  5
A930
  8
0
  6
CONTINUOUS
 10
252.60864448909911
 20
151.88553002233661
 30
0.0
 11
252.60864448909911
 21
138.20296669613339
 31
0.0
  0
LINE
  5
A931
  8
0
  6
CONTINUOUS
 10
252.92309198257539
 20
152.26337786154301
 30
0.0
 11
252.92309198257539
 21
138.20296669613339
 31
0.0
  0
LINE
  5
A932
  8
0
  6
CONTINUOUS
 10
257.10905701335309
 20
152.0385373819125
 30
0.0
 11
257.10905701335321
 21
138.20296669613339
 31
0.0
  0
LINE
  5
A933
  8
0
  6
CONTINUOUS
 10
257.37116855058702
 20
151.63866838659791
 30
0.0
 11
257.37116855058702
 21
138.20296669613339
 31
0.0
  0
LINE
  5
A934
  8
0
  6
CONTINUOUS
 10
259.59905123238121
 20
151.519178328636
 30
0.0
 11
259.59905123238121
 21
138.20296669613339
 31
0.0
  0
LINE
  5
A935
  8
0
  6
CONTINUOUS
 10
259.91349872585772
 20
151.8970261678428
 30
0.0
 11
259.91349872585772
 21
138.20296669613339
 31
0.0
  0
ARC
  5
A936
  8
0
  6
HIDDEN
 62
     3
 10
106.00990740436281
 20
142.9729666961334
 30
0.0
 40
1.5
 50
0.0
 51
90.0
  0
LINE
  5
A937
  8
0
  6
HIDDEN
 62
     3
 10
102.00990740436281
 20
144.4729666961334
 30
0.0
 11
106.00990740436281
 21
144.4729666961334
 31
0.0
  0
TEXT
  5
A938
  8
0
  6
CONTINUOUS
 62
     3
 10
113.00070706221651
 20
14.87425280825493
 30
0.0
 40
4.0
  1
SHOT BLAST
  0
TEXT
  5
A93A
  8
0
  6
CONTINUOUS
 62
     3
 10
91.297501597574765
 20
3.2422643225831962
 30
0.0
 40
4.0
  1
-
  0
TEXT
  5
A93B
  8
0
  6
CONTINUOUS
 62
     3
 10
125.2262541196623
 20
3.2422643225831962
 30
0.0
 40
4.0
  1
-
  0
TEXT
  5
A93C
  8
0
  6
CONTINUOUS
 62
     3
 10
28.092918080296961
 20
4.1985803027387192
 30
0.0
 40
4.0
  1
ISO12164-1
  0
DIMENSION
  5
A98F
  8
0
  6
CONTINUOUS
  2
*D13
 10
302.75971448437792
 20
113.2029666961335
 30
0.0
 11
300.65971448437779
 21
138.2029666961335
 31
0.0
 70
     0
 13
179.1501917286075
 23
163.20296669613339
 33
0.0
 14
178.17023616629609
 24
113.2029666961335
 34
0.0
 50
90.0
1001
ACAD
1000
DSTYLE
1002
{
1070
   287
1070
     2
1070
     3
1000
%%C<>
1070
    42
1040
0.6
1070
    43
1040
1.0
1070
    44
1040
1.0
1070
    47
1040
0.1
1070
    48
1040
0.1
1070
   141
1040
-0.2
1070
   146
1040
0.7
1070
   147
1040
0.6
1070
   271
1070
     2
1070
   272
1070
     2
1070
   275
1070
     1
1070
   283
1070
     0
1070
   284
1070
     8
1070
   289
1070
     2
1002
}
  0
TEXT
  5
A9FF
  8
0
  6
CONTINUOUS
 62
     3
 10
200.75162260260669
 20
9.2171975721157651
 30
0.0
 40
4.0
  1
HSK63A-HMC12.7-145-PB25
  0
TEXT
  5
AAFA
  8
0
 62
     7
 10
150.1959310664094
 20
51.258449613276753
 30
0.0
 40
4.0
  1
CODE : 158500
  0
INSERT
  5
AAFB
  8
0
  6
CONTINUOUS
  2
*U15
 10
0.0
 20
0.0
 30
0.0
  0
ENDSEC
  0
EOF
