  0
SECTION
  2
HEADER
  9
$ACADVER
  1
AC1009
  9
$INSBASE
 10
0.0
 20
0.0
 30
0.0
  9
$EXTMIN
 10
-0.0000000000000003
 20
-0.5
 30
0.0
  9
$EXTMAX
 10
349.80000000000018
 20
241.5000000000004
 30
0.0
  9
$LIMMIN
 10
0.0
 20
0.0
  9
$LIMMAX
 10
420.0
 20
300.0
  9
$ORTHOMODE
 70
     1
  9
$REGENMODE
 70
     1
  9
$FILLMODE
 70
     1
  9
$QTEXTMODE
 70
     0
  9
$MIRRTEXT
 70
     1
  9
$DRAGMODE
 70
     2
  9
$LTSCALE
 40
7.0
  9
$OSMODE
 70
   951
  9
$ATTMODE
 70
     1
  9
$TEXTSIZE
 40
3.0
  9
$TRACEWID
 40
1.0
  9
$TEXTSTYLE
  7
STANDARD
  9
$CLAYER
  8
0
  9
$CELTYPE
  6
CONTINUOUS
  9
$CECOLOR
 62
   256
  9
$DIMSCALE
 40
1.0
  9
$DIMASZ
 40
2.5
  9
$DIMEXO
 40
0.6
  9
$DIMDLI
 40
1.0
  9
$DIMRND
 40
0.0
  9
$DIMDLE
 40
0.0
  9
$DIMEXE
 40
1.0
  9
$DIMTP
 40
0.1
  9
$DIMTM
 40
0.1
  9
$DIMTXT
 40
3.0
  9
$DIMCEN
 40
-0.5
  9
$DIMTSZ
 40
0.0
  9
$DIMTOL
 70
     0
  9
$DIMLIM
 70
     0
  9
$DIMTIH
 70
     0
  9
$DIMTOH
 70
     0
  9
$DIMSE1
 70
     0
  9
$DIMSE2
 70
     0
  9
$DIMTAD
 70
     1
  9
$DIMZIN
 70
     8
  9
$DIMBLK
  1

  9
$DIMASO
 70
     1
  9
$DIMSHO
 70
     1
  9
$DIMPOST
  1

  9
$DIMAPOST
  1

  9
$DIMALT
 70
     0
  9
$DIMALTD
 70
     2
  9
$DIMALTF
 40
0.0394
  9
$DIMLFAC
 40
1.0
  9
$DIMTOFL
 70
     1
  9
$DIMTVP
 40
1.0
  9
$DIMTIX
 70
     0
  9
$DIMSOXD
 70
     0
  9
$DIMSAH
 70
     0
  9
$DIMBLK1
  1

  9
$DIMBLK2
  1

  9
$DIMSTYLE
  2
ISO-25
  9
$DIMCLRD
 70
     2
  9
$DIMCLRE
 70
     2
  9
$DIMCLRT
 70
     3
  9
$DIMTFAC
 40
0.7
  9
$DIMGAP
 40
0.6
  9
$LUNITS
 70
     2
  9
$LUPREC
 70
     4
  9
$SKETCHINC
 40
1.0
  9
$FILLETRAD
 40
0.0
  9
$AUNITS
 70
     0
  9
$AUPREC
 70
     0
  9
$MENU
  1
acad
  9
$ELEVATION
 40
0.0
  9
$PELEVATION
 40
0.0
  9
$THICKNESS
 40
0.0
  9
$LIMCHECK
 70
     0
  9
$BLIPMODE
 70
     0
  9
$CHAMFERA
 40
0.5
  9
$CHAMFERB
 40
0.5
  9
$SKPOLY
 70
     0
  9
$TDCREATE
 40
2450166.8692156249
  9
$TDUPDATE
 40
2457472.8488742709
  9
$TDINDWG
 40
10.708711018500001
  9
$TDUSRTIMER
 40
10.708711018500001
  9
$USRTIMER
 70
     1
  9
$ANGBASE
 50
0.0
  9
$ANGDIR
 70
     0
  9
$PDMODE
 70
     0
  9
$PDSIZE
 40
0.0
  9
$PLINEWID
 40
1.0
  9
$COORDS
 70
     0
  9
$SPLFRAME
 70
     0
  9
$SPLINETYPE
 70
     6
  9
$SPLINESEGS
 70
     8
  9
$ATTDIA
 70
     0
  9
$ATTREQ
 70
     1
  9
$HANDLING
 70
     1
  9
$HANDSEED
  5
8F7D
  9
$SURFTAB1
 70
     6
  9
$SURFTAB2
 70
     6
  9
$SURFTYPE
 70
     6
  9
$SURFU
 70
     6
  9
$SURFV
 70
     6
  9
$UCSNAME
  2

  9
$UCSORG
 10
0.0
 20
0.0
 30
0.0
  9
$UCSXDIR
 10
1.0
 20
0.0
 30
0.0
  9
$UCSYDIR
 10
0.0
 20
1.0
 30
0.0
  9
$PUCSNAME
  2

  9
$PUCSORG
 10
0.0
 20
0.0
 30
0.0
  9
$PUCSXDIR
 10
1.0
 20
0.0
 30
0.0
  9
$PUCSYDIR
 10
0.0
 20
1.0
 30
0.0
  9
$USERI1
 70
     0
  9
$USERI2
 70
     0
  9
$USERI3
 70
     0
  9
$USERI4
 70
     0
  9
$USERI5
 70
     0
  9
$USERR1
 40
0.0
  9
$USERR2
 40
0.0
  9
$USERR3
 40
0.0
  9
$USERR4
 40
0.0
  9
$USERR5
 40
0.0
  9
$WORLDVIEW
 70
     1
  9
$SHADEDGE
 70
     3
  9
$SHADEDIF
 70
    70
  9
$TILEMODE
 70
     1
  9
$MAXACTVP
 70
    16
  9
$PLIMCHECK
 70
     0
  9
$PEXTMIN
 10
1.0000000000000000E+020
 20
1.0000000000000000E+020
 30
1.0000000000000000E+020
  9
$PEXTMAX
 10
-1.0000000000000000E+020
 20
-1.0000000000000000E+020
 30
-1.0000000000000000E+020
  9
$PLIMMIN
 10
0.0
 20
0.0
  9
$PLIMMAX
 10
420.0
 20
297.0
  9
$UNITMODE
 70
     0
  9
$VISRETAIN
 70
     0
  9
$PLINEGEN
 70
     0
  9
$PSLTSCALE
 70
     1
  0
ENDSEC
  0
SECTION
  2
TABLES
  0
TABLE
  2
VPORT
 70
     1
  0
VPORT
  2
*ACTIVE
 70
     0
 10
0.0
 20
0.0
 11
1.0
 21
1.0
 12
174.91210428753681
 22
120.49713201180229
 13
0.0
 23
0.0
 14
1.0
 24
1.0
 15
2.0
 25
2.0
 16
0.0
 26
0.0
 36
1.0
 17
0.0
 27
0.0
 37
0.0
 40
243.6984022927185
 41
2.1307870370370372
 42
50.0
 43
0.0
 44
0.0
 50
0.0
 51
0.0
 71
     0
 72
   100
 73
     1
 74
     1
 75
     0
 76
     0
 77
     0
 78
     1
  0
ENDTAB
  0
TABLE
  2
LTYPE
 70
     6
  0
LTYPE
  2
CONTINUOUS
 70
     0
  3
Solid line
 72
    65
 73
     0
 40
0.0
  0
LTYPE
  2
CENTER
 70
     0
  3
____ _ ____ _ ____ _ ____ _ ____ _ ____ _ ____ 
 72
    65
 73
     4
 40
2.0
 49
1.25
 49
-0.25
 49
0.25
 49
-0.25
  0
LTYPE
  2
HIDDEN
 70
     0
  3
Hidden __ __ __ __ __ __ __ __ __ __ __ __ __ _
 72
    65
 73
     2
 40
0.375
 49
0.25
 49
-0.125
  0
LTYPE
  2
PHANTOM2
 70
     0
  3
___ _ _ ___ _ _ ___ _ _ ___ _ _ ___ _ _ ___ _ _
 72
    65
 73
     6
 40
1.25
 49
0.625
 49
-0.125
 49
0.125
 49
-0.125
 49
0.125
 49
-0.125
  0
LTYPE
  2
PHANTOM
 70
     0
  3
______  __  __  ______  __  __  ______  __  __ 
 72
    65
 73
     6
 40
2.5
 49
1.25
 49
-0.25
 49
0.25
 49
-0.25
 49
0.25
 49
-0.25
  0
LTYPE
  2
CENTER2
 70
     0
  3
___ _ ___ _ ___ _ ___ _ ___ _ ___ _ ___ _ ___ _
 72
    65
 73
     4
 40
1.125
 49
0.75
 49
-0.125
 49
0.125
 49
-0.125
  0
ENDTAB
  0
TABLE
  2
LAYER
 70
     3
  0
LAYER
  2
0
 70
     0
 62
     7
  6
CONTINUOUS
  0
LAYER
  2
DEFPOINTS
 70
     0
 62
     7
  6
CONTINUOUS
  0
LAYER
  2
CT
 70
     0
 62
     2
  6
CENTER
  0
ENDTAB
  0
TABLE
  2
STYLE
 70
     1
  0
STYLE
  2
STANDARD
 70
     0
 40
3.0
 41
1.0
 50
0.0
 71
     0
 42
3.0
  3
ISOCP
  4
WHGTXT.SHX
  0
ENDTAB
  0
TABLE
  2
VIEW
 70
     0
  0
ENDTAB
  0
TABLE
  2
UCS
 70
     0
  0
ENDTAB
  0
TABLE
  2
APPID
 70
     8
  0
APPID
  2
ACAD
 70
     0
  0
APPID
  2
ACAD_DSTYLE_DIMRADIAL_EXTENSION
 70
     0
  0
APPID
  2
ACAD_MLEADERVER
 70
     0
  0
APPID
  2
ACAD_EXEMPT_FROM_CAD_STANDARDS
 70
     0
  0
APPID
  2
ACAD_DSTYLE_DIMJAG
 70
     0
  0
APPID
  2
ACAD_DSTYLE_DIMTALN
 70
     0
  0
APPID
  2
ACAD_DSTYLE_DIMBREAK
 70
     0
  0
APPID
  2
CONTENTBLOCKICON
 70
     0
  0
ENDTAB
  0
TABLE
  2
DIMSTYLE
 70
     3
  0
DIMSTYLE
  2
ISO-25
 70
     0
  3

  4

  5

  6

  7

 40
1.0
 41
2.5
 42
0.625
 43
3.75
 44
1.25
 45
0.0
 46
0.0
 47
0.0
 48
0.0
140
2.5
141
2.5
142
0.0
143
0.0394
144
1.0
145
1.0
146
1.0
147
0.625
 71
     0
 72
     0
 73
     1
 74
     0
 75
     0
 76
     0
 77
     1
 78
     8
170
     0
171
     2
172
     1
173
     0
174
     0
175
     0
176
     2
177
     2
178
     0
  0
DIMSTYLE
  2
KSM
 70
     0
  3

  4

  5

  6

  7

 40
1.0
 41
2.0
 42
0.0
 43
0.1
 44
1.1999999999999991
 45
0.0
 46
0.0
 47
0.25
 48
0.25
140
3.0
141
0.0
142
0.0
143
0.0394
144
1.0
145
1.0
146
1.0
147
1.0
 71
     1
 72
     0
 73
     0
 74
     0
 75
     0
 76
     0
 77
     1
 78
     8
170
     0
171
     2
172
     1
173
     0
174
     0
175
     0
176
     2
177
     2
178
     3
  0
DIMSTYLE
  2
ISO-25$2
 70
     0
  3

  4

  5

  6

  7

 40
1.0
 41
2.5
 42
0.625
 43
3.75
 44
1.25
 45
0.0
 46
0.0
 47
0.0
 48
0.0
140
2.5
141
2.5
142
0.0
143
0.0394
144
1.0
145
1.0
146
1.0
147
0.625
 71
     0
 72
     0
 73
     1
 74
     0
 75
     0
 76
     0
 77
     1
 78
     8
170
     0
171
     2
172
     1
173
     0
174
     0
175
     0
176
     2
177
     2
178
     0
  0
ENDTAB
  0
ENDSEC
  0
SECTION
  2
BLOCKS
  0
BLOCK
  8
0
  2
$MODEL_SPACE
 70
     0
 10
0.0
 20
0.0
 30
0.0
  3
$MODEL_SPACE
  1

  0
ENDBLK
  5
16
  8
0
  0
BLOCK
 67
     1
  8
0
  2
$PAPER_SPACE
 70
     0
 10
0.0
 20
0.0
 30
0.0
  3
$PAPER_SPACE
  1

  0
ENDBLK
  5
1B
 67
     1
  8
0
  0
BLOCK
  8
0
  2
_CLOSEDBLANK
 70
     0
 10
0.0
 20
0.0
 30
0.0
  3
_CLOSEDBLANK
  1

  0
LINE
  5
28D
  8
0
  6
BYBLOCK
 62
     0
 10
-1.0
 20
0.1666666666666666
 30
0.0
 11
0.0
 21
0.0
 31
0.0
  0
LINE
  5
28E
  8
0
  6
BYBLOCK
 62
     0
 10
0.0
 20
0.0
 30
0.0
 11
-1.0
 21
-0.1666666666666666
 31
0.0
  0
LINE
  5
28F
  8
0
  6
BYBLOCK
 62
     0
 10
-1.0
 20
0.1666666666666666
 30
0.0
 11
-1.0
 21
-0.1666666666666666
 31
0.0
  0
ENDBLK
  5
290
  8
0
  0
BLOCK
  8
0
  2
DFG
 70
     0
 10
0.0
 20
0.0
 30
0.0
  3
DFG
  1

  0
LINE
  5
B0F
  8
0
  6
CONTINUOUS
 62
     4
 10
86.283570637268895
 20
194.3173600391579
 30
0.0
 11
87.100067218196514
 21
195.13385662008551
 31
0.0
  0
LINE
  5
B10
  8
0
  6
CONTINUOUS
 62
     4
 10
85.827275012060909
 20
196.40664882622119
 30
0.0
 11
85.010778431133076
 21
195.5901522452935
 31
0.0
  0
LINE
  5
B11
  8
0
  6
CONTINUOUS
 62
     4
 10
85.364331821726182
 20
196.65081241707321
 30
0.0
 11
84.657225040539743
 21
195.94370563588669
 31
0.0
  0
LINE
  5
B12
  8
0
  6
CONTINUOUS
 62
     4
 10
85.364331821726182
 20
196.65081241707321
 30
0.0
 11
84.248976750075826
 21
196.35195392635069
 31
0.0
  0
LINE
  5
B13
  8
0
  6
CONTINUOUS
 10
87.953595175868358
 20
196.1995166121132
 30
0.0
 11
84.418061269935833
 21
192.6639827061806
 31
0.0
  0
LINE
  5
B14
  8
0
  6
CONTINUOUS
 10
84.913036016766455
 20
199.24007577121549
 30
0.0
 11
81.377502110833461
 21
195.70454186528281
 31
0.0
  0
LINE
  5
B15
  8
0
  6
CONTINUOUS
 10
84.418061269935606
 20
199.24007577121529
 30
0.0
 11
81.377502110833802
 21
196.1995166121134
 31
0.0
  0
LINE
  5
B16
  8
0
  6
CONTINUOUS
 10
87.953595175868585
 20
195.70454186528261
 30
0.0
 11
84.913036016766227
 21
192.66398270618041
 31
0.0
  0
LINE
  5
B17
  8
0
  6
CONTINUOUS
 10
84.418061269935606
 20
199.24007577121529
 30
0.0
 11
84.913036016766455
 21
199.24007577121549
 31
0.0
  0
LINE
  5
B18
  8
0
  6
CONTINUOUS
 62
     4
 10
85.717885212319516
 20
196.29725902647991
 30
0.0
 11
85.364331821726182
 21
196.65081241707321
 31
0.0
  0
LINE
  5
B19
  8
0
  6
CONTINUOUS
 62
     4
 10
87.100067218196514
 20
195.13385662008551
 30
0.0
 11
85.827275012060909
 21
196.40664882622119
 31
0.0
  0
LINE
  5
B1A
  8
0
  6
CONTINUOUS
 62
     4
 10
86.691818927732811
 20
194.72560832962171
 30
0.0
 11
85.419026721596978
 21
195.9984005357575
 31
0.0
  0
LINE
  5
B1B
  8
0
  6
CONTINUOUS
 10
87.953595175868585
 20
195.70454186528261
 30
0.0
 11
87.953595175868358
 21
196.1995166121132
 31
0.0
  0
LINE
  5
B1C
  8
0
  6
CONTINUOUS
 62
     4
 10
87.100067218196514
 20
195.13385662008551
 30
0.0
 11
87.382909930671289
 21
195.1338566200854
 31
0.0
  0
LINE
  5
B1D
  8
0
  6
CONTINUOUS
 10
81.377502110833802
 20
196.1995166121134
 30
0.0
 11
81.377502110833802
 21
195.70454186528269
 31
0.0
  0
LINE
  5
B1E
  8
0
  6
CONTINUOUS
 62
     4
 10
85.467074056341076
 20
193.5008634582301
 30
0.0
 11
85.467074056341175
 21
193.21802074575541
 31
0.0
  0
LINE
  5
B1F
  8
0
  6
CONTINUOUS
 62
     4
 10
86.283570637268653
 20
194.31736003915771
 30
0.0
 11
85.467074056341076
 21
193.5008634582301
 31
0.0
  0
LINE
  5
B20
  8
0
  6
CONTINUOUS
 62
     4
 10
84.194281850205485
 20
194.7736556643658
 30
0.0
 11
85.010778431133076
 21
195.5901522452935
 31
0.0
  0
LINE
  5
B21
  8
0
  6
CONTINUOUS
 62
     4
 10
83.950118259353076
 20
195.23659885470019
 30
0.0
 11
84.657225040539743
 21
195.94370563588669
 31
0.0
  0
LINE
  5
B22
  8
0
  6
CONTINUOUS
 62
     4
 10
83.950118259353076
 20
195.23659885470019
 30
0.0
 11
84.248976750075826
 21
196.35195392635069
 31
0.0
  0
LINE
  5
B23
  8
0
  6
CONTINUOUS
 62
     4
 10
84.303671649946395
 20
194.88304546410691
 30
0.0
 11
83.950118259353076
 21
195.23659885470019
 31
0.0
  0
LINE
  5
B24
  8
0
  6
CONTINUOUS
 62
     4
 10
85.467074056341076
 20
193.5008634582301
 30
0.0
 11
84.194281850205485
 21
194.7736556643658
 31
0.0
  0
LINE
  5
B25
  8
0
  6
CONTINUOUS
 62
     4
 10
85.875322346804978
 20
193.9091117486939
 30
0.0
 11
84.60253014066916
 21
195.18190395482961
 31
0.0
  0
LINE
  5
B26
  8
0
  6
CONTINUOUS
 10
84.913036016766569
 20
192.66398270618069
 30
0.0
 11
84.418061269935606
 21
192.66398270618069
 31
0.0
  0
LINE
  5
B27
  8
0
  6
CONTINUOUS
 10
81.377502110833461
 20
195.70454186528229
 30
0.0
 11
84.418061269935833
 21
192.66398270618041
 31
0.0
  0
LINE
  5
B28
  8
0
  6
CONTINUOUS
 10
84.913036016766455
 20
199.24007577121549
 30
0.0
 11
87.953595175868713
 21
196.19951661211331
 31
0.0
  0
ENDBLK
  5
B29
  8
0
  0
BLOCK
  8
0
  2
DFGFG
 70
     0
 10
0.0
 20
0.0
 30
0.0
  3
DFGFG
  1

  0
LINE
  5
DD7
  8
0
  6
CONTINUOUS
 62
     4
 10
339.34007301468301
 20
-145.93340977249039
 30
0.0
 11
339.34007301468301
 21
-144.77870923411129
 31
0.0
  0
LINE
  5
DD8
  8
0
  6
CONTINUOUS
 62
     4
 10
337.54007301468317
 20
-144.7787092341112
 30
0.0
 11
337.54007301468312
 21
-145.93340977249051
 31
0.0
  0
LINE
  5
DD9
  8
0
  6
CONTINUOUS
 62
     4
 10
337.04007301468312
 20
-144.93340977249079
 30
0.0
 11
337.04007301468312
 21
-145.93340977249059
 31
0.0
  0
LINE
  5
DDA
  8
0
  6
CONTINUOUS
 62
     4
 10
337.04007301468312
 20
-144.93340977249079
 30
0.0
 11
336.46272274549341
 21
-145.93340977249059
 31
0.0
  0
LINE
  5
DDB
  8
0
  6
CONTINUOUS
 62
     4
 10
339.19007301468309
 20
-143.42163842050729
 30
0.0
 11
339.19007301468321
 21
-148.42163842050701
 31
0.0
  0
LINE
  5
DDC
  8
0
  6
CONTINUOUS
 62
     4
 10
334.89007301468308
 20
-143.42163842050701
 30
0.0
 11
334.89007301468303
 21
-148.42163842050709
 31
0.0
  0
LINE
  5
DDD
  8
0
  6
CONTINUOUS
 62
     4
 10
334.54007301468312
 20
-143.77163842050729
 30
0.0
 11
334.54007301468317
 21
-148.07163842050679
 31
0.0
  0
LINE
  5
DDE
  8
0
  6
CONTINUOUS
 62
     4
 10
339.54007301468317
 20
-143.77163842050709
 30
0.0
 11
339.54007301468317
 21
-148.0716384205073
 31
0.0
  0
LINE
  5
DDF
  8
0
  6
CONTINUOUS
 62
     4
 10
334.54007301468312
 20
-143.77163842050729
 30
0.0
 11
334.89007301468308
 21
-143.42163842050701
 31
0.0
  0
LINE
  5
DE0
  8
0
  6
CONTINUOUS
 62
     4
 10
337.54007301468312
 20
-144.93340977249071
 30
0.0
 11
337.04007301468312
 21
-144.93340977249079
 31
0.0
  0
LINE
  5
DE1
  8
0
  6
CONTINUOUS
 62
     4
 10
339.34007301468301
 20
-144.77870923411129
 30
0.0
 11
337.54007301468317
 21
-144.7787092341112
 31
0.0
  0
LINE
  5
DE2
  8
0
  6
CONTINUOUS
 62
     4
 10
339.34007301468301
 20
-145.35605950330071
 30
0.0
 11
337.54007301468312
 21
-145.3560595033008
 31
0.0
  0
LINE
  5
DE3
  8
0
  6
CONTINUOUS
 62
     4
 10
339.54007301468317
 20
-143.77163842050709
 30
0.0
 11
339.19007301468309
 21
-143.42163842050729
 31
0.0
  0
LINE
  5
DE4
  8
0
  6
CONTINUOUS
 62
     4
 10
339.34007301468301
 20
-144.77870923411129
 30
0.0
 11
339.54007301468317
 21
-144.57870923411119
 31
0.0
  0
LINE
  5
DE5
  8
0
  6
CONTINUOUS
 62
     4
 10
334.54007301468317
 20
-148.07163842050679
 30
0.0
 11
334.89007301468331
 21
-148.42163842050689
 31
0.0
  0
LINE
  5
DE6
  8
0
  6
CONTINUOUS
 62
     4
 10
339.34007301468301
 20
-147.08811031086969
 30
0.0
 11
339.54007301468312
 21
-147.2881103108698
 31
0.0
  0
LINE
  5
DE7
  8
0
  6
CONTINUOUS
 62
     4
 10
339.34007301468301
 20
-145.93340977249059
 30
0.0
 11
339.34007301468301
 21
-147.08811031086969
 31
0.0
  0
LINE
  5
DE8
  8
0
  6
CONTINUOUS
 62
     4
 10
337.54007301468317
 20
-147.08811031086969
 30
0.0
 11
337.54007301468312
 21
-145.93340977249051
 31
0.0
  0
LINE
  5
DE9
  8
0
  6
CONTINUOUS
 62
     4
 10
337.040073014683
 20
-146.93340977249071
 30
0.0
 11
337.04007301468312
 21
-145.93340977249059
 31
0.0
  0
LINE
  5
DEA
  8
0
  6
CONTINUOUS
 62
     4
 10
337.040073014683
 20
-146.93340977249071
 30
0.0
 11
336.46272274549341
 21
-145.93340977249059
 31
0.0
  0
LINE
  5
DEB
  8
0
  6
CONTINUOUS
 62
     4
 10
337.54007301468312
 20
-146.93340977249071
 30
0.0
 11
337.040073014683
 21
-146.93340977249071
 31
0.0
  0
LINE
  5
DEC
  8
0
  6
CONTINUOUS
 62
     4
 10
339.34007301468301
 20
-147.08811031086969
 30
0.0
 11
337.54007301468317
 21
-147.08811031086969
 31
0.0
  0
LINE
  5
DED
  8
0
  6
CONTINUOUS
 62
     4
 10
339.34007301468313
 20
-146.5107600416801
 30
0.0
 11
337.540073014683
 21
-146.51076004168019
 31
0.0
  0
LINE
  5
DEE
  8
0
  6
CONTINUOUS
 62
     4
 10
339.54007301468312
 20
-148.07163842050679
 30
0.0
 11
339.19007301468292
 21
-148.42163842050709
 31
0.0
  0
LINE
  5
DEF
  8
0
  6
CONTINUOUS
 62
     4
 10
334.89007301468331
 20
-148.42163842050749
 30
0.0
 11
339.19007301468332
 21
-148.42163842050709
 31
0.0
  0
LINE
  5
DF0
  8
0
  6
CONTINUOUS
 62
     4
 10
334.89007301468308
 20
-143.42163842050701
 30
0.0
 11
339.19007301468321
 21
-143.42163842050689
 31
0.0
  0
ENDBLK
  5
DF1
  8
0
  0
BLOCK
  8
0
  2
SRRG
 70
     0
 10
0.0
 20
0.0
 30
0.0
  3
SRRG
  1

  0
POLYLINE
  5
CC7
  8
0
  6
BYBLOCK
 62
     4
 66
     1
 10
0.0
 20
0.0
 30
0.0
 70
     1
  0
VERTEX
  5
8AD7
  8
0
  6
BYBLOCK
 62
     4
 10
224.8644200539471
 20
-157.74382108239669
 30
0.0
  0
VERTEX
  5
8AD8
  8
0
  6
BYBLOCK
 62
     4
 10
224.6644200539472
 20
-158.27715441573011
 30
0.0
  0
VERTEX
  5
8AD9
  8
0
  6
BYBLOCK
 62
     4
 10
224.6644200539472
 20
-159.0469299737214
 30
0.0
  0
VERTEX
  5
8ADA
  8
0
  6
BYBLOCK
 62
     4
 10
224.95130026929891
 20
-159.54382108239679
 30
0.0
  0
VERTEX
  5
8ADB
  8
0
  6
BYBLOCK
 62
     4
 10
225.66846470254791
 20
-159.54382108239679
 30
0.0
  0
VERTEX
  5
8ADC
  8
0
  6
BYBLOCK
 62
     4
 10
226.21442005394709
 20
-161.04382108239679
 30
0.0
  0
VERTEX
  5
8ADD
  8
0
  6
BYBLOCK
 62
     4
 10
227.71442005394709
 20
-161.04382108239679
 30
0.0
  0
VERTEX
  5
8ADE
  8
0
  6
BYBLOCK
 62
     4
 10
229.21442005394721
 20
-161.04382108239679
 30
0.0
  0
VERTEX
  5
8ADF
  8
0
  6
BYBLOCK
 62
     4
 10
229.76037540534651
 20
-159.54382108239679
 30
0.0
  0
VERTEX
  5
8AE0
  8
0
  6
BYBLOCK
 62
     4
 10
230.4775398385955
 20
-159.54382108239679
 30
0.0
  0
VERTEX
  5
8AE1
  8
0
  6
BYBLOCK
 62
     4
 10
230.76442005394719
 20
-159.0469299737214
 30
0.0
  0
VERTEX
  5
8AE2
  8
0
  6
BYBLOCK
 62
     4
 10
230.76442005394719
 20
-158.27715441573011
 30
0.0
  0
VERTEX
  5
8AE3
  8
0
  6
BYBLOCK
 62
     4
 10
230.5644200539472
 20
-157.74382108239669
 30
0.0
  0
VERTEX
  5
8AE4
  8
0
  6
BYBLOCK
 62
     4
 10
230.5644200539472
 20
-154.44382108239679
 30
0.0
  0
VERTEX
  5
8AE5
  8
0
  6
BYBLOCK
 62
     4
 10
227.71442005394709
 20
-154.44382108239679
 30
0.0
  0
VERTEX
  5
8AE6
  8
0
  6
BYBLOCK
 62
     4
 10
224.8644200539473
 20
-154.44382108239679
 30
0.0
  0
SEQEND
  5
8AE7
  8
0
  6
BYBLOCK
 62
     4
  0
LINE
  5
CC8
  8
0
  6
BYBLOCK
 62
     4
 10
224.8644200539471
 20
-157.74382108239669
 30
0.0
 11
230.5644200539472
 21
-157.74382108239669
 31
0.0
  0
LINE
  5
CC9
  8
0
  6
BYBLOCK
 62
     4
 10
224.6644200539472
 20
-158.27715441573011
 30
0.0
 11
230.76442005394719
 21
-158.27715441573011
 31
0.0
  0
LINE
  5
CCA
  8
0
  6
BYBLOCK
 62
     4
 10
224.6644200539472
 20
-159.0469299737214
 30
0.0
 11
230.76442005394719
 21
-159.0469299737214
 31
0.0
  0
LINE
  5
CCB
  8
0
  6
BYBLOCK
 62
     4
 10
225.66846470254791
 20
-159.54382108239679
 30
0.0
 11
229.76037540534651
 21
-159.54382108239679
 31
0.0
  0
LINE
  5
CCC
  8
0
  6
BYBLOCK
 62
     4
 10
223.71442005394709
 20
-144.44382108239699
 30
0.0
 11
223.71442005394709
 21
-146.24382108239749
 31
0.0
  0
LINE
  5
CCD
  8
0
  6
BYBLOCK
 62
     4
 10
231.71442005394729
 20
-144.44382108239711
 30
0.0
 11
231.71442005394701
 21
-146.2438210823972
 31
0.0
  0
LINE
  5
CCE
  8
0
  6
BYBLOCK
 62
     4
 10
230.71442005394729
 20
-154.24382108239709
 30
0.0
 11
230.71442005394729
 21
-146.44382108239739
 31
0.0
  0
LINE
  5
CCF
  8
0
  6
BYBLOCK
 62
     4
 10
224.71442005394721
 20
-146.44382108239711
 30
0.0
 11
224.71442005394721
 21
-154.24382108239701
 31
0.0
  0
LINE
  5
CD0
  8
0
  6
BYBLOCK
 62
     4
 10
224.71442005394721
 20
-154.24382108239701
 30
0.0
 11
230.71442005394729
 21
-154.24382108239709
 31
0.0
  0
LINE
  5
CD1
  8
0
  6
BYBLOCK
 62
     4
 10
224.71442005394721
 20
-154.24382108239701
 30
0.0
 11
224.9144200539474
 21
-154.44382108239679
 31
0.0
  0
LINE
  5
CD2
  8
0
  6
BYBLOCK
 62
     4
 10
230.51442005394711
 20
-154.44382108239679
 30
0.0
 11
230.71442005394729
 21
-154.24382108239709
 31
0.0
  0
LINE
  5
CD3
  8
0
  6
BYBLOCK
 62
     4
 10
227.71442005394729
 20
-146.4438210823615
 30
0.0
 11
223.91442005394731
 21
-146.44382108239711
 31
0.0
  0
LINE
  5
CD4
  8
0
  6
BYBLOCK
 62
     4
 10
223.91442005394731
 20
-146.44382108239711
 30
0.0
 11
223.71442005394709
 21
-146.24382108239749
 31
0.0
  0
LINE
  5
CD5
  8
0
  6
BYBLOCK
 62
     4
 10
231.51442005394711
 20
-146.44382108239751
 30
0.0
 11
227.71442005394729
 21
-146.4438210823981
 31
0.0
  0
LINE
  5
CD6
  8
0
  6
BYBLOCK
 62
     4
 10
231.51442005394711
 20
-146.44382108239751
 30
0.0
 11
231.71442005394701
 21
-146.2438210823972
 31
0.0
  0
LINE
  5
CD7
  8
0
  6
BYBLOCK
 62
     4
 10
232.71442005394729
 20
-136.94382108239679
 30
0.0
 11
232.71442005394729
 21
-132.94382108239699
 31
0.0
  0
LINE
  5
CD8
  8
0
  6
BYBLOCK
 62
     4
 10
222.71442005394741
 20
-132.94382108239679
 30
0.0
 11
222.71442005394729
 21
-136.94382108239711
 31
0.0
  0
LINE
  5
CD9
  8
0
  6
BYBLOCK
 62
     4
 10
223.51442005394719
 20
-131.64382108239721
 30
0.0
 11
223.51442005394719
 21
-144.24382108239701
 31
0.0
  0
LINE
  5
CDA
  8
0
  6
BYBLOCK
 62
     4
 10
224.82766870799949
 20
-131.94382108239691
 30
0.0
 11
224.82766870799961
 21
-137.44382108239631
 31
0.0
  0
LINE
  5
CDB
  8
0
  6
BYBLOCK
 62
     4
 10
226.27104438097339
 20
-131.94382108239679
 30
0.0
 11
226.27104438097311
 21
-137.4438210823966
 31
0.0
  0
LINE
  5
CDC
  8
0
  6
BYBLOCK
 62
     4
 10
231.9144200539472
 20
-131.64382108239721
 30
0.0
 11
231.91442005394711
 21
-144.24382108239701
 31
0.0
  0
LINE
  5
CDD
  8
0
  6
BYBLOCK
 62
     4
 10
229.15779572692159
 20
-131.94382108239699
 30
0.0
 11
229.15779572692091
 21
-137.4438210823966
 31
0.0
  0
LINE
  5
CDE
  8
0
  6
BYBLOCK
 62
     4
 10
230.60117139989521
 20
-131.94382108239699
 30
0.0
 11
230.60117139989521
 21
-137.44382108239631
 31
0.0
  0
LINE
  5
CDF
  8
0
  6
BYBLOCK
 62
     4
 10
230.60117139989521
 20
-137.44382108239631
 30
0.0
 11
224.8276687079989
 21
-137.4438210823962
 31
0.0
  0
LINE
  5
CE0
  8
0
  6
BYBLOCK
 62
     4
 10
230.21442005394709
 20
-139.44382108239651
 30
0.0
 11
225.21442005394701
 21
-139.4438210823966
 31
0.0
  0
LINE
  5
CE1
  8
0
  6
BYBLOCK
 62
     4
 10
230.21442005394729
 20
-139.4438210823966
 30
0.0
 11
227.71442005394709
 21
-140.88719675537041
 31
0.0
  0
LINE
  5
CE2
  8
0
  6
BYBLOCK
 62
     4
 10
222.71442005394721
 20
-137.94382108239671
 30
0.0
 11
222.7144200539469
 21
-143.44382108239699
 31
0.0
  0
LINE
  5
CE3
  8
0
  6
BYBLOCK
 62
     4
 10
225.21442005394701
 20
-139.4438210823966
 30
0.0
 11
227.71442005394709
 21
-140.88719675537041
 31
0.0
  0
LINE
  5
CE4
  8
0
  6
BYBLOCK
 62
     4
 10
222.7144200539469
 20
-143.44382108239699
 30
0.0
 11
223.71442005394709
 21
-144.44382108239699
 31
0.0
  0
LINE
  5
CE5
  8
0
  6
BYBLOCK
 62
     4
 10
222.71442005394729
 20
-136.94382108239711
 30
0.0
 11
222.71442005394721
 21
-137.94382108239671
 31
0.0
  0
LINE
  5
CE6
  8
0
  6
BYBLOCK
 62
     4
 10
225.2144200539469
 20
-137.4438210823962
 30
0.0
 11
225.21442005394701
 21
-139.4438210823966
 31
0.0
  0
LINE
  5
CE7
  8
0
  6
BYBLOCK
 62
     4
 10
232.71442005394709
 20
-143.44382108239699
 30
0.0
 11
232.71442005394701
 21
-137.94382108239691
 31
0.0
  0
LINE
  5
CE8
  8
0
  6
BYBLOCK
 62
     4
 10
231.71442005394729
 20
-144.44382108239711
 30
0.0
 11
232.71442005394709
 21
-143.44382108239699
 31
0.0
  0
LINE
  5
CE9
  8
0
  6
BYBLOCK
 62
     4
 10
230.21442005394709
 20
-137.44382108239671
 30
0.0
 11
230.21442005394709
 21
-139.44382108239651
 31
0.0
  0
LINE
  5
CEA
  8
0
  6
BYBLOCK
 62
     4
 10
232.71442005394701
 20
-137.94382108239691
 30
0.0
 11
232.71442005394729
 21
-136.94382108239679
 31
0.0
  0
LINE
  5
CEB
  8
0
  6
BYBLOCK
 62
     4
 10
231.71442005394741
 20
-131.44382108239679
 30
0.0
 11
223.71442005394709
 21
-131.44382108239679
 31
0.0
  0
LINE
  5
CEC
  8
0
  6
BYBLOCK
 62
     4
 10
230.60117139989521
 20
-131.94382108239699
 30
0.0
 11
227.71442005394729
 21
-131.94382108239699
 31
0.0
  0
LINE
  5
CED
  8
0
  6
BYBLOCK
 62
     4
 10
222.71442005394761
 20
-132.44382108239691
 30
0.0
 11
232.71442005394729
 21
-132.44382108239671
 31
0.0
  0
LINE
  5
CEE
  8
0
  6
BYBLOCK
 62
     4
 10
224.82766870799949
 20
-131.94382108239691
 30
0.0
 11
227.71442005394729
 21
-131.94382108239699
 31
0.0
  0
LINE
  5
CEF
  8
0
  6
BYBLOCK
 62
     4
 10
222.71442005394741
 20
-132.94382108239679
 30
0.0
 11
222.71442005394741
 21
-132.94382108239679
 31
0.0
  0
LINE
  5
CF0
  8
0
  6
BYBLOCK
 62
     4
 10
222.71442005394761
 20
-132.44382108239691
 30
0.0
 11
222.71442005394741
 21
-132.94382108239679
 31
0.0
  0
LINE
  5
CF1
  8
0
  6
BYBLOCK
 62
     4
 10
223.71442005394709
 20
-131.44382108239679
 30
0.0
 11
222.71442005394761
 21
-132.44382108239691
 31
0.0
  0
LINE
  5
CF2
  8
0
  6
BYBLOCK
 62
     4
 10
224.32766870799961
 20
-131.44382108239671
 30
0.0
 11
224.82766870799949
 21
-131.94382108239691
 31
0.0
  0
LINE
  5
CF3
  8
0
  6
BYBLOCK
 62
     4
 10
231.10117139989521
 20
-131.44382108239711
 30
0.0
 11
230.60117139989521
 21
-131.94382108239699
 31
0.0
  0
LINE
  5
CF4
  8
0
  6
BYBLOCK
 62
     4
 10
232.71442005394729
 20
-132.44382108239699
 30
0.0
 11
231.71442005394741
 21
-131.44382108239679
 31
0.0
  0
LINE
  5
CF5
  8
0
  6
BYBLOCK
 62
     4
 10
232.71442005394729
 20
-132.94382108239699
 30
0.0
 11
232.71442005394729
 21
-132.44382108239699
 31
0.0
  0
LINE
  5
CF6
  8
0
  6
BYBLOCK
 62
     4
 10
232.71442005394729
 20
-132.94382108239699
 30
0.0
 11
232.71442005394729
 21
-132.94382108239699
 31
0.0
  0
LINE
  5
CF7
  8
0
  6
BYBLOCK
 62
     4
 10
224.9144200539474
 20
-154.44382108239679
 30
0.0
 11
227.71442005394709
 21
-154.44382108239679
 31
0.0
  0
LINE
  5
CF8
  8
0
  6
BYBLOCK
 62
     4
 10
227.71442005394709
 20
-154.44382108239679
 30
0.0
 11
230.51442005394711
 21
-154.44382108239679
 31
0.0
  0
LINE
  5
CF9
  8
0
  6
BYBLOCK
 62
     4
 10
223.71442005394709
 20
-146.24382108239749
 30
0.0
 11
227.71442005394709
 21
-146.24382108239749
 31
0.0
  0
LINE
  5
CFA
  8
0
  6
BYBLOCK
 62
     4
 10
227.71442005394709
 20
-146.24382108239749
 30
0.0
 11
231.71442005394701
 21
-146.2438210823972
 31
0.0
  0
LINE
  5
CFB
  8
0
  6
BYBLOCK
 62
     4
 10
223.71442005394709
 20
-144.44382108239699
 30
0.0
 11
227.71442005394709
 21
-144.44382108239699
 31
0.0
  0
LINE
  5
CFC
  8
0
  6
BYBLOCK
 62
     4
 10
227.71442005394709
 20
-144.44382108239699
 30
0.0
 11
231.71442005394729
 21
-144.44382108239751
 31
0.0
  0
LINE
  5
CFD
  8
0
  6
BYBLOCK
 62
     4
 10
222.7144200539469
 20
-143.44382108239699
 30
0.0
 11
227.71442005394729
 21
-143.44382108239699
 31
0.0
  0
LINE
  5
CFE
  8
0
  6
BYBLOCK
 62
     4
 10
227.71442005394729
 20
-143.44382108239699
 30
0.0
 11
232.71442005394709
 21
-143.44382108239699
 31
0.0
  0
ENDBLK
  5
CFF
  8
0
  0
BLOCK
  8
0
  2
_OBLIQUE
 70
     0
 10
0.0
 20
0.0
 30
0.0
  3
_OBLIQUE
  1

  0
LINE
  5
5E6B
  8
0
  6
BYBLOCK
 62
     0
 10
-0.5
 20
-0.5
 30
0.0
 11
0.5
 21
0.5
 31
0.0
  0
ENDBLK
  5
5E6C
  8
0
  0
BLOCK
  8
0
  2
FGFG
 70
     0
 10
0.0
 20
0.0
 30
0.0
  3
FGFG
  1

  0
LINE
  5
5E70
  8
0
  6
BYBLOCK
 62
     4
 10
427.81821933532041
 20
202.16868712846409
 30
0.0
 11
437.81821933532041
 21
202.16868712846409
 31
0.0
  0
LINE
  5
5E71
  8
0
  6
BYBLOCK
 62
     4
 10
427.81821933532029
 20
203.66868712846409
 30
0.0
 11
427.81821933532041
 21
200.41868712846409
 31
0.0
  0
LINE
  5
5E72
  8
0
  6
BYBLOCK
 62
     4
 10
442.81821933532052
 20
202.7280882052226
 30
0.0
 11
437.81821933532041
 21
202.72808820522249
 31
0.0
  0
LINE
  5
5E73
  8
0
  6
BYBLOCK
 62
     4
 10
442.81821933532052
 20
201.57338766684339
 30
0.0
 11
437.81821933532041
 21
201.5733876668433
 31
0.0
  0
LINE
  5
5E74
  8
0
  6
BYBLOCK
 62
     4
 10
428.56821933532029
 20
204.41868712846409
 30
0.0
 11
439.06821933532041
 21
204.41868712846409
 31
0.0
  0
LINE
  5
5E75
  8
0
  6
BYBLOCK
 62
     4
 10
437.81821933532041
 20
202.72808820522249
 30
0.0
 11
437.81821933532041
 21
200.41868712846409
 31
0.0
  0
LINE
  5
5E76
  8
0
  6
BYBLOCK
 62
     4
 10
439.81821933532041
 20
203.66868712846409
 30
0.0
 11
439.81821933532041
 21
200.41868712846409
 31
0.0
  0
LINE
  5
5E77
  8
0
  6
BYBLOCK
 62
     4
 10
441.31821933532041
 20
204.41868712846409
 30
0.0
 11
441.31821933532041
 21
200.41868712846409
 31
0.0
  0
LINE
  5
5E78
  8
0
  6
BYBLOCK
 62
     4
 10
442.81821933532052
 20
204.16868712846409
 30
0.0
 11
442.81821933532052
 21
200.41868712846409
 31
0.0
  0
LINE
  5
5E79
  8
0
  6
BYBLOCK
 62
     4
 10
439.81821933532041
 20
203.6686871284642
 30
0.0
 11
441.31821933532041
 21
203.66868712846409
 31
0.0
  0
LINE
  5
5E7A
  8
0
  6
BYBLOCK
 62
     4
 10
441.31821933532041
 20
204.41868712846409
 30
0.0
 11
442.56821933532041
 21
204.41868712846409
 31
0.0
  0
LINE
  5
5E7B
  8
0
  6
BYBLOCK
 62
     4
 10
442.56821933532041
 20
204.41868712846409
 30
0.0
 11
442.81821933532052
 21
204.16868712846409
 31
0.0
  0
LINE
  5
5E7C
  8
0
  6
BYBLOCK
 62
     4
 10
442.56821933532041
 20
204.41868712846409
 30
0.0
 11
442.56821933532041
 21
200.41868712846409
 31
0.0
  0
LINE
  5
5E7D
  8
0
  6
BYBLOCK
 62
     4
 10
428.02671933532031
 20
203.87718712846399
 30
0.0
 11
439.60971933532022
 21
203.87718712846399
 31
0.0
  0
LINE
  5
5E7E
  8
0
  6
BYBLOCK
 62
     4
 10
427.81821933532029
 20
203.66868712846409
 30
0.0
 11
428.56821933532029
 21
204.41868712846409
 31
0.0
  0
LINE
  5
5E7F
  8
0
  6
BYBLOCK
 62
     4
 10
428.56821933532029
 20
204.41868712846409
 30
0.0
 11
428.56821933532029
 21
200.41868712846409
 31
0.0
  0
LINE
  5
5E80
  8
0
  6
BYBLOCK
 62
     4
 10
439.06821933532041
 20
204.41868712846409
 30
0.0
 11
439.81821933532041
 21
203.66868712846409
 31
0.0
  0
LINE
  5
5E81
  8
0
  6
BYBLOCK
 62
     4
 10
439.06821933532041
 20
204.41868712846409
 30
0.0
 11
439.06821933532041
 21
200.41868712846409
 31
0.0
  0
ENDBLK
  5
5E82
  8
0
  0
BLOCK
  8
0
  2
SFGSG
 70
     0
 10
0.0
 20
0.0
 30
0.0
  3
SFGSG
  1

  0
POLYLINE
  5
7CFF
  8
0
  6
BYBLOCK
 62
     4
 66
     1
 10
0.0
 20
0.0
 30
0.0
 70
     1
  0
VERTEX
  5
8C8F
  8
0
  6
BYBLOCK
 62
     4
 10
-28.45639112519132
 20
73.248778647945187
 30
0.0
  0
VERTEX
  5
8C90
  8
0
  6
BYBLOCK
 62
     4
 10
-28.656391125191249
 20
72.715445314611827
 30
0.0
  0
VERTEX
  5
8C91
  8
0
  6
BYBLOCK
 62
     4
 10
-28.656391125191249
 20
71.945669756620589
 30
0.0
  0
VERTEX
  5
8C92
  8
0
  6
BYBLOCK
 62
     4
 10
-28.369510909839509
 20
71.448778647945119
 30
0.0
  0
VERTEX
  5
8C93
  8
0
  6
BYBLOCK
 62
     4
 10
-27.652346476590541
 20
71.448778647945119
 30
0.0
  0
VERTEX
  5
8C94
  8
0
  6
BYBLOCK
 62
     4
 10
-27.106391125191301
 20
69.948778647945119
 30
0.0
  0
VERTEX
  5
8C95
  8
0
  6
BYBLOCK
 62
     4
 10
-25.606391125191301
 20
69.948778647945119
 30
0.0
  0
VERTEX
  5
8C96
  8
0
  6
BYBLOCK
 62
     4
 10
-24.106391125191301
 20
69.948778647945119
 30
0.0
  0
VERTEX
  5
8C97
  8
0
  6
BYBLOCK
 62
     4
 10
-23.560435773791941
 20
71.448778647945119
 30
0.0
  0
VERTEX
  5
8C98
  8
0
  6
BYBLOCK
 62
     4
 10
-22.843271340542969
 20
71.448778647945119
 30
0.0
  0
VERTEX
  5
8C99
  8
0
  6
BYBLOCK
 62
     4
 10
-22.556391125191229
 20
71.945669756620589
 30
0.0
  0
VERTEX
  5
8C9A
  8
0
  6
BYBLOCK
 62
     4
 10
-22.556391125191229
 20
72.715445314611827
 30
0.0
  0
VERTEX
  5
8C9B
  8
0
  6
BYBLOCK
 62
     4
 10
-22.756391125191271
 20
73.248778647945187
 30
0.0
  0
VERTEX
  5
8C9C
  8
0
  6
BYBLOCK
 62
     4
 10
-22.756391125191271
 20
76.548778647945142
 30
0.0
  0
VERTEX
  5
8C9D
  8
0
  6
BYBLOCK
 62
     4
 10
-25.606391125191301
 20
76.548778647945142
 30
0.0
  0
VERTEX
  5
8C9E
  8
0
  6
BYBLOCK
 62
     4
 10
-28.45639112519121
 20
76.548778647945142
 30
0.0
  0
SEQEND
  5
8C9F
  8
0
  6
BYBLOCK
 62
     4
  0
LINE
  5
7D00
  8
0
  6
BYBLOCK
 62
     4
 10
-28.45639112519132
 20
73.248778647945187
 30
0.0
 11
-22.756391125191271
 21
73.248778647945187
 31
0.0
  0
LINE
  5
7D01
  8
0
  6
BYBLOCK
 62
     4
 10
-28.656391125191249
 20
72.715445314611827
 30
0.0
 11
-22.556391125191229
 21
72.715445314611827
 31
0.0
  0
LINE
  5
7D02
  8
0
  6
BYBLOCK
 62
     4
 10
-28.656391125191249
 20
71.945669756620589
 30
0.0
 11
-22.556391125191229
 21
71.945669756620589
 31
0.0
  0
LINE
  5
7D03
  8
0
  6
BYBLOCK
 62
     4
 10
-27.652346476590541
 20
71.448778647945119
 30
0.0
 11
-23.560435773791941
 21
71.448778647945119
 31
0.0
  0
LINE
  5
7D04
  8
0
  6
BYBLOCK
 62
     4
 10
-29.606391125191301
 20
88.548778647944914
 30
0.0
 11
-29.606391125191301
 21
86.748778647944391
 31
0.0
  0
LINE
  5
7D05
  8
0
  6
BYBLOCK
 62
     4
 10
-21.60639112519118
 20
88.548778647944786
 30
0.0
 11
-21.606391125191411
 21
86.748778647944718
 31
0.0
  0
LINE
  5
7D06
  8
0
  6
BYBLOCK
 62
     4
 10
-22.60639112519118
 20
76.748778647944846
 30
0.0
 11
-22.60639112519118
 21
86.548778647944573
 31
0.0
  0
LINE
  5
7D07
  8
0
  6
BYBLOCK
 62
     4
 10
-28.606391125191291
 20
86.5487786479448
 30
0.0
 11
-28.606391125191291
 21
76.748778647944945
 31
0.0
  0
LINE
  5
7D08
  8
0
  6
BYBLOCK
 62
     4
 10
-28.606391125191291
 20
76.748778647944945
 30
0.0
 11
-22.60639112519118
 21
76.748778647944846
 31
0.0
  0
LINE
  5
7D09
  8
0
  6
BYBLOCK
 62
     4
 10
-28.606391125191291
 20
76.748778647944945
 30
0.0
 11
-28.406391125191021
 21
76.548778647945142
 31
0.0
  0
LINE
  5
7D0A
  8
0
  6
BYBLOCK
 62
     4
 10
-22.80639112519134
 20
76.548778647945142
 30
0.0
 11
-22.60639112519118
 21
76.748778647944846
 31
0.0
  0
LINE
  5
7D0B
  8
0
  6
BYBLOCK
 62
     4
 10
-25.60639112519118
 20
86.548778647980427
 30
0.0
 11
-29.406391125191139
 21
86.5487786479448
 31
0.0
  0
LINE
  5
7D0C
  8
0
  6
BYBLOCK
 62
     4
 10
-29.406391125191139
 20
86.5487786479448
 30
0.0
 11
-29.606391125191301
 21
86.748778647944391
 31
0.0
  0
LINE
  5
7D0D
  8
0
  6
BYBLOCK
 62
     4
 10
-21.80639112519134
 20
86.548778647944459
 30
0.0
 11
-25.60639112519118
 21
86.548778647943891
 31
0.0
  0
LINE
  5
7D0E
  8
0
  6
BYBLOCK
 62
     4
 10
-21.80639112519134
 20
86.548778647944459
 30
0.0
 11
-21.606391125191411
 21
86.748778647944718
 31
0.0
  0
LINE
  5
7D0F
  8
0
  6
BYBLOCK
 62
     4
 10
-20.60639112519118
 20
96.048778647945156
 30
0.0
 11
-20.60639112519118
 21
100.0487786479449
 31
0.0
  0
LINE
  5
7D10
  8
0
  6
BYBLOCK
 62
     4
 10
-30.60639112519107
 20
100.0487786479451
 30
0.0
 11
-30.60639112519118
 21
96.048778647944815
 31
0.0
  0
LINE
  5
7D11
  8
0
  6
BYBLOCK
 62
     4
 10
-29.806391125191229
 20
101.3487786479447
 30
0.0
 11
-29.806391125191229
 21
88.748778647944974
 31
0.0
  0
LINE
  5
7D12
  8
0
  6
BYBLOCK
 62
     4
 10
-28.493142471138981
 20
101.048778647945
 30
0.0
 11
-28.493142471138871
 21
95.548778647945596
 31
0.0
  0
LINE
  5
7D13
  8
0
  6
BYBLOCK
 62
     4
 10
-27.04976679816502
 20
101.0487786479451
 30
0.0
 11
-27.049766798165368
 21
95.548778647945369
 31
0.0
  0
LINE
  5
7D14
  8
0
  6
BYBLOCK
 62
     4
 10
-21.406391125191249
 20
101.3487786479447
 30
0.0
 11
-21.406391125191359
 21
88.748778647944974
 31
0.0
  0
LINE
  5
7D15
  8
0
  6
BYBLOCK
 62
     4
 10
-24.163015452216879
 20
101.0487786479449
 30
0.0
 11
-24.163015452217561
 21
95.548778647945369
 31
0.0
  0
LINE
  5
7D16
  8
0
  6
BYBLOCK
 62
     4
 10
-22.71963977924327
 20
101.0487786479449
 30
0.0
 11
-22.71963977924327
 21
95.548778647945596
 31
0.0
  0
LINE
  5
7D17
  8
0
  6
BYBLOCK
 62
     4
 10
-22.71963977924327
 20
95.548778647945596
 30
0.0
 11
-28.493142471139549
 21
95.54877864794571
 31
0.0
  0
LINE
  5
7D18
  8
0
  6
BYBLOCK
 62
     4
 10
-23.106391125191301
 20
93.548778647945483
 30
0.0
 11
-28.106391125191411
 21
93.548778647945355
 31
0.0
  0
LINE
  5
7D19
  8
0
  6
BYBLOCK
 62
     4
 10
-23.10639112519118
 20
93.548778647945355
 30
0.0
 11
-25.606391125191301
 21
92.105402974971526
 31
0.0
  0
LINE
  5
7D1A
  8
0
  6
BYBLOCK
 62
     4
 10
-30.606391125191301
 20
95.048778647945255
 30
0.0
 11
-30.606391125191521
 21
89.548778647944914
 31
0.0
  0
LINE
  5
7D1B
  8
0
  6
BYBLOCK
 62
     4
 10
-28.106391125191411
 20
93.548778647945355
 30
0.0
 11
-25.606391125191301
 21
92.105402974971526
 31
0.0
  0
LINE
  5
7D1C
  8
0
  6
BYBLOCK
 62
     4
 10
-30.606391125191521
 20
89.548778647944914
 30
0.0
 11
-29.606391125191301
 21
88.548778647944914
 31
0.0
  0
LINE
  5
7D1D
  8
0
  6
BYBLOCK
 62
     4
 10
-30.60639112519118
 20
96.048778647944815
 30
0.0
 11
-30.606391125191301
 21
95.048778647945255
 31
0.0
  0
LINE
  5
7D1E
  8
0
  6
BYBLOCK
 62
     4
 10
-28.106391125191521
 20
95.54877864794571
 30
0.0
 11
-28.106391125191411
 21
93.548778647945355
 31
0.0
  0
LINE
  5
7D1F
  8
0
  6
BYBLOCK
 62
     4
 10
-20.606391125191301
 20
89.548778647944914
 30
0.0
 11
-20.606391125191411
 21
95.048778647945028
 31
0.0
  0
LINE
  5
7D20
  8
0
  6
BYBLOCK
 62
     4
 10
-21.60639112519118
 20
88.548778647944786
 30
0.0
 11
-20.606391125191301
 21
89.548778647944914
 31
0.0
  0
LINE
  5
7D21
  8
0
  6
BYBLOCK
 62
     4
 10
-23.106391125191301
 20
95.548778647945255
 30
0.0
 11
-23.106391125191301
 21
93.548778647945483
 31
0.0
  0
LINE
  5
7D22
  8
0
  6
BYBLOCK
 62
     4
 10
-20.606391125191411
 20
95.048778647945028
 30
0.0
 11
-20.60639112519118
 21
96.048778647945156
 31
0.0
  0
LINE
  5
7D23
  8
0
  6
BYBLOCK
 62
     4
 10
-21.60639112519107
 20
101.5487786479451
 30
0.0
 11
-29.606391125191301
 21
101.5487786479451
 31
0.0
  0
LINE
  5
7D24
  8
0
  6
BYBLOCK
 62
     4
 10
-22.71963977924327
 20
101.0487786479449
 30
0.0
 11
-25.60639112519118
 21
101.0487786479449
 31
0.0
  0
LINE
  5
7D25
  8
0
  6
BYBLOCK
 62
     4
 10
-30.606391125190839
 20
100.548778647945
 30
0.0
 11
-20.60639112519118
 21
100.5487786479452
 31
0.0
  0
LINE
  5
7D26
  8
0
  6
BYBLOCK
 62
     4
 10
-28.493142471138981
 20
101.048778647945
 30
0.0
 11
-25.60639112519118
 21
101.0487786479449
 31
0.0
  0
LINE
  5
7D27
  8
0
  6
BYBLOCK
 62
     4
 10
-30.60639112519107
 20
100.0487786479451
 30
0.0
 11
-30.60639112519107
 21
100.0487786479451
 31
0.0
  0
LINE
  5
7D28
  8
0
  6
BYBLOCK
 62
     4
 10
-30.606391125190839
 20
100.548778647945
 30
0.0
 11
-30.60639112519107
 21
100.0487786479451
 31
0.0
  0
LINE
  5
7D29
  8
0
  6
BYBLOCK
 62
     4
 10
-29.606391125191301
 20
101.5487786479451
 30
0.0
 11
-30.606391125190839
 21
100.548778647945
 31
0.0
  0
LINE
  5
7D2A
  8
0
  6
BYBLOCK
 62
     4
 10
-28.993142471138871
 20
101.5487786479452
 30
0.0
 11
-28.493142471138981
 21
101.048778647945
 31
0.0
  0
LINE
  5
7D2B
  8
0
  6
BYBLOCK
 62
     4
 10
-22.219639779243259
 20
101.5487786479448
 30
0.0
 11
-22.71963977924327
 21
101.0487786479449
 31
0.0
  0
LINE
  5
7D2C
  8
0
  6
BYBLOCK
 62
     4
 10
-20.60639112519118
 20
100.5487786479449
 30
0.0
 11
-21.60639112519107
 21
101.5487786479451
 31
0.0
  0
LINE
  5
7D2D
  8
0
  6
BYBLOCK
 62
     4
 10
-20.60639112519118
 20
100.0487786479449
 30
0.0
 11
-20.60639112519118
 21
100.5487786479449
 31
0.0
  0
LINE
  5
7D2E
  8
0
  6
BYBLOCK
 62
     4
 10
-20.60639112519118
 20
100.0487786479449
 30
0.0
 11
-20.60639112519118
 21
100.0487786479449
 31
0.0
  0
LINE
  5
7D2F
  8
0
  6
BYBLOCK
 62
     4
 10
-28.406391125191021
 20
76.548778647945142
 30
0.0
 11
-25.606391125191301
 21
76.548778647945142
 31
0.0
  0
LINE
  5
7D30
  8
0
  6
BYBLOCK
 62
     4
 10
-25.606391125191301
 20
76.548778647945142
 30
0.0
 11
-22.80639112519134
 21
76.548778647945142
 31
0.0
  0
LINE
  5
7D31
  8
0
  6
BYBLOCK
 62
     4
 10
-29.606391125191301
 20
86.748778647944391
 30
0.0
 11
-25.606391125191301
 21
86.748778647944391
 31
0.0
  0
LINE
  5
7D32
  8
0
  6
BYBLOCK
 62
     4
 10
-25.606391125191301
 20
86.748778647944391
 30
0.0
 11
-21.606391125191411
 21
86.748778647944718
 31
0.0
  0
LINE
  5
7D33
  8
0
  6
BYBLOCK
 62
     4
 10
-29.606391125191301
 20
88.548778647944914
 30
0.0
 11
-25.606391125191301
 21
88.548778647944914
 31
0.0
  0
LINE
  5
7D34
  8
0
  6
BYBLOCK
 62
     4
 10
-25.606391125191301
 20
88.548778647944914
 30
0.0
 11
-21.60639112519118
 21
88.548778647944403
 31
0.0
  0
LINE
  5
7D35
  8
0
  6
BYBLOCK
 62
     4
 10
-30.606391125191521
 20
89.548778647944914
 30
0.0
 11
-25.60639112519118
 21
89.548778647944914
 31
0.0
  0
LINE
  5
7D36
  8
0
  6
BYBLOCK
 62
     4
 10
-25.60639112519118
 20
89.548778647944914
 30
0.0
 11
-20.606391125191301
 21
89.548778647944914
 31
0.0
  0
ENDBLK
  5
7CFE
  8
0
  0
BLOCK
  8
0
  2
*D135
 70
     1
 10
0.0
 20
0.0
 30
0.0
  3
*D135
  1

  0
LINE
  5
8D6B
  8
0
  6
CONTINUOUS
 62
     2
 10
272.0673544055885
 20
129.70981105912381
 30
0.0
 11
291.21114854129809
 21
129.70981105912381
 31
0.0
  0
LINE
  5
8D6C
  8
0
  6
CONTINUOUS
 62
     2
 10
272.0673544055885
 20
153.70981105912381
 30
0.0
 11
291.21114854129809
 21
153.70981105912381
 31
0.0
  0
LINE
  5
8D6D
  8
0
  6
CONTINUOUS
 62
     2
 10
290.21114854129809
 20
132.20981105912381
 30
0.0
 11
290.21114854129809
 21
151.20981105912389
 31
0.0
  0
SOLID
  5
8D6E
  8
0
  6
CONTINUOUS
 62
     2
 10
289.7944818746314
 20
132.20981105912381
 30
0.0
 11
290.62781520796477
 21
132.20981105912381
 31
0.0
 12
290.21114854129809
 22
129.70981105912381
 32
0.0
 13
290.21114854129809
 23
129.70981105912381
 33
0.0
  0
SOLID
  5
8D6F
  8
0
  6
CONTINUOUS
 62
     2
 10
289.7944818746314
 20
151.20981105912389
 30
0.0
 11
290.62781520796477
 21
151.20981105912389
 31
0.0
 12
290.21114854129809
 22
153.70981105912381
 32
0.0
 13
290.21114854129809
 23
153.70981105912381
 33
0.0
  0
TEXT
  8
0
  40
3
  5
8E72
  62
3
  72
0
  71
0
 10
288.111
 20
137.810
 30
0.000000
  1
%%c24
  0
POINT
  5
8D71
  8
DEFPOINTS
  6
CONTINUOUS
 62
     0
 10
271.46735440558848
 20
129.70981105912381
 30
0.0
  0
POINT
  5
8D72
  8
DEFPOINTS
  6
CONTINUOUS
 62
     0
 10
271.46735440558848
 20
153.70981105912381
 30
0.0
  0
POINT
  5
8D73
  8
DEFPOINTS
  6
CONTINUOUS
 62
     0
 10
290.21114854129809
 20
153.70981105912381
 30
0.0
  0
ENDBLK
  5
83D4
  8
0
  0
BLOCK
  8
0
  2
*D138
 70
     1
 10
0.0
 20
0.0
 30
0.0
  3
*D138
  1

  0
LINE
  5
8D58
  8
0
  6
CONTINUOUS
 62
     2
 10
182.06735440558811
 20
124.99311092365021
 30
0.0
 11
299.21114854129797
 21
124.99311092365009
 31
0.0
  0
LINE
  5
8D59
  8
0
  6
CONTINUOUS
 62
     2
 10
182.06735440558811
 20
158.42651119459759
 30
0.0
 11
299.21114854129809
 21
158.42651119459751
 31
0.0
  0
LINE
  5
8D5A
  8
0
  6
CONTINUOUS
 62
     2
 10
298.21114854129797
 20
127.49311092365021
 30
0.0
 11
298.21114854129809
 21
155.92651119459751
 31
0.0
  0
SOLID
  5
8D5B
  8
0
  6
CONTINUOUS
 62
     2
 10
297.79448187463129
 20
127.49311092365021
 30
0.0
 11
298.62781520796472
 21
127.49311092365021
 31
0.0
 12
298.21114854129797
 22
124.99311092365009
 32
0.0
 13
298.21114854129797
 23
124.99311092365009
 33
0.0
  0
SOLID
  5
8D5C
  8
0
  6
CONTINUOUS
 62
     2
 10
297.7944818746314
 20
155.92651119459751
 30
0.0
 11
298.62781520796477
 21
155.92651119459751
 31
0.0
 12
298.21114854129809
 22
158.42651119459751
 32
0.0
 13
298.21114854129809
 23
158.42651119459751
 33
0.0
  0
TEXT
  8
0
  40
3
  5
8E73
  62
3
  72
0
  71
0
 10
295.961
 20
137.810
 30
0.000000
  1
(%%c33.43)
  0
POINT
  5
8D5E
  8
DEFPOINTS
  6
CONTINUOUS
 62
     0
 10
181.46735440558811
 20
124.99311092365021
 30
0.0
  0
POINT
  5
8D5F
  8
DEFPOINTS
  6
CONTINUOUS
 62
     0
 10
181.46735440558811
 20
158.42651119459759
 30
0.0
  0
POINT
  5
8D60
  8
DEFPOINTS
  6
CONTINUOUS
 62
     0
 10
298.21114854129809
 20
158.42651119459751
 30
0.0
  0
ENDBLK
  5
83F5
  8
0
  0
BLOCK
  8
0
  2
*D140
 70
     1
 10
0.0
 20
0.0
 30
0.0
  3
*D140
  1

  0
LINE
  5
8D3D
  8
0
  6
CONTINUOUS
 62
     2
 10
94.467354405588367
 20
119.53631012279401
 30
0.0
 11
94.467354405588367
 21
77.094225326111413
 31
0.0
  0
LINE
  5
8D3E
  8
0
  6
CONTINUOUS
 62
     2
 10
271.46735440558848
 20
131.58429334248129
 30
0.0
 11
271.46735440558848
 21
77.094225326111413
 31
0.0
  0
LINE
  5
8D3F
  8
0
  6
CONTINUOUS
 62
     2
 10
96.967354405588367
 20
78.094225326111427
 30
0.0
 11
268.96735440558848
 21
78.094225326111427
 31
0.0
  0
SOLID
  5
8D40
  8
0
  6
CONTINUOUS
 62
     2
 10
96.967354405588367
 20
78.510891992778099
 30
0.0
 11
96.967354405588367
 21
77.677558659444756
 31
0.0
 12
94.467354405588367
 22
78.094225326111427
 32
0.0
 13
94.467354405588367
 23
78.094225326111427
 33
0.0
  0
SOLID
  5
8D41
  8
0
  6
CONTINUOUS
 62
     2
 10
268.96735440558848
 20
78.510891992778099
 30
0.0
 11
268.96735440558848
 21
77.677558659444756
 31
0.0
 12
271.46735440558848
 22
78.094225326111427
 32
0.0
 13
271.46735440558848
 23
78.094225326111427
 33
0.0
  0
TEXT
  8
0
  40
3
  5
8E74
  62
3
  72
0
  71
0
 10
182.967
 20
76.2942
 30
0.000000
  1
177
  0
POINT
  5
8D43
  8
DEFPOINTS
  6
CONTINUOUS
 62
     0
 10
94.467354405588367
 20
120.136310122794
 30
0.0
  0
POINT
  5
8D44
  8
DEFPOINTS
  6
CONTINUOUS
 62
     0
 10
271.46735440558848
 20
132.18429334248131
 30
0.0
  0
POINT
  5
8D45
  8
DEFPOINTS
  6
CONTINUOUS
 62
     0
 10
271.46735440558848
 20
78.094225326111427
 30
0.0
  0
ENDBLK
  5
840B
  8
0
  0
BLOCK
  8
0
  2
*D141
 70
     1
 10
0.0
 20
0.0
 30
0.0
  3
*D141
  1

  0
LINE
  5
8D46
  8
0
  6
CONTINUOUS
 62
     2
 10
126.4673544055883
 20
110.1098110591238
 30
0.0
 11
126.4673544055883
 21
85.094225326111427
 31
0.0
  0
LINE
  5
8D47
  8
0
  6
CONTINUOUS
 62
     2
 10
271.46735440558848
 20
131.58429334248129
 30
0.0
 11
271.46735440558848
 21
85.094225326111427
 31
0.0
  0
LINE
  5
8D48
  8
0
  6
CONTINUOUS
 62
     2
 10
128.96735440558831
 20
86.094225326111427
 30
0.0
 11
268.96735440558848
 21
86.094225326111427
 31
0.0
  0
SOLID
  5
8D49
  8
0
  6
CONTINUOUS
 62
     2
 10
128.96735440558831
 20
86.510891992778099
 30
0.0
 11
128.96735440558831
 21
85.677558659444756
 31
0.0
 12
126.4673544055883
 22
86.094225326111427
 32
0.0
 13
126.4673544055883
 23
86.094225326111427
 33
0.0
  0
SOLID
  5
8D4A
  8
0
  6
CONTINUOUS
 62
     2
 10
268.96735440558848
 20
86.510891992778099
 30
0.0
 11
268.96735440558848
 21
85.677558659444756
 31
0.0
 12
271.46735440558848
 22
86.094225326111427
 32
0.0
 13
271.46735440558848
 23
86.094225326111427
 33
0.0
  0
TEXT
  8
0
  40
3
  5
8E75
  62
3
  72
0
  71
0
 10
198.967
 20
84.2942
 30
0.000000
  1
145
  0
POINT
  5
8D4C
  8
DEFPOINTS
  6
CONTINUOUS
 62
     0
 10
126.4673544055883
 20
110.70981105912379
 30
0.0
  0
POINT
  5
8D4D
  8
DEFPOINTS
  6
CONTINUOUS
 62
     0
 10
271.46735440558848
 20
132.18429334248131
 30
0.0
  0
POINT
  5
8D4E
  8
DEFPOINTS
  6
CONTINUOUS
 62
     0
 10
271.46735440558848
 20
86.094225326111427
 30
0.0
  0
ENDBLK
  5
8417
  8
0
  0
BLOCK
  8
0
  2
*D144
 70
     1
 10
0.0
 20
0.0
 30
0.0
  3
*D144
  1

  0
LINE
  5
8D4F
  8
0
  6
CONTINUOUS
 62
     2
 10
181.46735440558811
 20
124.3931109236502
 30
0.0
 11
181.46735440558811
 21
93.094225326111413
 31
0.0
  0
LINE
  5
8D50
  8
0
  6
CONTINUOUS
 62
     2
 10
271.46735440558848
 20
131.58429334248129
 30
0.0
 11
271.46735440558848
 21
93.094225326111413
 31
0.0
  0
LINE
  5
8D51
  8
0
  6
CONTINUOUS
 62
     2
 10
183.96735440558811
 20
94.094225326111427
 30
0.0
 11
268.96735440558848
 21
94.094225326111427
 31
0.0
  0
SOLID
  5
8D52
  8
0
  6
CONTINUOUS
 62
     2
 10
183.96735440558811
 20
94.510891992778085
 30
0.0
 11
183.96735440558811
 21
93.677558659444756
 31
0.0
 12
181.46735440558811
 22
94.094225326111427
 32
0.0
 13
181.46735440558811
 23
94.094225326111427
 33
0.0
  0
SOLID
  5
8D53
  8
0
  6
CONTINUOUS
 62
     2
 10
268.96735440558848
 20
94.510891992778085
 30
0.0
 11
268.96735440558848
 21
93.677558659444756
 31
0.0
 12
271.46735440558848
 22
94.094225326111427
 32
0.0
 13
271.46735440558848
 23
94.094225326111427
 33
0.0
  0
TEXT
  8
0
  40
3
  5
8E76
  62
3
  72
0
  71
0
 10
226.467
 20
92.2942
 30
0.000000
  1
90
  0
POINT
  5
8D55
  8
DEFPOINTS
  6
CONTINUOUS
 62
     0
 10
181.46735440558811
 20
124.99311092365021
 30
0.0
  0
POINT
  5
8D56
  8
DEFPOINTS
  6
CONTINUOUS
 62
     0
 10
271.46735440558848
 20
132.18429334248131
 30
0.0
  0
POINT
  5
8D57
  8
DEFPOINTS
  6
CONTINUOUS
 62
     0
 10
271.46735440558848
 20
94.094225326111427
 30
0.0
  0
ENDBLK
  5
8439
  8
0
  0
BLOCK
  8
0
  2
*D158
 70
     1
 10
0.0
 20
0.0
 30
0.0
  3
*D158
  1

  0
LINE
  5
8DDB
  8
0
  6
CONTINUOUS
 62
     2
 10
176.1302884606462
 20
166.70981105912381
 30
0.0
 11
307.21114854129809
 21
166.70981105912369
 31
0.0
  0
LINE
  5
8DDC
  8
0
  6
CONTINUOUS
 62
     2
 10
176.1302884606462
 20
116.70981105912389
 30
0.0
 11
307.21114854129797
 21
116.70981105912379
 31
0.0
  0
LINE
  5
8DDD
  8
0
  6
CONTINUOUS
 62
     2
 10
306.21114854129809
 20
164.20981105912369
 30
0.0
 11
306.21114854129797
 21
119.20981105912379
 31
0.0
  0
SOLID
  5
8DDE
  8
0
  6
CONTINUOUS
 62
     2
 10
305.7944818746314
 20
164.20981105912369
 30
0.0
 11
306.62781520796477
 21
164.20981105912369
 31
0.0
 12
306.21114854129809
 22
166.70981105912369
 32
0.0
 13
306.21114854129809
 23
166.70981105912369
 33
0.0
  0
SOLID
  5
8DDF
  8
0
  6
CONTINUOUS
 62
     2
 10
305.79448187463129
 20
119.20981105912379
 30
0.0
 11
306.62781520796472
 21
119.20981105912379
 31
0.0
 12
306.21114854129797
 22
116.70981105912379
 32
0.0
 13
306.21114854129797
 23
116.70981105912379
 33
0.0
  0
TEXT
  8
0
  40
3
  5
8E77
  62
3
  72
0
  71
0
 10
304.111
 20
137.810
 30
0.000000
  1
%%c50
  0
POINT
  5
8DE1
  8
DEFPOINTS
  6
CONTINUOUS
 62
     0
 10
175.5302884606462
 20
166.70981105912381
 30
0.0
  0
POINT
  5
8DE2
  8
DEFPOINTS
  6
CONTINUOUS
 62
     0
 10
175.5302884606462
 20
116.70981105912389
 30
0.0
  0
POINT
  5
8DE3
  8
DEFPOINTS
  6
CONTINUOUS
 62
     0
 10
306.21114854129797
 20
116.70981105912379
 30
0.0
  0
ENDBLK
  5
85C6
  8
0
  0
BLOCK
  8
0
  2
*D183
 70
     1
 10
0.0
 20
0.0
 30
0.0
  3
*D183
  1

  0
LINE
  5
8E56
  8
0
  6
CONTINUOUS
 62
     2
 10
271.0673544055885
 20
146.4723110591238
 30
0.0
 11
283.21114854129797
 21
146.4723110591238
 31
0.0
  0
LINE
  5
8E57
  8
0
  6
CONTINUOUS
 62
     2
 10
271.36735440558851
 20
136.94731105912379
 30
0.0
 11
283.21114854129797
 21
136.94731105912379
 31
0.0
  0
LINE
  5
8E58
  8
0
  6
CONTINUOUS
 62
     2
 10
282.21114854129797
 20
143.9723110591238
 30
0.0
 11
282.21114854129797
 21
139.44731105912379
 31
0.0
  0
LINE
  5
8E59
  8
0
  6
CONTINUOUS
 62
     2
 10
282.21114854129797
 20
136.94731105912379
 30
0.0
 11
282.21114854129797
 21
122.0125639989291
 31
0.0
  0
SOLID
  5
8E5A
  8
0
  6
CONTINUOUS
 62
     2
 10
281.7944818746314
 20
143.9723110591238
 30
0.0
 11
282.62781520796472
 21
143.9723110591238
 31
0.0
 12
282.21114854129797
 22
146.4723110591238
 32
0.0
 13
282.21114854129797
 23
146.4723110591238
 33
0.0
  0
SOLID
  5
8E5B
  8
0
  6
CONTINUOUS
 62
     2
 10
281.7944818746314
 20
139.44731105912379
 30
0.0
 11
282.62781520796472
 21
139.44731105912379
 31
0.0
 12
282.21114854129797
 22
136.94731105912379
 32
0.0
 13
282.21114854129797
 23
136.94731105912379
 33
0.0
  0
TEXT
  8
0
  40
3
  5
8E78
  62
3
  72
0
  71
0
 10
280.110
 20
124.330
 30
0.000000
  1
%%c9.525
  0
POINT
  5
8E5D
  8
DEFPOINTS
  6
CONTINUOUS
 62
     0
 10
270.46735440558848
 20
146.4723110591238
 30
0.0
  0
POINT
  5
8E5E
  8
DEFPOINTS
  6
CONTINUOUS
 62
     0
 10
270.76735440558849
 20
136.94731105912379
 30
0.0
  0
POINT
  5
8E5F
  8
DEFPOINTS
  6
CONTINUOUS
 62
     0
 10
282.21114854129797
 20
136.94731105912379
 30
0.0
  0
ENDBLK
  5
886A
  8
0
  0
BLOCK
  8
0
  2
*D184
 70
     1
 10
0.0
 20
0.0
 30
0.0
  3
*D184
  1

  0
LINE
  5
8E60
  8
0
  6
CONTINUOUS
 62
     2
 10
126.3673544055912
 20
173.20981105912381
 30
0.0
 11
79.105934005282975
 21
173.20981105912381
 31
0.0
  0
LINE
  5
8E61
  8
0
  6
CONTINUOUS
 62
     2
 10
126.3673544055912
 20
110.20981105912379
 30
0.0
 11
79.105934005282961
 21
110.20981105912379
 31
0.0
  0
LINE
  5
8E62
  8
0
  6
CONTINUOUS
 62
     2
 10
80.105934005282975
 20
170.70981105912381
 30
0.0
 11
80.105934005282961
 21
112.70981105912379
 31
0.0
  0
SOLID
  5
8E63
  8
0
  6
CONTINUOUS
 62
     2
 10
79.689267338616304
 20
170.70981105912381
 30
0.0
 11
80.522600671949647
 21
170.70981105912381
 31
0.0
 12
80.105934005282975
 22
173.20981105912381
 32
0.0
 13
80.105934005282975
 23
173.20981105912381
 33
0.0
  0
SOLID
  5
8E64
  8
0
  6
CONTINUOUS
 62
     2
 10
79.689267338616276
 20
112.70981105912379
 30
0.0
 11
80.522600671949618
 21
112.70981105912379
 31
0.0
 12
80.105934005282961
 22
110.20981105912379
 32
0.0
 13
80.105934005282961
 23
110.20981105912379
 33
0.0
  0
TEXT
  8
0
  40
3
  5
8E79
  62
3
  72
0
  71
0
 10
78.0059
 20
137.810
 30
0.000000
  1
HSK63A
  0
POINT
  5
8E66
  8
DEFPOINTS
  6
CONTINUOUS
 62
     0
 10
126.96735440559119
 20
173.20981105912381
 30
0.0
  0
POINT
  5
8E67
  8
DEFPOINTS
  6
CONTINUOUS
 62
     0
 10
126.96735440559119
 20
110.20981105912379
 30
0.0
  0
POINT
  5
8E68
  8
DEFPOINTS
  6
CONTINUOUS
 62
     0
 10
80.105934005282961
 20
110.20981105912379
 30
0.0
  0
ENDBLK
  5
89CA
  8
0
  0
BLOCK
  8
0
  2
*D185
 70
     1
 10
0.0
 20
0.0
 30
0.0
  3
*D185
  1

  0
LINE
  5
8E69
  8
0
  6
CONTINUOUS
 62
     2
 10
239.46735440558831
 20
147.3098110591238
 30
0.0
 11
239.46735440558831
 21
176.53267739699541
 31
0.0
  0
LINE
  5
8E6A
  8
0
  6
CONTINUOUS
 62
     2
 10
271.46735440558848
 20
153.8353287757663
 30
0.0
 11
271.46735440558848
 21
176.53267739699541
 31
0.0
  0
LINE
  5
8E6B
  8
0
  6
CONTINUOUS
 62
     2
 10
241.9673544055882
 20
175.53267739699541
 30
0.0
 11
268.96735440558848
 21
175.53267739699541
 31
0.0
  0
SOLID
  5
8E6C
  8
0
  6
CONTINUOUS
 62
     2
 10
241.9673544055882
 20
175.94934406366201
 30
0.0
 11
241.9673544055882
 21
175.1160107303287
 31
0.0
 12
239.46735440558831
 22
175.53267739699541
 32
0.0
 13
239.46735440558831
 23
175.53267739699541
 33
0.0
  0
SOLID
  5
8E6D
  8
0
  6
CONTINUOUS
 62
     2
 10
268.96735440558848
 20
175.94934406366201
 30
0.0
 11
268.96735440558848
 21
175.1160107303287
 31
0.0
 12
271.46735440558848
 22
175.53267739699541
 32
0.0
 13
271.46735440558848
 23
175.53267739699541
 33
0.0
  0
TEXT
  8
0
  40
3
  5
8E7A
  62
3
  72
0
  71
0
 10
255.467
 20
173.733
 30
0.000000
  1
32
  0
POINT
  5
8E6F
  8
DEFPOINTS
  6
CONTINUOUS
 62
     0
 10
239.46735440558831
 20
146.70981105912381
 30
0.0
  0
POINT
  5
8E70
  8
DEFPOINTS
  6
CONTINUOUS
 62
     0
 10
271.46735440558848
 20
153.23532877576639
 30
0.0
  0
POINT
  5
8E71
  8
DEFPOINTS
  6
CONTINUOUS
 62
     0
 10
271.46735440558848
 20
175.53267739699541
 30
0.0
  0
ENDBLK
  5
89D7
  8
0
  0
BLOCK
  8
0
  2
*U186
 70
     1
 10
0.0
 20
0.0
 30
0.0
  3
*U186
  1

  0
TEXT
  5
8AC1
  8
0
  6
CONTINUOUS
 62
     3
 10
312.94289275909898
 20
203.81814655142881
 30
0.0
 40
3.0
  1
8.5
 50
90.0
  0
TEXT
  5
8AC2
  8
0
  6
CONTINUOUS
 62
     3
 10
310.35123921579191
 20
208.60314655142881
 30
0.0
 40
2.1000000000000001
  1
+0.1
 50
90.0
  0
TEXT
  5
8AC3
  8
0
  6
CONTINUOUS
 62
     3
 10
312.94289275909898
 20
208.60314655142881
 30
0.0
 40
2.1000000000000001
  1
-0
 50
90.0
  0
ENDBLK
  5
8AC5
  8
0
  0
BLOCK
  8
0
  2
*U187
 70
     1
 10
0.0
 20
0.0
 30
0.0
  3
*U187
  1

  0
TEXT
  5
8AC7
  8
0
  6
CONTINUOUS
 62
     3
 10
15.992665508178201
 20
191.21715412737959
 30
0.0
 40
3.0
  1
\U+220548.01
 50
90.0
  0
TEXT
  5
8AC8
  8
0
  6
CONTINUOUS
 62
     3
 10
15.992665508178201
 20
202.9171541273796
 30
0.0
 40
2.1000000000000001
  1
¡¾0.003
 50
90.0
  0
ENDBLK
  5
8ACA
  8
0
  0
BLOCK
  8
0
  2
*U188
 70
     1
 10
0.0
 20
0.0
 30
0.0
  3
*U188
  1

  0
TEXT
  5
8ACC
  8
0
  6
CONTINUOUS
 62
     3
 10
23.992665508178209
 20
195.34814655142881
 30
0.0
 40
3.0
  1
\U+220534
 50
90.0
  0
TEXT
  5
8ACD
  8
0
  6
CONTINUOUS
 62
     3
 10
21.401011964871131
 20
202.2331465514288
 30
0.0
 40
2.1000000000000001
  1
+0.1
 50
90.0
  0
TEXT
  5
8ACE
  8
0
  6
CONTINUOUS
 62
     3
 10
23.992665508178209
 20
202.2331465514288
 30
0.0
 40
2.1000000000000001
  1
-0
 50
90.0
  0
ENDBLK
  5
8AD0
  8
0
  0
BLOCK
  8
0
  2
*U189
 70
     1
 10
0.0
 20
0.0
 30
0.0
  3
*U189
  1

  0
TEXT
  5
8AE9
  8
0
  6
CONTINUOUS
 62
     3
 10
355.13769181391069
 20
243.64516385858369
 30
0.0
 40
3.0
  1
12
  0
ENDBLK
  5
8AEB
  8
0
  0
BLOCK
  8
0
  2
*U190
 70
     1
 10
0.0
 20
0.0
 30
0.0
  3
*U190
  1

  0
TEXT
  5
8AED
  8
0
  6
CONTINUOUS
 62
     3
 10
171.16362845274929
 20
46.143651136886511
 30
0.0
 40
3.0
  1
35¡Æ
 50
342.49999999999989
  0
ENDBLK
  5
8AEF
  8
0
  0
BLOCK
  8
0
  2
*U191
 70
     1
 10
0.0
 20
0.0
 30
0.0
  3
*U191
  1

  0
TEXT
  5
8AF1
  8
0
  6
CONTINUOUS
 62
     3
 10
98.490341066710144
 20
92.186646613589033
 30
0.0
 40
3.0
  1
15
 50
90.0
  0
ENDBLK
  5
8AF3
  8
0
  0
BLOCK
  8
0
  2
*U192
 70
     1
 10
0.0
 20
0.0
 30
0.0
  3
*U192
  1

  0
TEXT
  5
8AF8
  8
0
  6
CONTINUOUS
 62
     3
 10
81.578466745685574
 20
72.954021935871324
 30
0.0
 40
3.0
  1
11
 50
90.0
  0
ENDBLK
  5
8AFA
  8
0
  0
BLOCK
  8
0
  2
*U193
 70
     1
 10
0.0
 20
0.0
 30
0.0
  3
*U193
  1

  0
TEXT
  5
8AFC
  8
0
  6
CONTINUOUS
 62
     3
 10
344.80975428706768
 20
161.94556682035781
 30
0.0
 40
3.0
  1
39
  0
ENDBLK
  5
8AFE
  8
0
  0
BLOCK
  8
0
  2
*U194
 70
     1
 10
0.0
 20
0.0
 30
0.0
  3
*U194
  1

  0
TEXT
  5
8B00
  8
0
  6
CONTINUOUS
 62
     3
 10
76.189567911548878
 20
162.15256081841591
 30
0.0
 40
3.0
  1
7
  0
ENDBLK
  5
8B02
  8
0
  0
BLOCK
  8
0
  2
*U195
 70
     1
 10
0.0
 20
0.0
 30
0.0
  3
*U195
  1

  0
TEXT
  5
8B04
  8
0
  6
CONTINUOUS
 62
     3
 10
127.38956791154619
 20
138.15256081841639
 30
0.0
 40
3.0
  1
177
  0
ENDBLK
  5
8B06
  8
0
  0
BLOCK
  8
0
  2
*U196
 70
     1
 10
0.0
 20
0.0
 30
0.0
  3
*U196
  1

  0
TEXT
  5
8B08
  8
0
  6
CONTINUOUS
 62
     3
 10
143.17743587719019
 20
146.15256081841639
 30
0.0
 40
3.0
  1
145
  0
ENDBLK
  5
8B0A
  8
0
  0
BLOCK
  8
0
  2
*U197
 70
     1
 10
0.0
 20
0.0
 30
0.0
  3
*U197
  1

  0
TEXT
  5
8B0C
  8
0
  6
CONTINUOUS
 62
     3
 10
53.14650590367485
 20
146.15256081841639
 30
0.0
 40
3.0
  1
32
  0
TEXT
  5
8B0D
  8
0
  6
CONTINUOUS
 62
     3
 10
57.031505903674862
 20
148.84880097589669
 30
0.0
 40
2.1000000000000001
  1
+0
  0
TEXT
  5
8B0E
  8
0
  6
CONTINUOUS
 62
     3
 10
57.031505903674862
 20
146.15256081841639
 30
0.0
 40
2.1000000000000001
  1
-0.2
  0
ENDBLK
  5
8B10
  8
0
  0
BLOCK
  8
0
  2
*U198
 70
     1
 10
0.0
 20
0.0
 30
0.0
  3
*U198
  1

  0
TEXT
  5
8B12
  8
0
  6
CONTINUOUS
 62
     3
 10
82.457658462729981
 20
154.15256081841639
 30
0.0
 40
3.0
  1
26
  0
TEXT
  5
8B13
  8
0
  6
CONTINUOUS
 62
     3
 10
86.342658462729972
 20
156.74421436172349
 30
0.0
 40
2.1000000000000001
  1
+0
  0
TEXT
  5
8B14
  8
0
  6
CONTINUOUS
 62
     3
 10
86.342658462729972
 20
154.15256081841639
 30
0.0
 40
2.1000000000000001
  1
-0.1
  0
ENDBLK
  5
8B16
  8
0
  0
BLOCK
  8
0
  2
*U199
 70
     1
 10
0.0
 20
0.0
 30
0.0
  3
*U199
  1

  0
TEXT
  5
8B18
  8
0
  6
CONTINUOUS
 62
     3
 10
103.7395679115522
 20
154.15256081841639
 30
0.0
 40
3.0
  1
11
  0
ENDBLK
  5
8B1A
  8
0
  0
BLOCK
  8
0
  2
*U200
 70
     1
 10
0.0
 20
0.0
 30
0.0
  3
*U200
  1

  0
TEXT
  5
8B1C
  8
0
  6
CONTINUOUS
 62
     3
 10
399.78255955361323
 20
106.4125791969519
 30
0.0
 40
3.0
  1
0.5
 50
87.000000000000924
  0
ENDBLK
  5
8B1E
  8
0
  0
BLOCK
  8
0
  2
*U201
 70
     1
 10
0.0
 20
0.0
 30
0.0
  3
*U201
  1

  0
TEXT
  5
8B20
  8
0
  6
CONTINUOUS
 62
     3
 10
327.60783748267431
 20
132.42957362893659
 30
0.0
 40
3.0
  1
4
 50
357.0000000000008
  0
ENDBLK
  5
8B22
  8
0
  0
BLOCK
  8
0
  2
*U202
 70
     1
 10
0.0
 20
0.0
 30
0.0
  3
*U202
  1

  0
TEXT
  5
8B24
  8
0
  6
CONTINUOUS
 62
     3
 10
379.77336374402728
 20
137.3780140468308
 30
0.0
 40
3.0
  1
60¡Æ
 50
356.99999999999341
  0
ENDBLK
  5
8B26
  8
0
  0
BLOCK
  8
0
  2
*U203
 70
     1
 10
0.0
 20
0.0
 30
0.0
  3
*U203
  1

  0
TEXT
  5
8B28
  8
0
  6
CONTINUOUS
 62
     3
 10
351.69374835949338
 20
131.5678334662725
 30
0.0
 40
3.0
  1
2
 50
357.0000000000008
  0
ENDBLK
  5
8B2A
  8
0
  0
BLOCK
  8
0
  2
*U204
 70
     1
 10
0.0
 20
0.0
 30
0.0
  3
*U204
  1

  0
TEXT
  5
8B2C
  8
0
  6
CONTINUOUS
 62
     3
 10
341.19801813000907
 20
132.1178913795535
 30
0.0
 40
3.0
  1
5
 50
357.0000000000008
  0
ENDBLK
  5
8B2E
  8
0
  0
BLOCK
  8
0
  2
*U205
 70
     1
 10
0.0
 20
0.0
 30
0.0
  3
*U205
  1

  0
TEXT
  5
8B30
  8
0
  6
CONTINUOUS
 62
     3
 10
381.07117844502068
 20
127.59120332063389
 30
0.0
 40
3.0
  1
2
 50
357.0000000000008
  0
ENDBLK
  5
8B32
  8
0
  0
BLOCK
  8
0
  2
*U206
 70
     1
 10
0.0
 20
0.0
 30
0.0
  3
*U206
  1

  0
TEXT
  5
8B34
  8
0
  6
CONTINUOUS
 62
     3
 10
303.37959023487332
 20
193.63862027966061
 30
0.0
 40
3.0
  1
25¡Æ
 50
282.5
  0
ENDBLK
  5
8B36
  8
0
  0
BLOCK
  8
0
  2
*U207
 70
     1
 10
0.0
 20
0.0
 30
0.0
  3
*U207
  1

  0
TEXT
  5
8B38
  8
0
  6
CONTINUOUS
 62
     3
 10
119.6609737427261
 20
186.57785505351509
 30
0.0
 40
3.0
  1
\U+220550
 50
90.0
  0
TEXT
  5
8B39
  8
0
  6
CONTINUOUS
 62
     3
 10
119.6609737427261
 20
193.4778550535151
 30
0.0
 40
2.1000000000000001
  1
¡¾0.05
 50
90.0
  0
ENDBLK
  5
8B3B
  8
0
  0
BLOCK
  8
0
  2
*U208
 70
     1
 10
0.0
 20
0.0
 30
0.0
  3
*U208
  1

  0
TEXT
  5
8B40
  8
0
  6
CONTINUOUS
 62
     3
 10
720.39321604065276
 20
95.830098209759342
 30
0.0
 40
3.0
  1
R1
 50
317.43554503543851
  0
ENDBLK
  5
8B42
  8
0
  0
BLOCK
  8
0
  2
*U209
 70
     1
 10
0.0
 20
0.0
 30
0.0
  3
*U209
  1

  0
TEXT
  5
8B44
  8
0
  6
CONTINUOUS
 62
     3
 10
701.53699821094642
 20
75.369461336572826
 30
0.0
 40
3.0
  1
\U+220519max
 50
90.0
  0
ENDBLK
  5
8B46
  8
0
  0
BLOCK
  8
0
  2
*U210
 70
     1
 10
0.0
 20
0.0
 30
0.0
  3
*U210
  1

  0
TEXT
  5
8B48
  8
0
  6
CONTINUOUS
 62
     3
 10
715.98806761197125
 20
126.43270775880011
 30
0.0
 40
3.0
  1
30¡Æ
 50
14.999999999994831
  0
ENDBLK
  5
8B4A
  8
0
  0
BLOCK
  8
0
  2
*U211
 70
     1
 10
0.0
 20
0.0
 30
0.0
  3
*U211
  1

  0
TEXT
  5
8B4C
  8
0
  6
CONTINUOUS
 62
     3
 10
732.56534801415694
 20
128.18630147910611
 30
0.0
 40
3.0
  1
1
  0
ENDBLK
  5
8B4E
  8
0
  0
BLOCK
  8
0
  2
*U212
 70
     1
 10
0.0
 20
0.0
 30
0.0
  3
*U212
  1

  0
TEXT
  5
8B50
  8
0
  6
CONTINUOUS
 62
     3
 10
709.38699821094644
 20
71.460601217177754
 30
0.0
 40
3.0
  1
(\U+220515.54)
 50
90.0
  0
ENDBLK
  5
8B52
  8
0
  0
BLOCK
  8
0
  2
*U213
 70
     1
 10
0.0
 20
0.0
 30
0.0
  3
*U213
  1

  0
TEXT
  5
8B54
  8
0
  6
CONTINUOUS
 62
     3
 10
610.37827111239756
 20
115.20081067294851
 30
0.0
 40
3.0
  1
\U+22058.5
 50
90.0
  0
ENDBLK
  5
8B56
  8
0
  0
BLOCK
  8
0
  2
*U214
 70
     1
 10
0.0
 20
0.0
 30
0.0
  3
*U214
  1

  0
TEXT
  5
8B58
  8
0
  6
CONTINUOUS
 62
     3
 10
615.21624522378147
 20
131.33794270730451
 30
0.0
 40
3.0
  1
\U+22059.525
 50
90.0
  0
TEXT
  5
8B59
  8
0
  6
CONTINUOUS
 62
     3
 10
612.53843360402971
 20
143.03342569878731
 30
0.0
 40
2.1000000000000001
  1
-0.02
 50
90.0
  0
TEXT
  5
8B5A
  8
0
  6
CONTINUOUS
 62
     3
 10
615.2162452237817
 20
143.03342569878731
 30
0.0
 40
2.1000000000000001
  1
-0.03
 50
90.0
  0
TEXT
  5
8B5B
  8
0
  6
CONTINUOUS
 62
     3
 10
615.21624522378147
 20
149.66789617122831
 30
0.0
 40
3.0
  1
(È²»è)
 50
90.0
  0
ENDBLK
  5
8B5D
  8
0
  0
BLOCK
  8
0
  2
*U215
 70
     1
 10
0.0
 20
0.0
 30
0.0
  3
*U215
  1

  0
TEXT
  5
8B5F
  8
0
  6
CONTINUOUS
 62
     3
 10
623.25932426200404
 20
131.33794270730451
 30
0.0
 40
3.0
  1
\U+22059.525
 50
90.0
  0
TEXT
  5
8B60
  8
0
  6
CONTINUOUS
 62
     3
 10
620.56308410452368
 20
143.03342569878731
 30
0.0
 40
2.1000000000000001
  1
+0.008
 50
90.0
  0
TEXT
  5
8B61
  8
0
  6
CONTINUOUS
 62
     3
 10
623.25932426200404
 20
143.03342569878731
 30
0.0
 40
2.1000000000000001
  1
+0.002
 50
90.0
  0
TEXT
  5
8B62
  8
0
  6
CONTINUOUS
 62
     3
 10
623.25932426200404
 20
151.13789617122831
 30
0.0
 40
3.0
  1
(Á¤»è)
 50
90.0
  0
ENDBLK
  5
8B64
  8
0
  0
BLOCK
  8
0
  2
*U216
 70
     1
 10
0.0
 20
0.0
 30
0.0
  3
*U216
  1

  0
TEXT
  5
8B66
  8
0
  6
CONTINUOUS
 62
     3
 10
634.37827111239756
 20
111.2848806994305
 30
0.0
 40
3.0
  1
\U+220521.5
 50
90.0
  0
TEXT
  5
8B67
  8
0
  6
CONTINUOUS
 62
     3
 10
631.6820309549172
 20
120.2698806994305
 30
0.0
 40
2.1000000000000001
  1
-0.01
 50
90.0
  0
TEXT
  5
8B68
  8
0
  6
CONTINUOUS
 62
     3
 10
634.37827111239756
 20
120.2698806994305
 30
0.0
 40
2.1000000000000001
  1
-0.02
 50
90.0
  0
ENDBLK
  5
8B6A
  8
0
  0
BLOCK
  8
0
  2
*U217
 70
     1
 10
0.0
 20
0.0
 30
0.0
  3
*U217
  1

  0
TEXT
  5
8B6C
  8
0
  6
CONTINUOUS
 62
     3
 10
588.45628869753409
 20
73.509855409359574
 30
0.0
 40
3.0
  1
6.5
  0
ENDBLK
  5
8B6E
  8
0
  0
BLOCK
  8
0
  2
*U218
 70
     1
 10
0.0
 20
0.0
 30
0.0
  3
*U218
  1

  0
TEXT
  5
8B70
  8
0
  6
CONTINUOUS
 62
     3
 10
602.62747585000045
 20
81.659855409359579
 30
0.0
 40
3.0
  1
(1.5)
  0
ENDBLK
  5
8B72
  8
0
  0
BLOCK
  8
0
  2
*U219
 70
     1
 10
0.0
 20
0.0
 30
0.0
  3
*U219
  1

  0
TEXT
  5
8B74
  8
0
  6
CONTINUOUS
 62
     3
 10
557.31652491800605
 20
65.509855409359574
 30
0.0
 40
3.0
  1
36.5
  0
ENDBLK
  5
8B76
  8
0
  0
BLOCK
  8
0
  2
*U220
 70
     1
 10
0.0
 20
0.0
 30
0.0
  3
*U220
  1

  0
TEXT
  5
8B78
  8
0
  6
CONTINUOUS
 62
     3
 10
552.03118549566932
 20
73.509855409359574
 30
0.0
 40
3.0
  1
25.5
  0
TEXT
  5
8B79
  8
0
  6
CONTINUOUS
 62
     3
 10
559.23118549566925
 20
73.509855409359574
 30
0.0
 40
2.1000000000000001
  1
¡¾0.02
  0
ENDBLK
  5
8B7B
  8
0
  0
BLOCK
  8
0
  2
*U221
 70
     1
 10
0.0
 20
0.0
 30
0.0
  3
*U221
  1

  0
TEXT
  5
8B7D
  8
0
  6
CONTINUOUS
 62
     3
 10
526.21652491800614
 20
73.509855409359574
 30
0.0
 40
3.0
  1
4.5
  0
ENDBLK
  5
8B7F
  8
0
  0
BLOCK
  8
0
  2
*U222
 70
     1
 10
0.0
 20
0.0
 30
0.0
  3
*U222
  1

  0
TEXT
  5
8B81
  8
0
  6
CONTINUOUS
 62
     3
 10
538.65242830783995
 20
89.509855409359574
 30
0.0
 40
3.0
  1
6.3
  0
TEXT
  5
8B82
  8
0
  6
CONTINUOUS
 62
     3
 10
543.75242830784009
 20
89.509855409359574
 30
0.0
 40
2.1000000000000001
  1
¡¾0.05
  0
ENDBLK
  5
8B84
  8
0
  0
BLOCK
  8
0
  2
*U223
 70
     1
 10
0.0
 20
0.0
 30
0.0
  3
*U223
  1

  0
TEXT
  5
8B86
  8
0
  6
CONTINUOUS
 62
     3
 10
572.40242830783995
 20
101.0664894689972
 30
0.0
 40
3.0
  1
6.6
  0
TEXT
  5
8B87
  8
0
  6
CONTINUOUS
 62
     3
 10
577.50242830783986
 20
101.0664894689972
 30
0.0
 40
2.1000000000000001
  1
¡¾0.05
  0
ENDBLK
  5
8B89
  8
0
  0
BLOCK
  8
0
  2
*U224
 70
     1
 10
0.0
 20
0.0
 30
0.0
  3
*U224
  1

  0
TEXT
  5
8B8B
  8
0
  6
CONTINUOUS
 62
     3
 10
542.22865695236169
 20
81.659855409359579
 30
0.0
 40
3.0
  1
(8)
  0
ENDBLK
  5
8B8D
  8
0
  0
BLOCK
  8
0
  2
*U225
 70
     1
 10
0.0
 20
0.0
 30
0.0
  3
*U225
  1

  0
TEXT
  5
8B8F
  8
0
  6
CONTINUOUS
 62
     3
 10
572.07865695236114
 20
81.659855409359579
 30
0.0
 40
3.0
  1
(7.45)
  0
ENDBLK
  5
8B91
  8
0
  0
BLOCK
  8
0
  2
*U226
 70
     1
 10
0.0
 20
0.0
 30
0.0
  3
*U226
  1

  0
TEXT
  5
8B93
  8
0
  6
CONTINUOUS
 62
     3
 10
523.29211546918725
 20
81.509855409359574
 30
0.0
 40
3.0
  1
1.5
  0
ENDBLK
  5
8B95
  8
0
  0
BLOCK
  8
0
  2
*U227
 70
     1
 10
0.0
 20
0.0
 30
0.0
  3
*U227
  1

  0
TEXT
  5
8B97
  8
0
  6
CONTINUOUS
 62
     3
 10
571.68218687470369
 20
86.946906116534009
 30
0.0
 40
3.0
  1
R0.5
 50
42.237755721121253
  0
TEXT
  5
8B98
  8
0
  6
CONTINUOUS
 62
     3
 10
575.25955457516829
 20
93.695486220838035
 30
0.0
 40
2.1000000000000001
  1
+0.1
 50
42.237755721121253
  0
TEXT
  5
8B99
  8
0
  6
CONTINUOUS
 62
     3
 10
577.00168638883781
 20
91.776724945343744
 30
0.0
 40
2.1000000000000001
  1
-0
 50
42.237755721121253
  0
ENDBLK
  5
8B9B
  8
0
  0
BLOCK
  8
0
  2
*U228
 70
     1
 10
0.0
 20
0.0
 30
0.0
  3
*U228
  1

  0
TEXT
  5
8B9D
  8
0
  6
CONTINUOUS
 62
     3
 10
515.2878006557346
 20
116.01176160494229
 30
0.0
 40
3.0
  1
\U+220510
 50
90.0
  0
ENDBLK
  5
8B9F
  8
0
  0
BLOCK
  8
0
  2
*U229
 70
     1
 10
0.0
 20
0.0
 30
0.0
  3
*U229
  1

  0
TEXT
  5
8BA1
  8
0
  6
CONTINUOUS
 62
     3
 10
507.28780065573449
 20
111.5848806994305
 30
0.0
 40
3.0
  1
\U+220511.8
 50
90.0
  0
TEXT
  5
8BA2
  8
0
  6
CONTINUOUS
 62
     3
 10
504.59156049825418
 20
119.9698806994305
 30
0.0
 40
2.1000000000000001
  1
-0.01
 50
90.0
  0
TEXT
  5
8BA3
  8
0
  6
CONTINUOUS
 62
     3
 10
507.28780065573449
 20
119.9698806994305
 30
0.0
 40
2.1000000000000001
  1
-0.02
 50
90.0
  0
ENDBLK
  5
8BA5
  8
0
  0
BLOCK
  8
0
  2
*U230
 70
     1
 10
0.0
 20
0.0
 30
0.0
  3
*U230
  1

  0
TEXT
  5
8BA7
  8
0
  6
CONTINUOUS
 62
     3
 10
499.28780065573449
 20
111.30445028325531
 30
0.0
 40
3.0
  1
\U+220513.3
 50
90.0
  0
TEXT
  5
8BA8
  8
0
  6
CONTINUOUS
 62
     3
 10
496.60998903598261
 20
120.28945028325531
 30
0.0
 40
2.1000000000000001
  1
+0
 50
90.0
  0
TEXT
  5
8BA9
  8
0
  6
CONTINUOUS
 62
     3
 10
499.28780065573449
 20
120.28945028325531
 30
0.0
 40
2.1000000000000001
  1
-0.05
 50
90.0
  0
ENDBLK
  5
8BAB
  8
0
  0
BLOCK
  8
0
  2
*U231
 70
     1
 10
0.0
 20
0.0
 30
0.0
  3
*U231
  1

  0
TEXT
  5
8BAD
  8
0
  6
CONTINUOUS
 62
     3
 10
597.89044708663903
 20
125.9767828137594
 30
0.0
 40
3.0
  1
R1
 50
314.16244610586529
  0
ENDBLK
  5
8BAF
  8
0
  0
BLOCK
  8
0
  2
*U232
 70
     1
 10
0.0
 20
0.0
 30
0.0
  3
*U232
  1

  0
TEXT
  5
8BB1
  8
0
  6
CONTINUOUS
 62
     3
 10
547.13778117928769
 20
112.5929427073045
 30
0.0
 40
3.0
  1
\U+220511.6
 50
90.0
  0
TEXT
  5
8BB2
  8
0
  6
CONTINUOUS
 62
     3
 10
544.54612763598061
 20
120.97794270730451
 30
0.0
 40
2.1000000000000001
  1
+0.1
 50
90.0
  0
TEXT
  5
8BB3
  8
0
  6
CONTINUOUS
 62
     3
 10
547.13778117928791
 20
120.97794270730451
 30
0.0
 40
2.1000000000000001
  1
-0
 50
90.0
  0
ENDBLK
  5
8BB5
  8
0
  0
BLOCK
  8
0
  2
*U233
 70
     1
 10
0.0
 20
0.0
 30
0.0
  3
*U233
  1

  0
TEXT
  5
8BB7
  8
0
  6
CONTINUOUS
 62
     3
 10
559.48064459587158
 20
111.30445028325531
 30
0.0
 40
3.0
  1
\U+220513.3
 50
90.0
  0
TEXT
  5
8BB8
  8
0
  6
CONTINUOUS
 62
     3
 10
556.80283297611959
 20
120.28945028325541
 30
0.0
 40
2.1000000000000001
  1
+0
 50
90.0
  0
TEXT
  5
8BB9
  8
0
  6
CONTINUOUS
 62
     3
 10
559.48064459587169
 20
120.28945028325541
 30
0.0
 40
2.1000000000000001
  1
-0.05
 50
90.0
  0
ENDBLK
  5
8BBB
  8
0
  0
BLOCK
  8
0
  2
*U234
 70
     1
 10
0.0
 20
0.0
 30
0.0
  3
*U234
  1

  0
TEXT
  5
8BBD
  8
0
  6
CONTINUOUS
 62
     3
 10
562.3055648820033
 20
172.72445081011421
 30
0.0
 40
3.0
  1
30.5
  0
ENDBLK
  5
8BBF
  8
0
  0
BLOCK
  8
0
  2
*U235
 70
     1
 10
0.0
 20
0.0
 30
0.0
  3
*U235
  1

  0
TEXT
  5
8BC1
  8
0
  6
CONTINUOUS
 62
     3
 10
542.41769691635875
 20
180.72445081011421
 30
0.0
 40
3.0
  1
8
  0
ENDBLK
  5
8BC3
  8
0
  0
BLOCK
  8
0
  2
*U236
 70
     1
 10
0.0
 20
0.0
 30
0.0
  3
*U236
  1

  0
TEXT
  5
8BC5
  8
0
  6
CONTINUOUS
 62
     3
 10
557.35556488200189
 20
180.72445081011421
 30
0.0
 40
3.0
  1
8.5
  0
ENDBLK
  5
8BC7
  8
0
  0
BLOCK
  8
0
  2
*U237
 70
     1
 10
0.0
 20
0.0
 30
0.0
  3
*U237
  1

  0
TEXT
  5
8BC9
  8
0
  6
CONTINUOUS
 62
     3
 10
576.36719723647025
 20
180.72445081011421
 30
0.0
 40
3.0
  1
9
  0
ENDBLK
  5
8BCB
  8
0
  0
BLOCK
  8
0
  2
*U238
 70
     1
 10
0.0
 20
0.0
 30
0.0
  3
*U238
  1

  0
TEXT
  5
8BCD
  8
0
  6
CONTINUOUS
 62
     3
 10
590.35556488200336
 20
180.72445081011421
 30
0.0
 40
3.0
  1
5
  0
ENDBLK
  5
8BCF
  8
0
  0
BLOCK
  8
0
  2
*U239
 70
     1
 10
0.0
 20
0.0
 30
0.0
  3
*U239
  1

  0
TEXT
  5
8BD1
  8
0
  6
CONTINUOUS
 62
     3
 10
606.18000419396469
 20
186.26209652886979
 30
0.0
 40
3.0
  1
\U+22059.3
 50
90.0
  0
TEXT
  5
8BD2
  8
0
  6
CONTINUOUS
 62
     3
 10
603.58835065065762
 20
193.75757952035269
 30
0.0
 40
2.1000000000000001
  1
+0
 50
90.0
  0
TEXT
  5
8BD3
  8
0
  6
CONTINUOUS
 62
     3
 10
606.18000419396481
 20
193.75757952035269
 30
0.0
 40
2.1000000000000001
  1
-0.1
 50
90.0
  0
ENDBLK
  5
8BD5
  8
0
  0
BLOCK
  8
0
  2
*U240
 70
     1
 10
0.0
 20
0.0
 30
0.0
  3
*U240
  1

  0
TEXT
  5
8BD7
  8
0
  6
CONTINUOUS
 62
     3
 10
691.05051831686785
 20
159.4932371952315
 30
0.0
 40
3.0
  1
60¡Æ
  0
ENDBLK
  5
8BD9
  8
0
  0
BLOCK
  8
0
  2
*U241
 70
     1
 10
0.0
 20
0.0
 30
0.0
  3
*U241
  1

  0
TEXT
  5
8BDB
  8
0
  6
CONTINUOUS
 62
     3
 10
684.34937386104377
 20
194.9565616219304
 30
0.0
 40
3.0
  1
R0.2
 50
308.95337049897148
  0
ENDBLK
  5
8BDD
  8
0
  0
BLOCK
  8
0
  2
*U242
 70
     1
 10
0.0
 20
0.0
 30
0.0
  3
*U242
  1

  0
TEXT
  5
8BDF
  8
0
  6
CONTINUOUS
 62
     3
 10
726.24022041738158
 20
157.49212165972389
 30
0.0
 40
3.0
  1
\U+22059.75
 50
90.0
  0
TEXT
  5
8BE0
  8
0
  6
CONTINUOUS
 62
     3
 10
726.24022041738158
 20
167.40260465120679
 30
0.0
 40
2.1000000000000001
  1
¡¾0.05
 50
90.0
  0
ENDBLK
  5
8BE2
  8
0
  0
BLOCK
  8
0
  2
*U243
 70
     1
 10
0.0
 20
0.0
 30
0.0
  3
*U243
  1

  0
TEXT
  5
8BE4
  8
0
  6
CONTINUOUS
 62
     3
 10
515.88578195070693
 20
137.5832553903231
 30
0.0
 40
3.0
  1
45¡Æ
 50
67.499999999999034
  0
ENDBLK
  5
8BE6
  8
0
  0
BLOCK
  8
0
  2
*U244
 70
     1
 10
0.0
 20
0.0
 30
0.0
  3
*U244
  1

  0
TEXT
  5
8BE8
  8
0
  6
CONTINUOUS
 62
     3
 10
535.62865695236201
 20
153.0386621242763
 30
0.0
 40
3.0
  1
3
  0
ENDBLK
  5
8BEA
  8
0
  0
BLOCK
  8
0
  2
*U245
 70
     1
 10
0.0
 20
0.0
 30
0.0
  3
*U245
  1

  0
TEXT
  5
8BEC
  8
0
  6
CONTINUOUS
 62
     3
 10
565.95027483297497
 20
141.45260497148399
 30
0.0
 40
3.0
  1
45¡Æ
 50
292.50000000000188
  0
ENDBLK
  5
8BEE
  8
0
  0
BLOCK
  8
0
  2
*U246
 70
     1
 10
0.0
 20
0.0
 30
0.0
  3
*U246
  1

  0
TEXT
  5
8BF0
  8
0
  6
CONTINUOUS
 62
     3
 10
210.84947932886931
 20
231.27721865029929
 30
0.0
 40
3.0
  1
12
  0
ENDBLK
  5
8BF2
  8
0
  0
BLOCK
  8
0
  2
*U247
 70
     1
 10
0.0
 20
0.0
 30
0.0
  3
*U247
  1

  0
TEXT
  5
8BF4
  8
0
  6
CONTINUOUS
 62
     3
 10
215.12743587719029
 20
239.2772186502992
 30
0.0
 40
3.0
  1
5
  0
ENDBLK
  5
8BF6
  8
0
  0
BLOCK
  8
0
  2
*U248
 70
     1
 10
0.0
 20
0.0
 30
0.0
  3
*U248
  1

  0
TEXT
  5
8BF8
  8
0
  6
CONTINUOUS
 62
     3
 10
194.06166603867899
 20
239.27721865029929
 30
0.0
 40
3.0
  1
25.5
  0
TEXT
  5
8BF9
  8
0
  6
CONTINUOUS
 62
     3
 10
201.26166603867901
 20
239.27721865029929
 30
0.0
 40
2.1000000000000001
  1
¡¾0.03
  0
ENDBLK
  5
8BFB
  8
0
  0
BLOCK
  8
0
  2
*U249
 70
     1
 10
0.0
 20
0.0
 30
0.0
  3
*U249
  1

  0
TEXT
  5
8BFD
  8
0
  6
CONTINUOUS
 62
     3
 10
191.51956791154629
 20
247.27721865029929
 30
0.0
 40
3.0
  1
42.5
  0
TEXT
  5
8BFE
  8
0
  6
CONTINUOUS
 62
     3
 10
198.70456791154629
 20
249.86887219360631
 30
0.0
 40
2.1000000000000001
  1
+0
  0
TEXT
  5
8BFF
  8
0
  6
CONTINUOUS
 62
     3
 10
198.70456791154629
 20
247.27721865029929
 30
0.0
 40
2.1000000000000001
  1
-0.1
  0
ENDBLK
  5
8C01
  8
0
  0
BLOCK
  8
0
  2
*U250
 70
     1
 10
0.0
 20
0.0
 30
0.0
  3
*U250
  1

  0
TEXT
  5
8C03
  8
0
  6
CONTINUOUS
 62
     3
 10
230.13739299385449
 20
267.05419344040229
 30
0.0
 40
3.0
  1
R0.4max
 50
321.15843352151819
  0
ENDBLK
  5
8C05
  8
0
  0
BLOCK
  8
0
  2
*U251
 70
     1
 10
0.0
 20
0.0
 30
0.0
  3
*U251
  1

  0
TEXT
  5
8C07
  8
0
  6
CONTINUOUS
 62
     3
 10
251.1399702549781
 20
272.87149251917481
 30
0.0
 40
3.0
  1
0.5
  0
ENDBLK
  5
8C09
  8
0
  0
BLOCK
  8
0
  2
*U252
 70
     1
 10
0.0
 20
0.0
 30
0.0
  3
*U252
  1

  0
TEXT
  5
8C0B
  8
0
  6
CONTINUOUS
 62
     3
 10
272.94915007231009
 20
234.08687278030379
 30
0.0
 40
3.0
  1
\U+220516.8
 50
90.0
  0
TEXT
  5
8C0C
  8
0
  6
CONTINUOUS
 62
     3
 10
270.35749652900307
 20
243.07187278030381
 30
0.0
 40
2.1000000000000001
  1
+0.4
 50
90.0
  0
TEXT
  5
8C0D
  8
0
  6
CONTINUOUS
 62
     3
 10
272.94915007231009
 20
243.07187278030381
 30
0.0
 40
2.1000000000000001
  1
-0
 50
90.0
  0
ENDBLK
  5
8C0F
  8
0
  0
BLOCK
  8
0
  2
*U253
 70
     1
 10
0.0
 20
0.0
 30
0.0
  3
*U253
  1

  0
TEXT
  5
8C11
  8
0
  6
CONTINUOUS
 62
     3
 10
281.9491500723102
 20
234.99381077242921
 30
0.0
 40
3.0
  1
\U+220521.5
 50
90.0
  0
TEXT
  5
8C12
  8
0
  6
CONTINUOUS
 62
     3
 10
279.2529099148299
 20
243.9788107724292
 30
0.0
 40
2.1000000000000001
  1
+0.05
 50
90.0
  0
TEXT
  5
8C13
  8
0
  6
CONTINUOUS
 62
     3
 10
281.9491500723102
 20
243.9788107724292
 30
0.0
 40
2.1000000000000001
  1
+0.02
 50
90.0
  0
ENDBLK
  5
8C15
  8
0
  0
BLOCK
  8
0
  2
*U254
 70
     1
 10
0.0
 20
0.0
 30
0.0
  3
*U254
  1

  0
TEXT
  5
8C17
  8
0
  6
CONTINUOUS
 62
     3
 10
264.9491500723102
 20
227.52042424309909
 30
0.0
 40
3.0
  1
\U+220514.3
 50
90.0
  0
TEXT
  5
8C18
  8
0
  6
CONTINUOUS
 62
     3
 10
262.35749652900307
 20
236.80542424309911
 30
0.0
 40
2.1000000000000001
  1
+0.05
 50
90.0
  0
TEXT
  5
8C19
  8
0
  6
CONTINUOUS
 62
     3
 10
264.9491500723102
 20
236.80542424309911
 30
0.0
 40
2.1000000000000001
  1
-0
 50
90.0
  0
ENDBLK
  5
8C1B
  8
0
  0
BLOCK
  8
0
  2
*U255
 70
     1
 10
0.0
 20
0.0
 30
0.0
  3
*U255
  1

  0
TEXT
  5
8C1D
  8
0
  6
CONTINUOUS
 62
     3
 10
229.24833595832209
 20
193.51814655142891
 30
0.0
 40
3.0
  1
1
 50
90.0
  0
ENDBLK
  5
8C1F
  8
0
  0
BLOCK
  8
0
  2
*U256
 70
     1
 10
0.0
 20
0.0
 30
0.0
  3
*U256
  1

  0
TEXT
  5
8C21
  8
0
  6
CONTINUOUS
 62
     3
 10
237.24833595832209
 20
193.9576635599461
 30
0.0
 40
3.0
  1
9.3
 50
90.0
  0
ENDBLK
  5
8C23
  8
0
  0
BLOCK
  8
0
  2
*U257
 70
     1
 10
0.0
 20
0.0
 30
0.0
  3
*U257
  1

  0
TEXT
  5
8C25
  8
0
  6
CONTINUOUS
 62
     3
 10
222.77115710008979
 20
186.2152100645927
 30
0.0
 40
3.0
  1
R0.5
 50
316.83656414023812
  0
ENDBLK
  5
8C27
  8
0
  0
BLOCK
  8
0
  2
*U258
 70
     1
 10
0.0
 20
0.0
 30
0.0
  3
*U258
  1

  0
TEXT
  5
8C29
  8
0
  6
CONTINUOUS
 62
     3
 10
253.82835189843649
 20
193.2900845435548
 30
0.0
 40
3.0
  1
\U+220521.5
 50
90.0
  0
TEXT
  5
8C2A
  8
0
  6
CONTINUOUS
 62
     3
 10
251.13211174095619
 20
202.27508454355481
 30
0.0
 40
2.1000000000000001
  1
+0.05
 50
90.0
  0
TEXT
  5
8C2B
  8
0
  6
CONTINUOUS
 62
     3
 10
253.82835189843649
 20
202.27508454355481
 30
0.0
 40
2.1000000000000001
  1
+0.02
 50
90.0
  0
ENDBLK
  5
8C2D
  8
0
  0
BLOCK
  8
0
  2
*U259
 70
     1
 10
0.0
 20
0.0
 30
0.0
  3
*U259
  1

  0
TEXT
  5
8C2F
  8
0
  6
CONTINUOUS
 62
     3
 10
261.82835189843661
 20
197.56814655142881
 30
0.0
 40
3.0
  1
\U+220524
 50
90.0
  0
ENDBLK
  5
8C31
  8
0
  0
BLOCK
  8
0
  2
*U260
 70
     1
 10
0.0
 20
0.0
 30
0.0
  3
*U260
  1

  0
TEXT
  5
8C33
  8
0
  6
CONTINUOUS
 62
     3
 10
245.82835189843701
 20
188.4166980142241
 30
0.0
 40
3.0
  1
\U+220514.3
 50
90.0
  0
TEXT
  5
8C34
  8
0
  6
CONTINUOUS
 62
     3
 10
243.2366983551299
 20
197.70169801422409
 30
0.0
 40
2.1000000000000001
  1
+0.05
 50
90.0
  0
TEXT
  5
8C35
  8
0
  6
CONTINUOUS
 62
     3
 10
245.82835189843701
 20
197.70169801422409
 30
0.0
 40
2.1000000000000001
  1
-0
 50
90.0
  0
ENDBLK
  5
8C37
  8
0
  0
BLOCK
  8
0
  2
*U261
 70
     1
 10
0.0
 20
0.0
 30
0.0
  3
*U261
  1

  0
TEXT
  5
8C39
  8
0
  6
CONTINUOUS
 62
     3
 10
249.1235868177219
 20
232.8696036298482
 30
0.0
 40
3.0
  1
45¡Æ
 50
22.500000000001599
  0
ENDBLK
  5
8C3B
  8
0
  0
BLOCK
  8
0
  2
*U262
 70
     1
 10
0.0
 20
0.0
 30
0.0
  3
*U262
  1

  0
TEXT
  5
8C3D
  8
0
  6
CONTINUOUS
 62
     3
 10
198.51848398200369
 20
198.39165036851841
 30
0.0
 40
3.0
  1
30¡Æ
 50
284.99999999999977
  0
ENDBLK
  5
8C3F
  8
0
  0
BLOCK
  8
0
  2
*U263
 70
     1
 10
0.0
 20
0.0
 30
0.0
  3
*U263
  1

  0
TEXT
  5
8C41
  8
0
  6
CONTINUOUS
 62
     3
 10
170.58236445841681
 20
197.34189236858839
 30
0.0
 40
3.0
  1
3¡Æ
 50
271.49999999999989
  0
ENDBLK
  5
8C43
  8
0
  0
BLOCK
  8
0
  2
*U264
 70
     1
 10
0.0
 20
0.0
 30
0.0
  3
*U264
  1

  0
TEXT
  5
8C45
  8
0
  6
CONTINUOUS
 62
     3
 10
171.69003585205701
 20
154.15256081841639
 30
0.0
 40
3.0
  1
90
  0
ENDBLK
  5
8C47
  8
0
  0
BLOCK
  8
0
  2
*U265
 70
     1
 10
0.0
 20
0.0
 30
0.0
  3
*U265
  1

  0
TEXT
  5
8C49
  8
0
  6
CONTINUOUS
 62
     3
 10
135.63979522648069
 20
188.91106907212441
 30
0.0
 40
3.0
  1
(\U+220533.43)
 50
90.0
  0
ENDBLK
  5
8C4B
  8
0
  0
BLOCK
  8
0
  2
*U266
 70
     1
 10
0.0
 20
0.0
 30
0.0
  3
*U266
  1

  0
TEXT
  5
8C4D
  8
0
  6
CONTINUOUS
 62
     3
 10
118.0190689142039
 20
156.0331093908521
 30
0.0
 40
3.0
  1
30¡Æ
 50
345.0
  0
ENDBLK
  5
8C4F
  8
0
  0
BLOCK
  8
0
  2
*U267
 70
     1
 10
0.0
 20
0.0
 30
0.0
  3
*U267
  1

  0
TEXT
  5
8C51
  8
0
  6
CONTINUOUS
 62
     3
 10
127.4346666316755
 20
172.6885890404921
 30
0.0
 40
3.0
  1
R2
 50
305.41283496864258
  0
ENDBLK
  5
8C53
  8
0
  0
BLOCK
  8
0
  2
*U268
 70
     1
 10
0.0
 20
0.0
 30
0.0
  3
*U268
  1

  0
TEXT
  5
8C55
  8
0
  6
CONTINUOUS
 62
     3
 10
123.2559748156991
 20
192.29817051715671
 30
0.0
 40
3.0
  1
R2
 50
307.18882661638298
  0
ENDBLK
  5
8C57
  8
0
  0
BLOCK
  8
0
  2
*U269
 70
     1
 10
0.0
 20
0.0
 30
0.0
  3
*U269
  1

  0
TEXT
  5
8C59
  8
0
  6
CONTINUOUS
 62
     3
 10
253.6713829422531
 20
94.599205355398936
 30
0.0
 40
3.0
  1
R0.5
 50
318.6062744064555
  0
ENDBLK
  5
8C5B
  8
0
  0
BLOCK
  8
0
  2
*U270
 70
     1
 10
0.0
 20
0.0
 30
0.0
  3
*U270
  1

  0
TEXT
  5
8C5D
  8
0
  6
CONTINUOUS
 62
     3
 10
321.5738546759772
 20
69.700456281871752
 30
0.0
 40
3.0
  1
\U+220514.3
 50
90.0
  0
TEXT
  5
8C5E
  8
0
  6
CONTINUOUS
 62
     3
 10
318.98220113267018
 20
78.985456281871762
 30
0.0
 40
2.1000000000000001
  1
+0.05
 50
90.0
  0
TEXT
  5
8C5F
  8
0
  6
CONTINUOUS
 62
     3
 10
321.5738546759772
 20
78.985456281871762
 30
0.0
 40
2.1000000000000001
  1
-0
 50
90.0
  0
ENDBLK
  5
8C61
  8
0
  0
BLOCK
  8
0
  2
*U271
 70
     1
 10
0.0
 20
0.0
 30
0.0
  3
*U271
  1

  0
TEXT
  5
8C63
  8
0
  6
CONTINUOUS
 62
     3
 10
272.68215806160288
 20
50.654437376592938
 30
0.0
 40
3.0
  1
\U+220511.8
 50
90.0
  0
TEXT
  5
8C64
  8
0
  6
CONTINUOUS
 62
     3
 10
269.98591790412257
 20
59.03943737659295
 30
0.0
 40
2.1000000000000001
  1
+0.05
 50
90.0
  0
TEXT
  5
8C65
  8
0
  6
CONTINUOUS
 62
     3
 10
272.68215806160288
 20
59.03943737659295
 30
0.0
 40
2.1000000000000001
  1
+0.02
 50
90.0
  0
ENDBLK
  5
8C67
  8
0
  0
BLOCK
  8
0
  2
*U272
 70
     1
 10
0.0
 20
0.0
 30
0.0
  3
*U272
  1

  0
TEXT
  5
8C69
  8
0
  6
CONTINUOUS
 62
     3
 10
330.08150705704179
 20
74.410561392337883
 30
0.0
 40
3.0
  1
\U+220515.7
 50
90.0
  0
ENDBLK
  5
8C6B
  8
0
  0
BLOCK
  8
0
  2
*U273
 70
     1
 10
0.0
 20
0.0
 30
0.0
  3
*U273
  1

  0
TEXT
  5
8C6D
  8
0
  6
CONTINUOUS
 62
     3
 10
280.45466708643357
 20
107.0414168292141
 30
0.0
 40
3.0
  1
3.5*\U+220512.9
  0
ENDBLK
  5
8C6F
  8
0
  0
BLOCK
  8
0
  2
*U274
 70
     1
 10
0.0
 20
0.0
 30
0.0
  3
*U274
  1

  0
TEXT
  5
8C71
  8
0
  6
CONTINUOUS
 62
     3
 10
275.94253505207632
 20
115.0414168292141
 30
0.0
 40
3.0
  1
7.5
  0
ENDBLK
  5
8C73
  8
0
  0
BLOCK
  8
0
  2
*U275
 70
     1
 10
0.0
 20
0.0
 30
0.0
  3
*U275
  1

  0
TEXT
  5
8C75
  8
0
  6
CONTINUOUS
 62
     3
 10
279.3445907061224
 20
98.180590905556599
 30
0.0
 40
3.0
  1
R0.5
 50
314.05335068175759
  0
ENDBLK
  5
8C77
  8
0
  0
BLOCK
  8
0
  2
*U276
 70
     1
 10
0.0
 20
0.0
 30
0.0
  3
*U276
  1

  0
TEXT
  5
8C79
  8
0
  6
CONTINUOUS
 62
     3
 10
257.79253505207657
 20
115.0414168292139
 30
0.0
 40
3.0
  1
4.5
  0
ENDBLK
  5
8C7B
  8
0
  0
BLOCK
  8
0
  2
*U277
 70
     1
 10
0.0
 20
0.0
 30
0.0
  3
*U277
  1

  0
TEXT
  5
8C7D
  8
0
  6
CONTINUOUS
 62
     3
 10
238.30424711155271
 20
94.427621921523993
 30
0.0
 40
3.0
  1
15¡Æ
 50
71.192890203354196
  0
ENDBLK
  5
8C7F
  8
0
  0
BLOCK
  8
0
  2
*U278
 70
     1
 10
0.0
 20
0.0
 30
0.0
  3
*U278
  1

  0
TEXT
  5
8C81
  8
0
  6
CONTINUOUS
 62
     3
 10
306.70666719414862
 20
72.029565028936389
 30
0.0
 40
3.0
  1
15¡Æ
 50
56.324111726660959
  0
ENDBLK
  5
8C83
  8
0
  0
BLOCK
  8
0
  2
*U279
 70
     1
 10
0.0
 20
0.0
 30
0.0
  3
*U279
  1

  0
TEXT
  5
8C85
  8
0
  6
CONTINUOUS
 62
     3
 10
243.96464841328469
 20
65.209380289977673
 30
0.0
 40
3.0
  1
\U+220510
 50
90.0
  0
ENDBLK
  5
8C87
  8
0
  0
BLOCK
  8
0
  2
*U280
 70
     1
 10
0.0
 20
0.0
 30
0.0
  3
*U280
  1

  0
TEXT
  5
8C89
  8
0
  6
CONTINUOUS
 62
     3
 10
166.87743587719029
 20
247.27721865029929
 30
0.0
 40
3.0
  1
15
  0
ENDBLK
  5
8C8B
  8
0
  0
BLOCK
  8
0
  2
*U281
 70
     1
 10
0.0
 20
0.0
 30
0.0
  3
*U281
  1

  0
TEXT
  5
8CA1
  8
0
  6
CONTINUOUS
 62
     3
 10
98.490341066710116
 20
70.714132978653311
 30
0.0
 40
3.0
  1
6.6
 50
90.0
  0
ENDBLK
  5
8CA3
  8
0
  0
BLOCK
  8
0
  2
*U282
 70
     1
 10
0.0
 20
0.0
 30
0.0
  3
*U282
  1

  0
TEXT
  5
8CA5
  8
0
  6
CONTINUOUS
 62
     3
 10
98.490341066710158
 20
79.747597545582508
 30
0.0
 40
3.0
  1
10
 50
90.0
  0
ENDBLK
  5
8CA7
  8
0
  0
BLOCK
  8
0
  2
*U283
 70
     1
 10
0.0
 20
0.0
 30
0.0
  3
*U283
  1

  0
TEXT
  5
8CBB
  8
0
  6
CONTINUOUS
 10
150.056177219283
 20
46.183869406785533
 30
0.0
 40
3.0
  1
Techniks Inc.
  0
TEXT
  5
8CBC
  8
0
  6
CONTINUOUS
 10
150.50617721928299
 20
41.183869406785533
 30
0.0
 40
3.0
  1
     9930 East 56th Street
  0
TEXT
  5
8CBD
  8
0
  6
CONTINUOUS
 10
150.50617721928299
 20
36.175778855604428
 30
0.0
 40
3.0
  1
     Indianapolis, IN 46236
  0
TEXT
  5
8CBE
  8
0
  6
CONTINUOUS
 10
150.50617721928299
 20
31.172288150305182
 30
0.0
 40
3.0
  1
     800.597.3921
  0
TEXT
  5
8CBF
  8
0
  6
CONTINUOUS
 10
150.50617721928299
 20
26.172288150305182
 30
0.0
 40
3.0
  1
     www.techniksusa.com
  0
ENDBLK
  5
8CC1
  8
0
  0
BLOCK
  8
0
  2
*U284
 70
     1
 10
0.0
 20
0.0
 30
0.0
  3
*U284
  1

  0
TEXT
  5
8CC3
  8
0
  6
CONTINUOUS
 62
     3
 10
783.11318154423464
 20
-157.33542894068449
 30
0.0
 40
3.0
  1
1
 50
90.0
  0
ENDBLK
  5
8CC5
  8
0
  0
BLOCK
  8
0
  2
*U285
 70
     1
 10
0.0
 20
0.0
 30
0.0
  3
*U285
  1

  0
TEXT
  5
8CC7
  8
0
  6
CONTINUOUS
 62
     3
 10
791.11318154423464
 20
-156.89591193216719
 30
0.0
 40
3.0
  1
9.3
 50
90.0
  0
ENDBLK
  5
8CC9
  8
0
  0
BLOCK
  8
0
  2
*U286
 70
     1
 10
0.0
 20
0.0
 30
0.0
  3
*U286
  1

  0
TEXT
  5
8CCB
  8
0
  6
CONTINUOUS
 62
     3
 10
776.63600268600214
 20
-164.6383654275208
 30
0.0
 40
3.0
  1
R0.5
 50
316.83656414023812
  0
ENDBLK
  5
8CCD
  8
0
  0
BLOCK
  8
0
  2
*U287
 70
     1
 10
0.0
 20
0.0
 30
0.0
  3
*U287
  1

  0
TEXT
  5
8CCF
  8
0
  6
CONTINUOUS
 62
     3
 10
807.69319748434884
 20
-157.5634909485585
 30
0.0
 40
3.0
  1
\U+220521.5
 50
90.0
  0
TEXT
  5
8CD0
  8
0
  6
CONTINUOUS
 62
     3
 10
804.9969573268686
 20
-148.57849094855851
 30
0.0
 40
2.1000000000000001
  1
+0.05
 50
90.0
  0
TEXT
  5
8CD1
  8
0
  6
CONTINUOUS
 62
     3
 10
807.69319748434884
 20
-148.57849094855851
 30
0.0
 40
2.1000000000000001
  1
+0.02
 50
90.0
  0
ENDBLK
  5
8CD3
  8
0
  0
BLOCK
  8
0
  2
*U288
 70
     1
 10
0.0
 20
0.0
 30
0.0
  3
*U288
  1

  0
TEXT
  5
8CD5
  8
0
  6
CONTINUOUS
 62
     3
 10
815.69319748434884
 20
-153.2854289406846
 30
0.0
 40
3.0
  1
\U+220524
 50
90.0
  0
ENDBLK
  5
8CD7
  8
0
  0
BLOCK
  8
0
  2
*U289
 70
     1
 10
0.0
 20
0.0
 30
0.0
  3
*U289
  1

  0
TEXT
  5
8CD9
  8
0
  6
CONTINUOUS
 62
     3
 10
799.6931974843493
 20
-162.43687747788931
 30
0.0
 40
3.0
  1
\U+220514.3
 50
90.0
  0
TEXT
  5
8CDA
  8
0
  6
CONTINUOUS
 62
     3
 10
797.10154394104234
 20
-153.15187747788929
 30
0.0
 40
2.1000000000000001
  1
+0.05
 50
90.0
  0
TEXT
  5
8CDB
  8
0
  6
CONTINUOUS
 62
     3
 10
799.69319748434953
 20
-153.15187747788929
 30
0.0
 40
2.1000000000000001
  1
-0
 50
90.0
  0
ENDBLK
  5
8CDD
  8
0
  0
BLOCK
  8
0
  2
*U290
 70
     1
 10
0.0
 20
0.0
 30
0.0
  3
*U290
  1

  0
TEXT
  5
8CDF
  8
0
  6
CONTINUOUS
 62
     3
 10
752.38332956791601
 20
-152.46192512359499
 30
0.0
 40
3.0
  1
30¡Æ
 50
284.99999999999989
  0
ENDBLK
  5
8CE1
  8
0
  0
BLOCK
  8
0
  2
*U291
 70
     1
 10
0.0
 20
0.0
 30
0.0
  3
*U291
  1

  0
TEXT
  5
8CE3
  8
0
  6
CONTINUOUS
 62
     3
 10
724.44721004432927
 20
-153.5116831235251
 30
0.0
 40
3.0
  1
3¡Æ
 50
271.49999999999977
  0
ENDBLK
  5
8CE5
  8
0
  0
BLOCK
  8
0
  2
*U292
 70
     1
 10
0.0
 20
0.0
 30
0.0
  3
*U292
  1

  0
TEXT
  5
8CE7
  8
0
  6
CONTINUOUS
 62
     3
 10
689.50464081239306
 20
-161.942506419989
 30
0.0
 40
3.0
  1
(\U+220533.43)
 50
90.0
  0
ENDBLK
  5
8CE9
  8
0
  0
BLOCK
  8
0
  2
*U293
 70
     1
 10
0.0
 20
0.0
 30
0.0
  3
*U293
  1

  0
TEXT
  5
8CEB
  8
0
  6
CONTINUOUS
 62
     3
 10
630.05441349746127
 20
-188.7010146736975
 30
0.0
 40
3.0
  1
7
  0
ENDBLK
  5
8CED
  8
0
  0
BLOCK
  8
0
  2
*U294
 70
     1
 10
0.0
 20
0.0
 30
0.0
  3
*U294
  1

  0
TEXT
  5
8CEF
  8
0
  6
CONTINUOUS
 62
     3
 10
681.25441349745859
 20
-212.7010146736971
 30
0.0
 40
3.0
  1
177
  0
ENDBLK
  5
8CF1
  8
0
  0
BLOCK
  8
0
  2
*U295
 70
     1
 10
0.0
 20
0.0
 30
0.0
  3
*U295
  1

  0
TEXT
  5
8CF3
  8
0
  6
CONTINUOUS
 62
     3
 10
697.04228146310265
 20
-204.7010146736971
 30
0.0
 40
3.0
  1
145
  0
ENDBLK
  5
8CF5
  8
0
  0
BLOCK
  8
0
  2
*U296
 70
     1
 10
0.0
 20
0.0
 30
0.0
  3
*U296
  1

  0
TEXT
  5
8CF7
  8
0
  6
CONTINUOUS
 62
     3
 10
657.60441349746475
 20
-196.70101467369699
 30
0.0
 40
3.0
  1
11
  0
ENDBLK
  5
8CF9
  8
0
  0
BLOCK
  8
0
  2
*U297
 70
     1
 10
0.0
 20
0.0
 30
0.0
  3
*U297
  1

  0
TEXT
  5
8CFB
  8
0
  6
CONTINUOUS
 62
     3
 10
673.52581932863848
 20
-164.27572043859831
 30
0.0
 40
3.0
  1
\U+220550
 50
90.0
  0
TEXT
  5
8CFC
  8
0
  6
CONTINUOUS
 62
     3
 10
673.52581932863848
 20
-157.37572043859831
 30
0.0
 40
2.1000000000000001
  1
¡¾0.05
 50
90.0
  0
ENDBLK
  5
8CFE
  8
0
  0
BLOCK
  8
0
  2
*U298
 70
     1
 10
0.0
 20
0.0
 30
0.0
  3
*U298
  1

  0
TEXT
  5
8D00
  8
0
  6
CONTINUOUS
 62
     3
 10
725.55488143796958
 20
-196.70101467369699
 30
0.0
 40
3.0
  1
90
  0
ENDBLK
  5
8D02
  8
0
  0
BLOCK
  8
0
  2
*U299
 70
     1
 10
0.0
 20
0.0
 30
0.0
  3
*U299
  1

  0
TEXT
  5
8D04
  8
0
  6
CONTINUOUS
 62
     3
 10
569.85751109409068
 20
-159.63642136473371
 30
0.0
 40
3.0
  1
\U+220548.01
 50
90.0
  0
TEXT
  5
8D05
  8
0
  6
CONTINUOUS
 62
     3
 10
569.85751109409068
 20
-147.93642136473369
 30
0.0
 40
2.1000000000000001
  1
¡¾0.003
 50
90.0
  0
ENDBLK
  5
8D07
  8
0
  0
BLOCK
  8
0
  2
*U300
 70
     1
 10
0.0
 20
0.0
 30
0.0
  3
*U300
  1

  0
TEXT
  5
8D09
  8
0
  6
CONTINUOUS
 62
     3
 10
607.01135148958724
 20
-204.7010146736971
 30
0.0
 40
3.0
  1
32
  0
TEXT
  5
8D0A
  8
0
  6
CONTINUOUS
 62
     3
 10
610.89635148958723
 20
-202.0047745162168
 30
0.0
 40
2.1000000000000001
  1
+0
  0
TEXT
  5
8D0B
  8
0
  6
CONTINUOUS
 62
     3
 10
610.89635148958723
 20
-204.7010146736971
 30
0.0
 40
2.1000000000000001
  1
-0.2
  0
ENDBLK
  5
8D0D
  8
0
  0
BLOCK
  8
0
  2
*U301
 70
     1
 10
0.0
 20
0.0
 30
0.0
  3
*U301
  1

  0
TEXT
  5
8D0F
  8
0
  6
CONTINUOUS
 62
     3
 10
577.8575110940908
 20
-155.5054289406846
 30
0.0
 40
3.0
  1
\U+220534
 50
90.0
  0
TEXT
  5
8D10
  8
0
  6
CONTINUOUS
 62
     3
 10
575.26585755078372
 20
-148.62042894068449
 30
0.0
 40
2.1000000000000001
  1
+0.1
 50
90.0
  0
TEXT
  5
8D11
  8
0
  6
CONTINUOUS
 62
     3
 10
577.8575110940908
 20
-148.62042894068449
 30
0.0
 40
2.1000000000000001
  1
-0
 50
90.0
  0
ENDBLK
  5
8D13
  8
0
  0
BLOCK
  8
0
  2
*U302
 70
     1
 10
0.0
 20
0.0
 30
0.0
  3
*U302
  1

  0
TEXT
  5
8D15
  8
0
  6
CONTINUOUS
 62
     3
 10
636.32250404864237
 20
-196.70101467369699
 30
0.0
 40
3.0
  1
26
  0
TEXT
  5
8D16
  8
0
  6
CONTINUOUS
 62
     3
 10
640.20750404864225
 20
-194.10936113039
 30
0.0
 40
2.1000000000000001
  1
+0
  0
TEXT
  5
8D17
  8
0
  6
CONTINUOUS
 62
     3
 10
640.20750404864225
 20
-196.70101467369699
 30
0.0
 40
2.1000000000000001
  1
-0.1
  0
ENDBLK
  5
8D19
  8
0
  0
BLOCK
  8
0
  2
*U303
 70
     1
 10
0.0
 20
0.0
 30
0.0
  3
*U303
  1

  0
TEXT
  5
8D1B
  8
0
  6
CONTINUOUS
 62
     3
 10
764.71432491478174
 20
-119.5763568418142
 30
0.0
 40
3.0
  1
12
  0
ENDBLK
  5
8D1D
  8
0
  0
BLOCK
  8
0
  2
*U304
 70
     1
 10
0.0
 20
0.0
 30
0.0
  3
*U304
  1

  0
TEXT
  5
8D1F
  8
0
  6
CONTINUOUS
 62
     3
 10
768.99228146310259
 20
-111.5763568418142
 30
0.0
 40
3.0
  1
5
  0
ENDBLK
  5
8D21
  8
0
  0
BLOCK
  8
0
  2
*U305
 70
     1
 10
0.0
 20
0.0
 30
0.0
  3
*U305
  1

  0
TEXT
  5
8D23
  8
0
  6
CONTINUOUS
 62
     3
 10
747.9265116245914
 20
-111.5763568418142
 30
0.0
 40
3.0
  1
25.5
  0
TEXT
  5
8D24
  8
0
  6
CONTINUOUS
 62
     3
 10
755.12651162459144
 20
-111.5763568418142
 30
0.0
 40
2.1000000000000001
  1
¡¾0.03
  0
ENDBLK
  5
8D26
  8
0
  0
BLOCK
  8
0
  2
*U306
 70
     1
 10
0.0
 20
0.0
 30
0.0
  3
*U306
  1

  0
TEXT
  5
8D28
  8
0
  6
CONTINUOUS
 62
     3
 10
745.3844134974587
 20
-103.5763568418142
 30
0.0
 40
3.0
  1
42.5
  0
TEXT
  5
8D29
  8
0
  6
CONTINUOUS
 62
     3
 10
752.56941349745864
 20
-100.9847032985071
 30
0.0
 40
2.1000000000000001
  1
+0
  0
TEXT
  5
8D2A
  8
0
  6
CONTINUOUS
 62
     3
 10
752.56941349745864
 20
-103.5763568418142
 30
0.0
 40
2.1000000000000001
  1
-0.1
  0
ENDBLK
  5
8D2C
  8
0
  0
BLOCK
  8
0
  2
*U307
 70
     1
 10
0.0
 20
0.0
 30
0.0
  3
*U307
  1

  0
TEXT
  5
8D2E
  8
0
  6
CONTINUOUS
 62
     3
 10
671.8839145001167
 20
-194.8204661012613
 30
0.0
 40
3.0
  1
30¡Æ
 50
345.00000000000011
  0
ENDBLK
  5
8D30
  8
0
  0
BLOCK
  8
0
  2
*U308
 70
     1
 10
0.0
 20
0.0
 30
0.0
  3
*U308
  1

  0
TEXT
  5
8D32
  8
0
  6
CONTINUOUS
 62
     3
 10
681.29951221758768
 20
-178.1649864516215
 30
0.0
 40
3.0
  1
R2
 50
305.4128349686415
  0
ENDBLK
  5
8D34
  8
0
  0
BLOCK
  8
0
  2
*U309
 70
     1
 10
0.0
 20
0.0
 30
0.0
  3
*U309
  1

  0
TEXT
  5
8D36
  8
0
  6
CONTINUOUS
 62
     3
 10
677.12082040161147
 20
-158.5554049749567
 30
0.0
 40
3.0
  1
R2
 50
307.18882661638298
  0
ENDBLK
  5
8D38
  8
0
  0
BLOCK
  8
0
  2
*U310
 70
     1
 10
0.0
 20
0.0
 30
0.0
  3
*U310
  1

  0
TEXT
  5
8D3A
  8
0
  6
CONTINUOUS
 62
     3
 10
720.74228146310281
 20
-103.5763568418142
 30
0.0
 40
3.0
  1
15
  0
ENDBLK
  5
8D3C
  8
0
  0
BLOCK
  8
0
  2
*U311
 70
     1
 10
0.0
 20
0.0
 30
0.0
  3
*U311
  1

  0
SOLID
  5
8D62
  8
0
  6
CONTINUOUS
 62
     2
 10
-233.35013881738459
 20
125.40535084771361
 30
0.0
 11
-232.17425372659079
 21
127.65054691139269
 31
0.0
 12
-232.55840576479719
 22
125.14534465954701
 32
0.0
 13
-232.55840576479719
 23
125.14534465954701
 33
0.0
210
0.0
220
0.0
230
-1.0
  0
POLYLINE
  5
8D63
  8
0
  6
CONTINUOUS
 62
     2
 66
     1
 10
0.0
 20
0.0
 30
0.0
210
0.0
220
0.0
230
-1.0
  0
VERTEX
  5
8D64
  8
0
  6
CONTINUOUS
 62
     2
 10
-232.95427229109089
 20
125.2753477536303
 30
0.0
  0
VERTEX
  5
8D65
  8
0
  6
CONTINUOUS
 62
     2
 10
-238.3031987319732
 20
108.9875744165187
 30
0.0
  0
VERTEX
  5
8D66
  8
0
  6
CONTINUOUS
 62
     2
 10
-250.4216686681703
 20
108.9875744165187
 30
0.0
  0
VERTEX
  5
8D67
  8
0
  6
CONTINUOUS
 62
     2
 10
-252.2216686681702
 20
108.9875744165187
 30
0.0
  0
SEQEND
  5
8D68
  8
0
  6
CONTINUOUS
 62
     2
  0
ENDBLK
  5
8D6A
  8
0
  0
BLOCK
  8
0
  2
*U312
 70
     1
 10
0.0
 20
0.0
 30
0.0
  3
*U312
  1

  0
TEXT
  5
8D75
  8
0
  6
CONTINUOUS
 62
     3
 10
825.54656206424909
 20
-122.663447762659
 30
0.0
 40
3.0
  1
1
 50
90.0
  0
ENDBLK
  5
8D77
  8
0
  0
BLOCK
  8
0
  2
*U313
 70
     1
 10
0.0
 20
0.0
 30
0.0
  3
*U313
  1

  0
TEXT
  5
8D79
  8
0
  6
CONTINUOUS
 62
     3
 10
833.54656206424909
 20
-122.2239307541417
 30
0.0
 40
3.0
  1
9.3
 50
90.0
  0
ENDBLK
  5
8D7B
  8
0
  0
BLOCK
  8
0
  2
*U314
 70
     1
 10
0.0
 20
0.0
 30
0.0
  3
*U314
  1

  0
TEXT
  5
8D7D
  8
0
  6
CONTINUOUS
 62
     3
 10
819.06938320601671
 20
-129.96638424949521
 30
0.0
 40
3.0
  1
R0.5
 50
316.83656414023812
  0
ENDBLK
  5
8D7F
  8
0
  0
BLOCK
  8
0
  2
*U315
 70
     1
 10
0.0
 20
0.0
 30
0.0
  3
*U315
  1

  0
TEXT
  5
8D81
  8
0
  6
CONTINUOUS
 62
     3
 10
850.12657800436352
 20
-122.89150977053301
 30
0.0
 40
3.0
  1
\U+220521.5
 50
90.0
  0
TEXT
  5
8D82
  8
0
  6
CONTINUOUS
 62
     3
 10
847.43033784688305
 20
-113.90650977053301
 30
0.0
 40
2.1000000000000001
  1
+0.05
 50
90.0
  0
TEXT
  5
8D83
  8
0
  6
CONTINUOUS
 62
     3
 10
850.12657800436352
 20
-113.90650977053301
 30
0.0
 40
2.1000000000000001
  1
+0.02
 50
90.0
  0
ENDBLK
  5
8D85
  8
0
  0
BLOCK
  8
0
  2
*U316
 70
     1
 10
0.0
 20
0.0
 30
0.0
  3
*U316
  1

  0
TEXT
  5
8D87
  8
0
  6
CONTINUOUS
 62
     3
 10
842.12657800436375
 20
-127.76489629986381
 30
0.0
 40
3.0
  1
\U+220514.3
 50
90.0
  0
TEXT
  5
8D88
  8
0
  6
CONTINUOUS
 62
     3
 10
839.53492446105668
 20
-118.4798962998638
 30
0.0
 40
2.1000000000000001
  1
+0.05
 50
90.0
  0
TEXT
  5
8D89
  8
0
  6
CONTINUOUS
 62
     3
 10
842.12657800436398
 20
-118.4798962998638
 30
0.0
 40
2.1000000000000001
  1
-0
 50
90.0
  0
ENDBLK
  5
8D8B
  8
0
  0
BLOCK
  8
0
  2
*U317
 70
     1
 10
0.0
 20
0.0
 30
0.0
  3
*U317
  1

  0
TEXT
  5
8D8D
  8
0
  6
CONTINUOUS
 62
     3
 10
794.81671008793069
 20
-117.7899439455695
 30
0.0
 40
3.0
  1
30¡Æ
 50
284.99999999999989
  0
ENDBLK
  5
8D8F
  8
0
  0
BLOCK
  8
0
  2
*U318
 70
     1
 10
0.0
 20
0.0
 30
0.0
  3
*U318
  1

  0
TEXT
  5
8D91
  8
0
  6
CONTINUOUS
 62
     3
 10
766.88059056434372
 20
-118.8397019454996
 30
0.0
 40
3.0
  1
3¡Æ
 50
271.49999999999977
  0
ENDBLK
  5
8D93
  8
0
  0
BLOCK
  8
0
  2
*U319
 70
     1
 10
0.0
 20
0.0
 30
0.0
  3
*U319
  1

  0
TEXT
  5
8D95
  8
0
  6
CONTINUOUS
 62
     3
 10
672.48779401747561
 20
-154.029033495672
 30
0.0
 40
3.0
  1
7
  0
ENDBLK
  5
8D97
  8
0
  0
BLOCK
  8
0
  2
*U320
 70
     1
 10
0.0
 20
0.0
 30
0.0
  3
*U320
  1

  0
TEXT
  5
8D99
  8
0
  6
CONTINUOUS
 62
     3
 10
700.0377940174792
 20
-162.0290334956716
 30
0.0
 40
3.0
  1
11
  0
ENDBLK
  5
8D9B
  8
0
  0
BLOCK
  8
0
  2
*U321
 70
     1
 10
0.0
 20
0.0
 30
0.0
  3
*U321
  1

  0
TEXT
  5
8D9D
  8
0
  6
CONTINUOUS
 62
     3
 10
715.95919984865304
 20
-129.60373926057281
 30
0.0
 40
3.0
  1
\U+220550
 50
90.0
  0
TEXT
  5
8D9E
  8
0
  6
CONTINUOUS
 62
     3
 10
715.95919984865304
 20
-122.7037392605728
 30
0.0
 40
2.1000000000000001
  1
¡¾0.05
 50
90.0
  0
ENDBLK
  5
8DA0
  8
0
  0
BLOCK
  8
0
  2
*U322
 70
     1
 10
0.0
 20
0.0
 30
0.0
  3
*U322
  1

  0
TEXT
  5
8DA2
  8
0
  6
CONTINUOUS
 62
     3
 10
612.29089161410513
 20
-124.9644401867083
 30
0.0
 40
3.0
  1
\U+220548.01
 50
90.0
  0
TEXT
  5
8DA3
  8
0
  6
CONTINUOUS
 62
     3
 10
612.29089161410513
 20
-113.2644401867083
 30
0.0
 40
2.1000000000000001
  1
¡¾0.003
 50
90.0
  0
ENDBLK
  5
8DA5
  8
0
  0
BLOCK
  8
0
  2
*U323
 70
     1
 10
0.0
 20
0.0
 30
0.0
  3
*U323
  1

  0
TEXT
  5
8DA7
  8
0
  6
CONTINUOUS
 62
     3
 10
649.44473200960169
 20
-170.0290334956716
 30
0.0
 40
3.0
  1
32
  0
TEXT
  5
8DA8
  8
0
  6
CONTINUOUS
 62
     3
 10
653.32973200960168
 20
-167.33279333819129
 30
0.0
 40
2.1000000000000001
  1
+0
  0
TEXT
  5
8DA9
  8
0
  6
CONTINUOUS
 62
     3
 10
653.32973200960168
 20
-170.0290334956716
 30
0.0
 40
2.1000000000000001
  1
-0.2
  0
ENDBLK
  5
8DAB
  8
0
  0
BLOCK
  8
0
  2
*U324
 70
     1
 10
0.0
 20
0.0
 30
0.0
  3
*U324
  1

  0
TEXT
  5
8DAD
  8
0
  6
CONTINUOUS
 62
     3
 10
620.29089161410525
 20
-120.83344776265911
 30
0.0
 40
3.0
  1
\U+220534
 50
90.0
  0
TEXT
  5
8DAE
  8
0
  6
CONTINUOUS
 62
     3
 10
617.69923807079806
 20
-113.9484477626591
 30
0.0
 40
2.1000000000000001
  1
+0.1
 50
90.0
  0
TEXT
  5
8DAF
  8
0
  6
CONTINUOUS
 62
     3
 10
620.29089161410525
 20
-113.9484477626591
 30
0.0
 40
2.1000000000000001
  1
-0
 50
90.0
  0
ENDBLK
  5
8DB1
  8
0
  0
BLOCK
  8
0
  2
*U325
 70
     1
 10
0.0
 20
0.0
 30
0.0
  3
*U325
  1

  0
TEXT
  5
8DB3
  8
0
  6
CONTINUOUS
 62
     3
 10
678.75588456865694
 20
-162.0290334956716
 30
0.0
 40
3.0
  1
26
  0
TEXT
  5
8DB4
  8
0
  6
CONTINUOUS
 62
     3
 10
682.64088456865682
 20
-159.43737995236449
 30
0.0
 40
2.1000000000000001
  1
+0
  0
TEXT
  5
8DB5
  8
0
  6
CONTINUOUS
 62
     3
 10
682.64088456865682
 20
-162.0290334956716
 30
0.0
 40
2.1000000000000001
  1
-0.1
  0
ENDBLK
  5
8DB7
  8
0
  0
BLOCK
  8
0
  2
*U326
 70
     1
 10
0.0
 20
0.0
 30
0.0
  3
*U326
  1

  0
TEXT
  5
8DB9
  8
0
  6
CONTINUOUS
 62
     3
 10
807.14770543479619
 20
-84.904375663788727
 30
0.0
 40
3.0
  1
12
  0
ENDBLK
  5
8DBB
  8
0
  0
BLOCK
  8
0
  2
*U327
 70
     1
 10
0.0
 20
0.0
 30
0.0
  3
*U327
  1

  0
TEXT
  5
8DBD
  8
0
  6
CONTINUOUS
 62
     3
 10
811.42566198311715
 20
-76.904375663788727
 30
0.0
 40
3.0
  1
5
  0
ENDBLK
  5
8DBF
  8
0
  0
BLOCK
  8
0
  2
*U328
 70
     1
 10
0.0
 20
0.0
 30
0.0
  3
*U328
  1

  0
TEXT
  5
8DC1
  8
0
  6
CONTINUOUS
 62
     3
 10
790.35989214460585
 20
-76.904375663788727
 30
0.0
 40
3.0
  1
25.5
  0
TEXT
  5
8DC2
  8
0
  6
CONTINUOUS
 62
     3
 10
797.55989214460578
 20
-76.904375663788727
 30
0.0
 40
2.1000000000000001
  1
¡¾0.03
  0
ENDBLK
  5
8DC4
  8
0
  0
BLOCK
  8
0
  2
*U329
 70
     1
 10
0.0
 20
0.0
 30
0.0
  3
*U329
  1

  0
TEXT
  5
8DC6
  8
0
  6
CONTINUOUS
 62
     3
 10
787.81779401747315
 20
-68.904375663788727
 30
0.0
 40
3.0
  1
42.5
  0
TEXT
  5
8DC7
  8
0
  6
CONTINUOUS
 62
     3
 10
795.00279401747309
 20
-66.312722120481624
 30
0.0
 40
2.1000000000000001
  1
+0
  0
TEXT
  5
8DC8
  8
0
  6
CONTINUOUS
 62
     3
 10
795.00279401747309
 20
-68.904375663788727
 30
0.0
 40
2.1000000000000001
  1
-0.1
  0
ENDBLK
  5
8DCA
  8
0
  0
BLOCK
  8
0
  2
*U330
 70
     1
 10
0.0
 20
0.0
 30
0.0
  3
*U330
  1

  0
TEXT
  5
8DCC
  8
0
  6
CONTINUOUS
 62
     3
 10
714.31729502013093
 20
-160.1484849232358
 30
0.0
 40
3.0
  1
30¡Æ
 50
345.00000000000011
  0
ENDBLK
  5
8DCE
  8
0
  0
BLOCK
  8
0
  2
*U331
 70
     1
 10
0.0
 20
0.0
 30
0.0
  3
*U331
  1

  0
TEXT
  5
8DD0
  8
0
  6
CONTINUOUS
 62
     3
 10
723.73289273760213
 20
-143.493005273596
 30
0.0
 40
3.0
  1
R2
 50
305.4128349686415
  0
ENDBLK
  5
8DD2
  8
0
  0
BLOCK
  8
0
  2
*U332
 70
     1
 10
0.0
 20
0.0
 30
0.0
  3
*U332
  1

  0
TEXT
  5
8DD4
  8
0
  6
CONTINUOUS
 62
     3
 10
719.55420092162603
 20
-123.8834237969314
 30
0.0
 40
3.0
  1
R2
 50
307.18882661638298
  0
ENDBLK
  5
8DD6
  8
0
  0
BLOCK
  8
0
  2
*U333
 70
     1
 10
0.0
 20
0.0
 30
0.0
  3
*U333
  1

  0
TEXT
  5
8DD8
  8
0
  6
CONTINUOUS
 62
     3
 10
763.17566198311715
 20
-68.904375663788727
 30
0.0
 40
3.0
  1
15
  0
ENDBLK
  5
8DDA
  8
0
  0
BLOCK
  8
0
  2
*U334
 70
     1
 10
0.0
 20
0.0
 30
0.0
  3
*U334
  1

  0
TEXT
  5
8DE5
  8
0
  6
CONTINUOUS
 62
     3
 10
772.18766367014223
 20
-254.8870612150271
 30
0.0
 40
3.0
  1
\U+22058.5
 50
90.0
  0
ENDBLK
  5
8DE7
  8
0
  0
BLOCK
  8
0
  2
*U335
 70
     1
 10
0.0
 20
0.0
 30
0.0
  3
*U335
  1

  0
TEXT
  5
8DE9
  8
0
  6
CONTINUOUS
 62
     3
 10
785.06871681974849
 20
-238.74992918067119
 30
0.0
 40
3.0
  1
\U+22059.525
 50
90.0
  0
TEXT
  5
8DEA
  8
0
  6
CONTINUOUS
 62
     3
 10
782.37247666226835
 20
-227.0544461891883
 30
0.0
 40
2.1000000000000001
  1
+0.008
 50
90.0
  0
TEXT
  5
8DEB
  8
0
  6
CONTINUOUS
 62
     3
 10
785.06871681974849
 20
-227.0544461891883
 30
0.0
 40
2.1000000000000001
  1
+0.002
 50
90.0
  0
TEXT
  5
8DEC
  8
0
  6
CONTINUOUS
 62
     3
 10
785.06871681974849
 20
-218.94997571674739
 30
0.0
 40
3.0
  1
(Á¤»è)
 50
90.0
  0
ENDBLK
  5
8DEE
  8
0
  0
BLOCK
  8
0
  2
*U336
 70
     1
 10
0.0
 20
0.0
 30
0.0
  3
*U336
  1

  0
TEXT
  5
8DF0
  8
0
  6
CONTINUOUS
 62
     3
 10
796.18766367014223
 20
-258.80299118854521
 30
0.0
 40
3.0
  1
\U+220521.5
 50
90.0
  0
TEXT
  5
8DF1
  8
0
  6
CONTINUOUS
 62
     3
 10
793.49142351266175
 20
-249.81799118854511
 30
0.0
 40
2.1000000000000001
  1
-0.01
 50
90.0
  0
TEXT
  5
8DF2
  8
0
  6
CONTINUOUS
 62
     3
 10
796.18766367014223
 20
-249.81799118854511
 30
0.0
 40
2.1000000000000001
  1
-0.02
 50
90.0
  0
ENDBLK
  5
8DF4
  8
0
  0
BLOCK
  8
0
  2
*U337
 70
     1
 10
0.0
 20
0.0
 30
0.0
  3
*U337
  1

  0
TEXT
  5
8DF6
  8
0
  6
CONTINUOUS
 62
     3
 10
750.26568125527865
 20
-296.57801647861612
 30
0.0
 40
3.0
  1
6.5
  0
ENDBLK
  5
8DF8
  8
0
  0
BLOCK
  8
0
  2
*U338
 70
     1
 10
0.0
 20
0.0
 30
0.0
  3
*U338
  1

  0
TEXT
  5
8DFA
  8
0
  6
CONTINUOUS
 62
     3
 10
764.43686840774512
 20
-288.4280164786162
 30
0.0
 40
3.0
  1
(1.5)
  0
ENDBLK
  5
8DFC
  8
0
  0
BLOCK
  8
0
  2
*U339
 70
     1
 10
0.0
 20
0.0
 30
0.0
  3
*U339
  1

  0
TEXT
  5
8DFE
  8
0
  6
CONTINUOUS
 62
     3
 10
719.12591747575073
 20
-304.57801647861612
 30
0.0
 40
3.0
  1
36.5
  0
ENDBLK
  5
8E00
  8
0
  0
BLOCK
  8
0
  2
*U340
 70
     1
 10
0.0
 20
0.0
 30
0.0
  3
*U340
  1

  0
TEXT
  5
8E02
  8
0
  6
CONTINUOUS
 62
     3
 10
713.84057805341388
 20
-296.57801647861618
 30
0.0
 40
3.0
  1
25.5
  0
TEXT
  5
8E03
  8
0
  6
CONTINUOUS
 62
     3
 10
721.04057805341381
 20
-296.57801647861618
 30
0.0
 40
2.1000000000000001
  1
¡¾0.02
  0
ENDBLK
  5
8E05
  8
0
  0
BLOCK
  8
0
  2
*U341
 70
     1
 10
0.0
 20
0.0
 30
0.0
  3
*U341
  1

  0
TEXT
  5
8E07
  8
0
  6
CONTINUOUS
 62
     3
 10
688.02591747575059
 20
-296.57801647861612
 30
0.0
 40
3.0
  1
4.5
  0
ENDBLK
  5
8E09
  8
0
  0
BLOCK
  8
0
  2
*U342
 70
     1
 10
0.0
 20
0.0
 30
0.0
  3
*U342
  1

  0
TEXT
  5
8E0B
  8
0
  6
CONTINUOUS
 62
     3
 10
700.46182086558463
 20
-280.57801647861612
 30
0.0
 40
3.0
  1
6.3
  0
TEXT
  5
8E0C
  8
0
  6
CONTINUOUS
 62
     3
 10
705.56182086558465
 20
-280.57801647861612
 30
0.0
 40
2.1000000000000001
  1
¡¾0.05
  0
ENDBLK
  5
8E0E
  8
0
  0
BLOCK
  8
0
  2
*U343
 70
     1
 10
0.0
 20
0.0
 30
0.0
  3
*U343
  1

  0
TEXT
  5
8E10
  8
0
  6
CONTINUOUS
 62
     3
 10
734.21182086558451
 20
-269.02138241897848
 30
0.0
 40
3.0
  1
6.6
  0
TEXT
  5
8E11
  8
0
  6
CONTINUOUS
 62
     3
 10
739.31182086558454
 20
-269.02138241897848
 30
0.0
 40
2.1000000000000001
  1
¡¾0.05
  0
ENDBLK
  5
8E13
  8
0
  0
BLOCK
  8
0
  2
*U344
 70
     1
 10
0.0
 20
0.0
 30
0.0
  3
*U344
  1

  0
TEXT
  5
8E15
  8
0
  6
CONTINUOUS
 62
     3
 10
704.03804951010625
 20
-288.4280164786162
 30
0.0
 40
3.0
  1
(8)
  0
ENDBLK
  5
8E17
  8
0
  0
BLOCK
  8
0
  2
*U345
 70
     1
 10
0.0
 20
0.0
 30
0.0
  3
*U345
  1

  0
TEXT
  5
8E19
  8
0
  6
CONTINUOUS
 62
     3
 10
733.88804951010582
 20
-288.4280164786162
 30
0.0
 40
3.0
  1
(7.45)
  0
ENDBLK
  5
8E1B
  8
0
  0
BLOCK
  8
0
  2
*U346
 70
     1
 10
0.0
 20
0.0
 30
0.0
  3
*U346
  1

  0
TEXT
  5
8E1D
  8
0
  6
CONTINUOUS
 62
     3
 10
685.10150802693181
 20
-288.57801647861612
 30
0.0
 40
3.0
  1
1.5
  0
ENDBLK
  5
8E1F
  8
0
  0
BLOCK
  8
0
  2
*U347
 70
     1
 10
0.0
 20
0.0
 30
0.0
  3
*U347
  1

  0
TEXT
  5
8E21
  8
0
  6
CONTINUOUS
 62
     3
 10
733.49157943244836
 20
-283.14096577144193
 30
0.0
 40
3.0
  1
R0.5
 50
42.237755721122362
  0
TEXT
  5
8E22
  8
0
  6
CONTINUOUS
 62
     3
 10
737.06894713291297
 20
-276.39238566713777
 30
0.0
 40
2.1000000000000001
  1
+0.1
 50
42.237755721122362
  0
TEXT
  5
8E23
  8
0
  6
CONTINUOUS
 62
     3
 10
738.81107894658271
 20
-278.31114694263198
 30
0.0
 40
2.1000000000000001
  1
-0
 50
42.237755721122362
  0
ENDBLK
  5
8E25
  8
0
  0
BLOCK
  8
0
  2
*U348
 70
     1
 10
0.0
 20
0.0
 30
0.0
  3
*U348
  1

  0
TEXT
  5
8E27
  8
0
  6
CONTINUOUS
 62
     3
 10
677.09719321347904
 20
-254.07611028303339
 30
0.0
 40
3.0
  1
\U+220510
 50
90.0
  0
ENDBLK
  5
8E29
  8
0
  0
BLOCK
  8
0
  2
*U349
 70
     1
 10
0.0
 20
0.0
 30
0.0
  3
*U349
  1

  0
TEXT
  5
8E2B
  8
0
  6
CONTINUOUS
 62
     3
 10
669.09719321347904
 20
-258.5029911885452
 30
0.0
 40
3.0
  1
\U+220511.8
 50
90.0
  0
TEXT
  5
8E2C
  8
0
  6
CONTINUOUS
 62
     3
 10
666.4009530559988
 20
-250.1179911885452
 30
0.0
 40
2.1000000000000001
  1
-0.01
 50
90.0
  0
TEXT
  5
8E2D
  8
0
  6
CONTINUOUS
 62
     3
 10
669.09719321347904
 20
-250.1179911885452
 30
0.0
 40
2.1000000000000001
  1
-0.02
 50
90.0
  0
ENDBLK
  5
8E2F
  8
0
  0
BLOCK
  8
0
  2
*U350
 70
     1
 10
0.0
 20
0.0
 30
0.0
  3
*U350
  1

  0
TEXT
  5
8E31
  8
0
  6
CONTINUOUS
 62
     3
 10
661.09719321347904
 20
-258.78342160472027
 30
0.0
 40
3.0
  1
\U+220513.3
 50
90.0
  0
TEXT
  5
8E32
  8
0
  6
CONTINUOUS
 62
     3
 10
658.41938159372728
 20
-249.79842160472029
 30
0.0
 40
2.1000000000000001
  1
+0
 50
90.0
  0
TEXT
  5
8E33
  8
0
  6
CONTINUOUS
 62
     3
 10
661.09719321347916
 20
-249.79842160472029
 30
0.0
 40
2.1000000000000001
  1
-0.05
 50
90.0
  0
ENDBLK
  5
8E35
  8
0
  0
BLOCK
  8
0
  2
*U351
 70
     1
 10
0.0
 20
0.0
 30
0.0
  3
*U351
  1

  0
TEXT
  5
8E37
  8
0
  6
CONTINUOUS
 62
     3
 10
759.69983964438325
 20
-244.11108907421661
 30
0.0
 40
3.0
  1
R1
 50
314.16244610586068
  0
ENDBLK
  5
8E39
  8
0
  0
BLOCK
  8
0
  2
*U352
 70
     1
 10
0.0
 20
0.0
 30
0.0
  3
*U352
  1

  0
TEXT
  5
8E3B
  8
0
  6
CONTINUOUS
 62
     3
 10
708.94717373703224
 20
-257.49492918067108
 30
0.0
 40
3.0
  1
\U+220511.6
 50
90.0
  0
TEXT
  5
8E3C
  8
0
  6
CONTINUOUS
 62
     3
 10
706.35552019372517
 20
-249.10992918067109
 30
0.0
 40
2.1000000000000001
  1
+0.1
 50
90.0
  0
TEXT
  5
8E3D
  8
0
  6
CONTINUOUS
 62
     3
 10
708.94717373703236
 20
-249.10992918067109
 30
0.0
 40
2.1000000000000001
  1
-0
 50
90.0
  0
ENDBLK
  5
8E3F
  8
0
  0
BLOCK
  8
0
  2
*U353
 70
     1
 10
0.0
 20
0.0
 30
0.0
  3
*U353
  1

  0
TEXT
  5
8E41
  8
0
  6
CONTINUOUS
 62
     3
 10
721.29003715361614
 20
-258.78342160472027
 30
0.0
 40
3.0
  1
\U+220513.3
 50
90.0
  0
TEXT
  5
8E42
  8
0
  6
CONTINUOUS
 62
     3
 10
718.61222553386415
 20
-249.79842160472029
 30
0.0
 40
2.1000000000000001
  1
+0
 50
90.0
  0
TEXT
  5
8E43
  8
0
  6
CONTINUOUS
 62
     3
 10
721.29003715361625
 20
-249.79842160472029
 30
0.0
 40
2.1000000000000001
  1
-0.05
 50
90.0
  0
ENDBLK
  5
8E45
  8
0
  0
BLOCK
  8
0
  2
*U354
 70
     1
 10
0.0
 20
0.0
 30
0.0
  3
*U354
  1

  0
TEXT
  5
8E47
  8
0
  6
CONTINUOUS
 62
     3
 10
677.69517450845115
 20
-232.50461649765271
 30
0.0
 40
3.0
  1
45¡Æ
 50
67.499999999999034
  0
ENDBLK
  5
8E49
  8
0
  0
BLOCK
  8
0
  2
*U355
 70
     1
 10
0.0
 20
0.0
 30
0.0
  3
*U355
  1

  0
TEXT
  5
8E4B
  8
0
  6
CONTINUOUS
 62
     3
 10
697.43804951010645
 20
-217.04920976369939
 30
0.0
 40
3.0
  1
3
  0
ENDBLK
  5
8E4D
  8
0
  0
BLOCK
  8
0
  2
*U356
 70
     1
 10
0.0
 20
0.0
 30
0.0
  3
*U356
  1

  0
TEXT
  5
8E4F
  8
0
  6
CONTINUOUS
 62
     3
 10
727.75966739071953
 20
-228.63526691649139
 30
0.0
 40
3.0
  1
45¡Æ
 50
292.50000000000188
  0
ENDBLK
  5
8E51
  8
0
  0
BLOCK
  8
0
  2
*U357
 70
     1
 10
0.0
 20
0.0
 30
0.0
  3
*U357
  1

  0
TEXT
  5
8E53
  8
0
  6
CONTINUOUS
 62
     3
 10
777.17563778152612
 20
-230.27791652998769
 30
0.0
 40
3.0
  1
\U+220519.05
 50
90.0
  0
ENDBLK
  5
8E55
  8
0
  0
ENDSEC
  0
SECTION
  2
ENTITIES
  0
POLYLINE
  5
7E80
  8
0
 66
     1
 10
0.0
 20
0.0
 30
0.0
 40
1.0
 41
1.0
  0
VERTEX
  5
8CA8
  8
0
 10
0.5
 20
241.5000000000004
 30
0.0
  0
VERTEX
  5
8CA9
  8
0
 10
0.5
 20
-0.5
 30
0.0
  0
SEQEND
  5
8CAA
  8
0
  0
POLYLINE
  5
7E81
  8
0
 66
     1
 10
0.0
 20
0.0
 30
0.0
 40
1.0
 41
1.0
  0
VERTEX
  5
8CAB
  8
0
 10
349.30000000000018
 20
0.0
 30
0.0
  0
VERTEX
  5
8CAC
  8
0
 10
349.30000000000018
 20
241.5000000000004
 30
0.0
  0
SEQEND
  5
8CAD
  8
0
  0
TEXT
  5
7E82
  8
0
 62
     3
 10
265.18754843049328
 20
38.051021325782813
 30
0.0
 40
3.0
  1
1.ROUND  R=1.0
  0
TEXT
  5
7E83
  8
0
 62
     3
 10
264.54916131191339
 20
44.000081334326978
 30
0.0
 40
4.0
  1
NOTE
  0
TEXT
  5
7E84
  8
0
 62
     3
 10
265.18754843049328
 20
27.127590477055271
 30
0.0
 40
3.0
  1
3.ANGLES  %%P0%%D15'
  0
TEXT
  5
7E85
  8
0
  6
CONTINUOUS
 62
     7
 10
207.19664104857631
 20
17.658983523781899
 30
0.0
 40
4.0
  1
SSK CONTROL NUMBER
  0
LINE
  5
7E86
  8
0
 62
     2
 10
198.8597031580843
 20
16.5
 30
0.0
 11
269.30000000000018
 21
16.5
 31
0.0
  0
TEXT
  5
7E87
  8
0
 62
     7
 10
270.10520091895302
 20
2.2574114378329559
 30
0.0
 40
2.0
  1
CUTTING SIZE :
  0
LINE
  5
7E88
  8
0
 62
     2
 10
281.30000000000018
 20
6.5
 30
0.0
 11
198.8597031580843
 21
6.5
 31
0.0
  0
TEXT
  5
7E89
  8
0
 62
     3
 10
265.18754843049328
 20
32.510087232807336
 30
0.0
 40
3.0
  1
2.BREAK SHARP CORNERS  0.5*45%%D
  0
POLYLINE
  5
7E8A
  8
0
 66
     1
 10
0.0
 20
0.0
 30
0.0
 40
0.5
 41
0.5
  0
VERTEX
  5
8CAE
  8
0
 10
349.30000000000018
 20
24.0
 30
0.0
  0
VERTEX
  5
8CAF
  8
0
 10
0.5
 20
24.0
 30
0.0
  0
SEQEND
  5
8CB0
  8
0
  0
POLYLINE
  5
7E8B
  8
0
 66
     1
 10
0.0
 20
0.0
 30
0.0
 40
1.0
 41
1.0
  0
VERTEX
  5
8CB1
  8
0
 10
0.0
 20
0.0
 30
0.0
  0
VERTEX
  5
8CB2
  8
0
 10
349.80000000000018
 20
0.0
 30
0.0
  0
SEQEND
  5
8CB3
  8
0
  0
TEXT
  5
7E8C
  8
0
  6
CONTINUOUS
 62
     3
 10
19.488127647663081
 20
15.53735654761635
 30
0.0
 40
4.0
  1
HYDRAULIC CHUCK
  0
LINE
  5
7E8D
  8
0
 62
     2
 10
150.9402968419158
 20
12.5
 30
0.0
 11
0.5
 21
12.5
 31
0.0
  0
TEXT
  5
7E8E
  8
0
 62
     7
 10
1.7756180239680359
 20
9.4939908967098745
 30
0.0
 40
2.0
  1
KIND
  0
TEXT
  5
7E8F
  8
0
 62
     7
 10
1.6906758171485301
 20
20.70213863111508
 30
0.0
 40
2.0
  1
DESCRIPTION
  0
TEXT
  5
7E90
  8
0
 62
     7
 10
151.84057408933489
 20
19.15847313115523
 30
0.0
 40
2.0
  1
DATE
  0
LINE
  5
7E91
  8
0
 62
     2
 10
150.9402968419158
 20
16.5
 30
0.0
 11
198.8597031580839
 21
16.5
 31
0.0
  0
TEXT
  5
7E92
  8
0
 62
     7
 10
172.56998530749109
 20
6.278392202562145
 30
0.0
 40
3.0
  1
-
  0
LINE
  5
7E93
  8
0
 62
     2
 10
79.5
 20
24.0
 30
0.0
 11
79.5
 21
0.0
 31
0.0
  0
LINE
  5
7E94
  8
0
 62
     2
 10
106.5
 20
24.0
 30
0.0
 11
106.5
 21
0.0
 31
0.0
  0
LINE
  5
7E95
  8
0
 62
     2
 10
150.9402968419158
 20
24.0
 30
0.0
 11
150.9402968419158
 21
0.0
 31
0.0
  0
TEXT
  5
7E96
  8
0
  6
CONTINUOUS
 62
     3
 10
91.297501597574865
 20
15.03976123407665
 30
0.0
 40
4.0
  1
-
  0
TEXT
  5
7E97
  8
0
 62
     7
 10
80.326115960252537
 20
9.6268716546485393
 30
0.0
 40
2.0
  1
HARDNESS
  0
TEXT
  5
7E98
  8
0
 62
     7
 10
80.390774020364447
 20
20.753906392070579
 30
0.0
 40
2.0
  1
MATERIAL
  0
TEXT
  5
7E99
  8
0
 62
     7
 10
107.43550840515719
 20
9.4608489407828529
 30
0.0
 40
2.0
  1
ORDER MAKER
  0
TEXT
  5
7E9A
  8
0
 62
     7
 10
107.6221638096294
 20
20.57165332765112
 30
0.0
 40
2.0
  1
SURFACE TREATMENT
  0
TEXT
  5
7E9B
  8
0
 62
     7
 10
249.69651417353541
 20
0.9519807885211548
 30
0.0
 40
4.0
  1
1 : 1
  0
LINE
  5
7E9C
  8
0
 62
     2
 10
268.8597031580839
 20
6.5
 30
0.0
 11
268.8597031580839
 21
0.0
 31
0.0
  0
TEXT
  5
7E9D
  8
0
 62
     7
 10
234.13498021523631
 20
2.269955000430854
 30
0.0
 40
2.0
  1
SCALE
  0
LINE
  5
7E9E
  8
0
 62
     2
 10
233.8597031580839
 20
6.5
 30
0.0
 11
233.8597031580839
 21
0.0
 31
0.0
  0
TEXT
  5
7E9F
  8
0
 62
     7
 10
199.72929511267961
 20
2.2574114378330701
 30
0.0
 40
2.0
  1
Q'TY
  0
LINE
  5
7EA0
  8
0
 62
     2
 10
198.8597031580839
 20
24.0
 30
0.0
 11
198.8597031580839
 21
0.0
 31
0.0
  0
TEXT
  5
7EA1
  8
0
 62
     3
 10
171.78143518235629
 20
18.268672151280722
 30
0.0
 40
4.0
  1
-
  0
TEXT
  5
7EA2
  8
0
 62
     7
 10
313.20717981679542
 20
0.9519807885211548
 30
0.0
 40
4.0
  1
-
  0
LINE
  5
7EA3
  8
0
 62
     2
 10
281.30000000000018
 20
6.5
 30
0.0
 11
349.30000000000018
 21
6.5
 31
0.0
  0
LINE
  5
7EA4
  8
0
 62
     2
 10
309.30000000000018
 20
24.25
 30
0.0
 11
309.30000000000018
 21
6.5
 31
0.0
  0
LINE
  5
7EA5
  8
0
 62
     2
 10
289.30000000000018
 20
24.25
 30
0.0
 11
289.30000000000018
 21
6.5
 31
0.0
  0
LINE
  5
7EA6
  8
0
 62
     2
 10
269.30000000000018
 20
24.25
 30
0.0
 11
269.30000000000018
 21
6.5
 31
0.0
  0
TEXT
  5
7EA7
  8
0
 62
     7
 10
310.26938148685667
 20
20.8838933210493
 30
0.0
 40
2.0
  1
CHECK
  0
LINE
  5
7EA8
  8
0
 62
     2
 10
329.30000000000018
 20
24.25
 30
0.0
 11
329.30000000000018
 21
6.5
 31
0.0
  0
TEXT
  5
7EA9
  8
0
 62
     7
 10
330.4903347100439
 20
20.8838933210493
 30
0.0
 40
2.0
  1
APPROVE
  0
TEXT
  5
7EAA
  8
0
 62
     7
 10
270.34697788810348
 20
236.25014875277051
 30
0.0
 40
2.5
  1
NO.
  0
LINE
  5
7EAB
  8
0
  6
CONTINUOUS
 62
     2
 10
269.30000000000018
 20
215.62385070146451
 30
0.0
 11
349.30000000000018
 21
215.62385070146451
 31
0.0
  0
LINE
  5
7EAC
  8
0
  6
CONTINUOUS
 62
     2
 10
269.30000000000018
 20
234.60000000000031
 30
0.0
 11
349.30000000000018
 21
234.60000000000031
 31
0.0
  0
LINE
  5
7EAD
  8
0
  6
CONTINUOUS
 62
     2
 10
269.30000000000018
 20
228.19999999999951
 30
0.0
 11
349.30000000000018
 21
228.19999999999919
 31
0.0
  0
LINE
  5
7EAE
  8
0
  6
CONTINUOUS
 62
     2
 10
269.30000000000018
 20
221.8000000000003
 30
0.0
 11
349.30000000000018
 21
221.8000000000001
 31
0.0
  0
POLYLINE
  5
7EAF
  8
0
 66
     1
 10
0.0
 20
0.0
 30
0.0
 40
1.0
 41
1.0
  0
VERTEX
  5
8CB4
  8
0
 10
0.0
 20
241.00000000000011
 30
0.0
  0
VERTEX
  5
8CB5
  8
0
 10
349.78500327820348
 20
241.00000000000031
 30
0.0
  0
SEQEND
  5
8CB6
  8
0
  0
POLYLINE
  5
7EB0
  8
0
 66
     1
 10
0.0
 20
0.0
 30
0.0
 40
1.0
 41
1.0
1001
ACAD
1000
ASC_BOUNDS
1002
{
1070
    19
1002
}
  0
VERTEX
  5
8CB7
  8
0
 10
9.9498014649834658
 20
241.00000000000031
 30
0.0
  0
VERTEX
  5
8CB8
  8
0
 10
341.5
 20
241.00000000000031
 30
0.0
  0
SEQEND
  5
8CB9
  8
0
  0
LINE
  5
7EB1
  8
0
 62
     2
 10
269.30000000000018
 20
241.00000000000031
 30
0.0
 11
269.30000000000018
 21
215.62385070146451
 31
0.0
  0
TEXT
  5
7EB2
  8
0
  6
CONTINUOUS
 62
     3
 10
63.438554281229251
 20
229.0555435295031
 30
0.0
 40
2.0
  1
-0.0
  0
TEXT
  5
7EB3
  8
0
  6
CONTINUOUS
 62
     3
 10
32.065439160974158
 20
229.0555435295031
 30
0.0
 40
2.0
  1
-0.0
  0
TEXT
  5
7EB4
  8
0
  6
CONTINUOUS
 62
     3
 10
20.993984417053071
 20
229.0555435295031
 30
0.0
 40
2.0
  1
-0.0
  0
TEXT
  5
7EB5
  8
0
  6
CONTINUOUS
 62
     3
 10
46.479220545365934
 20
229.0555435295031
 30
0.0
 40
2.0
  1
-0.0
  0
LINE
  5
7EB6
  8
0
  6
CONTINUOUS
 62
     2
 10
0.0
 20
241.00000000000031
 30
0.0
 11
0.0
 21
215.62385070146451
 31
0.0
  0
LINE
  5
7EB7
  8
0
  6
CONTINUOUS
 62
     2
 10
6.664798186779989
 20
221.8000000000003
 30
0.0
 11
6.664798186779989
 21
241.00000000000031
 31
0.0
  0
LINE
  5
7EB8
  8
0
  6
CONTINUOUS
 62
     2
 10
18.66479818677999
 20
241.00000000000031
 30
0.0
 11
18.66479818677999
 21
221.8000000000003
 31
0.0
  0
LINE
  5
7EB9
  8
0
  6
CONTINUOUS
 62
     2
 10
42.092417406004643
 20
241.00000000000031
 30
0.0
 11
42.092417406004643
 21
215.62385070146451
 31
0.0
  0
LINE
  5
7EBA
  8
0
  6
CONTINUOUS
 62
     2
 10
28.096426956445612
 20
241.00000000000031
 30
0.0
 11
28.096426956445612
 21
215.62385070146451
 31
0.0
  0
LINE
  5
7EBB
  8
0
  6
CONTINUOUS
 62
     2
 10
74.993438436643828
 20
241.00000000000031
 30
0.0
 11
74.993438436643828
 21
215.62385070146451
 31
0.0
  0
LINE
  5
7EBC
  8
0
  6
CONTINUOUS
 62
     2
 10
57.968465385929441
 20
241.00000000000031
 30
0.0
 11
57.968465385929441
 21
215.62385070146451
 31
0.0
  0
LINE
  5
7EBD
  8
0
  6
CONTINUOUS
 62
     2
 10
0.0
 20
215.62385070146451
 30
0.0
 11
74.993438436643828
 21
215.62385070146451
 31
0.0
  0
LINE
  5
7EBE
  8
0
  6
CONTINUOUS
 62
     2
 10
6.664798186779989
 20
221.8000000000003
 30
0.0
 11
74.993438436643828
 21
221.8000000000003
 31
0.0
  0
LINE
  5
7EBF
  8
0
  6
CONTINUOUS
 62
     2
 10
6.664798186779989
 20
228.20000000000019
 30
0.0
 11
74.993438436643828
 21
228.20000000000019
 31
0.0
  0
LINE
  5
7EC0
  8
0
  6
CONTINUOUS
 62
     2
 10
6.664798186779989
 20
215.62385070146451
 30
0.0
 11
6.664798186779989
 21
221.8000000000003
 31
0.0
  0
LINE
  5
7EC1
  8
0
  6
CONTINUOUS
 62
     2
 10
18.66479818677999
 20
228.4238507014646
 30
0.0
 11
18.66479818677999
 21
215.62385070146451
 31
0.0
  0
TEXT
  5
7EC2
  8
0
  6
CONTINUOUS
 10
9.1748491995331278
 20
223.52224636897441
 30
0.0
 40
3.0
  1
¿Ü°æ
  0
TEXT
  5
7EC3
  8
0
  6
CONTINUOUS
 10
9.1748491995331278
 20
217.3543913088053
 30
0.0
 40
3.0
  1
ÀüÀå
  0
TEXT
  5
7EC4
  8
0
  6
CONTINUOUS
 10
2.289011192062389
 20
221.7461905260555
 30
0.0
 40
3.0
  1
Â÷
  0
TEXT
  5
7EC5
  8
0
  6
CONTINUOUS
 10
1.237846808631047
 20
217.77421795343761
 30
0.0
 40
3.0
  1
mm
  0
TEXT
  5
7EC6
  8
0
  6
CONTINUOUS
 10
2.289011192062389
 20
226.2461905260555
 30
0.0
 40
3.0
  1
°ø
  0
TEXT
  5
7EC7
  8
0
  6
CONTINUOUS
 62
     3
 10
32.065439160974158
 20
222.68683657162171
 30
0.0
 40
2.0
  1
-0.15
  0
TEXT
  5
7EC8
  8
0
  6
CONTINUOUS
 62
     3
 10
20.993984417053071
 20
222.68683657162171
 30
0.0
 40
2.0
  1
-0.1
  0
TEXT
  5
7EC9
  8
0
  6
CONTINUOUS
 62
     3
 10
19.949507918161999
 20
217.257775021637
 30
0.0
 40
3.0
  1
%%P0.1
  0
TEXT
  5
7ECA
  8
0
  6
CONTINUOUS
 62
     3
 10
30.812067194667179
 20
217.257775021637
 30
0.0
 40
3.0
  1
%%P0.15
  0
TEXT
  5
7ECB
  8
0
  6
CONTINUOUS
 62
     3
 10
20.993984417053071
 20
225.1925570542829
 30
0.0
 40
2.0
  1
+0.0
  0
TEXT
  5
7ECC
  8
0
  6
CONTINUOUS
 62
     3
 10
32.065439160974158
 20
225.1925570542829
 30
0.0
 40
2.0
  1
+0.0
  0
TEXT
  5
7ECD
  8
0
  6
CONTINUOUS
 62
     3
 10
46.688116012782302
 20
222.791241415256
 30
0.0
 40
2.0
  1
-0.25
  0
TEXT
  5
7ECE
  8
0
  6
CONTINUOUS
 62
     3
 10
63.504192757890003
 20
222.791241415256
 30
0.0
 40
2.0
  1
-0.35
  0
TEXT
  5
7ECF
  8
0
  6
CONTINUOUS
 62
     3
 10
45.33029547457636
 20
217.257775021637
 30
0.0
 40
3.0
  1
%%P0.25
  0
TEXT
  5
7ED0
  8
0
  6
CONTINUOUS
 62
     3
 10
62.041925324166641
 20
217.257775021637
 30
0.0
 40
3.0
  1
%%P0.35
  0
TEXT
  5
7ED1
  8
0
  6
CONTINUOUS
 62
     3
 10
46.688116012782302
 20
225.2969618979169
 30
0.0
 40
2.0
  1
+0.0
  0
TEXT
  5
7ED2
  8
0
  6
CONTINUOUS
 62
     3
 10
63.504192757890003
 20
225.2969618979169
 30
0.0
 40
2.0
  1
+0.0
  0
TEXT
  5
7ED3
  8
0
  6
CONTINUOUS
 62
     7
 10
40.571351574260909
 20
236.1565042912884
 30
0.0
 40
3.0
  1
 100-250
  0
LINE
  5
7ED4
  8
0
  6
CONTINUOUS
 62
     2
 10
74.993438436643828
 20
241.00000000000031
 30
0.0
 11
6.664798186779989
 21
241.00000000000031
 31
0.0
  0
LINE
  5
7ED5
  8
0
  6
CONTINUOUS
 62
     2
 10
6.664798186779989
 20
234.60000000000031
 30
0.0
 11
74.993438436643828
 21
234.60000000000031
 31
0.0
  0
TEXT
  5
7ED6
  8
0
  6
CONTINUOUS
 10
9.1748491995331278
 20
229.76335097000751
 30
0.0
 40
3.0
  1
³»°æ
  0
TEXT
  5
7ED7
  8
0
  6
CONTINUOUS
 10
9.1748491995331278
 20
236.00445557104089
 30
0.0
 40
3.0
  1
±¸ºÐ 
  0
TEXT
  5
7ED8
  8
0
  6
CONTINUOUS
 10
2.289011192062389
 20
235.24619052605561
 30
0.0
 40
3.0
  1
±â
  0
TEXT
  5
7ED9
  8
0
  6
CONTINUOUS
 10
2.289011192062389
 20
230.74619052605561
 30
0.0
 40
3.0
  1
º»
  0
LINE
  5
7EDA
  8
0
  6
CONTINUOUS
 62
     2
 10
6.664798186779989
 20
241.00000000000031
 30
0.0
 11
0.0
 21
241.00000000000031
 31
0.0
  0
TEXT
  5
7EDB
  8
0
  6
CONTINUOUS
 62
     3
 10
20.88953668334489
 20
231.56126401216429
 30
0.0
 40
2.0
  1
+0.1
  0
TEXT
  5
7EDC
  8
0
  6
CONTINUOUS
 62
     3
 10
32.065439160974158
 20
231.56126401216429
 30
0.0
 40
2.0
  1
+0.15
  0
TEXT
  5
7EDD
  8
0
  6
CONTINUOUS
 62
     7
 10
19.291584210295241
 20
236.1565042912884
 30
0.0
 40
3.0
  1
1-50
  0
TEXT
  5
7EDE
  8
0
  6
CONTINUOUS
 62
     7
 10
28.853706141723709
 20
236.1565042912884
 30
0.0
 40
3.0
  1
50-100
  0
TEXT
  5
7EDF
  8
0
  6
CONTINUOUS
 62
     7
 10
58.864606803455438
 20
236.1565042912884
 30
0.0
 40
3.0
  1
250-500
  0
TEXT
  5
7EE0
  8
0
  6
CONTINUOUS
 62
     3
 10
46.479220545365934
 20
231.56126401216429
 30
0.0
 40
2.0
  1
+0.25
  0
TEXT
  5
7EE1
  8
0
  6
CONTINUOUS
 62
     3
 10
63.438554281229251
 20
231.56126401216429
 30
0.0
 40
2.0
  1
+0.35
  0
LINE
  5
7EE2
  8
0
 62
     2
 10
317.30000000000018
 20
241.00000000000031
 30
0.0
 11
317.30000000000018
 21
215.62385070146451
 31
0.0
  0
LINE
  5
7EE3
  8
0
 62
     2
 10
331.30000000000018
 20
241.00000000000031
 30
0.0
 11
331.30000000000018
 21
215.62385070146451
 31
0.0
  0
LINE
  5
7EE4
  8
0
 62
     2
 10
275.30000000000018
 20
241.00000000000031
 30
0.0
 11
275.29999999999973
 21
215.62385070146451
 31
0.0
  0
TEXT
  5
7EE5
  8
0
 62
     7
 10
271.36049426856789
 20
217.74007257054279
 30
0.0
 40
2.5
  1
3.
  0
TEXT
  5
7EE6
  8
0
 62
     7
 10
271.36049426856789
 20
223.58559299907341
 30
0.0
 40
2.5
  1
2.
  0
TEXT
  5
7EE7
  8
0
 62
     7
 10
287.87643544357428
 20
236.04016647108219
 30
0.0
 40
2.5
  1
REVISIONS
  0
TEXT
  5
7EE8
  8
0
 62
     7
 10
271.36049426856789
 20
230.29486807554909
 30
0.0
 40
2.5
  1
1.
  0
TEXT
  5
7EE9
  8
0
 62
     7
 10
320.14935744422291
 20
236.04016647108219
 30
0.0
 40
2.5
  1
DATE
  0
TEXT
  5
7EEA
  8
0
 62
     7
 10
333.83882714560201
 20
236.1451559764231
 30
0.0
 40
2.5
  1
DEVISER
  0
TEXT
  5
7EEB
  8
0
 62
     7
 10
270.83722662870969
 20
20.7469419072163
 30
0.0
 40
2.0
  1
DESIGN
  0
TEXT
  5
7EEC
  8
0
 62
     7
 10
290.26938148685662
 20
20.8838933210493
 30
0.0
 40
2.0
  1
CHECK
  0
TEXT
  5
7EED
  8
0
  6
CONTINUOUS
 62
     3
 10
113.00070706221651
 20
14.87425280825493
 30
0.0
 40
4.0
  1
SHOT BLAST
  0
TEXT
  5
7EEE
  8
0
  6
CONTINUOUS
 62
     3
 10
91.297501597574765
 20
3.2422643225831962
 30
0.0
 40
4.0
  1
-
  0
TEXT
  5
7EEF
  8
0
  6
CONTINUOUS
 62
     3
 10
125.2262541196623
 20
3.2422643225831962
 30
0.0
 40
4.0
  1
-
  0
TEXT
  5
7EF0
  8
0
  6
CONTINUOUS
 62
     3
 10
28.092918080296961
 20
4.1985803027387192
 30
0.0
 40
4.0
  1
ISO12164-1
  0
TEXT
  5
7EF2
  8
0
 62
     7
 10
150.1959310664094
 20
51.258449613276753
 30
0.0
 40
4.0
  1
CODE : 158375
  0
INSERT
  5
7EF3
  8
0
  6
CONTINUOUS
  2
*U283
 10
0.0
 20
0.0
 30
0.0
  0
DIMENSION
  5
8243
  8
0
  6
CONTINUOUS
  2
*D140
 10
271.46735440558848
 20
78.094225326111427
 30
0.0
 11
182.9673544055884
 21
80.194225326111436
 31
0.0
 70
     0
 13
94.467354405588367
 23
120.136310122794
 33
0.0
 14
271.46735440558848
 24
132.18429334248131
 34
0.0
1001
ACAD
1000
DSTYLE
1002
{
1070
   287
1070
     2
1070
    42
1040
0.6
1070
    43
1040
1.0
1070
    44
1040
1.0
1070
    47
1040
0.1
1070
    48
1040
0.1
1070
    73
1070
     0
1070
   140
1040
3.0
1070
   141
1040
-0.5
1070
   146
1040
0.7
1070
   147
1040
0.6
1070
   178
1070
     3
1070
   271
1070
     8
1070
   272
1070
     8
1070
   275
1070
     1
1070
   283
1070
     0
1070
   284
1070
     8
1070
   289
1070
     2
1002
}
  0
DIMENSION
  5
8244
  8
0
  6
CONTINUOUS
  2
*D141
 10
271.46735440558848
 20
86.094225326111427
 30
0.0
 11
198.9673544055884
 21
88.194225326111422
 31
0.0
 70
     0
 13
126.4673544055883
 23
110.70981105912379
 33
0.0
 14
271.46735440558848
 24
132.18429334248131
 34
0.0
1001
ACAD
1000
DSTYLE
1002
{
1070
   287
1070
     2
1070
    42
1040
0.6
1070
    43
1040
1.0
1070
    44
1040
1.0
1070
    47
1040
0.1
1070
    48
1040
0.1
1070
    73
1070
     0
1070
   140
1040
3.0
1070
   141
1040
-0.5
1070
   146
1040
0.7
1070
   147
1040
0.6
1070
   178
1070
     3
1070
   271
1070
     8
1070
   272
1070
     8
1070
   275
1070
     1
1070
   283
1070
     0
1070
   284
1070
     8
1070
   289
1070
     2
1002
}
  0
DIMENSION
  5
8247
  8
0
  6
CONTINUOUS
  2
*D144
 10
271.46735440558848
 20
94.094225326111427
 30
0.0
 11
226.46735440558831
 21
96.194225326111422
 31
0.0
 70
     0
 13
181.46735440558811
 23
124.99311092365021
 33
0.0
 14
271.46735440558848
 24
132.18429334248131
 34
0.0
1001
ACAD
1000
DSTYLE
1002
{
1070
   287
1070
     2
1070
    42
1040
0.6
1070
    43
1040
1.0
1070
    44
1040
1.0
1070
    47
1040
0.1
1070
    48
1040
0.1
1070
    73
1070
     0
1070
   140
1040
3.0
1070
   141
1040
-0.5
1070
   146
1040
0.7
1070
   147
1040
0.6
1070
   178
1070
     3
1070
   271
1070
     8
1070
   272
1070
     8
1070
   275
1070
     1
1070
   283
1070
     0
1070
   284
1070
     8
1070
   289
1070
     2
1002
}
  0
LINE
  5
825C
  8
0
  6
CENTER
 62
     2
 10
92.467354405591095
 20
141.70981105912381
 30
0.0
 11
273.4673544055911
 21
141.70981105912381
 31
0.0
  0
LINE
  5
825E
  8
0
  6
CONTINUOUS
 10
126.4673544055911
 20
172.70981105912381
 30
0.0
 11
126.467354405591
 21
141.70981105912381
 31
0.0
  0
LINE
  5
825F
  8
0
  6
CONTINUOUS
 10
126.9673544055911
 20
173.20981105912381
 30
0.0
 11
141.0898553308318
 21
173.20981105912381
 31
0.0
  0
LINE
  5
8260
  8
0
  6
CONTINUOUS
 10
126.9673544055911
 20
110.20981105912379
 30
0.0
 11
141.0898553308318
 21
110.20981105912379
 31
0.0
  0
CIRCLE
  5
8261
  8
0
  6
CONTINUOUS
 10
117.4673544055911
 20
141.70981105912381
 30
0.0
 40
3.75
  0
LINE
  5
8262
  8
0
  6
PHANTOM2
 62
     4
 10
120.1673544055911
 20
167.71731938236479
 30
0.0
 11
120.1673544055911
 21
115.7023027358829
 31
0.0
  0
LINE
  5
8263
  8
0
  6
CONTINUOUS
 10
95.607311072975449
 20
164.48438079125361
 30
0.0
 11
124.4673544055911
 21
165.93023617381871
 31
0.0
  0
LINE
  5
8264
  8
0
  6
CONTINUOUS
 10
94.467354405591209
 20
163.2858839000568
 30
0.0
 11
94.467354405591095
 21
148.97981105912379
 31
0.0
  0
ARC
  5
8265
  8
0
  6
CONTINUOUS
 10
95.667354405591141
 20
163.2858839000568
 30
0.0
 40
1.1999999999999991
 50
92.868055555556964
 51
180.0
  0
LINE
  5
8268
  8
0
  6
CONTINUOUS
 10
95.467354405591095
 20
135.4398110591238
 30
0.0
 11
98.967354405591095
 21
135.4398110591238
 31
0.0
  0
LINE
  5
8269
  8
0
  6
CONTINUOUS
 10
94.467354405591095
 20
120.1337382181908
 30
0.0
 11
94.467354405591095
 21
134.43981105912391
 31
0.0
  0
LINE
  5
826A
  8
0
  6
CONTINUOUS
 10
100.4673544055911
 20
131.76115722317081
 30
0.0
 11
100.4673544055911
 21
141.70981105912381
 31
0.0
  0
LINE
  5
826B
  8
0
  6
CONTINUOUS
 10
95.607311072975449
 20
118.935241326994
 30
0.0
 11
124.4673544055911
 21
117.4893859444289
 31
0.0
  0
ARC
  5
826C
  8
0
  6
CONTINUOUS
 10
95.667354405591141
 20
120.1337382181908
 30
0.0
 40
1.1999999999999991
 50
180.0
 51
267.13194444444309
  0
LINE
  5
826E
  8
0
  6
CONTINUOUS
 10
94.467354405591095
 20
134.4398110591238
 30
0.0
 11
95.467354405591095
 21
135.4398110591238
 31
0.0
  0
ARC
  5
8270
  8
0
  6
CONTINUOUS
 10
98.967354405591095
 20
136.93981105912371
 30
0.0
 40
1.5
 50
270.0
 51
0.0
  0
CIRCLE
  5
8271
  8
0
  6
CONTINUOUS
 10
117.4673544055911
 20
141.70981105912381
 30
0.0
 40
4.25
  0
LINE
  5
8272
  8
0
  6
CONTINUOUS
 10
124.4673544055911
 20
165.93023617381871
 30
0.0
 11
125.137464638596
 21
165.7506806780452
 31
0.0
  0
LINE
  5
8273
  8
0
  6
CONTINUOUS
 10
125.96735440559119
 20
165.73023617381881
 30
0.0
 11
125.2927560656576
 21
165.7302361738187
 31
0.0
  0
LINE
  5
8274
  8
0
  6
CONTINUOUS
 10
126.5673544055911
 20
166.41869920158061
 30
0.0
 11
126.5673544055911
 21
166.33023617381869
 31
0.0
  0
ARC
  5
8275
  8
0
  6
CONTINUOUS
 10
125.9673544055911
 20
166.33023617381869
 30
0.0
 40
0.6
 50
270.0
 51
0.0
  0
LINE
  5
8276
  8
0
  6
CONTINUOUS
 10
126.4673544055911
 20
167.1302361738187
 30
0.0
 11
126.5673544055911
 21
166.41869920158061
 31
0.0
  0
LINE
  5
8277
  8
0
  6
CONTINUOUS
 10
124.467354405591
 20
141.70981105912381
 30
0.0
 11
124.4673544055911
 21
117.4893859444289
 31
0.0
  0
LINE
  5
8278
  8
0
  6
CONTINUOUS
 10
125.2137645671049
 20
117.6841635021396
 30
0.0
 11
125.2137645671049
 21
141.70981105912381
 31
0.0
  0
LINE
  5
8279
  8
0
  6
HIDDEN
 62
     3
 10
95.467354405591095
 20
158.70981105912381
 30
0.0
 11
107.47132900180669
 21
158.70981105912381
 31
0.0
  0
LINE
  5
827A
  8
0
  6
HIDDEN
 62
     3
 10
95.467354405591095
 20
147.97981105912379
 30
0.0
 11
95.467354405591095
 21
158.70981105912381
 31
0.0
  0
LINE
  5
827B
  8
0
  6
HIDDEN
 62
     3
 10
95.467354405591095
 20
158.70981105912381
 30
0.0
 11
94.467354405591095
 21
159.2871613283134
 31
0.0
  0
LINE
  5
827C
  8
0
  6
CONTINUOUS
 10
95.467354405591095
 20
135.4398110591238
 30
0.0
 11
95.467354405591095
 21
132.01165154258351
 31
0.0
  0
LINE
  5
827D
  8
0
  6
CONTINUOUS
 10
95.467354405591095
 20
132.01165154258351
 30
0.0
 11
100.4673544055911
 21
131.76115722317081
 31
0.0
  0
LINE
  5
827E
  8
0
  6
CONTINUOUS
 10
94.467354405591095
 20
131.01165154258351
 30
0.0
 11
95.467354405591095
 21
132.01165154258351
 31
0.0
  0
LINE
  5
827F
  8
0
  6
CONTINUOUS
 10
126.4673544055911
 20
110.70981105912379
 30
0.0
 11
126.4673544055911
 21
141.70981105912381
 31
0.0
  0
LINE
  5
8280
  8
0
  6
HIDDEN
 62
     3
 10
107.47132900180669
 20
158.70981105912381
 30
0.0
 11
109.0301747286186
 21
161.4098110591238
 31
0.0
  0
LINE
  5
8281
  8
0
  6
HIDDEN
 62
     3
 10
109.54978997088919
 20
161.70981105912381
 30
0.0
 11
120.22235640719271
 21
161.70981105912381
 31
0.0
  0
LINE
  5
8282
  8
0
  6
HIDDEN
 62
     3
 10
107.47132900180669
 20
158.70981105912381
 30
0.0
 11
107.47132900180669
 21
141.70981105912381
 31
0.0
  0
LINE
  5
8283
  8
0
  6
HIDDEN
 62
     3
 10
109.2033798093756
 20
161.59970900768039
 30
0.0
 11
109.2033798093756
 21
141.70981105912381
 31
0.0
  0
ARC
  5
8284
  8
0
  6
HIDDEN
 62
     3
 10
109.54978997088919
 20
161.10981105912381
 30
0.0
 40
0.6
 50
90.0
 51
149.99999999999619
  0
LINE
  5
8285
  8
0
  6
HIDDEN
 62
     3
 10
126.46735440559119
 20
158.70981105912381
 30
0.0
 11
134.13819820800231
 21
158.70981105912381
 31
0.0
  0
ARC
  5
8286
  8
0
  6
HIDDEN
 62
     3
 10
120.22235640719271
 20
153.70981105912381
 30
0.0
 40
8.0
 50
38.682187453488972
 51
90.0
  0
LINE
  5
8287
  8
0
  6
HIDDEN
 62
     3
 10
136.4673544055911
 20
157.45981105912381
 30
0.0
 11
136.4673544055911
 21
141.70981105912381
 31
0.0
  0
LINE
  5
8288
  8
0
  6
HIDDEN
 62
     3
 10
126.46735440559119
 20
158.70981105912381
 30
0.0
 11
126.46735440559119
 21
141.70981105912381
 31
0.0
  0
ARC
  5
8289
  8
0
  6
HIDDEN
 62
     3
 10
134.9673544055911
 20
157.45981105912381
 30
0.0
 40
1.5
 50
0.0
 51
123.5573097619184
  0
LINE
  5
828A
  8
0
  6
HIDDEN
 62
     3
 10
134.13819820800219
 20
158.70981105912381
 30
0.0
 11
134.13819820800219
 21
141.70981105912381
 31
0.0
  0
LINE
  5
828B
  8
0
  6
CONTINUOUS
 10
126.46735440559119
 20
172.70981105912381
 30
0.0
 11
126.96735440559119
 21
173.20981105912381
 31
0.0
  0
LINE
  5
828C
  8
0
  6
CONTINUOUS
 10
126.4673544055911
 20
110.70981105912379
 30
0.0
 11
126.9673544055911
 21
110.20981105912379
 31
0.0
  0
LINE
  5
828D
  8
0
  6
CONTINUOUS
 10
126.9673544055911
 20
110.20981105912379
 30
0.0
 11
126.9673544055911
 21
141.70981105912381
 31
0.0
  0
LINE
  5
828E
  8
0
  6
HIDDEN
 62
     3
 10
133.4673544055911
 20
167.70981105912381
 30
0.0
 11
132.6013290018067
 21
168.20981105912381
 31
0.0
  0
LINE
  5
828F
  8
0
  6
HIDDEN
 62
     3
 10
133.4673544055911
 20
168.20981105912381
 30
0.0
 11
128.76735440559111
 21
168.20981105912381
 31
0.0
  0
LINE
  5
8290
  8
0
  6
HIDDEN
 62
     3
 10
128.4673544055911
 20
168.50981105912379
 30
0.0
 11
128.4673544055911
 21
173.20981105912381
 31
0.0
  0
ARC
  5
8291
  8
0
  6
HIDDEN
 62
     3
 10
128.76735440559111
 20
168.50981105912379
 30
0.0
 40
0.3
 50
180.0
 51
270.0
  0
LINE
  5
8292
  8
CT
  6
CENTER
 10
133.4673544055911
 20
166.15935696450629
 30
0.0
 11
133.4673544055911
 21
174.33459338950939
 31
0.0
  0
LINE
  5
8293
  8
0
  6
HIDDEN
 62
     3
 10
138.4673544055911
 20
173.20981105912369
 30
0.0
 11
138.46735440559101
 21
168.50981105912379
 31
0.0
  0
LINE
  5
8294
  8
0
  6
HIDDEN
 62
     3
 10
133.4673544055911
 20
168.20981105912381
 30
0.0
 11
138.167354405591
 21
168.20981105912381
 31
0.0
  0
LINE
  5
8295
  8
0
  6
HIDDEN
 62
     3
 10
133.4673544055911
 20
167.70981105912381
 30
0.0
 11
134.33337980937549
 21
168.20981105912381
 31
0.0
  0
ARC
  5
8296
  8
0
  6
HIDDEN
 62
     3
 10
138.167354405591
 20
168.50981105912379
 30
0.0
 40
0.3
 50
270.0
 51
0.0
  0
LINE
  5
8297
  8
0
  6
HIDDEN
 62
     3
 10
136.96735440559121
 20
150.20981105912381
 30
0.0
 11
143.46735440559121
 21
150.20981105912381
 31
0.0
  0
LINE
  5
8298
  8
0
  6
HIDDEN
 62
     3
 10
136.46735440559121
 20
150.70981105912381
 30
0.0
 11
143.46735440559121
 21
150.70981105912381
 31
0.0
  0
LINE
  5
8299
  8
0
  6
HIDDEN
 62
     3
 10
136.96735440559121
 20
150.20981105912381
 30
0.0
 11
136.96735440559121
 21
141.70981105912381
 31
0.0
  0
LINE
  5
829A
  8
0
  6
HIDDEN
 62
     3
 10
136.96735440559121
 20
150.20981105912381
 30
0.0
 11
136.46735440559121
 21
150.70981105912381
 31
0.0
  0
LINE
  5
829B
  8
0
  6
HIDDEN
 62
     3
 10
148.46735440559121
 20
151.20981105912381
 30
0.0
 11
148.46735440559121
 21
141.70981105912381
 31
0.0
  0
LINE
  5
829C
  8
0
  6
HIDDEN
 62
     3
 10
143.46735440559121
 20
151.20981105912381
 30
0.0
 11
143.46735440559121
 21
141.70981105912381
 31
0.0
  0
LINE
  5
829D
  8
0
  6
HIDDEN
 62
     3
 10
143.46735440559121
 20
151.20981105912381
 30
0.0
 11
148.46735440559121
 21
151.20981105912381
 31
0.0
  0
LINE
  5
829E
  8
0
  6
HIDDEN
 62
     3
 10
148.46735440559121
 20
145.65981105912331
 30
0.0
 11
148.96735440559121
 21
145.15981105912331
 31
0.0
  0
LINE
  5
829F
  8
0
  6
HIDDEN
 62
     3
 10
148.96735440559121
 20
145.15981105912331
 30
0.0
 11
148.96735440559121
 21
141.70981105912381
 31
0.0
  0
LINE
  5
82A0
  8
0
  6
CONTINUOUS
 10
152.4673544055911
 20
110.70981105912379
 30
0.0
 11
152.4673544055911
 21
141.70981105912381
 31
0.0
  0
LINE
  5
82A1
  8
0
  6
CONTINUOUS
 10
152.4673544055911
 20
172.70981105912381
 30
0.0
 11
152.46735440559161
 21
141.70981105912381
 31
0.0
  0
LINE
  5
82A2
  8
0
  6
CONTINUOUS
 10
139.4673544055911
 20
133.70981105912381
 30
0.0
 11
152.4673544055911
 21
133.70981105912381
 31
0.0
  0
ARC
  5
82A3
  8
0
  6
CONTINUOUS
 10
139.4673544055911
 20
141.70981105912381
 30
0.0
 40
8.0
 50
180.0
 51
270.0
  0
LINE
  5
82A4
  8
0
  6
CONTINUOUS
 10
152.4673544055911
 20
121.70981105912369
 30
0.0
 11
146.3423544055911
 21
121.70981105912369
 31
0.0
  0
LINE
  5
82A5
  8
0
  6
CONTINUOUS
 10
152.4673544055911
 20
117.3736240118478
 30
0.0
 11
147.84485348035039
 21
117.3736240118478
 31
0.0
  0
POLYLINE
  8
0
  5
8E7B
  66
     1
 10
0.000000
 20
0.000000
 30
0.000000
  70
     8
  0
VERTEX
  8
0
  5
8E7C
 10
131.467
 20
117.374
 30
0.000000
  70
    32
  0
VERTEX
  8
0
  5
8E7D
 10
131.487
 20
117.406
 30
0.000000
  70
    32
  0
VERTEX
  8
0
  5
8E7E
 10
131.506
 20
117.438
 30
0.000000
  70
    32
  0
VERTEX
  8
0
  5
8E7F
 10
131.525
 20
117.471
 30
0.000000
  70
    32
  0
VERTEX
  8
0
  5
8E80
 10
131.545
 20
117.503
 30
0.000000
  70
    32
  0
VERTEX
  8
0
  5
8E81
 10
131.564
 20
117.536
 30
0.000000
  70
    32
  0
VERTEX
  8
0
  5
8E82
 10
131.583
 20
117.568
 30
0.000000
  70
    32
  0
VERTEX
  8
0
  5
8E83
 10
131.603
 20
117.600
 30
0.000000
  70
    32
  0
VERTEX
  8
0
  5
8E84
 10
131.622
 20
117.633
 30
0.000000
  70
    32
  0
VERTEX
  8
0
  5
8E85
 10
131.642
 20
117.665
 30
0.000000
  70
    32
  0
VERTEX
  8
0
  5
8E86
 10
131.661
 20
117.697
 30
0.000000
  70
    32
  0
VERTEX
  8
0
  5
8E87
 10
131.681
 20
117.729
 30
0.000000
  70
    32
  0
VERTEX
  8
0
  5
8E88
 10
131.701
 20
117.762
 30
0.000000
  70
    32
  0
VERTEX
  8
0
  5
8E89
 10
131.720
 20
117.794
 30
0.000000
  70
    32
  0
VERTEX
  8
0
  5
8E8A
 10
131.740
 20
117.826
 30
0.000000
  70
    32
  0
VERTEX
  8
0
  5
8E8B
 10
131.760
 20
117.858
 30
0.000000
  70
    32
  0
VERTEX
  8
0
  5
8E8C
 10
131.780
 20
117.890
 30
0.000000
  70
    32
  0
VERTEX
  8
0
  5
8E8D
 10
131.800
 20
117.921
 30
0.000000
  70
    32
  0
VERTEX
  8
0
  5
8E8E
 10
131.820
 20
117.953
 30
0.000000
  70
    32
  0
VERTEX
  8
0
  5
8E8F
 10
131.840
 20
117.985
 30
0.000000
  70
    32
  0
VERTEX
  8
0
  5
8E90
 10
131.860
 20
118.017
 30
0.000000
  70
    32
  0
VERTEX
  8
0
  5
8E91
 10
131.881
 20
118.048
 30
0.000000
  70
    32
  0
VERTEX
  8
0
  5
8E92
 10
131.901
 20
118.080
 30
0.000000
  70
    32
  0
VERTEX
  8
0
  5
8E93
 10
131.922
 20
118.111
 30
0.000000
  70
    32
  0
VERTEX
  8
0
  5
8E94
 10
131.943
 20
118.142
 30
0.000000
  70
    32
  0
VERTEX
  8
0
  5
8E95
 10
131.963
 20
118.174
 30
0.000000
  70
    32
  0
VERTEX
  8
0
  5
8E96
 10
131.984
 20
118.205
 30
0.000000
  70
    32
  0
VERTEX
  8
0
  5
8E97
 10
132.005
 20
118.236
 30
0.000000
  70
    32
  0
VERTEX
  8
0
  5
8E98
 10
132.027
 20
118.267
 30
0.000000
  70
    32
  0
VERTEX
  8
0
  5
8E99
 10
132.048
 20
118.297
 30
0.000000
  70
    32
  0
VERTEX
  8
0
  5
8E9A
 10
132.070
 20
118.328
 30
0.000000
  70
    32
  0
VERTEX
  8
0
  5
8E9B
 10
132.091
 20
118.359
 30
0.000000
  70
    32
  0
VERTEX
  8
0
  5
8E9C
 10
132.113
 20
118.389
 30
0.000000
  70
    32
  0
VERTEX
  8
0
  5
8E9D
 10
132.135
 20
118.419
 30
0.000000
  70
    32
  0
VERTEX
  8
0
  5
8E9E
 10
132.157
 20
118.449
 30
0.000000
  70
    32
  0
VERTEX
  8
0
  5
8E9F
 10
132.180
 20
118.479
 30
0.000000
  70
    32
  0
VERTEX
  8
0
  5
8EA0
 10
132.202
 20
118.509
 30
0.000000
  70
    32
  0
VERTEX
  8
0
  5
8EA1
 10
132.225
 20
118.539
 30
0.000000
  70
    32
  0
VERTEX
  8
0
  5
8EA2
 10
132.248
 20
118.569
 30
0.000000
  70
    32
  0
VERTEX
  8
0
  5
8EA3
 10
132.271
 20
118.598
 30
0.000000
  70
    32
  0
VERTEX
  8
0
  5
8EA4
 10
132.294
 20
118.627
 30
0.000000
  70
    32
  0
VERTEX
  8
0
  5
8EA5
 10
132.317
 20
118.656
 30
0.000000
  70
    32
  0
VERTEX
  8
0
  5
8EA6
 10
132.341
 20
118.685
 30
0.000000
  70
    32
  0
VERTEX
  8
0
  5
8EA7
 10
132.365
 20
118.714
 30
0.000000
  70
    32
  0
VERTEX
  8
0
  5
8EA8
 10
132.389
 20
118.743
 30
0.000000
  70
    32
  0
VERTEX
  8
0
  5
8EA9
 10
132.413
 20
118.771
 30
0.000000
  70
    32
  0
VERTEX
  8
0
  5
8EAA
 10
132.438
 20
118.799
 30
0.000000
  70
    32
  0
VERTEX
  8
0
  5
8EAB
 10
132.463
 20
118.827
 30
0.000000
  70
    32
  0
VERTEX
  8
0
  5
8EAC
 10
132.487
 20
118.855
 30
0.000000
  70
    32
  0
VERTEX
  8
0
  5
8EAD
 10
132.512
 20
118.883
 30
0.000000
  70
    32
  0
VERTEX
  8
0
  5
8EAE
 10
132.538
 20
118.911
 30
0.000000
  70
    32
  0
VERTEX
  8
0
  5
8EAF
 10
132.563
 20
118.938
 30
0.000000
  70
    32
  0
VERTEX
  8
0
  5
8EB0
 10
132.589
 20
118.966
 30
0.000000
  70
    32
  0
VERTEX
  8
0
  5
8EB1
 10
132.615
 20
118.993
 30
0.000000
  70
    32
  0
VERTEX
  8
0
  5
8EB2
 10
132.640
 20
119.020
 30
0.000000
  70
    32
  0
VERTEX
  8
0
  5
8EB3
 10
132.667
 20
119.047
 30
0.000000
  70
    32
  0
VERTEX
  8
0
  5
8EB4
 10
132.693
 20
119.073
 30
0.000000
  70
    32
  0
VERTEX
  8
0
  5
8EB5
 10
132.719
 20
119.100
 30
0.000000
  70
    32
  0
VERTEX
  8
0
  5
8EB6
 10
132.746
 20
119.127
 30
0.000000
  70
    32
  0
VERTEX
  8
0
  5
8EB7
 10
132.773
 20
119.153
 30
0.000000
  70
    32
  0
VERTEX
  8
0
  5
8EB8
 10
132.799
 20
119.179
 30
0.000000
  70
    32
  0
VERTEX
  8
0
  5
8EB9
 10
132.827
 20
119.205
 30
0.000000
  70
    32
  0
VERTEX
  8
0
  5
8EBA
 10
132.854
 20
119.231
 30
0.000000
  70
    32
  0
VERTEX
  8
0
  5
8EBB
 10
132.881
 20
119.257
 30
0.000000
  70
    32
  0
VERTEX
  8
0
  5
8EBC
 10
132.908
 20
119.283
 30
0.000000
  70
    32
  0
VERTEX
  8
0
  5
8EBD
 10
132.936
 20
119.308
 30
0.000000
  70
    32
  0
VERTEX
  8
0
  5
8EBE
 10
132.964
 20
119.334
 30
0.000000
  70
    32
  0
VERTEX
  8
0
  5
8EBF
 10
132.992
 20
119.359
 30
0.000000
  70
    32
  0
VERTEX
  8
0
  5
8EC0
 10
133.020
 20
119.384
 30
0.000000
  70
    32
  0
VERTEX
  8
0
  5
8EC1
 10
133.048
 20
119.409
 30
0.000000
  70
    32
  0
VERTEX
  8
0
  5
8EC2
 10
133.076
 20
119.434
 30
0.000000
  70
    32
  0
VERTEX
  8
0
  5
8EC3
 10
133.104
 20
119.459
 30
0.000000
  70
    32
  0
VERTEX
  8
0
  5
8EC4
 10
133.133
 20
119.484
 30
0.000000
  70
    32
  0
VERTEX
  8
0
  5
8EC5
 10
133.161
 20
119.509
 30
0.000000
  70
    32
  0
VERTEX
  8
0
  5
8EC6
 10
133.190
 20
119.533
 30
0.000000
  70
    32
  0
VERTEX
  8
0
  5
8EC7
 10
133.219
 20
119.558
 30
0.000000
  70
    32
  0
VERTEX
  8
0
  5
8EC8
 10
133.247
 20
119.582
 30
0.000000
  70
    32
  0
VERTEX
  8
0
  5
8EC9
 10
133.276
 20
119.606
 30
0.000000
  70
    32
  0
VERTEX
  8
0
  5
8ECA
 10
133.305
 20
119.630
 30
0.000000
  70
    32
  0
VERTEX
  8
0
  5
8ECB
 10
133.335
 20
119.655
 30
0.000000
  70
    32
  0
VERTEX
  8
0
  5
8ECC
 10
133.364
 20
119.678
 30
0.000000
  70
    32
  0
VERTEX
  8
0
  5
8ECD
 10
133.393
 20
119.702
 30
0.000000
  70
    32
  0
VERTEX
  8
0
  5
8ECE
 10
133.422
 20
119.726
 30
0.000000
  70
    32
  0
VERTEX
  8
0
  5
8ECF
 10
133.452
 20
119.750
 30
0.000000
  70
    32
  0
VERTEX
  8
0
  5
8ED0
 10
133.481
 20
119.773
 30
0.000000
  70
    32
  0
VERTEX
  8
0
  5
8ED1
 10
133.511
 20
119.797
 30
0.000000
  70
    32
  0
VERTEX
  8
0
  5
8ED2
 10
133.541
 20
119.820
 30
0.000000
  70
    32
  0
VERTEX
  8
0
  5
8ED3
 10
133.570
 20
119.844
 30
0.000000
  70
    32
  0
VERTEX
  8
0
  5
8ED4
 10
133.600
 20
119.867
 30
0.000000
  70
    32
  0
VERTEX
  8
0
  5
8ED5
 10
133.630
 20
119.890
 30
0.000000
  70
    32
  0
VERTEX
  8
0
  5
8ED6
 10
133.660
 20
119.913
 30
0.000000
  70
    32
  0
VERTEX
  8
0
  5
8ED7
 10
133.690
 20
119.936
 30
0.000000
  70
    32
  0
VERTEX
  8
0
  5
8ED8
 10
133.720
 20
119.959
 30
0.000000
  70
    32
  0
VERTEX
  8
0
  5
8ED9
 10
133.750
 20
119.982
 30
0.000000
  70
    32
  0
VERTEX
  8
0
  5
8EDA
 10
133.780
 20
120.005
 30
0.000000
  70
    32
  0
VERTEX
  8
0
  5
8EDB
 10
133.810
 20
120.027
 30
0.000000
  70
    32
  0
VERTEX
  8
0
  5
8EDC
 10
133.840
 20
120.050
 30
0.000000
  70
    32
  0
VERTEX
  8
0
  5
8EDD
 10
133.870
 20
120.072
 30
0.000000
  70
    32
  0
VERTEX
  8
0
  5
8EDE
 10
133.901
 20
120.095
 30
0.000000
  70
    32
  0
VERTEX
  8
0
  5
8EDF
 10
133.931
 20
120.117
 30
0.000000
  70
    32
  0
VERTEX
  8
0
  5
8EE0
 10
133.962
 20
120.139
 30
0.000000
  70
    32
  0
VERTEX
  8
0
  5
8EE1
 10
133.992
 20
120.161
 30
0.000000
  70
    32
  0
VERTEX
  8
0
  5
8EE2
 10
134.023
 20
120.183
 30
0.000000
  70
    32
  0
VERTEX
  8
0
  5
8EE3
 10
134.053
 20
120.205
 30
0.000000
  70
    32
  0
VERTEX
  8
0
  5
8EE4
 10
134.084
 20
120.227
 30
0.000000
  70
    32
  0
VERTEX
  8
0
  5
8EE5
 10
134.115
 20
120.249
 30
0.000000
  70
    32
  0
VERTEX
  8
0
  5
8EE6
 10
134.146
 20
120.270
 30
0.000000
  70
    32
  0
VERTEX
  8
0
  5
8EE7
 10
134.177
 20
120.291
 30
0.000000
  70
    32
  0
VERTEX
  8
0
  5
8EE8
 10
134.208
 20
120.313
 30
0.000000
  70
    32
  0
VERTEX
  8
0
  5
8EE9
 10
134.239
 20
120.334
 30
0.000000
  70
    32
  0
VERTEX
  8
0
  5
8EEA
 10
134.270
 20
120.355
 30
0.000000
  70
    32
  0
VERTEX
  8
0
  5
8EEB
 10
134.301
 20
120.376
 30
0.000000
  70
    32
  0
VERTEX
  8
0
  5
8EEC
 10
134.333
 20
120.396
 30
0.000000
  70
    32
  0
VERTEX
  8
0
  5
8EED
 10
134.364
 20
120.417
 30
0.000000
  70
    32
  0
VERTEX
  8
0
  5
8EEE
 10
134.395
 20
120.437
 30
0.000000
  70
    32
  0
VERTEX
  8
0
  5
8EEF
 10
134.427
 20
120.458
 30
0.000000
  70
    32
  0
VERTEX
  8
0
  5
8EF0
 10
134.459
 20
120.478
 30
0.000000
  70
    32
  0
VERTEX
  8
0
  5
8EF1
 10
134.490
 20
120.498
 30
0.000000
  70
    32
  0
VERTEX
  8
0
  5
8EF2
 10
134.522
 20
120.518
 30
0.000000
  70
    32
  0
VERTEX
  8
0
  5
8EF3
 10
134.554
 20
120.537
 30
0.000000
  70
    32
  0
VERTEX
  8
0
  5
8EF4
 10
134.586
 20
120.557
 30
0.000000
  70
    32
  0
VERTEX
  8
0
  5
8EF5
 10
134.618
 20
120.576
 30
0.000000
  70
    32
  0
VERTEX
  8
0
  5
8EF6
 10
134.651
 20
120.595
 30
0.000000
  70
    32
  0
VERTEX
  8
0
  5
8EF7
 10
134.683
 20
120.614
 30
0.000000
  70
    32
  0
VERTEX
  8
0
  5
8EF8
 10
134.715
 20
120.633
 30
0.000000
  70
    32
  0
VERTEX
  8
0
  5
8EF9
 10
134.748
 20
120.652
 30
0.000000
  70
    32
  0
VERTEX
  8
0
  5
8EFA
 10
134.780
 20
120.671
 30
0.000000
  70
    32
  0
VERTEX
  8
0
  5
8EFB
 10
134.813
 20
120.689
 30
0.000000
  70
    32
  0
VERTEX
  8
0
  5
8EFC
 10
134.846
 20
120.707
 30
0.000000
  70
    32
  0
VERTEX
  8
0
  5
8EFD
 10
134.879
 20
120.725
 30
0.000000
  70
    32
  0
VERTEX
  8
0
  5
8EFE
 10
134.912
 20
120.743
 30
0.000000
  70
    32
  0
VERTEX
  8
0
  5
8EFF
 10
134.945
 20
120.761
 30
0.000000
  70
    32
  0
VERTEX
  8
0
  5
8F00
 10
134.978
 20
120.778
 30
0.000000
  70
    32
  0
VERTEX
  8
0
  5
8F01
 10
135.011
 20
120.795
 30
0.000000
  70
    32
  0
VERTEX
  8
0
  5
8F02
 10
135.045
 20
120.812
 30
0.000000
  70
    32
  0
VERTEX
  8
0
  5
8F03
 10
135.078
 20
120.829
 30
0.000000
  70
    32
  0
VERTEX
  8
0
  5
8F04
 10
135.112
 20
120.846
 30
0.000000
  70
    32
  0
VERTEX
  8
0
  5
8F05
 10
135.145
 20
120.862
 30
0.000000
  70
    32
  0
VERTEX
  8
0
  5
8F06
 10
135.179
 20
120.878
 30
0.000000
  70
    32
  0
VERTEX
  8
0
  5
8F07
 10
135.213
 20
120.894
 30
0.000000
  70
    32
  0
VERTEX
  8
0
  5
8F08
 10
135.247
 20
120.910
 30
0.000000
  70
    32
  0
VERTEX
  8
0
  5
8F09
 10
135.281
 20
120.926
 30
0.000000
  70
    32
  0
VERTEX
  8
0
  5
8F0A
 10
135.316
 20
120.941
 30
0.000000
  70
    32
  0
VERTEX
  8
0
  5
8F0B
 10
135.350
 20
120.957
 30
0.000000
  70
    32
  0
VERTEX
  8
0
  5
8F0C
 10
135.384
 20
120.972
 30
0.000000
  70
    32
  0
VERTEX
  8
0
  5
8F0D
 10
135.419
 20
120.987
 30
0.000000
  70
    32
  0
VERTEX
  8
0
  5
8F0E
 10
135.453
 20
121.001
 30
0.000000
  70
    32
  0
VERTEX
  8
0
  5
8F0F
 10
135.488
 20
121.016
 30
0.000000
  70
    32
  0
VERTEX
  8
0
  5
8F10
 10
135.523
 20
121.030
 30
0.000000
  70
    32
  0
VERTEX
  8
0
  5
8F11
 10
135.558
 20
121.044
 30
0.000000
  70
    32
  0
VERTEX
  8
0
  5
8F12
 10
135.593
 20
121.058
 30
0.000000
  70
    32
  0
VERTEX
  8
0
  5
8F13
 10
135.628
 20
121.072
 30
0.000000
  70
    32
  0
VERTEX
  8
0
  5
8F14
 10
135.663
 20
121.086
 30
0.000000
  70
    32
  0
VERTEX
  8
0
  5
8F15
 10
135.698
 20
121.099
 30
0.000000
  70
    32
  0
VERTEX
  8
0
  5
8F16
 10
135.733
 20
121.112
 30
0.000000
  70
    32
  0
VERTEX
  8
0
  5
8F17
 10
135.769
 20
121.125
 30
0.000000
  70
    32
  0
VERTEX
  8
0
  5
8F18
 10
135.804
 20
121.138
 30
0.000000
  70
    32
  0
VERTEX
  8
0
  5
8F19
 10
135.839
 20
121.151
 30
0.000000
  70
    32
  0
VERTEX
  8
0
  5
8F1A
 10
135.875
 20
121.163
 30
0.000000
  70
    32
  0
VERTEX
  8
0
  5
8F1B
 10
135.911
 20
121.176
 30
0.000000
  70
    32
  0
VERTEX
  8
0
  5
8F1C
 10
135.946
 20
121.188
 30
0.000000
  70
    32
  0
VERTEX
  8
0
  5
8F1D
 10
135.982
 20
121.200
 30
0.000000
  70
    32
  0
VERTEX
  8
0
  5
8F1E
 10
136.018
 20
121.211
 30
0.000000
  70
    32
  0
VERTEX
  8
0
  5
8F1F
 10
136.054
 20
121.223
 30
0.000000
  70
    32
  0
VERTEX
  8
0
  5
8F20
 10
136.090
 20
121.234
 30
0.000000
  70
    32
  0
VERTEX
  8
0
  5
8F21
 10
136.126
 20
121.246
 30
0.000000
  70
    32
  0
VERTEX
  8
0
  5
8F22
 10
136.162
 20
121.257
 30
0.000000
  70
    32
  0
VERTEX
  8
0
  5
8F23
 10
136.198
 20
121.268
 30
0.000000
  70
    32
  0
VERTEX
  8
0
  5
8F24
 10
136.234
 20
121.278
 30
0.000000
  70
    32
  0
VERTEX
  8
0
  5
8F25
 10
136.270
 20
121.289
 30
0.000000
  70
    32
  0
VERTEX
  8
0
  5
8F26
 10
136.306
 20
121.299
 30
0.000000
  70
    32
  0
VERTEX
  8
0
  5
8F27
 10
136.343
 20
121.309
 30
0.000000
  70
    32
  0
VERTEX
  8
0
  5
8F28
 10
136.379
 20
121.319
 30
0.000000
  70
    32
  0
VERTEX
  8
0
  5
8F29
 10
136.415
 20
121.329
 30
0.000000
  70
    32
  0
VERTEX
  8
0
  5
8F2A
 10
136.452
 20
121.339
 30
0.000000
  70
    32
  0
VERTEX
  8
0
  5
8F2B
 10
136.488
 20
121.348
 30
0.000000
  70
    32
  0
VERTEX
  8
0
  5
8F2C
 10
136.525
 20
121.358
 30
0.000000
  70
    32
  0
VERTEX
  8
0
  5
8F2D
 10
136.561
 20
121.367
 30
0.000000
  70
    32
  0
VERTEX
  8
0
  5
8F2E
 10
136.598
 20
121.376
 30
0.000000
  70
    32
  0
VERTEX
  8
0
  5
8F2F
 10
136.635
 20
121.385
 30
0.000000
  70
    32
  0
VERTEX
  8
0
  5
8F30
 10
136.671
 20
121.393
 30
0.000000
  70
    32
  0
VERTEX
  8
0
  5
8F31
 10
136.708
 20
121.402
 30
0.000000
  70
    32
  0
VERTEX
  8
0
  5
8F32
 10
136.745
 20
121.410
 30
0.000000
  70
    32
  0
VERTEX
  8
0
  5
8F33
 10
136.781
 20
121.418
 30
0.000000
  70
    32
  0
VERTEX
  8
0
  5
8F34
 10
136.818
 20
121.426
 30
0.000000
  70
    32
  0
VERTEX
  8
0
  5
8F35
 10
136.855
 20
121.434
 30
0.000000
  70
    32
  0
VERTEX
  8
0
  5
8F36
 10
136.892
 20
121.442
 30
0.000000
  70
    32
  0
VERTEX
  8
0
  5
8F37
 10
136.929
 20
121.449
 30
0.000000
  70
    32
  0
VERTEX
  8
0
  5
8F38
 10
136.965
 20
121.457
 30
0.000000
  70
    32
  0
VERTEX
  8
0
  5
8F39
 10
137.002
 20
121.464
 30
0.000000
  70
    32
  0
VERTEX
  8
0
  5
8F3A
 10
137.039
 20
121.471
 30
0.000000
  70
    32
  0
VERTEX
  8
0
  5
8F3B
 10
137.076
 20
121.478
 30
0.000000
  70
    32
  0
VERTEX
  8
0
  5
8F3C
 10
137.113
 20
121.484
 30
0.000000
  70
    32
  0
VERTEX
  8
0
  5
8F3D
 10
137.150
 20
121.491
 30
0.000000
  70
    32
  0
VERTEX
  8
0
  5
8F3E
 10
137.187
 20
121.498
 30
0.000000
  70
    32
  0
VERTEX
  8
0
  5
8F3F
 10
137.224
 20
121.504
 30
0.000000
  70
    32
  0
VERTEX
  8
0
  5
8F40
 10
137.261
 20
121.510
 30
0.000000
  70
    32
  0
VERTEX
  8
0
  5
8F41
 10
137.298
 20
121.516
 30
0.000000
  70
    32
  0
VERTEX
  8
0
  5
8F42
 10
137.335
 20
121.522
 30
0.000000
  70
    32
  0
VERTEX
  8
0
  5
8F43
 10
137.372
 20
121.528
 30
0.000000
  70
    32
  0
VERTEX
  8
0
  5
8F44
 10
137.409
 20
121.533
 30
0.000000
  70
    32
  0
VERTEX
  8
0
  5
8F45
 10
137.446
 20
121.539
 30
0.000000
  70
    32
  0
VERTEX
  8
0
  5
8F46
 10
137.483
 20
121.544
 30
0.000000
  70
    32
  0
VERTEX
  8
0
  5
8F47
 10
137.521
 20
121.549
 30
0.000000
  70
    32
  0
VERTEX
  8
0
  5
8F48
 10
137.558
 20
121.555
 30
0.000000
  70
    32
  0
VERTEX
  8
0
  5
8F49
 10
137.595
 20
121.560
 30
0.000000
  70
    32
  0
VERTEX
  8
0
  5
8F4A
 10
137.632
 20
121.564
 30
0.000000
  70
    32
  0
VERTEX
  8
0
  5
8F4B
 10
137.669
 20
121.569
 30
0.000000
  70
    32
  0
VERTEX
  8
0
  5
8F4C
 10
137.707
 20
121.574
 30
0.000000
  70
    32
  0
VERTEX
  8
0
  5
8F4D
 10
137.744
 20
121.578
 30
0.000000
  70
    32
  0
VERTEX
  8
0
  5
8F4E
 10
137.781
 20
121.583
 30
0.000000
  70
    32
  0
VERTEX
  8
0
  5
8F4F
 10
137.818
 20
121.587
 30
0.000000
  70
    32
  0
VERTEX
  8
0
  5
8F50
 10
137.856
 20
121.591
 30
0.000000
  70
    32
  0
VERTEX
  8
0
  5
8F51
 10
137.893
 20
121.596
 30
0.000000
  70
    32
  0
VERTEX
  8
0
  5
8F52
 10
137.930
 20
121.600
 30
0.000000
  70
    32
  0
VERTEX
  8
0
  5
8F53
 10
137.968
 20
121.604
 30
0.000000
  70
    32
  0
VERTEX
  8
0
  5
8F54
 10
138.005
 20
121.607
 30
0.000000
  70
    32
  0
VERTEX
  8
0
  5
8F55
 10
138.042
 20
121.611
 30
0.000000
  70
    32
  0
VERTEX
  8
0
  5
8F56
 10
138.080
 20
121.615
 30
0.000000
  70
    32
  0
VERTEX
  8
0
  5
8F57
 10
138.117
 20
121.618
 30
0.000000
  70
    32
  0
VERTEX
  8
0
  5
8F58
 10
138.154
 20
121.622
 30
0.000000
  70
    32
  0
VERTEX
  8
0
  5
8F59
 10
138.192
 20
121.625
 30
0.000000
  70
    32
  0
VERTEX
  8
0
  5
8F5A
 10
138.229
 20
121.629
 30
0.000000
  70
    32
  0
VERTEX
  8
0
  5
8F5B
 10
138.266
 20
121.632
 30
0.000000
  70
    32
  0
VERTEX
  8
0
  5
8F5C
 10
138.304
 20
121.635
 30
0.000000
  70
    32
  0
VERTEX
  8
0
  5
8F5D
 10
138.341
 20
121.638
 30
0.000000
  70
    32
  0
VERTEX
  8
0
  5
8F5E
 10
138.379
 20
121.641
 30
0.000000
  70
    32
  0
VERTEX
  8
0
  5
8F5F
 10
138.416
 20
121.644
 30
0.000000
  70
    32
  0
VERTEX
  8
0
  5
8F60
 10
138.454
 20
121.647
 30
0.000000
  70
    32
  0
VERTEX
  8
0
  5
8F61
 10
138.491
 20
121.650
 30
0.000000
  70
    32
  0
VERTEX
  8
0
  5
8F62
 10
138.529
 20
121.653
 30
0.000000
  70
    32
  0
VERTEX
  8
0
  5
8F63
 10
138.566
 20
121.656
 30
0.000000
  70
    32
  0
VERTEX
  8
0
  5
8F64
 10
138.604
 20
121.658
 30
0.000000
  70
    32
  0
VERTEX
  8
0
  5
8F65
 10
138.641
 20
121.661
 30
0.000000
  70
    32
  0
VERTEX
  8
0
  5
8F66
 10
138.679
 20
121.663
 30
0.000000
  70
    32
  0
VERTEX
  8
0
  5
8F67
 10
138.716
 20
121.666
 30
0.000000
  70
    32
  0
VERTEX
  8
0
  5
8F68
 10
138.754
 20
121.668
 30
0.000000
  70
    32
  0
VERTEX
  8
0
  5
8F69
 10
138.791
 20
121.671
 30
0.000000
  70
    32
  0
VERTEX
  8
0
  5
8F6A
 10
138.829
 20
121.673
 30
0.000000
  70
    32
  0
VERTEX
  8
0
  5
8F6B
 10
138.866
 20
121.676
 30
0.000000
  70
    32
  0
VERTEX
  8
0
  5
8F6C
 10
138.904
 20
121.678
 30
0.000000
  70
    32
  0
VERTEX
  8
0
  5
8F6D
 10
138.941
 20
121.680
 30
0.000000
  70
    32
  0
VERTEX
  8
0
  5
8F6E
 10
138.979
 20
121.683
 30
0.000000
  70
    32
  0
VERTEX
  8
0
  5
8F6F
 10
139.016
 20
121.685
 30
0.000000
  70
    32
  0
VERTEX
  8
0
  5
8F70
 10
139.054
 20
121.687
 30
0.000000
  70
    32
  0
VERTEX
  8
0
  5
8F71
 10
139.092
 20
121.689
 30
0.000000
  70
    32
  0
VERTEX
  8
0
  5
8F72
 10
139.129
 20
121.691
 30
0.000000
  70
    32
  0
VERTEX
  8
0
  5
8F73
 10
139.167
 20
121.693
 30
0.000000
  70
    32
  0
VERTEX
  8
0
  5
8F74
 10
139.204
 20
121.695
 30
0.000000
  70
    32
  0
VERTEX
  8
0
  5
8F75
 10
139.242
 20
121.698
 30
0.000000
  70
    32
  0
VERTEX
  8
0
  5
8F76
 10
139.279
 20
121.700
 30
0.000000
  70
    32
  0
VERTEX
  8
0
  5
8F77
 10
139.317
 20
121.702
 30
0.000000
  70
    32
  0
VERTEX
  8
0
  5
8F78
 10
139.355
 20
121.704
 30
0.000000
  70
    32
  0
VERTEX
  8
0
  5
8F79
 10
139.392
 20
121.706
 30
0.000000
  70
    32
  0
VERTEX
  8
0
  5
8F7A
 10
139.430
 20
121.708
 30
0.000000
  70
    32
  0
VERTEX
  8
0
  5
8F7B
 10
139.467
 20
121.710
 30
0.000000
  70
    32
  0
SEQEND
  8
0
  5
8F7C
  0
LINE
  5
82A7
  8
0
  6
CONTINUOUS
 10
142.59235440559121
 20
170.60740632331539
 30
0.0
 11
141.08985533083191
 21
173.20981105912381
 31
0.0
  0
LINE
  5
82A8
  8
0
  6
CONTINUOUS
 10
142.59235440559121
 20
149.70981105912381
 30
0.0
 11
142.59235440559121
 21
170.60740632331539
 31
0.0
  0
LINE
  5
82A9
  8
0
  6
CONTINUOUS
 10
146.34235440559121
 20
149.70981105912381
 30
0.0
 11
146.34235440559121
 21
170.60740632331539
 31
0.0
  0
LINE
  5
82AA
  8
0
  6
CONTINUOUS
 10
145.84235440559121
 20
169.20981105912381
 30
0.0
 11
144.46735440559121
 21
169.20981105912381
 31
0.0
  0
LINE
  5
82AB
  8
0
  6
CONTINUOUS
 10
143.09235440559121
 20
169.20981105912381
 30
0.0
 11
144.46735440559121
 21
169.20981105912381
 31
0.0
  0
ARC
  5
82AC
  8
0
  6
CONTINUOUS
 10
143.09235440559121
 20
169.70981105912381
 30
0.0
 40
0.5
 50
180.0
 51
270.0
  0
ARC
  5
82AD
  8
0
  6
CONTINUOUS
 10
145.84235440559121
 20
169.70981105912381
 30
0.0
 40
0.5
 50
270.0
 51
0.0
  0
LINE
  5
82AE
  8
0
  6
CONTINUOUS
 10
146.34235440559121
 20
170.60740632331539
 30
0.0
 11
147.84485348035039
 21
173.20981105912381
 31
0.0
  0
LINE
  5
82AF
  8
0
  6
CONTINUOUS
 10
147.84485348035039
 20
173.20981105912381
 30
0.0
 11
151.9673544055911
 21
173.20981105912381
 31
0.0
  0
LINE
  5
82B0
  8
0
  6
CONTINUOUS
 10
142.59235440559121
 20
112.8122157949321
 30
0.0
 11
141.08985533083191
 21
110.20981105912379
 31
0.0
  0
LINE
  5
82B1
  8
0
  6
CONTINUOUS
 10
142.59235440559121
 20
133.70981105912381
 30
0.0
 11
142.59235440559121
 21
112.8122157949322
 31
0.0
  0
LINE
  5
82B2
  8
0
  6
CONTINUOUS
 10
146.3423544055911
 20
133.70981105912381
 30
0.0
 11
146.34235440559121
 21
112.8122157949322
 31
0.0
  0
LINE
  5
82B3
  8
0
  6
CONTINUOUS
 10
145.84235440559121
 20
114.20981105912369
 30
0.0
 11
144.46735440559121
 21
114.20981105912369
 31
0.0
  0
LINE
  5
82B4
  8
0
  6
CONTINUOUS
 10
143.09235440559121
 20
114.20981105912369
 30
0.0
 11
144.46735440559121
 21
114.20981105912369
 31
0.0
  0
ARC
  5
82B5
  8
0
  6
CONTINUOUS
 10
143.09235440559121
 20
113.70981105912369
 30
0.0
 40
0.5
 50
90.0
 51
180.0
  0
ARC
  5
82B6
  8
0
  6
CONTINUOUS
 10
145.84235440559121
 20
113.70981105912369
 30
0.0
 40
0.5
 50
0.0
 51
90.0
  0
LINE
  5
82B7
  8
0
  6
CONTINUOUS
 10
146.34235440559121
 20
112.8122157949321
 30
0.0
 11
147.84485348035039
 21
110.20981105912379
 31
0.0
  0
LINE
  5
82B8
  8
0
  6
CONTINUOUS
 10
141.08985533083191
 20
110.20981105912379
 30
0.0
 11
141.0898553308318
 21
117.3736240118478
 31
0.0
  0
LINE
  5
82B9
  8
0
  6
CONTINUOUS
 10
147.84485348035039
 20
110.20981105912379
 30
0.0
 11
147.84485348035039
 21
117.3736240118478
 31
0.0
  0
LINE
  5
82BA
  8
0
  6
CONTINUOUS
 10
147.84485348035039
 20
110.20981105912379
 30
0.0
 11
151.9673544055911
 21
110.20981105912379
 31
0.0
  0
LINE
  5
82BB
  8
0
  6
CONTINUOUS
 10
147.84485348035039
 20
121.70981105912369
 30
0.0
 11
147.84485348035039
 21
133.70981105912381
 31
0.0
  0
LINE
  5
82BC
  8
0
  6
CONTINUOUS
 10
141.08985533083191
 20
121.70981105912369
 30
0.0
 11
141.08985533083191
 21
133.70981105912381
 31
0.0
  0
LINE
  5
82BD
  8
0
  6
CONTINUOUS
 10
141.0898553308318
 20
117.3736240118478
 30
0.0
 11
131.4673544055911
 21
117.3736240118478
 31
0.0
  0
LINE
  5
82BE
  8
0
  6
CONTINUOUS
 10
142.59235440559121
 20
121.70981105912369
 30
0.0
 11
139.4673544055911
 21
121.70981105912369
 31
0.0
  0
LINE
  5
82BF
  8
0
  6
CONTINUOUS
 10
146.34235440559121
 20
120.85145513031109
 30
0.0
 11
147.84485348035039
 21
117.3736240118478
 31
0.0
  0
LINE
  5
82C0
  8
0
  6
CONTINUOUS
 10
142.59235440559121
 20
120.85145513031109
 30
0.0
 11
141.0898553308318
 21
117.3736240118478
 31
0.0
  0
ARC
  5
82C1
  8
0
  6
CONTINUOUS
 10
151.9673544055911
 20
110.70981105912379
 30
0.0
 40
0.5
 50
270.0
 51
0.0
  0
ARC
  5
82C2
  8
0
  6
CONTINUOUS
 10
151.9673544055911
 20
172.70981105912381
 30
0.0
 40
0.5
 50
0.0
 51
90.0
  0
LINE
  5
82C4
  8
0
  6
HIDDEN
 62
     3
 10
104.4673544055911
 20
136.9398110591238
 30
0.0
 11
104.4673544055911
 21
141.70981105912381
 31
0.0
  0
ARC
  5
82C5
  8
0
  6
HIDDEN
 62
     3
 10
102.9673544055911
 20
136.9398110591238
 30
0.0
 40
1.5
 50
270.0
 51
0.0
  0
LINE
  5
82C6
  8
0
  6
HIDDEN
 62
     3
 10
98.967354405591095
 20
135.43981105912371
 30
0.0
 11
102.9673544055911
 21
135.43981105912371
 31
0.0
  0
LINE
  5
82C7
  8
0
  6
CONTINUOUS
 62
     2
 10
116.9673544055911
 20
141.70981105912381
 30
0.0
 11
117.9673544055911
 21
141.70981105912381
 31
0.0
  0
LINE
  5
82C8
  8
0
  6
CONTINUOUS
 62
     2
 10
117.4673544055911
 20
141.20981105912381
 30
0.0
 11
117.4673544055911
 21
142.20981105912381
 31
0.0
  0
LINE
  5
82C9
  8
0
  6
CONTINUOUS
 62
     2
 10
116.4673544055911
 20
141.70981105912381
 30
0.0
 11
112.7173544055911
 21
141.70981105912381
 31
0.0
  0
LINE
  5
82CA
  8
0
  6
CONTINUOUS
 62
     2
 10
118.4673544055911
 20
141.70981105912381
 30
0.0
 11
122.2173544055911
 21
141.70981105912381
 31
0.0
  0
LINE
  5
82CB
  8
0
  6
CONTINUOUS
 62
     2
 10
117.4673544055911
 20
140.70981105912381
 30
0.0
 11
117.4673544055911
 21
136.95981105912381
 31
0.0
  0
LINE
  5
82CC
  8
0
  6
CONTINUOUS
 62
     2
 10
117.4673544055911
 20
142.70981105912381
 30
0.0
 11
117.4673544055911
 21
146.45981105912381
 31
0.0
  0
ARC
  5
82CD
  8
0
  6
CONTINUOUS
 10
125.9673544055911
 20
117.0893859444289
 30
0.0
 40
0.6
 50
33.557309761927009
 51
90.0
  0
LINE
  5
82CE
  8
0
  6
CONTINUOUS
 10
125.96735440559119
 20
117.68938594442881
 30
0.0
 11
125.2927560656574
 21
117.68938594442881
 31
0.0
  0
LINE
  5
82CF
  8
0
  6
CONTINUOUS
 10
124.4673544055911
 20
117.4893859444289
 30
0.0
 11
125.1374646385959
 21
117.6689414402023
 31
0.0
  0
ARC
  5
82D0
  8
0
  6
CONTINUOUS
 10
125.2927560656574
 20
117.0893859444288
 30
0.0
 40
0.6
 50
90.0
 51
104.9999999999944
  0
ARC
  5
82D1
  8
0
  6
CONTINUOUS
 10
125.2927560656575
 20
166.33023617381869
 30
0.0
 40
0.6
 50
254.99999999999841
 51
270.00000000000648
  0
ARC
  5
82D2
  8
0
  6
CONTINUOUS
 10
153.46735440559121
 20
167.70981105912131
 30
0.0
 40
1.0
 50
180.0
 51
270.0
  0
ARC
  5
82D3
  8
0
  6
CONTINUOUS
 10
153.46735440559101
 20
115.70981105912379
 30
0.0
 40
1.0
 50
90.0
 51
180.0
  0
LINE
  5
82D4
  8
0
  6
CONTINUOUS
 62
     2
 10
163.4673544055897
 20
132.20981105912381
 30
0.0
 11
163.4673544055897
 21
127.1598110591239
 31
0.0
  0
LINE
  5
82D5
  8
0
  6
CONTINUOUS
 62
     7
 10
153.46735440558791
 20
116.70981105912389
 30
0.0
 11
175.5302884606462
 21
116.70981105912389
 31
0.0
1001
ACAD
1000
ASC_BOUNDS
1002
{
1070
    19
1005
0
1005
0
1005
0
1002
}
  0
LINE
  5
82D6
  8
0
  6
CONTINUOUS
 62
     2
 10
163.4673544055897
 20
134.20981105912381
 30
0.0
 11
163.4673544055897
 21
139.25981105912379
 31
0.0
  0
LINE
  5
82D7
  8
0
  6
CONTINUOUS
 10
168.7173544055897
 20
133.20981105912381
 30
0.0
 11
168.7173544055897
 21
127.4159726891793
 31
0.0
  0
LINE
  5
82D8
  8
0
  6
CONTINUOUS
 62
     2
 10
163.4673544055897
 20
132.70981105912381
 30
0.0
 11
163.4673544055897
 21
133.70981105912381
 31
0.0
  0
CIRCLE
  5
82D9
  8
0
  6
CONTINUOUS
 10
163.4673544055897
 20
133.20981105912381
 30
0.0
 40
3.0499999999999989
  0
LINE
  5
82DA
  8
0
  6
CONTINUOUS
 10
158.2173544055897
 20
133.20981105912381
 30
0.0
 11
158.2173544055897
 21
127.4159726891794
 31
0.0
  0
CIRCLE
  5
82DB
  8
0
  6
CONTINUOUS
 10
163.4673544055897
 20
133.20981105912381
 30
0.0
 40
4.3000000000000114
  0
ARC
  5
82DC
  8
0
  6
CONTINUOUS
 62
     2
 10
163.4673544055897
 20
133.20981105912381
 30
0.0
 40
5.0
 50
256.11628774983188
 51
160.47631733240109
  0
LINE
  5
82DD
  8
0
  6
CONTINUOUS
 10
168.7173544055897
 20
127.4159726891793
 30
0.0
 11
158.2173544055897
 21
127.4159726891794
 31
0.0
  0
ARC
  5
82DE
  8
0
  6
CONTINUOUS
 10
163.4673544055897
 20
133.20981105912381
 30
0.0
 40
5.25
 50
0.0
 51
180.0
  0
LINE
  5
82DF
  8
0
  6
CONTINUOUS
 62
     2
 10
162.4673544055897
 20
133.20981105912381
 30
0.0
 11
157.41735440559
 21
133.20981105912381
 31
0.0
  0
LINE
  5
82E0
  8
0
  6
CONTINUOUS
 62
     2
 10
162.9673544055897
 20
133.20981105912381
 30
0.0
 11
163.9673544055897
 21
133.20981105912381
 31
0.0
  0
LINE
  5
82E1
  8
0
  6
CONTINUOUS
 62
     2
 10
164.4673544055897
 20
133.20981105912381
 30
0.0
 11
169.51735440558991
 21
133.20981105912381
 31
0.0
  0
LINE
  5
82E2
  8
0
  6
CONTINUOUS
 62
     7
 10
153.46735440558791
 20
166.70981105912389
 30
0.0
 11
175.5302884606462
 21
166.70981105912389
 31
0.0
1001
ACAD
1000
ASC_BOUNDS
1002
{
1070
    19
1005
0
1005
0
1005
0
1002
}
  0
LINE
  5
82E3
  8
0
  6
CONTINUOUS
 10
181.46735440558811
 20
124.66080496414951
 30
0.0
 11
181.46735440558811
 21
141.70981105912381
 31
0.0
  0
LINE
  5
82E4
  8
0
  6
CONTINUOUS
 10
180.9243987059497
 20
124.0526840656173
 30
0.0
 11
177.26233926821519
 21
117.70981105912389
 31
0.0
  0
ARC
  5
82E5
  8
0
  6
CONTINUOUS
 10
175.5302884606462
 20
118.70981105912389
 30
0.0
 40
2.0
 50
270.0
 51
329.99999999999989
  0
LINE
  5
82E6
  8
0
  6
CONTINUOUS
 10
176.68498899902551
 20
117.0768178972684
 30
0.0
 11
176.68498899902551
 21
141.70981105912381
 31
0.0
  0
DIMENSION
  5
82E7
  8
0
  6
CONTINUOUS
  2
*D138
 10
298.21114854129809
 20
158.42651119459751
 30
0.0
 11
298.21114854129797
 21
141.70981105912381
 31
0.0
 70
   128
 13
181.46735440558811
 23
124.99311092365021
 33
0.0
 14
181.46735440558811
 24
158.42651119459759
 34
0.0
 50
90.0
1001
ACAD
1000
DSTYLE
1002
{
1070
   287
1070
     2
1070
     3
1000
(%%c<>)
1070
    42
1040
0.6
1070
    43
1040
1.0
1070
    44
1040
1.0
1070
    47
1040
0.1
1070
    48
1040
0.1
1070
    73
1070
     0
1070
   140
1040
3.0
1070
   141
1040
-0.5
1070
   146
1040
0.7
1070
   147
1040
0.6
1070
   178
1070
     3
1070
   271
1070
     2
1070
   272
1070
     8
1070
   275
1070
     1
1070
   283
1070
     0
1070
   284
1070
     8
1070
   289
1070
     2
1002
}
  0
TEXT
  5
8312
  8
0
  6
CONTINUOUS
 62
     3
 10
239.01861583487471
 20
109.62407153541621
 30
0.0
 40
3.0
  1
3%%d(Q/2)
  0
INSERT
  5
8313
  8
0
  6
CONTINUOUS
  2
*U311
 10
0.0
 20
0.0
 30
0.0
1001
ACAD
1000
DSTYLE
1002
{
1070
   284
1070
     8
1070
   140
1040
3.0
1070
   283
1070
     0
1070
    48
1040
0.8
1070
    73
1070
     0
1070
   146
1040
0.7
1070
   272
1070
     6
1070
   147
1040
0.6
1070
    42
1040
0.6
1070
    44
1040
1.0
1070
    43
1040
1.0
1070
   178
1070
     3
1070
   141
1040
0.0
1070
   275
1070
     1
1002
}
  0
LINE
  5
8330
  8
0
  6
CONTINUOUS
 10
249.84547365901491
 20
128.57665630527319
 30
0.0
 11
182.55177760103271
 21
125.0499431351265
 31
0.0
  0
ARC
  5
8331
  8
0
  6
CONTINUOUS
 10
182.6564495135186
 20
123.0526840656173
 30
0.0
 40
2.0
 50
92.999999999999105
 51
149.9999999999998
  0
LINE
  5
8332
  8
0
  6
CONTINUOUS
 10
270.99352238370989
 20
129.684978575104
 30
0.0
 11
260.10156933937111
 21
129.11415550399499
 31
0.0
  0
LINE
  5
8333
  8
0
  6
CONTINUOUS
 10
249.84547365901491
 20
154.8429658129744
 30
0.0
 11
182.55177760103271
 21
158.3696789831213
 31
0.0
  0
LINE
  5
8334
  8
0
  6
CONTINUOUS
 10
270.99352238370989
 20
153.73464354314359
 30
0.0
 11
260.10156933937111
 21
154.30546661425271
 31
0.0
  0
LINE
  5
8335
  8
0
  6
CONTINUOUS
 10
271.46735440558848
 20
141.70981105912381
 30
0.0
 11
271.46735440558848
 21
130.1842933424812
 31
0.0
  0
LINE
  5
8336
  8
0
  6
CONTINUOUS
 10
271.46735440558848
 20
141.70981105912381
 30
0.0
 11
271.46735440558848
 21
153.23532877576639
 31
0.0
  0
ARC
  5
8337
  8
0
  6
CONTINUOUS
 10
270.96735440558848
 20
153.23532877576639
 30
0.0
 40
0.5
 50
0.0
 51
87.000000000000909
  0
ARC
  5
8338
  8
0
  6
CONTINUOUS
 10
270.96735440558848
 20
130.1842933424812
 30
0.0
 40
0.5
 50
272.99999999999909
 51
0.0
  0
LINE
  5
8339
  8
0
  6
HIDDEN
 62
     3
 10
243.5797899708858
 20
148.85981105912381
 30
0.0
 11
266.46735440558763
 21
148.85981105912381
 31
0.0
  0
LINE
  5
833E
  8
0
  6
HIDDEN
 62
     3
 10
228.96735440558851
 20
141.7098110591233
 30
0.0
 11
228.96735440558851
 21
146.70981105912381
 31
0.0
  0
LINE
  5
833F
  8
0
  6
HIDDEN
 62
     3
 10
213.96735440558851
 20
141.7098110591233
 30
0.0
 11
213.96735440558851
 21
145.70981105912341
 31
0.0
  0
LINE
  5
8347
  8
0
  6
HIDDEN
 62
     3
 10
235.8477391633204
 20
141.70981105912409
 30
0.0
 11
235.8477391633204
 21
147.9098110591232
 31
0.0
  0
LINE
  5
8348
  8
0
  6
HIDDEN
 62
     3
 10
243.57978997088591
 20
148.50981105912379
 30
0.0
 11
243.5797899708858
 21
148.85981105912381
 31
0.0
  0
LINE
  5
834A
  8
0
  6
HIDDEN
 62
     3
 10
233.4673544055905
 20
147.4098110591232
 30
0.0
 11
233.46735440558871
 21
141.70981105912489
 31
0.0
1001
ACAD
1000
ASC_BOUNDS
1002
{
1070
    19
1002
}
  0
LINE
  5
834D
  8
0
  6
HIDDEN
 62
     3
 10
233.9673544055903
 20
147.90981105912309
 30
0.0
 11
235.8477391633204
 21
147.9098110591232
 31
0.0
1001
ACAD
1000
ASC_BOUNDS
1002
{
1070
    19
1002
}
  0
LINE
  5
834E
  8
0
  6
HIDDEN
 62
     3
 10
236.4673544055882
 20
147.74378565533939
 30
0.0
 11
235.8477391633204
 21
147.9098110591232
 31
0.0
  0
ARC
  5
834F
  8
0
  6
HIDDEN
 62
     3
 10
233.9673544055905
 20
147.40981105912309
 30
0.0
 40
0.5
 50
90.000000000006509
 51
179.99999999998369
1001
ACAD
1000
ASC_BOUNDS
1002
{
1070
    19
1002
}
  0
LINE
  5
8353
  8
0
  6
HIDDEN
 62
     3
 10
228.96735440558851
 20
146.70981105912381
 30
0.0
 11
233.4673544055903
 21
146.7098110591229
 31
0.0
  0
DIMENSION
  5
8362
  8
0
  6
CONTINUOUS
  2
*D135
 10
290.21114854129809
 20
153.70981105912381
 30
0.0
 11
290.21114854129797
 21
141.70981105912381
 31
0.0
 70
   128
 13
271.46735440558848
 23
129.70981105912381
 33
0.0
 14
271.46735440558848
 24
153.70981105912381
 34
0.0
 50
90.0
1001
ACAD
1000
DSTYLE
1002
{
1070
   287
1070
     2
1070
     3
1000
%%c<>
1070
    42
1040
0.6
1070
    43
1040
1.0
1070
    44
1040
1.0
1070
    47
1040
0.1
1070
    48
1040
0.1
1070
    73
1070
     0
1070
   140
1040
3.0
1070
   141
1040
-0.5
1070
   146
1040
0.7
1070
   147
1040
0.6
1070
   178
1070
     3
1070
   271
1070
     8
1070
   272
1070
     8
1070
   275
1070
     1
1070
   283
1070
     0
1070
   284
1070
     8
1070
   289
1070
     2
1002
}
  0
LINE
  5
8366
  8
0
  6
CONTINUOUS
 10
250.45352061467651
 20
154.31041324932991
 30
0.0
 11
252.45077968418559
 21
154.205741336844
 31
0.0
  0
LINE
  5
836A
  8
0
  6
CONTINUOUS
 62
     7
 10
259.61938773230531
 20
153.93018774309121
 30
0.0
 11
259.7451667296956
 21
154.12387041435659
 31
0.0
  0
ARC
  5
836B
  8
0
  6
CONTINUOUS
 10
260.08063495687378
 20
153.9060148003511
 30
0.0
 40
0.4
 50
87.000000000066137
 51
146.9999999999867
  0
ARC
  5
836C
  8
0
  6
CONTINUOUS
 62
     7
 10
259.45165361871608
 20
154.03911555009441
 30
0.0
 40
0.2
 50
267.00000000000091
 51
326.99999999999039
  0
LINE
  5
836D
  8
0
  6
CONTINUOUS
 10
257.4439273579585
 20
153.94406155562939
 30
0.0
 11
259.44118642746753
 21
153.83938964314339
 31
0.0
  0
ARC
  5
836E
  8
0
  6
CONTINUOUS
 62
     7
 10
256.81494601979989
 20
154.0771623053725
 30
0.0
 40
0.4
 50
26.9999999999872
 51
87.000000000000909
  0
LINE
  5
836F
  8
0
  6
CONTINUOUS
 62
     7
 10
257.2761932443691
 20
154.05298936263219
 30
0.0
 11
257.17134862947552
 21
154.2587585052683
 31
0.0
  0
ARC
  5
8370
  8
0
  6
CONTINUOUS
 62
     7
 10
257.45439454920711
 20
154.14378746258029
 30
0.0
 40
0.2
 50
206.99999999999491
 51
267.00000000000091
  0
LINE
  5
8371
  8
0
  6
CONTINUOUS
 62
     7
 10
253.1111625960896
 20
154.6718183079536
 30
0.0
 11
256.83588040229711
 21
154.4766141192743
 31
0.0
  0
ARC
  5
8372
  8
0
  6
CONTINUOUS
 62
     7
 10
253.09022821359241
 20
154.27236649405179
 30
0.0
 40
0.4
 50
87.000000000000909
 51
146.9999999999867
  0
LINE
  5
8373
  8
0
  6
CONTINUOUS
 62
     7
 10
252.62898098902309
 20
154.29653943679179
 30
0.0
 11
252.7547599864138
 21
154.49022210805791
 31
0.0
  0
ARC
  5
8374
  8
0
  6
CONTINUOUS
 62
     7
 10
252.4612468754342
 20
154.40546724379499
 30
0.0
 40
0.2
 50
267.00000000000091
 51
326.99999999999039
  0
LINE
  5
837D
  8
0
  6
CONTINUOUS
 62
     7
 10
259.61938773230531
 20
129.48943437515641
 30
0.0
 11
259.7451667296956
 21
129.29575170389111
 31
0.0
  0
ARC
  5
837E
  8
0
  6
CONTINUOUS
 10
260.08063495687378
 20
129.5136073178966
 30
0.0
 40
0.4
 50
213.0000000000133
 51
272.99999999993378
  0
ARC
  5
837F
  8
0
  6
CONTINUOUS
 62
     7
 10
259.45165361871608
 20
129.38050656815329
 30
0.0
 40
0.2
 50
33.000000000009649
 51
92.999999999999105
  0
LINE
  5
8380
  8
0
  6
CONTINUOUS
 10
257.4439273579585
 20
129.4755605626184
 30
0.0
 11
259.44118642746753
 21
129.5802324751042
 31
0.0
  0
ARC
  5
8381
  8
0
  6
CONTINUOUS
 62
     7
 10
256.81494601979989
 20
129.34245981287521
 30
0.0
 40
0.4
 50
272.99999999999909
 51
333.00000000001279
  0
LINE
  5
8382
  8
0
  6
CONTINUOUS
 62
     7
 10
257.2761932443691
 20
129.36663275561551
 30
0.0
 11
257.17134862947552
 21
129.1608636129794
 31
0.0
  0
ARC
  5
8383
  8
0
  6
CONTINUOUS
 62
     7
 10
257.45439454920711
 20
129.27583465566741
 30
0.0
 40
0.2
 50
92.999999999999105
 51
153.00000000000509
  0
LINE
  5
8384
  8
0
  6
CONTINUOUS
 62
     7
 10
253.1111625960896
 20
128.7478038102941
 30
0.0
 11
256.83588040229711
 21
128.9430079989734
 31
0.0
  0
ARC
  5
8385
  8
0
  6
CONTINUOUS
 62
     7
 10
253.09022821359241
 20
129.14725562419591
 30
0.0
 40
0.4
 50
213.0000000000133
 51
272.99999999999909
  0
LINE
  5
8386
  8
0
  6
CONTINUOUS
 62
     7
 10
252.62898098902309
 20
129.1230826814558
 30
0.0
 11
252.7547599864138
 21
128.9294000101898
 31
0.0
  0
ARC
  5
8387
  8
0
  6
CONTINUOUS
 62
     7
 10
252.4612468754342
 20
129.01415487445269
 30
0.0
 40
0.2
 50
33.000000000009649
 51
92.999999999999105
  0
LINE
  5
8396
  8
0
  6
HIDDEN
 62
     3
 10
228.21735440558851
 20
145.1598110591234
 30
0.0
 11
228.96735440558851
 21
145.90981105912351
 31
0.0
  0
LINE
  5
8397
  8
0
  6
HIDDEN
 62
     3
 10
228.21735440558851
 20
141.7098110591233
 30
0.0
 11
228.21735440558851
 21
145.1598110591234
 31
0.0
  0
LINE
  5
8398
  8
0
  6
HIDDEN
 62
     3
 10
148.96735440559121
 20
145.15981105912331
 30
0.0
 11
228.21735440558851
 21
145.15981105912351
 31
0.0
1001
ACAD
1000
ASC_BOUNDS
1002
{
1070
    19
1002
}
  0
LINE
  5
8399
  8
0
  6
HIDDEN
 62
     3
 10
213.96735440558851
 20
145.70981105912341
 30
0.0
 11
228.76735440558841
 21
145.70981105912341
 31
0.0
1001
ACAD
1000
ASC_BOUNDS
1002
{
1070
    19
1002
}
  0
LINE
  5
839D
  8
0
  6
HIDDEN
 62
     3
 10
213.96735440558851
 20
145.7098110591233
 30
0.0
 11
213.01472646142591
 21
145.15981105912351
 31
0.0
  0
LINE
  5
839E
  8
0
  6
CONTINUOUS
 10
180.9243987059497
 20
159.3669380526303
 30
0.0
 11
177.26233926821519
 21
165.70981105912381
 31
0.0
  0
ARC
  5
839F
  8
0
  6
CONTINUOUS
 10
175.5302884606462
 20
164.70981105912381
 30
0.0
 40
2.0
 50
30.000000000000139
 51
90.0
  0
ARC
  5
83A0
  8
0
  6
CONTINUOUS
 10
182.6564495135186
 20
160.3669380526303
 30
0.0
 40
2.0
 50
210.00000000000011
 51
267.00000000000091
  0
ARC
  5
85B4
  8
0
  6
CONTINUOUS
 62
     7
 10
249.82453927651781
 20
154.44351399907339
 30
0.0
 40
0.4
 50
26.9999999999872
 51
87.000000000000909
  0
LINE
  5
85B5
  8
0
  6
CONTINUOUS
 62
     7
 10
250.2857865010871
 20
154.41934105633311
 30
0.0
 11
250.18094188619341
 21
154.6251101989692
 31
0.0
  0
ARC
  5
85B6
  8
0
  6
CONTINUOUS
 62
     7
 10
250.46398780592509
 20
154.51013915628121
 30
0.0
 40
0.2
 50
206.99999999999491
 51
267.00000000000091
  0
LINE
  5
85B7
  8
0
  6
CONTINUOUS
 10
250.45352061467651
 20
129.10920886891779
 30
0.0
 11
252.45077968418559
 21
129.2138807814037
 31
0.0
  0
ARC
  5
85B8
  8
0
  6
CONTINUOUS
 62
     7
 10
249.82453927651781
 20
128.97610811917431
 30
0.0
 40
0.4
 50
272.99999999999909
 51
333.00000000001279
  0
LINE
  5
85B9
  8
0
  6
CONTINUOUS
 62
     7
 10
250.2857865010871
 20
129.00028106191451
 30
0.0
 11
250.18094188619341
 21
128.79451191927851
 31
0.0
  0
ARC
  5
85BA
  8
0
  6
CONTINUOUS
 62
     7
 10
250.46398780592509
 20
128.90948296196649
 30
0.0
 40
0.2
 50
92.999999999999105
 51
153.00000000000509
  0
LINE
  5
85BB
  8
0
  6
CONTINUOUS
 10
252.8805389838044
 20
128.80662323156281
 30
0.0
 11
252.88053898380389
 21
141.70981105912381
 31
0.0
  0
LINE
  5
85BC
  8
0
  6
CONTINUOUS
 10
252.56609149032781
 20
129.1844710707694
 30
0.0
 11
252.56609149032781
 21
141.70981105912381
 31
0.0
  0
LINE
  5
85BD
  8
0
  6
CONTINUOUS
 10
250.33820880853369
 20
129.0649810128071
 30
0.0
 11
250.33820880853401
 21
141.70981105912381
 31
0.0
  0
LINE
  5
85BE
  8
0
  6
CONTINUOUS
 10
250.0760972713
 20
128.66511201749259
 30
0.0
 11
250.0760972713006
 21
141.70981105912381
 31
0.0
  0
LINE
  5
85BF
  8
0
  6
CONTINUOUS
 10
257.06650401458182
 20
129.0314637111934
 30
0.0
 11
257.06650401458228
 21
141.70981105912381
 31
0.0
  0
LINE
  5
85C0
  8
0
  6
CONTINUOUS
 10
257.32861555181591
 20
129.4313327065081
 30
0.0
 11
257.32861555181597
 21
141.70981105912381
 31
0.0
  0
LINE
  5
85C1
  8
0
  6
CONTINUOUS
 10
259.55649823361028
 20
129.5508227644697
 30
0.0
 11
259.55649823361
 21
141.70981105912381
 31
0.0
  0
LINE
  5
85C2
  8
0
  6
CONTINUOUS
 10
259.87094572708622
 20
129.1729749252633
 30
0.0
 11
259.87094572708622
 21
141.70981105912381
 31
0.0
  0
DIMENSION
  5
85C3
  8
0
  6
CONTINUOUS
  2
*D158
 10
306.21114854129797
 20
116.70981105912379
 30
0.0
 11
304.11114854129801
 21
141.70981105912381
 31
0.0
 70
     0
 13
175.5302884606462
 23
166.70981105912381
 33
0.0
 14
175.5302884606462
 24
116.70981105912389
 34
0.0
 50
90.0
1001
ACAD
1000
DSTYLE
1002
{
1070
   287
1070
     2
1070
     3
1000
%%c<>
1070
    42
1040
0.6
1070
    43
1040
1.0
1070
    44
1040
1.0
1070
    47
1040
0.1
1070
    48
1040
0.1
1070
    73
1070
     0
1070
   140
1040
3.0
1070
   141
1040
-0.5
1070
   146
1040
0.7
1070
   147
1040
0.6
1070
   178
1070
     3
1070
   271
1070
     8
1070
   272
1070
     8
1070
   275
1070
     1
1070
   283
1070
     0
1070
   284
1070
     8
1070
   289
1070
     2
1002
}
  0
LINE
  5
85D1
  8
0
  6
HIDDEN
 62
     3
 10
259.86735440558772
 20
147.5098110591239
 30
0.0
 11
265.46735440558763
 21
147.5098110591239
 31
0.0
  0
LINE
  5
85D3
  8
0
  6
HIDDEN
 62
     3
 10
239.60447509452081
 20
146.4723110591238
 30
0.0
 11
270.46735440558848
 21
146.4723110591238
 31
0.0
  0
LINE
  5
85D6
  8
0
  6
HIDDEN
 62
     3
 10
244.579789970886
 20
147.50981105912379
 30
0.0
 11
249.61735440558809
 21
147.50981105912379
 31
0.0
  0
LINE
  5
85D9
  8
0
  6
HIDDEN
 62
     3
 10
236.76735440558821
 20
146.70981105912381
 30
0.0
 11
239.46735440558831
 21
146.70981105912381
 31
0.0
  0
LINE
  5
85DA
  8
0
  6
HIDDEN
 62
     3
 10
236.4673544055882
 20
147.74378565533951
 30
0.0
 11
236.4673544055882
 21
141.70981105912381
 31
0.0
  0
LINE
  5
85DB
  8
0
  6
HIDDEN
 62
     3
 10
236.76735440558821
 20
146.70981105912381
 30
0.0
 11
236.76735440558821
 21
141.70981105912381
 31
0.0
  0
LINE
  5
85DD
  8
0
  6
HIDDEN
 62
     3
 10
239.60447509452081
 20
146.4723110591238
 30
0.0
 11
239.60447509452101
 21
141.70981105912381
 31
0.0
  0
LINE
  5
85DE
  8
0
  6
HIDDEN
 62
     3
 10
239.46735440558831
 20
146.70981105912381
 30
0.0
 11
239.46735440558831
 21
141.70981105912381
 31
0.0
  0
LINE
  5
85E3
  8
0
  6
HIDDEN
 62
     3
 10
250.467354405588
 20
148.35981105912381
 30
0.0
 11
249.61735440558809
 21
147.50981105912379
 31
0.0
  0
LINE
  5
85E4
  8
0
  6
HIDDEN
 62
     3
 10
259.0173544055873
 20
148.35981105912381
 30
0.0
 11
259.86735440558772
 21
147.5098110591239
 31
0.0
  0
LINE
  5
85E8
  8
0
  6
HIDDEN
 62
     3
 10
266.46735440558768
 20
148.85981105912381
 30
0.0
 11
266.46735440558763
 21
148.50981105912359
 31
0.0
  0
ARC
  5
85EB
  8
0
  6
HIDDEN
 62
     3
 10
270.46735440558848
 20
147.4723110591238
 30
0.0
 40
1.0
 50
270.0
 51
0.0
  0
LINE
  5
8620
  8
0
  6
HIDDEN
 62
     3
 10
239.46735440558831
 20
146.70981105912381
 30
0.0
 11
239.60447509452081
 21
146.4723110591238
 31
0.0
  0
LINE
  5
8621
  8
0
  6
HIDDEN
 62
     3
 10
236.76735440558821
 20
146.70981105912381
 30
0.0
 11
236.4673544055882
 21
146.88301613988071
 31
0.0
  0
LINE
  5
8622
  8
0
  6
HIDDEN
 62
     3
 10
250.467354405588
 20
148.35981105912381
 30
0.0
 11
259.0173544055873
 21
148.35981105912381
 31
0.0
  0
DIMENSION
  5
8867
  8
0
  6
CONTINUOUS
  2
*D183
 10
282.21114854129797
 20
136.94731105912379
 30
0.0
 11
280.11012822717788
 21
128.22993752902639
 31
0.0
 70
     0
 13
270.46735440558848
 23
146.4723110591238
 33
0.0
 14
270.76735440558849
 24
136.94731105912379
 34
0.0
 50
90.0
1001
ACAD
1000
DSTYLE
1002
{
1070
   287
1070
     2
1070
     3
1000
%%c<>
1070
    42
1040
0.6
1070
    43
1040
1.0
1070
    44
1040
1.0
1070
    47
1040
0.1
1070
    48
1040
0.1
1070
    73
1070
     0
1070
   140
1040
3.0
1070
   141
1040
-0.5
1070
   146
1040
0.7
1070
   147
1040
0.6
1070
   178
1070
     3
1070
   271
1070
     8
1070
   272
1070
     8
1070
   275
1070
     1
1070
   283
1070
     0
1070
   284
1070
     8
1070
   289
1070
     2
1002
}
  0
ARC
  5
8888
  8
0
  6
HIDDEN
 62
     3
 10
265.46735440558763
 20
148.5098110591239
 30
0.0
 40
1.0
 50
270.0
 51
359.99999999998369
  0
ARC
  5
8889
  8
0
  6
HIDDEN
 62
     3
 10
244.579789970886
 20
148.50981105912379
 30
0.0
 40
1.0
 50
180.0
 51
270.0
  0
LINE
  5
888A
  8
0
  6
HIDDEN
 62
     3
 10
215.46735440558851
 20
143.45981105912281
 30
0.0
 11
225.46735440558851
 21
143.45981105912281
 31
0.0
  0
LINE
  5
888B
  8
0
  6
HIDDEN
 62
     3
 10
215.4673544055884
 20
144.95981105912281
 30
0.0
 11
215.46735440558851
 21
141.70981105912281
 31
0.0
  0
LINE
  5
888C
  8
0
  6
HIDDEN
 62
     3
 10
230.46735440558851
 20
144.01921213588119
 30
0.0
 11
225.46735440558851
 21
144.01921213588119
 31
0.0
  0
LINE
  5
888D
  8
0
  6
HIDDEN
 62
     3
 10
230.46735440558851
 20
142.86451159750209
 30
0.0
 11
225.46735440558851
 21
142.864511597502
 31
0.0
  0
LINE
  5
888E
  8
0
  6
HIDDEN
 62
     3
 10
216.2173544055884
 20
145.70981105912281
 30
0.0
 11
226.71735440558851
 21
145.70981105912281
 31
0.0
  0
LINE
  5
888F
  8
0
  6
HIDDEN
 62
     3
 10
225.46735440558851
 20
144.01921213588119
 30
0.0
 11
225.46735440558851
 21
141.70981105912281
 31
0.0
  0
LINE
  5
8890
  8
0
  6
HIDDEN
 62
     3
 10
227.46735440558851
 20
144.95981105912281
 30
0.0
 11
227.46735440558851
 21
141.70981105912281
 31
0.0
  0
LINE
  5
8891
  8
0
  6
HIDDEN
 62
     3
 10
228.96735440558851
 20
145.70981105912281
 30
0.0
 11
228.96735440558851
 21
141.70981105912281
 31
0.0
  0
LINE
  5
8892
  8
0
  6
HIDDEN
 62
     3
 10
230.46735440558851
 20
145.45981105912281
 30
0.0
 11
230.46735440558851
 21
141.70981105912281
 31
0.0
  0
LINE
  5
8893
  8
0
  6
HIDDEN
 62
     3
 10
227.46735440558851
 20
144.9598110591229
 30
0.0
 11
228.96735440558851
 21
144.95981105912281
 31
0.0
  0
LINE
  5
8894
  8
0
  6
HIDDEN
 62
     3
 10
228.96735440558851
 20
145.70981105912281
 30
0.0
 11
230.21735440558851
 21
145.70981105912281
 31
0.0
  0
LINE
  5
8895
  8
0
  6
HIDDEN
 62
     3
 10
230.21735440558851
 20
145.70981105912281
 30
0.0
 11
230.46735440558851
 21
145.45981105912281
 31
0.0
  0
LINE
  5
8896
  8
0
  6
HIDDEN
 62
     3
 10
230.21735440558851
 20
145.70981105912281
 30
0.0
 11
230.21735440558851
 21
141.70981105912281
 31
0.0
  0
LINE
  5
8897
  8
0
  6
HIDDEN
 62
     3
 10
215.6758544055883
 20
145.1683110591228
 30
0.0
 11
227.25885440558829
 21
145.1683110591228
 31
0.0
  0
LINE
  5
8898
  8
0
  6
HIDDEN
 62
     3
 10
215.4673544055884
 20
144.95981105912281
 30
0.0
 11
216.2173544055884
 21
145.70981105912281
 31
0.0
  0
LINE
  5
8899
  8
0
  6
HIDDEN
 62
     3
 10
216.2173544055884
 20
145.70981105912281
 30
0.0
 11
216.2173544055884
 21
141.70981105912281
 31
0.0
  0
LINE
  5
889A
  8
0
  6
HIDDEN
 62
     3
 10
226.71735440558851
 20
145.70981105912281
 30
0.0
 11
227.46735440558851
 21
144.95981105912281
 31
0.0
  0
LINE
  5
889B
  8
0
  6
HIDDEN
 62
     3
 10
226.71735440558851
 20
145.70981105912281
 30
0.0
 11
226.71735440558851
 21
141.70981105912281
 31
0.0
  0
LINE
  5
889C
  8
0
  6
CONTINUOUS
 10
95.467354405591095
 20
147.97981105912379
 30
0.0
 11
98.967354405591095
 21
147.97981105912379
 31
0.0
  0
LINE
  5
889D
  8
0
  6
CONTINUOUS
 10
100.4673544055911
 20
151.6584648950768
 30
0.0
 11
100.4673544055911
 21
141.70981105912381
 31
0.0
  0
LINE
  5
889E
  8
0
  6
CONTINUOUS
 10
94.467354405591095
 20
148.97981105912379
 30
0.0
 11
95.467354405591095
 21
147.97981105912379
 31
0.0
  0
ARC
  5
889F
  8
0
  6
CONTINUOUS
 10
98.967354405591095
 20
146.47981105912379
 30
0.0
 40
1.5
 50
0.0
 51
90.0
  0
LINE
  5
88A0
  8
0
  6
CONTINUOUS
 10
95.467354405591095
 20
147.97981105912379
 30
0.0
 11
95.467354405591095
 21
151.40797057566411
 31
0.0
  0
LINE
  5
88A1
  8
0
  6
CONTINUOUS
 10
95.467354405591095
 20
151.40797057566411
 30
0.0
 11
100.4673544055911
 21
151.6584648950768
 31
0.0
  0
LINE
  5
88A2
  8
0
  6
CONTINUOUS
 10
94.467354405591095
 20
152.40797057566411
 30
0.0
 11
95.467354405591095
 21
151.40797057566411
 31
0.0
  0
LINE
  5
88A3
  8
0
  6
HIDDEN
 62
     3
 10
104.4673544055911
 20
146.47981105912379
 30
0.0
 11
104.4673544055911
 21
141.70981105912369
 31
0.0
  0
ARC
  5
88A4
  8
0
  6
HIDDEN
 62
     3
 10
102.9673544055911
 20
146.47981105912379
 30
0.0
 40
1.5
 50
0.0
 51
90.0
  0
LINE
  5
88A5
  8
0
  6
HIDDEN
 62
     3
 10
98.967354405591095
 20
147.97981105912379
 30
0.0
 11
102.9673544055911
 21
147.97981105912379
 31
0.0
  0
LINE
  5
88A6
  8
0
  6
CONTINUOUS
 10
124.467354405591
 20
141.70981105912381
 30
0.0
 11
124.4673544055911
 21
165.9302361738188
 31
0.0
  0
LINE
  5
88A7
  8
0
  6
CONTINUOUS
 10
125.2137645671049
 20
165.73545861610799
 30
0.0
 11
125.2137645671049
 21
141.70981105912381
 31
0.0
  0
LINE
  5
88A8
  8
0
  6
HIDDEN
 62
     3
 10
95.467354405591095
 20
124.70981105912379
 30
0.0
 11
107.47132900180669
 21
124.70981105912379
 31
0.0
  0
LINE
  5
88A9
  8
0
  6
HIDDEN
 62
     3
 10
95.467354405591095
 20
135.43981105912391
 30
0.0
 11
95.467354405591095
 21
124.70981105912379
 31
0.0
  0
LINE
  5
88AA
  8
0
  6
HIDDEN
 62
     3
 10
95.467354405591095
 20
124.70981105912379
 30
0.0
 11
94.467354405591095
 21
124.1324607899342
 31
0.0
  0
LINE
  5
88AB
  8
0
  6
HIDDEN
 62
     3
 10
107.47132900180669
 20
124.70981105912379
 30
0.0
 11
109.0301747286186
 21
122.00981105912381
 31
0.0
  0
LINE
  5
88AC
  8
0
  6
HIDDEN
 62
     3
 10
109.54978997088919
 20
121.70981105912379
 30
0.0
 11
120.22235640719271
 21
121.70981105912379
 31
0.0
  0
LINE
  5
88AD
  8
0
  6
HIDDEN
 62
     3
 10
107.47132900180669
 20
124.70981105912379
 30
0.0
 11
107.47132900180669
 21
141.70981105912381
 31
0.0
  0
LINE
  5
88AE
  8
0
  6
HIDDEN
 62
     3
 10
109.2033798093756
 20
121.8199131105672
 30
0.0
 11
109.2033798093756
 21
141.70981105912381
 31
0.0
  0
ARC
  5
88AF
  8
0
  6
HIDDEN
 62
     3
 10
109.54978997088919
 20
122.3098110591238
 30
0.0
 40
0.6
 50
210.00000000000381
 51
270.0
  0
LINE
  5
88B0
  8
0
  6
HIDDEN
 62
     3
 10
126.46735440559119
 20
124.70981105912379
 30
0.0
 11
134.13819820800231
 21
124.70981105912379
 31
0.0
  0
ARC
  5
88B1
  8
0
  6
HIDDEN
 62
     3
 10
120.22235640719271
 20
129.70981105912381
 30
0.0
 40
8.0
 50
270.0
 51
321.31781254651048
  0
LINE
  5
88B2
  8
0
  6
HIDDEN
 62
     3
 10
136.4673544055911
 20
125.95981105912379
 30
0.0
 11
136.4673544055911
 21
141.70981105912381
 31
0.0
  0
LINE
  5
88B3
  8
0
  6
HIDDEN
 62
     3
 10
126.46735440559119
 20
124.70981105912379
 30
0.0
 11
126.46735440559119
 21
141.70981105912381
 31
0.0
  0
ARC
  5
88B4
  8
0
  6
HIDDEN
 62
     3
 10
134.9673544055911
 20
125.95981105912379
 30
0.0
 40
1.5
 50
236.44269023808161
 51
0.0
  0
LINE
  5
88B5
  8
0
  6
HIDDEN
 62
     3
 10
134.13819820800219
 20
124.70981105912379
 30
0.0
 11
134.13819820800219
 21
141.70981105912381
 31
0.0
  0
LINE
  5
88B6
  8
0
  6
CONTINUOUS
 10
126.9673544055911
 20
173.20981105912381
 30
0.0
 11
126.9673544055911
 21
141.70981105912381
 31
0.0
  0
LINE
  5
88B7
  8
0
  6
HIDDEN
 62
     3
 10
136.96735440559121
 20
133.20981105912381
 30
0.0
 11
143.46735440559121
 21
133.20981105912381
 31
0.0
  0
LINE
  5
88B8
  8
0
  6
HIDDEN
 62
     3
 10
136.46735440559121
 20
132.70981105912381
 30
0.0
 11
143.46735440559121
 21
132.70981105912381
 31
0.0
  0
LINE
  5
88B9
  8
0
  6
HIDDEN
 62
     3
 10
136.96735440559121
 20
133.20981105912381
 30
0.0
 11
136.96735440559121
 21
141.70981105912381
 31
0.0
  0
LINE
  5
88BA
  8
0
  6
HIDDEN
 62
     3
 10
136.96735440559121
 20
133.20981105912381
 30
0.0
 11
136.46735440559121
 21
132.70981105912381
 31
0.0
  0
LINE
  5
88BB
  8
0
  6
HIDDEN
 62
     3
 10
148.46735440559121
 20
132.20981105912381
 30
0.0
 11
148.46735440559121
 21
141.70981105912381
 31
0.0
  0
LINE
  5
88BC
  8
0
  6
HIDDEN
 62
     3
 10
143.46735440559121
 20
132.20981105912381
 30
0.0
 11
143.46735440559121
 21
141.70981105912381
 31
0.0
  0
LINE
  5
88BD
  8
0
  6
HIDDEN
 62
     3
 10
143.46735440559121
 20
132.20981105912381
 30
0.0
 11
148.46735440559121
 21
132.20981105912381
 31
0.0
  0
LINE
  5
88BE
  8
0
  6
HIDDEN
 62
     3
 10
148.46735440559121
 20
137.7598110591243
 30
0.0
 11
148.96735440559121
 21
138.2598110591243
 31
0.0
  0
LINE
  5
88BF
  8
0
  6
HIDDEN
 62
     3
 10
148.96735440559121
 20
138.2598110591243
 30
0.0
 11
148.96735440559121
 21
141.70981105912381
 31
0.0
  0
LINE
  5
88C0
  8
0
  6
CONTINUOUS
 10
139.4673544055911
 20
149.70981105912381
 30
0.0
 11
152.4673544055911
 21
149.70981105912381
 31
0.0
  0
ARC
  5
88C1
  8
0
  6
CONTINUOUS
 10
139.4673544055911
 20
141.70981105912381
 30
0.0
 40
8.0
 50
90.0
 51
180.0
  0
LINE
  5
88C2
  8
0
  6
CONTINUOUS
 10
147.84485348035031
 20
173.20981105912381
 30
0.0
 11
147.84485348035039
 21
149.70981105912381
 31
0.0
  0
LINE
  5
88C3
  8
0
  6
CONTINUOUS
 10
141.08985533083191
 20
173.20981105912401
 30
0.0
 11
141.08985533083191
 21
149.70981105912381
 31
0.0
  0
LINE
  5
88C4
  8
0
  6
CONTINUOUS
 10
181.46735440558811
 20
158.75881715409821
 30
0.0
 11
181.46735440558811
 21
141.70981105912381
 31
0.0
  0
LINE
  5
88C5
  8
0
  6
CONTINUOUS
 10
176.68498899902551
 20
166.34280422097919
 30
0.0
 11
176.68498899902551
 21
141.70981105912381
 31
0.0
  0
LINE
  5
88C6
  8
0
  6
HIDDEN
 62
     3
 10
243.5797899708858
 20
134.5598110591238
 30
0.0
 11
266.46735440558763
 21
134.5598110591238
 31
0.0
  0
LINE
  5
88C7
  8
0
  6
HIDDEN
 62
     3
 10
228.96735440558851
 20
141.70981105912429
 30
0.0
 11
228.96735440558851
 21
136.70981105912381
 31
0.0
  0
LINE
  5
88C8
  8
0
  6
HIDDEN
 62
     3
 10
213.96735440558851
 20
141.70981105912429
 30
0.0
 11
213.96735440558851
 21
137.70981105912429
 31
0.0
  0
LINE
  5
88C9
  8
0
  6
HIDDEN
 62
     3
 10
235.8477391633204
 20
141.70981105912361
 30
0.0
 11
235.8477391633204
 21
135.50981105912439
 31
0.0
  0
LINE
  5
88CA
  8
0
  6
HIDDEN
 62
     3
 10
243.57978997088591
 20
134.9098110591238
 30
0.0
 11
243.5797899708858
 21
134.5598110591238
 31
0.0
  0
ARC
  5
88CB
  8
0
  6
HIDDEN
 62
     3
 10
244.579789970886
 20
134.9098110591238
 30
0.0
 40
1.0
 50
90.0
 51
179.9999999999967
  0
LINE
  5
88CC
  8
0
  6
HIDDEN
 62
     3
 10
233.4673544055905
 20
136.00981105912439
 30
0.0
 11
233.46735440558871
 21
141.70981105912281
 31
0.0
1001
ACAD
1000
ASC_BOUNDS
1002
{
1070
    19
1002
}
  0
LINE
  5
88CD
  8
0
  6
HIDDEN
 62
     3
 10
233.9673544055903
 20
135.5098110591245
 30
0.0
 11
235.8477391633204
 21
135.50981105912439
 31
0.0
1001
ACAD
1000
ASC_BOUNDS
1002
{
1070
    19
1002
}
  0
LINE
  5
88CE
  8
0
  6
HIDDEN
 62
     3
 10
236.4673544055882
 20
135.67583646290819
 30
0.0
 11
235.8477391633204
 21
135.50981105912439
 31
0.0
  0
ARC
  5
88CF
  8
0
  6
HIDDEN
 62
     3
 10
233.9673544055905
 20
136.0098110591245
 30
0.0
 40
0.5
 50
180.00000000001631
 51
269.99999999999352
1001
ACAD
1000
ASC_BOUNDS
1002
{
1070
    19
1002
}
  0
LINE
  5
88D0
  8
0
  6
HIDDEN
 62
     3
 10
228.96735440558851
 20
136.70981105912381
 30
0.0
 11
233.4673544055903
 21
136.70981105912469
 31
0.0
  0
LINE
  5
88D1
  8
0
  6
HIDDEN
 62
     3
 10
228.21735440558851
 20
138.25981105912419
 30
0.0
 11
228.96735440558851
 21
137.5098110591241
 31
0.0
  0
LINE
  5
88D2
  8
0
  6
HIDDEN
 62
     3
 10
228.21735440558851
 20
141.70981105912429
 30
0.0
 11
228.21735440558851
 21
138.25981105912419
 31
0.0
  0
LINE
  5
88D3
  8
0
  6
HIDDEN
 62
     3
 10
148.96735440559121
 20
138.2598110591243
 30
0.0
 11
228.21735440558851
 21
138.2598110591241
 31
0.0
1001
ACAD
1000
ASC_BOUNDS
1002
{
1070
    19
1002
}
  0
LINE
  5
88D4
  8
0
  6
HIDDEN
 62
     3
 10
213.96735440558851
 20
137.70981105912429
 30
0.0
 11
228.76735440558841
 21
137.70981105912421
 31
0.0
1001
ACAD
1000
ASC_BOUNDS
1002
{
1070
    19
1002
}
  0
LINE
  5
88D5
  8
0
  6
HIDDEN
 62
     3
 10
215.46735440558851
 20
139.9598110591248
 30
0.0
 11
225.46735440558851
 21
139.9598110591248
 31
0.0
  0
LINE
  5
88D6
  8
0
  6
HIDDEN
 62
     3
 10
215.4673544055884
 20
138.4598110591248
 30
0.0
 11
215.46735440558851
 21
141.7098110591248
 31
0.0
  0
LINE
  5
88D7
  8
0
  6
HIDDEN
 62
     3
 10
230.46735440558851
 20
139.4004099823664
 30
0.0
 11
225.46735440558851
 21
139.4004099823664
 31
0.0
  0
LINE
  5
88D8
  8
0
  6
HIDDEN
 62
     3
 10
230.46735440558851
 20
140.55511052074559
 30
0.0
 11
225.46735440558851
 21
140.55511052074559
 31
0.0
  0
LINE
  5
88D9
  8
0
  6
HIDDEN
 62
     3
 10
216.2173544055884
 20
137.7098110591248
 30
0.0
 11
226.71735440558851
 21
137.7098110591248
 31
0.0
  0
LINE
  5
88DA
  8
0
  6
HIDDEN
 62
     3
 10
225.46735440558851
 20
139.4004099823664
 30
0.0
 11
225.46735440558851
 21
141.7098110591248
 31
0.0
  0
LINE
  5
88DB
  8
0
  6
HIDDEN
 62
     3
 10
227.46735440558851
 20
138.4598110591248
 30
0.0
 11
227.46735440558851
 21
141.7098110591248
 31
0.0
  0
LINE
  5
88DC
  8
0
  6
HIDDEN
 62
     3
 10
228.96735440558851
 20
137.7098110591248
 30
0.0
 11
228.96735440558851
 21
141.7098110591248
 31
0.0
  0
LINE
  5
88DD
  8
0
  6
HIDDEN
 62
     3
 10
230.46735440558851
 20
137.9598110591248
 30
0.0
 11
230.46735440558851
 21
141.7098110591248
 31
0.0
  0
LINE
  5
88DE
  8
0
  6
HIDDEN
 62
     3
 10
227.46735440558851
 20
138.45981105912469
 30
0.0
 11
228.96735440558851
 21
138.4598110591248
 31
0.0
  0
LINE
  5
88DF
  8
0
  6
HIDDEN
 62
     3
 10
228.96735440558851
 20
137.7098110591248
 30
0.0
 11
230.21735440558851
 21
137.7098110591248
 31
0.0
  0
LINE
  5
88E0
  8
0
  6
HIDDEN
 62
     3
 10
230.21735440558851
 20
137.7098110591248
 30
0.0
 11
230.46735440558851
 21
137.9598110591248
 31
0.0
  0
LINE
  5
88E1
  8
0
  6
HIDDEN
 62
     3
 10
230.21735440558851
 20
137.7098110591248
 30
0.0
 11
230.21735440558851
 21
141.7098110591248
 31
0.0
  0
LINE
  5
88E2
  8
0
  6
HIDDEN
 62
     3
 10
215.6758544055883
 20
138.25131105912479
 30
0.0
 11
227.25885440558829
 21
138.25131105912479
 31
0.0
  0
LINE
  5
88E3
  8
0
  6
HIDDEN
 62
     3
 10
215.4673544055884
 20
138.4598110591248
 30
0.0
 11
216.2173544055884
 21
137.7098110591248
 31
0.0
  0
LINE
  5
88E4
  8
0
  6
HIDDEN
 62
     3
 10
216.2173544055884
 20
137.7098110591248
 30
0.0
 11
216.2173544055884
 21
141.7098110591248
 31
0.0
  0
LINE
  5
88E5
  8
0
  6
HIDDEN
 62
     3
 10
226.71735440558851
 20
137.7098110591248
 30
0.0
 11
227.46735440558851
 21
138.4598110591248
 31
0.0
  0
LINE
  5
88E6
  8
0
  6
HIDDEN
 62
     3
 10
226.71735440558851
 20
137.7098110591248
 30
0.0
 11
226.71735440558851
 21
141.7098110591248
 31
0.0
  0
LINE
  5
88E7
  8
0
  6
HIDDEN
 62
     3
 10
213.96735440558851
 20
137.70981105912429
 30
0.0
 11
213.01472646142591
 21
138.2598110591241
 31
0.0
  0
LINE
  5
88E8
  8
0
  6
CONTINUOUS
 10
252.8805389838044
 20
154.61299888668481
 30
0.0
 11
252.88053898380389
 21
141.70981105912381
 31
0.0
  0
LINE
  5
88E9
  8
0
  6
CONTINUOUS
 10
252.56609149032781
 20
154.23515104747821
 30
0.0
 11
252.56609149032781
 21
141.70981105912389
 31
0.0
  0
LINE
  5
88EA
  8
0
  6
CONTINUOUS
 10
250.33820880853369
 20
154.35464110544049
 30
0.0
 11
250.33820880853401
 21
141.70981105912381
 31
0.0
  0
LINE
  5
88EB
  8
0
  6
CONTINUOUS
 10
250.0760972713
 20
154.754510100755
 30
0.0
 11
250.0760972713006
 21
141.70981105912381
 31
0.0
  0
LINE
  5
88EC
  8
0
  6
CONTINUOUS
 10
257.06650401458182
 20
154.38815840705419
 30
0.0
 11
257.06650401458228
 21
141.70981105912381
 31
0.0
  0
LINE
  5
88ED
  8
0
  6
CONTINUOUS
 10
257.32861555181591
 20
153.98828941173949
 30
0.0
 11
257.32861555181597
 21
141.70981105912381
 31
0.0
  0
LINE
  5
88EE
  8
0
  6
CONTINUOUS
 10
259.55649823361028
 20
153.86879935377789
 30
0.0
 11
259.55649823361
 21
141.70981105912381
 31
0.0
  0
LINE
  5
88EF
  8
0
  6
CONTINUOUS
 10
259.87094572708622
 20
154.24664719298431
 30
0.0
 11
259.87094572708622
 21
141.70981105912381
 31
0.0
  0
LINE
  5
88F0
  8
0
  6
HIDDEN
 62
     3
 10
259.86735440558772
 20
135.90981105912371
 30
0.0
 11
265.46735440558763
 21
135.9098110591238
 31
0.0
  0
ARC
  5
88F1
  8
0
  6
HIDDEN
 62
     3
 10
265.46735440558763
 20
134.9098110591238
 30
0.0
 40
1.0
 50
0.0000000000130276
 51
90.0
  0
LINE
  5
88F2
  8
0
  6
HIDDEN
 62
     3
 10
239.60447509452081
 20
136.94731105912379
 30
0.0
 11
270.46735440558848
 21
136.94731105912379
 31
0.0
  0
LINE
  5
88F3
  8
0
  6
HIDDEN
 62
     3
 10
244.579789970886
 20
135.9098110591238
 30
0.0
 11
249.61735440558809
 21
135.9098110591238
 31
0.0
  0
LINE
  5
88F4
  8
0
  6
HIDDEN
 62
     3
 10
236.76735440558821
 20
136.70981105912381
 30
0.0
 11
239.46735440558831
 21
136.70981105912381
 31
0.0
  0
LINE
  5
88F5
  8
0
  6
HIDDEN
 62
     3
 10
236.4673544055882
 20
135.67583646290811
 30
0.0
 11
236.4673544055882
 21
141.70981105912381
 31
0.0
  0
LINE
  5
88F6
  8
0
  6
HIDDEN
 62
     3
 10
236.76735440558821
 20
136.70981105912381
 30
0.0
 11
236.76735440558821
 21
141.70981105912381
 31
0.0
  0
LINE
  5
88F7
  8
0
  6
HIDDEN
 62
     3
 10
239.60447509452081
 20
136.94731105912379
 30
0.0
 11
239.60447509452101
 21
141.70981105912381
 31
0.0
  0
LINE
  5
88F8
  8
0
  6
HIDDEN
 62
     3
 10
239.46735440558831
 20
136.70981105912381
 30
0.0
 11
239.46735440558831
 21
141.70981105912381
 31
0.0
  0
LINE
  5
88F9
  8
0
  6
HIDDEN
 62
     3
 10
250.467354405588
 20
135.0598110591238
 30
0.0
 11
249.61735440558809
 21
135.9098110591238
 31
0.0
  0
LINE
  5
88FA
  8
0
  6
HIDDEN
 62
     3
 10
259.0173544055873
 20
135.0598110591238
 30
0.0
 11
259.86735440558772
 21
135.90981105912371
 31
0.0
  0
LINE
  5
88FB
  8
0
  6
HIDDEN
 62
     3
 10
266.46735440558768
 20
134.5598110591238
 30
0.0
 11
266.46735440558763
 21
134.909811059124
 31
0.0
  0
ARC
  5
88FC
  8
0
  6
HIDDEN
 62
     3
 10
270.46735440558848
 20
135.94731105912379
 30
0.0
 40
1.0
 50
0.0
 51
90.0
  0
LINE
  5
88FD
  8
0
  6
HIDDEN
 62
     3
 10
239.46735440558831
 20
136.70981105912381
 30
0.0
 11
239.60447509452081
 21
136.94731105912379
 31
0.0
  0
LINE
  5
88FE
  8
0
  6
HIDDEN
 62
     3
 10
236.76735440558821
 20
136.70981105912381
 30
0.0
 11
236.4673544055882
 21
136.53660597836699
 31
0.0
  0
LINE
  5
88FF
  8
0
  6
HIDDEN
 62
     3
 10
250.467354405588
 20
135.0598110591238
 30
0.0
 11
259.0173544055873
 21
135.0598110591238
 31
0.0
  0
DIMENSION
  5
89C7
  8
0
  6
CONTINUOUS
  2
*D184
 10
80.105934005282961
 20
110.20981105912379
 30
0.0
 11
78.005934005282953
 21
141.70981105912381
 31
0.0
 70
     0
 13
126.96735440559119
 23
173.20981105912381
 33
0.0
 14
126.96735440559119
 24
110.20981105912379
 34
0.0
 50
90.0
1001
ACAD
1000
DSTYLE
1002
{
1070
   287
1070
     2
1070
     3
1000
HSK<>A
1070
    42
1040
0.6
1070
    43
1040
1.0
1070
    44
1040
1.0
1070
    47
1040
0.1
1070
    48
1040
0.1
1070
    73
1070
     0
1070
   140
1040
3.0
1070
   141
1040
-0.5
1070
   146
1040
0.7
1070
   147
1040
0.6
1070
   178
1070
     3
1070
   271
1070
     8
1070
   272
1070
     8
1070
   275
1070
     1
1070
   283
1070
     0
1070
   284
1070
     8
1070
   289
1070
     2
1002
}
  0
DIMENSION
  5
89D4
  8
0
  6
CONTINUOUS
  2
*D185
 10
271.46735440558848
 20
175.53267739699541
 30
0.0
 11
255.4673544055884
 21
177.63297267258591
 31
0.0
 70
     0
 13
239.46735440558831
 23
146.70981105912381
 33
0.0
 14
271.46735440558848
 24
153.23532877576639
 34
0.0
1001
ACAD
1000
DSTYLE
1002
{
1070
   287
1070
     2
1070
    42
1040
0.6
1070
    43
1040
1.0
1070
    44
1040
1.0
1070
    47
1040
0.1
1070
    48
1040
0.1
1070
    73
1070
     0
1070
   140
1040
3.0
1070
   141
1040
-0.5
1070
   146
1040
0.7
1070
   147
1040
0.6
1070
   178
1070
     3
1070
   271
1070
     8
1070
   272
1070
     8
1070
   275
1070
     1
1070
   283
1070
     0
1070
   284
1070
     8
1070
   289
1070
     2
1002
}
  0
TEXT
  5
8A45
  8
0
  6
CONTINUOUS
 62
     3
 10
199.49485367024749
 20
9.273345534007376
 30
0.0
 40
4.0
  1
HSK63A-HMC9.525-145-PB25
  0
ENDSEC
  0
EOF
