  0
SECTION
  2
HEADER
  9
$ACADVER
  1
AC1009
  9
$INSBASE
 10
0.0
 20
0.0
 30
0.0
  9
$EXTMIN
 10
-0.0033540077221232
 20
-0.5188010360229783
 30
-0.0000000000000053
  9
$EXTMAX
 10
349.82274617349452
 20
241.5001928612393
 30
0.0000000000000099
  9
$LIMMIN
 10
0.0
 20
0.0
  9
$LIMMAX
 10
500.0
 20
500.0
  9
$ORTHOMODE
 70
     0
  9
$REGENMODE
 70
     1
  9
$FILLMODE
 70
     1
  9
$QTEXTMODE
 70
     0
  9
$MIRRTEXT
 70
     1
  9
$DRAGMODE
 70
     2
  9
$LTSCALE
 40
7.0
  9
$OSMODE
 70
   951
  9
$ATTMODE
 70
     1
  9
$TEXTSIZE
 40
3.0
  9
$TRACEWID
 40
1.0
  9
$TEXTSTYLE
  7
STANDARD
  9
$CLAYER
  8
0
  9
$CELTYPE
  6
CONTINUOUS
  9
$CECOLOR
 62
   256
  9
$DIMSCALE
 40
1.0
  9
$DIMASZ
 40
2.5
  9
$DIMEXO
 40
0.6
  9
$DIMDLI
 40
1.0
  9
$DIMRND
 40
0.0
  9
$DIMDLE
 40
0.0
  9
$DIMEXE
 40
1.0
  9
$DIMTP
 40
0.1
  9
$DIMTM
 40
0.1
  9
$DIMTXT
 40
3.0
  9
$DIMCEN
 40
-1.0
  9
$DIMTSZ
 40
0.0
  9
$DIMTOL
 70
     0
  9
$DIMLIM
 70
     0
  9
$DIMTIH
 70
     0
  9
$DIMTOH
 70
     0
  9
$DIMSE1
 70
     0
  9
$DIMSE2
 70
     0
  9
$DIMTAD
 70
     1
  9
$DIMZIN
 70
     8
  9
$DIMBLK
  1

  9
$DIMASO
 70
     1
  9
$DIMSHO
 70
     1
  9
$DIMPOST
  1

  9
$DIMAPOST
  1

  9
$DIMALT
 70
     0
  9
$DIMALTD
 70
     2
  9
$DIMALTF
 40
0.0394
  9
$DIMLFAC
 40
1.0
  9
$DIMTOFL
 70
     1
  9
$DIMTVP
 40
1.0
  9
$DIMTIX
 70
     0
  9
$DIMSOXD
 70
     0
  9
$DIMSAH
 70
     0
  9
$DIMBLK1
  1

  9
$DIMBLK2
  1

  9
$DIMSTYLE
  2
ISO-25
  9
$DIMCLRD
 70
     2
  9
$DIMCLRE
 70
     2
  9
$DIMCLRT
 70
     3
  9
$DIMTFAC
 40
0.7
  9
$DIMGAP
 40
0.6
  9
$LUNITS
 70
     2
  9
$LUPREC
 70
     4
  9
$SKETCHINC
 40
1.0
  9
$FILLETRAD
 40
0.0
  9
$AUNITS
 70
     0
  9
$AUPREC
 70
     0
  9
$MENU
  1
acad
  9
$ELEVATION
 40
0.0
  9
$PELEVATION
 40
0.0
  9
$THICKNESS
 40
0.0
  9
$LIMCHECK
 70
     0
  9
$BLIPMODE
 70
     0
  9
$CHAMFERA
 40
0.2
  9
$CHAMFERB
 40
0.2
  9
$SKPOLY
 70
     0
  9
$TDCREATE
 40
2450166.8692156249
  9
$TDUPDATE
 40
2457465.6669203239
  9
$TDINDWG
 40
5.3197687963
  9
$TDUSRTIMER
 40
5.3197687963
  9
$USRTIMER
 70
     1
  9
$ANGBASE
 50
0.0
  9
$ANGDIR
 70
     0
  9
$PDMODE
 70
     0
  9
$PDSIZE
 40
0.0
  9
$PLINEWID
 40
1.0
  9
$COORDS
 70
     0
  9
$SPLFRAME
 70
     0
  9
$SPLINETYPE
 70
     6
  9
$SPLINESEGS
 70
     8
  9
$ATTDIA
 70
     0
  9
$ATTREQ
 70
     1
  9
$HANDLING
 70
     1
  9
$HANDSEED
  5
275B0
  9
$SURFTAB1
 70
     6
  9
$SURFTAB2
 70
     6
  9
$SURFTYPE
 70
     6
  9
$SURFU
 70
     6
  9
$SURFV
 70
     6
  9
$UCSNAME
  2

  9
$UCSORG
 10
0.0
 20
0.0
 30
0.0
  9
$UCSXDIR
 10
1.0
 20
0.0
 30
0.0
  9
$UCSYDIR
 10
0.0
 20
1.0
 30
0.0
  9
$PUCSNAME
  2

  9
$PUCSORG
 10
0.0
 20
0.0
 30
0.0
  9
$PUCSXDIR
 10
1.0
 20
0.0
 30
0.0
  9
$PUCSYDIR
 10
0.0
 20
1.0
 30
0.0
  9
$USERI1
 70
     0
  9
$USERI2
 70
     0
  9
$USERI3
 70
     0
  9
$USERI4
 70
     0
  9
$USERI5
 70
     0
  9
$USERR1
 40
0.0
  9
$USERR2
 40
0.0
  9
$USERR3
 40
0.0
  9
$USERR4
 40
0.0
  9
$USERR5
 40
0.0
  9
$WORLDVIEW
 70
     1
  9
$SHADEDGE
 70
     3
  9
$SHADEDIF
 70
    70
  9
$TILEMODE
 70
     1
  9
$MAXACTVP
 70
    16
  9
$PLIMCHECK
 70
     0
  9
$PEXTMIN
 10
1.0000000000000000E+020
 20
1.0000000000000000E+020
 30
1.0000000000000000E+020
  9
$PEXTMAX
 10
-1.0000000000000000E+020
 20
-1.0000000000000000E+020
 30
-1.0000000000000000E+020
  9
$PLIMMIN
 10
0.0
 20
0.0
  9
$PLIMMAX
 10
420.0
 20
297.0
  9
$UNITMODE
 70
     0
  9
$VISRETAIN
 70
     0
  9
$PLINEGEN
 70
     0
  9
$PSLTSCALE
 70
     1
  0
ENDSEC
  0
SECTION
  2
TABLES
  0
TABLE
  2
VPORT
 70
     1
  0
VPORT
  2
*ACTIVE
 70
     0
 10
0.0
 20
0.0
 11
1.0
 21
1.0
 12
174.9096960828862
 22
120.4906959126081
 13
0.0
 23
0.0
 14
1.0
 24
1.0
 15
2.0
 25
2.0
 16
0.0
 26
0.0
 36
1.0
 17
0.0
 27
0.0
 37
0.0
 40
243.69773836360159
 41
2.1307870370370372
 42
50.0
 43
0.0
 44
0.0
 50
0.0
 51
0.0
 71
     0
 72
   100
 73
     1
 74
     1
 75
     0
 76
     0
 77
     0
 78
     1
  0
ENDTAB
  0
TABLE
  2
LTYPE
 70
     8
  0
LTYPE
  2
CONTINUOUS
 70
     0
  3
Solid line
 72
    65
 73
     0
 40
0.0
  0
LTYPE
  2
CENTER
 70
     0
  3
____ _ ____ _ ____ _ ____ _ ____ _ ____ _ ____ 
 72
    65
 73
     4
 40
2.0
 49
1.25
 49
-0.25
 49
0.25
 49
-0.25
  0
LTYPE
  2
HIDDEN
 70
     0
  3
Hidden __ __ __ __ __ __ __ __ __ __ __ __ __ _
 72
    65
 73
     2
 40
0.375
 49
0.25
 49
-0.125
  0
LTYPE
  2
HIDDEN2
 70
     0
  3
_ _ _ _ _ _ _ _ _ _ _ _ _ _ _ _ _ _ _ _ _ _ _ _
 72
    65
 73
     2
 40
0.1875
 49
0.125
 49
-0.0625
  0
LTYPE
  2
PHANTOM2
 70
     0
  3
___ _ _ ___ _ _ ___ _ _ ___ _ _ ___ _ _ ___ _ _
 72
    65
 73
     6
 40
1.25
 49
0.625
 49
-0.125
 49
0.125
 49
-0.125
 49
0.125
 49
-0.125
  0
LTYPE
  2
PHANTOM
 70
     0
  3
______  __  __  ______  __  __  ______  __  __ 
 72
    65
 73
     6
 40
2.5
 49
1.25
 49
-0.25
 49
0.25
 49
-0.25
 49
0.25
 49
-0.25
  0
LTYPE
  2
CENTER2
 70
     0
  3
___ _ ___ _ ___ _ ___ _ ___ _ ___ _ ___ _ ___ _
 72
    65
 73
     4
 40
1.125
 49
0.75
 49
-0.125
 49
0.125
 49
-0.125
  0
ENDTAB
  0
TABLE
  2
LAYER
 70
     3
  0
LAYER
  2
0
 70
     0
 62
     7
  6
CONTINUOUS
  0
LAYER
  2
DEFPOINTS
 70
     0
 62
     7
  6
CONTINUOUS
  0
LAYER
  2
CT
 70
     0
 62
     2
  6
CENTER
  0
ENDTAB
  0
TABLE
  2
STYLE
 70
     1
  0
STYLE
  2
STANDARD
 70
     0
 40
3.0
 41
1.0
 50
0.0
 71
     0
 42
3.0
  3
ISOCP
  4
WHGTXT.SHX
  0
ENDTAB
  0
TABLE
  2
VIEW
 70
     0
  0
ENDTAB
  0
TABLE
  2
UCS
 70
     0
  0
ENDTAB
  0
TABLE
  2
APPID
 70
    10
  0
APPID
  2
ACAD
 70
     0
  0
APPID
  2
ACAD_MLEADERVER
 70
     0
  0
APPID
  2
ACAD_EXEMPT_FROM_CAD_STANDARDS
 70
     0
  0
APPID
  2
ACAD_DSTYLE_DIMRADIAL_EXTENSION
 70
     0
  0
APPID
  2
ACAD_DSTYLE_DIMJAG
 70
     0
  0
APPID
  2
ACAD_DSTYLE_DIMTALN
 70
     0
  0
APPID
  2
ACAD_DSTYLE_DIMBREAK
 70
     0
  0
APPID
  2
GENIUS_GENODEF_13
 70
     0
  0
APPID
  2
GENIUS_GENOBJ-N-FIL_13
 70
     0
  0
APPID
  2
CONTENTBLOCKICON
 70
     0
  0
ENDTAB
  0
TABLE
  2
DIMSTYLE
 70
     4
  0
DIMSTYLE
  2
ISO-25
 70
     0
  3

  4

  5

  6

  7

 40
1.0
 41
2.5
 42
0.625
 43
3.75
 44
1.25
 45
0.0
 46
0.0
 47
0.0
 48
0.0
140
2.5
141
2.5
142
0.0
143
0.0394
144
1.0
145
1.0
146
1.0
147
0.625
 71
     0
 72
     0
 73
     1
 74
     0
 75
     0
 76
     0
 77
     1
 78
     8
170
     0
171
     2
172
     1
173
     0
174
     0
175
     0
176
     2
177
     2
178
     0
  0
DIMSTYLE
  2
KSM
 70
     0
  3

  4

  5

  6

  7

 40
1.0
 41
2.0
 42
0.0
 43
0.1
 44
1.1999999999999991
 45
0.0
 46
0.0
 47
0.25
 48
0.25
140
3.0
141
0.0
142
0.0
143
0.0394
144
1.0
145
1.0
146
1.0
147
1.0
 71
     1
 72
     0
 73
     0
 74
     0
 75
     0
 76
     0
 77
     1
 78
     8
170
     0
171
     2
172
     1
173
     0
174
     0
175
     0
176
     2
177
     2
178
     3
  0
DIMSTYLE
  2
ISO-25$2
 70
     0
  3

  4

  5

  6

  7

 40
1.0
 41
2.5
 42
0.625
 43
3.75
 44
1.25
 45
0.0
 46
0.0
 47
0.0
 48
0.0
140
2.5
141
2.5
142
0.0
143
0.0394
144
1.0
145
1.0
146
1.0
147
0.625
 71
     0
 72
     0
 73
     1
 74
     0
 75
     0
 76
     0
 77
     1
 78
     8
170
     0
171
     2
172
     1
173
     0
174
     0
175
     0
176
     2
177
     2
178
     0
  0
DIMSTYLE
  2
ISO-25$0
 70
     0
  3

  4

  5

  6

  7

 40
1.0
 41
2.5
 42
0.625
 43
3.75
 44
1.25
 45
0.0
 46
0.0
 47
0.0
 48
0.0
140
3.0
141
2.5
142
0.0
143
0.0394
144
1.0
145
1.0
146
1.0
147
0.625
 71
     0
 72
     0
 73
     0
 74
     0
 75
     0
 76
     0
 77
     1
 78
     8
170
     0
171
     2
172
     1
173
     0
174
     0
175
     0
176
     2
177
     2
178
     3
  0
ENDTAB
  0
ENDSEC
  0
SECTION
  2
BLOCKS
  0
BLOCK
  8
0
  2
$MODEL_SPACE
 70
     0
 10
0.0
 20
0.0
 30
0.0
  3
$MODEL_SPACE
  1

  0
ENDBLK
  5
9
  8
0
  0
BLOCK
 67
     1
  8
0
  2
$PAPER_SPACE
 70
     0
 10
0.0
 20
0.0
 30
0.0
  3
$PAPER_SPACE
  1

  0
ENDBLK
  5
E
 67
     1
  8
0
  0
BLOCK
  8
0
  2
DFG
 70
     0
 10
0.0
 20
0.0
 30
0.0
  3
DFG
  1

  0
LINE
  5
85D
  8
0
  6
CONTINUOUS
 62
     4
 10
86.283570637268895
 20
194.3173600391579
 30
0.0
 11
87.100067218196514
 21
195.13385662008551
 31
0.0
  0
LINE
  5
85E
  8
0
  6
CONTINUOUS
 62
     4
 10
85.827275012060909
 20
196.40664882622119
 30
0.0
 11
85.010778431133076
 21
195.5901522452935
 31
0.0
  0
LINE
  5
85F
  8
0
  6
CONTINUOUS
 62
     4
 10
85.364331821726182
 20
196.65081241707321
 30
0.0
 11
84.657225040539743
 21
195.94370563588669
 31
0.0
  0
LINE
  5
860
  8
0
  6
CONTINUOUS
 62
     4
 10
85.364331821726182
 20
196.65081241707321
 30
0.0
 11
84.248976750075826
 21
196.35195392635069
 31
0.0
  0
LINE
  5
861
  8
0
  6
CONTINUOUS
 10
87.953595175868358
 20
196.1995166121132
 30
0.0
 11
84.418061269935833
 21
192.6639827061806
 31
0.0
  0
LINE
  5
862
  8
0
  6
CONTINUOUS
 10
84.913036016766455
 20
199.24007577121549
 30
0.0
 11
81.377502110833461
 21
195.70454186528281
 31
0.0
  0
LINE
  5
863
  8
0
  6
CONTINUOUS
 10
84.418061269935606
 20
199.24007577121529
 30
0.0
 11
81.377502110833802
 21
196.1995166121134
 31
0.0
  0
LINE
  5
864
  8
0
  6
CONTINUOUS
 10
87.953595175868585
 20
195.70454186528261
 30
0.0
 11
84.913036016766227
 21
192.66398270618041
 31
0.0
  0
LINE
  5
865
  8
0
  6
CONTINUOUS
 10
84.418061269935606
 20
199.24007577121529
 30
0.0
 11
84.913036016766455
 21
199.24007577121549
 31
0.0
  0
LINE
  5
866
  8
0
  6
CONTINUOUS
 62
     4
 10
85.717885212319516
 20
196.29725902647991
 30
0.0
 11
85.364331821726182
 21
196.65081241707321
 31
0.0
  0
LINE
  5
867
  8
0
  6
CONTINUOUS
 62
     4
 10
87.100067218196514
 20
195.13385662008551
 30
0.0
 11
85.827275012060909
 21
196.40664882622119
 31
0.0
  0
LINE
  5
868
  8
0
  6
CONTINUOUS
 62
     4
 10
86.691818927732811
 20
194.72560832962171
 30
0.0
 11
85.419026721596978
 21
195.9984005357575
 31
0.0
  0
LINE
  5
869
  8
0
  6
CONTINUOUS
 10
87.953595175868585
 20
195.70454186528261
 30
0.0
 11
87.953595175868358
 21
196.1995166121132
 31
0.0
  0
LINE
  5
86A
  8
0
  6
CONTINUOUS
 62
     4
 10
87.100067218196514
 20
195.13385662008551
 30
0.0
 11
87.382909930671289
 21
195.1338566200854
 31
0.0
  0
LINE
  5
86B
  8
0
  6
CONTINUOUS
 10
81.377502110833802
 20
196.1995166121134
 30
0.0
 11
81.377502110833802
 21
195.70454186528269
 31
0.0
  0
LINE
  5
86C
  8
0
  6
CONTINUOUS
 62
     4
 10
85.467074056341076
 20
193.5008634582301
 30
0.0
 11
85.467074056341175
 21
193.21802074575541
 31
0.0
  0
LINE
  5
86D
  8
0
  6
CONTINUOUS
 62
     4
 10
86.283570637268653
 20
194.31736003915771
 30
0.0
 11
85.467074056341076
 21
193.5008634582301
 31
0.0
  0
LINE
  5
86E
  8
0
  6
CONTINUOUS
 62
     4
 10
84.194281850205485
 20
194.7736556643658
 30
0.0
 11
85.010778431133076
 21
195.5901522452935
 31
0.0
  0
LINE
  5
86F
  8
0
  6
CONTINUOUS
 62
     4
 10
83.950118259353076
 20
195.23659885470019
 30
0.0
 11
84.657225040539743
 21
195.94370563588669
 31
0.0
  0
LINE
  5
870
  8
0
  6
CONTINUOUS
 62
     4
 10
83.950118259353076
 20
195.23659885470019
 30
0.0
 11
84.248976750075826
 21
196.35195392635069
 31
0.0
  0
LINE
  5
871
  8
0
  6
CONTINUOUS
 62
     4
 10
84.303671649946395
 20
194.88304546410691
 30
0.0
 11
83.950118259353076
 21
195.23659885470019
 31
0.0
  0
LINE
  5
872
  8
0
  6
CONTINUOUS
 62
     4
 10
85.467074056341076
 20
193.5008634582301
 30
0.0
 11
84.194281850205485
 21
194.7736556643658
 31
0.0
  0
LINE
  5
873
  8
0
  6
CONTINUOUS
 62
     4
 10
85.875322346804978
 20
193.9091117486939
 30
0.0
 11
84.60253014066916
 21
195.18190395482961
 31
0.0
  0
LINE
  5
874
  8
0
  6
CONTINUOUS
 10
84.913036016766569
 20
192.66398270618069
 30
0.0
 11
84.418061269935606
 21
192.66398270618069
 31
0.0
  0
LINE
  5
875
  8
0
  6
CONTINUOUS
 10
81.377502110833461
 20
195.70454186528229
 30
0.0
 11
84.418061269935833
 21
192.66398270618041
 31
0.0
  0
LINE
  5
876
  8
0
  6
CONTINUOUS
 10
84.913036016766455
 20
199.24007577121549
 30
0.0
 11
87.953595175868713
 21
196.19951661211331
 31
0.0
  0
ENDBLK
  5
877
  8
0
  0
BLOCK
  8
0
  2
SZGFG
 70
     0
 10
0.0
 20
0.0
 30
0.0
  3
SZGFG
  1

  0
LINE
  5
2AD7
  8
0
  6
CONTINUOUS
 62
     3
 10
288.6152800117635
 20
143.94755516990219
 30
0.0
 11
297.2722104434265
 21
147.0986609094744
 31
0.0
  0
LINE
  5
2AD8
  8
0
  6
CENTER
 62
     6
 10
295.73281909903773
 20
151.43665890697039
 30
0.0
 11
298.91643289771213
 21
142.6897518828473
 31
0.0
  0
LINE
  5
2AD9
  8
0
  6
CONTINUOUS
 62
     3
 10
297.2722104434265
 20
147.0986609094744
 30
0.0
 11
292.09540705571192
 21
142.75459046597831
 31
0.0
  0
LINE
  5
2ADA
  8
0
  6
CONTINUOUS
 62
     3
 10
290.51423431846371
 20
147.09849496112241
 30
0.0
 11
292.09540705571192
 21
142.75459046597831
 31
0.0
  0
LINE
  5
2ADB
  8
0
  6
CONTINUOUS
 62
     3
 10
297.2722104434265
 20
147.0986609094744
 30
0.0
 11
290.51423431846371
 21
147.09849496112241
 31
0.0
  0
INSERT
  5
2ADC
  8
0
  6
CONTINUOUS
 62
     7
  2
*X25
 10
0.0
 20
0.0
 30
0.0
1001
ACAD
1000
HATCH
1002
{
1070
    19
1000
ANSI31
1040
0.5
1040
24.756814761131292
1000
R14_HATCH_DATA
1000
2ADC
1011
1.0
1021
0.0
1031
-1.8492665278881001E+209
1021
0.0
1031
0.0
1011
0.0
1021
0.0
1031
-1.8492665278881001E+209
1021
1.0
1031
0.0
1011
0.0
1021
0.0
1031
-1.8492665278881001E+209
1021
0.0
1031
1.0
1040
0.0
1010
0.0
1020
0.0
1030
1.0
1000
ANSI31
1070
     0
1070
     0
1071
        1
1071
        7
1070
     0
1070
     1
1071
        3
1040
291.30482068708812
1040
144.9265427135503
1040
297.27221044342679
1040
147.09866090947449
1040
290.51423431846388
1040
147.09849496112241
1071
        0
1070
     0
1070
     1
1040
24.756814761131292
1040
0.5
1070
     0
1070
     1
1040
0.409471695810392
1040
-352.79435710434569
1040
-667.39905656787869
1040
-0.0248827971004312
1040
0.0573332051123847
1070
     0
1040
0.0067328972234235
1071
        1
1040
162.70487846657139
1040
40.765216351816299
1040
0.0
1002
}
  0
ENDBLK
  5
2AD6
  8
0
  0
BLOCK
  8
0
  2
*D2
 70
     1
 10
0.0
 20
0.0
 30
0.0
  3
*D2
  1

  0
LINE
  5
EECF
  8
0
  6
CONTINUOUS
 62
     2
 10
312.15421719959068
 20
190.9694648400035
 30
0.0
 11
319.86908548100507
 21
204.33200867710741
 31
0.0
  0
LINE
  5
EED0
  8
0
  6
CONTINUOUS
 62
     2
 10
296.09011558445138
 20
190.96946484000389
 30
0.0
 11
288.3752473030392
 21
204.33200867711079
 31
0.0
  0
ARC
  5
EED1
  8
0
  6
CONTINUOUS
 62
     2
 10
304.12216639201921
 20
177.05754475232271
 30
0.0
 40
30.49383817795869
 50
64.698640864752164
 51
115.3013591352355
  0
SOLID
  5
EED2
  8
0
  6
CONTINUOUS
 62
     2
 10
317.3479684435344
 20
204.99526317967039
 30
0.0
 11
316.96123534079862
 21
204.2571019833909
 31
0.0
 12
319.3690854810049
 22
203.4659832733231
 32
0.0
 13
319.3690854810049
 23
203.4659832733231
 33
0.0
  0
SOLID
  5
EED3
  8
0
  6
CONTINUOUS
 62
     2
 10
291.28309744324571
 20
204.2571019833936
 30
0.0
 11
290.8963643405101
 21
204.9952631796732
 31
0.0
 12
288.8752473030392
 22
203.4659832733264
 32
0.0
 13
288.8752473030392
 23
203.4659832733264
 33
0.0
  0
INSERT
  5
EED4
  8
0
  6
CONTINUOUS
  2
*U27
 10
0.0
 20
0.0
 30
0.0
  0
POINT
  5
EED5
  8
DEFPOINTS
  6
CONTINUOUS
 62
     0
 10
309.41736582169648
 20
207.0881130090753
 30
0.0
  0
POINT
  5
EED6
  8
DEFPOINTS
  6
CONTINUOUS
 62
     0
 10
297.0829359074794
 20
189.24984959773269
 30
0.0
  0
POINT
  5
EED7
  8
DEFPOINTS
  6
CONTINUOUS
 62
     0
 10
311.16139687656261
 20
189.24984959773269
 30
0.0
  0
POINT
  5
EED8
  8
DEFPOINTS
  6
CONTINUOUS
 62
     0
 10
311.85421719959061
 20
190.44984959773291
 30
0.0
  0
POINT
  5
EED9
  8
DEFPOINTS
  6
CONTINUOUS
 62
     0
 10
296.39011558445139
 20
190.44984959773331
 30
0.0
  0
ENDBLK
  5
9E4A
  8
0
  0
BLOCK
  8
0
  2
*D3
 70
     1
 10
0.0
 20
0.0
 30
0.0
  3
*D3
  1

  0
LINE
  5
EEDA
  8
0
  6
CONTINUOUS
 62
     2
 10
298.12216639202171
 20
194.63417194603281
 30
0.0
 11
298.12216639202171
 21
198.6459070614514
 31
0.0
  0
LINE
  5
EEDB
  8
0
  6
CONTINUOUS
 62
     2
 10
310.12216639202171
 20
194.63417194603281
 30
0.0
 11
310.12216639202171
 21
198.6459070614514
 31
0.0
  0
LINE
  5
EEDC
  8
0
  6
CONTINUOUS
 62
     2
 10
300.62216639202171
 20
197.44590706145141
 30
0.0
 11
307.6221663920216
 21
197.44590706145141
 31
0.0
  0
SOLID
  5
EEDD
  8
0
  6
CONTINUOUS
 62
     2
 10
300.62216639202171
 20
197.86257372811809
 30
0.0
 11
300.62216639202171
 21
197.02924039478481
 31
0.0
 12
298.12216639202171
 22
197.44590706145141
 32
0.0
 13
298.12216639202171
 23
197.44590706145141
 33
0.0
  0
SOLID
  5
EEDE
  8
0
  6
CONTINUOUS
 62
     2
 10
307.6221663920216
 20
197.86257372811809
 30
0.0
 11
307.6221663920216
 21
197.02924039478481
 31
0.0
 12
310.12216639202171
 22
197.44590706145141
 32
0.0
 13
310.12216639202171
 23
197.44590706145141
 33
0.0
  0
INSERT
  5
EEDF
  8
0
  6
CONTINUOUS
  2
*U28
 10
0.0
 20
0.0
 30
0.0
  0
POINT
  5
EEE0
  8
DEFPOINTS
  6
CONTINUOUS
 62
     0
 10
298.12216639202171
 20
194.63417194603281
 30
0.0
  0
POINT
  5
EEE1
  8
DEFPOINTS
  6
CONTINUOUS
 62
     0
 10
310.12216639202171
 20
194.63417194603281
 30
0.0
  0
POINT
  5
EEE2
  8
DEFPOINTS
  6
CONTINUOUS
 62
     0
 10
310.12216639202171
 20
197.44590706145141
 30
0.0
  0
ENDBLK
  5
9E58
  8
0
  0
BLOCK
  8
0
  2
*D4
 70
     1
 10
0.0
 20
0.0
 30
0.0
  3
*D4
  1

  0
LINE
  5
EEE3
  8
0
  6
CONTINUOUS
 62
     2
 10
315.00477544185492
 20
236.46734898896719
 30
0.0
 11
315.00477544185492
 21
242.83094854437101
 31
0.0
  0
LINE
  5
EEE4
  8
0
  6
CONTINUOUS
 62
     2
 10
321.00477544185492
 20
236.46734898896719
 30
0.0
 11
321.00477544185492
 21
242.83094854437101
 31
0.0
  0
LINE
  5
EEE5
  8
0
  6
CONTINUOUS
 62
     2
 10
312.50477544185492
 20
241.63094854437099
 30
0.0
 11
310.00477544185492
 21
241.63094854437099
 31
0.0
  0
LINE
  5
EEE6
  8
0
  6
CONTINUOUS
 62
     2
 10
323.50477544185492
 20
241.63094854437099
 30
0.0
 11
326.00477544185492
 21
241.63094854437099
 31
0.0
  0
LINE
  5
EEE7
  8
0
  6
CONTINUOUS
 62
     2
 10
315.00477544185492
 20
241.63094854437099
 30
0.0
 11
321.00477544185492
 21
241.63094854437099
 31
0.0
  0
SOLID
  5
EEE8
  8
0
  6
CONTINUOUS
 62
     2
 10
312.50477544185492
 20
242.04761521103771
 30
0.0
 11
312.50477544185492
 21
241.21428187770431
 31
0.0
 12
315.00477544185492
 22
241.63094854437099
 32
0.0
 13
315.00477544185492
 23
241.63094854437099
 33
0.0
  0
SOLID
  5
EEE9
  8
0
  6
CONTINUOUS
 62
     2
 10
323.50477544185492
 20
242.04761521103771
 30
0.0
 11
323.50477544185492
 21
241.21428187770431
 31
0.0
 12
321.00477544185492
 22
241.63094854437099
 32
0.0
 13
321.00477544185492
 23
241.63094854437099
 33
0.0
  0
INSERT
  5
EEEA
  8
0
  6
CONTINUOUS
  2
*U29
 10
0.0
 20
0.0
 30
0.0
  0
POINT
  5
EEEB
  8
DEFPOINTS
  6
CONTINUOUS
 62
     0
 10
315.00477544185492
 20
236.46734898896719
 30
0.0
  0
POINT
  5
EEEC
  8
DEFPOINTS
  6
CONTINUOUS
 62
     0
 10
321.00477544185492
 20
236.46734898896719
 30
0.0
  0
POINT
  5
EEED
  8
DEFPOINTS
  6
CONTINUOUS
 62
     0
 10
321.00477544185492
 20
241.63094854437099
 30
0.0
  0
ENDBLK
  5
9E64
  8
0
  0
BLOCK
  8
0
  2
*D5
 70
     1
 10
0.0
 20
0.0
 30
0.0
  3
*D5
  1

  0
LINE
  5
EEEE
  8
0
  6
CONTINUOUS
 62
     2
 10
300.00477544185492
 20
236.46734898896719
 30
0.0
 11
300.00477544185492
 21
242.83094854437101
 31
0.0
  0
LINE
  5
EEEF
  8
0
  6
CONTINUOUS
 62
     2
 10
315.00477544185492
 20
236.46734898896719
 30
0.0
 11
315.00477544185492
 21
242.83094854437101
 31
0.0
  0
LINE
  5
EEF0
  8
0
  6
CONTINUOUS
 62
     2
 10
302.50477544185492
 20
241.63094854437099
 30
0.0
 11
312.50477544185492
 21
241.63094854437099
 31
0.0
  0
SOLID
  5
EEF1
  8
0
  6
CONTINUOUS
 62
     2
 10
302.50477544185492
 20
242.04761521103771
 30
0.0
 11
302.50477544185492
 21
241.21428187770431
 31
0.0
 12
300.00477544185492
 22
241.63094854437099
 32
0.0
 13
300.00477544185492
 23
241.63094854437099
 33
0.0
  0
SOLID
  5
EEF2
  8
0
  6
CONTINUOUS
 62
     2
 10
312.50477544185492
 20
242.04761521103771
 30
0.0
 11
312.50477544185492
 21
241.21428187770431
 31
0.0
 12
315.00477544185492
 22
241.63094854437099
 32
0.0
 13
315.00477544185492
 23
241.63094854437099
 33
0.0
  0
INSERT
  5
EEF3
  8
0
  6
CONTINUOUS
  2
*U30
 10
0.0
 20
0.0
 30
0.0
  0
POINT
  5
EEF4
  8
DEFPOINTS
  6
CONTINUOUS
 62
     0
 10
300.00477544185492
 20
236.46734898896719
 30
0.0
  0
POINT
  5
EEF5
  8
DEFPOINTS
  6
CONTINUOUS
 62
     0
 10
315.00477544185492
 20
236.46734898896719
 30
0.0
  0
POINT
  5
EEF6
  8
DEFPOINTS
  6
CONTINUOUS
 62
     0
 10
315.00477544185492
 20
241.63094854437099
 30
0.0
  0
ENDBLK
  5
9E72
  8
0
  0
BLOCK
  8
0
  2
*D6
 70
     1
 10
0.0
 20
0.0
 30
0.0
  3
*D6
  1

  0
LINE
  5
EEF7
  8
0
  6
CONTINUOUS
 62
     2
 10
288.00477544185492
 20
236.38509718508399
 30
0.0
 11
288.00477544185492
 21
242.63094854437099
 31
0.0
  0
LINE
  5
EEF8
  8
0
  6
CONTINUOUS
 62
     2
 10
300.00477544185492
 20
236.38509718508399
 30
0.0
 11
300.00477544185492
 21
242.63094854437099
 31
0.0
  0
LINE
  5
EEF9
  8
0
  6
CONTINUOUS
 62
     2
 10
290.50477544185492
 20
241.63094854437099
 30
0.0
 11
297.50477544185492
 21
241.63094854437099
 31
0.0
  0
SOLID
  5
EEFA
  8
0
  6
CONTINUOUS
 62
     2
 10
290.50477544185492
 20
242.04761521103771
 30
0.0
 11
290.50477544185492
 21
241.21428187770431
 31
0.0
 12
288.00477544185492
 22
241.63094854437099
 32
0.0
 13
288.00477544185492
 23
241.63094854437099
 33
0.0
  0
SOLID
  5
EEFB
  8
0
  6
CONTINUOUS
 62
     2
 10
297.50477544185492
 20
242.04761521103771
 30
0.0
 11
297.50477544185492
 21
241.21428187770431
 31
0.0
 12
300.00477544185492
 22
241.63094854437099
 32
0.0
 13
300.00477544185492
 23
241.63094854437099
 33
0.0
  0
INSERT
  5
EEFC
  8
0
  6
CONTINUOUS
  2
*U31
 10
0.0
 20
0.0
 30
0.0
  0
POINT
  5
EEFD
  8
DEFPOINTS
  6
CONTINUOUS
 62
     0
 10
288.00477544185492
 20
235.78509718508391
 30
0.0
  0
POINT
  5
EEFE
  8
DEFPOINTS
  6
CONTINUOUS
 62
     0
 10
300.00477544185492
 20
235.78509718508391
 30
0.0
  0
POINT
  5
EEFF
  8
DEFPOINTS
  6
CONTINUOUS
 62
     0
 10
300.00477544185492
 20
241.63094854437099
 30
0.0
  0
ENDBLK
  5
9E7E
  8
0
  0
BLOCK
  8
0
  2
*D7
 70
     1
 10
0.0
 20
0.0
 30
0.0
  3
*D7
  1

  0
LINE
  5
EF00
  8
0
  6
CONTINUOUS
 62
     2
 10
316.61082619762362
 20
191.64984959773241
 30
0.0
 11
324.41430971703772
 21
191.64984959773241
 31
0.0
  0
LINE
  5
EF01
  8
0
  6
CONTINUOUS
 62
     2
 10
310.72216639202048
 20
188.64984959773301
 30
0.0
 11
324.41430971703772
 21
188.64984959773301
 31
0.0
  0
LINE
  5
EF02
  8
0
  6
CONTINUOUS
 62
     2
 10
323.41430971703772
 20
194.14984959773241
 30
0.0
 11
323.41430971703772
 21
196.64984959773241
 31
0.0
  0
LINE
  5
EF03
  8
0
  6
CONTINUOUS
 62
     2
 10
323.41430971703772
 20
186.1498495977329
 30
0.0
 11
323.41430971703772
 21
178.12322332429659
 31
0.0
  0
LINE
  5
EF04
  8
0
  6
CONTINUOUS
 62
     2
 10
323.41430971703772
 20
191.64984959773241
 30
0.0
 11
323.41430971703772
 21
188.64984959773301
 31
0.0
  0
SOLID
  5
EF05
  8
0
  6
CONTINUOUS
 62
     2
 10
322.99764305037098
 20
194.14984959773241
 30
0.0
 11
323.8309763837043
 21
194.14984959773241
 31
0.0
 12
323.41430971703772
 22
191.64984959773241
 32
0.0
 13
323.41430971703772
 23
191.64984959773241
 33
0.0
  0
SOLID
  5
EF06
  8
0
  6
CONTINUOUS
 62
     2
 10
322.99764305037098
 20
186.1498495977329
 30
0.0
 11
323.8309763837043
 21
186.1498495977329
 31
0.0
 12
323.41430971703772
 22
188.64984959773301
 32
0.0
 13
323.41430971703772
 23
188.64984959773301
 33
0.0
  0
INSERT
  5
EF07
  8
0
  6
CONTINUOUS
  2
*U32
 10
0.0
 20
0.0
 30
0.0
  0
POINT
  5
EF08
  8
DEFPOINTS
  6
CONTINUOUS
 62
     0
 10
316.0108261976236
 20
191.64984959773241
 30
0.0
  0
POINT
  5
EF09
  8
DEFPOINTS
  6
CONTINUOUS
 62
     0
 10
310.12216639202052
 20
188.64984959773301
 30
0.0
  0
POINT
  5
EF0A
  8
DEFPOINTS
  6
CONTINUOUS
 62
     0
 10
323.41430971703772
 20
188.64984959773301
 30
0.0
  0
ENDBLK
  5
9E8A
  8
0
  0
BLOCK
  8
0
  2
SDF
 70
     0
 10
0.0
 20
0.0
 30
0.0
  3
SDF
  1

  0
LINE
  5
D507
  8
0
  6
CENTER
 62
     6
 10
731.45891337631133
 20
57.492818451892589
 30
0.0
 11
736.3915418039586
 21
65.386674043587149
 31
0.0
  0
LINE
  5
D508
  8
0
  6
CONTINUOUS
 62
     3
 10
733.86658582483904
 20
61.415963327889273
 30
0.0
 11
729.70609104261405
 21
66.741423354984477
 31
0.0
  0
INSERT
  5
D509
  8
0
  6
CONTINUOUS
 62
     7
  2
*X26
 10
0.0
 20
0.0
 30
0.0
1001
ACAD
1000
HATCH
1002
{
1070
    19
1000
ANSI31
1040
0.5
1040
23.84924355009424
1000
R14_HATCH_DATA
1000
D509
1011
1.0
1021
0.0
1031
-1.8492665278881001E+209
1021
0.0
1031
0.0
1011
0.0
1021
0.0
1031
-1.8492665278881001E+209
1021
1.0
1031
0.0
1011
0.0
1021
0.0
1031
-1.8492665278881001E+209
1021
0.0
1031
1.0
1040
0.0
1010
0.0
1020
0.0
1030
1.0
1000
ANSI31
1070
     0
1070
     0
1071
        1
1071
        7
1070
     0
1070
     1
1071
        3
1040
728.48120661880364
1040
64.781305623751564
1040
733.86658582483904
1040
61.415963327889159
1040
727.25632219499289
1040
62.821187892518672
1071
        0
1070
     0
1070
     1
1040
23.84924355009424
1040
0.5
1070
     0
1070
     1
1040
5.6642741011298714
1040
267.34913006864878
1040
993.27139068447866
1040
-0.0362592918982502
1040
-0.0509069126056323
1070
     0
1040
0.0067328972234235
1071
        1
1040
624.34783916298795
1040
193.4038885198666
1040
0.0
1002
}
  0
LINE
  5
D50A
  8
0
  6
CONTINUOUS
 62
     3
 10
726.05398181564817
 20
66.298086890049063
 30
0.0
 11
733.86658582483904
 21
61.415963327889273
 31
0.0
  0
LINE
  5
D50B
  8
0
  6
CONTINUOUS
 62
     3
 10
733.86658582483904
 20
61.415963327889273
 30
0.0
 11
727.25632219499255
 21
62.821187892518672
 31
0.0
  0
LINE
  5
D50C
  8
0
  6
CONTINUOUS
 62
     3
 10
727.25632219499255
 20
62.821187892518672
 30
0.0
 11
729.70609104261405
 21
66.741423354984477
 31
0.0
  0
ENDBLK
  5
D506
  8
0
  0
BLOCK
  8
0
  2
SEFESF
 70
     0
 10
0.0
 20
0.0
 30
0.0
  3
SEFESF
  1

  0
LINE
  5
EF0E
  8
0
  6
CONTINUOUS
 62
     3
 10
316.13054096305308
 20
227.07236531220181
 30
0.0
 11
323.84026845397528
 21
229.42439517376991
 31
0.0
  0
LINE
  5
EF0F
  8
0
  6
CONTINUOUS
 62
     2
 10
321.1015270460706
 20
229.42287727728441
 30
0.0
 11
327.1734947799668
 21
221.02853908930771
 31
0.0
  0
LINE
  5
EF10
  8
0
  6
CONTINUOUS
 62
     3
 10
286.78003361936231
 20
229.3031845636458
 30
0.0
 11
294.90942071286167
 21
227.07236531220181
 31
0.0
  0
INSERT
  5
EF11
  8
0
  6
CONTINUOUS
 62
     2
  2
*X33
 10
0.0
 20
0.0
 30
0.0
1001
ACAD
1000
HATCH
1002
{
1070
    19
1000
ANSI31
1040
20.0
1040
1.5707963267948959
1000
R14_HATCH_DATA
1000
EF11
1011
1.0
1021
0.0
1031
-1.8492665278881001E+209
1021
0.0
1031
0.0
1011
0.0
1021
0.0
1031
-1.8492665278881001E+209
1021
1.0
1031
0.0
1011
0.0
1021
0.0
1031
-1.8492665278881001E+209
1021
0.0
1031
1.0
1040
0.0
1010
0.0
1020
0.0
1030
1.0
1000
ANSI31
1070
     0
1070
     0
1071
        3
1071
        7
1070
     1
1070
     1
1071
       19
1040
301.9100313301808
1040
234.97518781481719
1040
0.2679491924310495
1040
300.87080084563968
1040
234.37518781481751
1040
0.0
1040
300.52439068412542
1040
233.775187814817
1040
-0.267949192430959
1040
300.00477544185492
1040
233.47518781481719
1040
0.0
1040
288.00477544185452
1040
233.47518781481719
1040
-0.2679491924311177
1040
287.48516019958379
1040
233.7751878148172
1040
0.0
1040
287.1387500380697
1040
234.37518781481739
1040
0.2679491924310966
1040
286.0995195535283
1040
234.9751878148173
1040
0.0
1040
283.24657462317742
1040
234.97518781481719
1040
0.0
1040
283.58582931958728
1040
232.85184940181639
1040
0.0
1040
286.78003361936231
1040
229.3031845636458
1040
0.0
1040
294.90942071286167
1040
227.07236531220181
1040
0.0
1040
308.46022476655781
1040
226.63096963654201
1040
0.0
1040
316.13054096305302
1040
227.0723653122017
1040
0.0
1040
321.59573441054579
1040
228.7396483909985
1040
0.0
1040
321.24804856149069
1040
229.22031507567971
1040
-0.4441191269304323
1040
320.88522182525122
1040
229.29752955514229
1040
-0.5709145023684346
1040
312.04284801958772
1040
234.5174536178811
1040
-0.0192153241715212
1040
312.06044553905372
1040
234.97518781481719
1040
0.0
1071
        0
1071
        7
1070
     1
1070
     1
1071
       14
1040
315.00477544185452
1040
233.47518781481719
1040
-0.267949192431125
1040
314.48516019958379
1040
233.7751878148172
1040
0.0
1040
314.13875003806982
1040
234.37518781481731
1040
0.2679491924311041
1040
313.09951955352858
1040
234.97518781481719
1040
0.0
1040
312.06044553905372
1040
234.97518781481719
1040
0.0192153241715212
1040
312.04284801958772
1040
234.5174536178811
1040
0.5709145023684346
1040
320.88522182525122
1040
229.29752955514229
1040
-0.979248883116705
1040
321.3123870771326
1040
229.557183075002
1040
0.2507365363306366
1040
323.96670286412188
1040
234.5174536178811
1040
0.0192153241715104
1040
323.94910534465589
1040
234.97518781481699
1040
0.0
1040
322.91003133018057
1040
234.97518781481699
1040
0.2679491924310668
1040
321.87080084563951
1040
234.3751878148172
1040
0.0
1040
321.52439068412542
1040
233.775187814817
1040
-0.267949192430999
1040
321.0047754418548
1040
233.47518781481719
1040
0.0
1071
        0
1071
        7
1070
     1
1070
     1
1071
        9
1040
326.45348666359467
1040
232.444780835915
1040
0.0
1040
327.02879804140451
1040
234.97518781481691
1040
0.0
1040
323.94910534465589
1040
234.97518781481699
1040
-0.0192153241715092
1040
323.96670286412188
1040
234.5174536178811
1040
-0.2507365363306379
1040
321.3123870771326
1040
229.55718307500189
1040
-0.1427431609333959
1040
321.3515270460706
1040
229.42287727728441
1040
-0.2406337495410551
1040
321.2480485614908
1040
229.22031507567971
1040
0.0
1040
321.5957344105459
1040
228.73964839099861
1040
0.0
1040
323.84026845397528
1040
229.42439517376991
1040
0.0
1071
        0
1070
     0
1070
     1
1040
1.5707963267948959
1040
20.0
1070
     0
1070
     1
1040
2.3561944901923439
1040
-10.1983858635424
1040
39.828341551553748
1040
-1.767766952966368
1040
-1.767766952966368
1070
     0
1040
0.0730439750120502
1071
        3
1040
305.70214053721702
1040
232.50924039156379
1040
0.0
1040
316.53809694406391
1040
231.56428466944101
1040
0.0
1040
324.9741428225509
1040
232.36386212679179
1040
0.0
1002
}
  0
LINE
  5
EF12
  8
0
  6
CONTINUOUS
 62
     7
 10
296.40063638072911
 20
216.28644142812939
 30
0.0
 11
313.19391715743558
 21
216.28644142812939
 31
0.0
  0
LINE
  5
EF13
  8
0
  6
CONTINUOUS
 62
     3
 10
296.40063638072911
 20
217.28644142812939
 30
0.0
 11
313.19391715743558
 21
217.28644142812939
 31
0.0
  0
TEXT
  5
EF14
  8
0
  6
CONTINUOUS
 62
     7
 10
296.42258824620262
 20
217.949313330709
 30
0.0
 40
3.0
  1
DETAIL X
  0
LINE
  5
EF15
  8
0
  6
CONTINUOUS
 62
     3
 10
294.90942071286167
 20
227.07236531220181
 30
0.0
 11
308.46022476655821
 21
226.63096963654201
 31
0.0
  0
LINE
  5
EF16
  8
0
  6
CONTINUOUS
 62
     3
 10
308.46022476655821
 20
226.63096963654201
 30
0.0
 11
316.13054096305308
 21
227.07236531220181
 31
0.0
  0
LINE
  5
EF17
  8
0
  6
CONTINUOUS
 62
     2
 10
327.1734947799668
 20
221.02853908930771
 30
0.0
 11
331.9944936595881
 21
221.02853908930771
 31
0.0
  0
TEXT
  5
EF18
  8
0
  6
CONTINUOUS
 62
     3
 10
328.00656778509222
 20
221.5863631242967
 30
0.0
 40
3.0
  1
Y
  0
ARC
  5
EF19
  8
0
  6
CONTINUOUS
 62
     7
 10
322.91003133018057
 20
233.775187814817
 30
0.0
 40
1.1999999999999991
 50
90.0
 51
149.99999999998471
  0
CIRCLE
  5
EF1A
  8
0
  6
PHANTOM2
 62
     4
 10
318.0047754418548
 20
234.5174536178811
 30
0.0
 40
5.9619274222670748
  0
DIMENSION
  5
EF1B
  8
0
  6
CONTINUOUS
 62
     7
  2
*D4
 10
321.00477544185492
 20
241.63094854437099
 30
0.0
 11
318.00477544185492
 21
244.13124381996161
 31
0.0
  1
2
  3
KSM
 13
315.00477544185492
 23
236.46734898896719
 33
0.0
 14
321.00477544185492
 24
236.46734898896719
 34
0.0
1001
ACAD
1000
DSTYLE
1002
{
1070
    47
1040
0.1
1070
    71
1070
     0
1070
    48
1040
-0.02
1070
   146
1040
0.7
1070
   272
1070
     3
1070
   271
1070
     3
1070
    41
1040
2.5
1002
}
  0
LINE
  5
EF1C
  8
0
  6
CONTINUOUS
 62
     7
 10
301.9100313301808
 20
234.97518781481719
 30
0.0
 11
313.09951955352858
 21
234.97518781481719
 31
0.0
  0
DIMENSION
  5
EF1D
  8
0
  6
CONTINUOUS
 62
     7
  2
*D5
 10
315.00477544185492
 20
241.63094854437099
 30
0.0
 11
307.50477544185492
 21
244.13094854437099
 31
0.0
  1
5
  3
KSM
 13
300.00477544185492
 23
236.46734898896719
 33
0.0
 14
315.00477544185492
 24
236.46734898896719
 34
0.0
1001
ACAD
1000
DSTYLE
1002
{
1070
    47
1040
0.1
1070
    71
1070
     0
1070
    48
1040
-0.02
1070
   146
1040
0.7
1070
   272
1070
     3
1070
   271
1070
     3
1070
    41
1040
2.5
1002
}
  0
LINE
  5
EF1E
  8
0
  6
CONTINUOUS
 10
288.00477544185492
 20
233.47518781481719
 30
0.0
 11
300.00477544185429
 21
233.47518781481719
 31
0.0
  0
DIMENSION
  5
EF1F
  8
0
  6
CONTINUOUS
  2
*D6
 10
300.00477544185492
 20
241.63094854437099
 30
0.0
 11
294.00477544185492
 21
243.73094854437099
 31
0.0
  1
4
  3
ISO-25
 13
288.00477544185492
 23
235.78509718508391
 33
0.0
 14
300.00477544185492
 24
235.78509718508391
 34
0.0
1001
ACAD
1000
DSTYLE
1002
{
1070
   287
1070
     2
1070
    42
1040
0.6
1070
    43
1040
1.0
1070
    44
1040
1.0
1070
    47
1040
0.1
1070
    48
1040
0.1
1070
    73
1070
     0
1070
   140
1040
3.0
1070
   141
1040
-0.5
1070
   146
1040
0.7
1070
   147
1040
0.6
1070
   178
1070
     3
1070
   271
1070
     8
1070
   272
1070
     8
1070
   275
1070
     1
1070
   283
1070
     0
1070
   284
1070
     8
1070
   289
1070
     2
1002
}
  0
ARC
  5
EF20
  8
0
  6
CONTINUOUS
 62
     7
 10
288.00477544185452
 20
234.07518781481721
 30
0.0
 40
0.6000000000000001
 50
209.9999999999894
 51
270.0
  0
ARC
  5
EF21
  8
0
  6
CONTINUOUS
 62
     7
 10
286.09951955352852
 20
233.77518781481729
 30
0.0
 40
1.1999999999999991
 50
30.0000000000028
 51
90.0
  0
LINE
  5
EF22
  8
0
  6
CONTINUOUS
 62
     7
 10
287.48516019958379
 20
233.775187814817
 30
0.0
 11
287.1387500380697
 21
234.37518781481739
 31
0.0
  0
LINE
  5
EF23
  8
0
  6
CONTINUOUS
 62
     7
 10
283.24657462317742
 20
234.97518781481719
 30
0.0
 11
286.0995195535283
 21
234.9751878148173
 31
0.0
  0
LINE
  5
EF24
  8
0
  6
CONTINUOUS
 62
     3
 10
283.58582931958728
 20
232.85184940181631
 30
0.0
 11
286.78003361936231
 21
229.3031845636458
 31
0.0
  0
LINE
  5
EF25
  8
0
  6
CONTINUOUS
 62
     3
 10
283.58582931958728
 20
232.85184940181631
 30
0.0
 11
283.24657462317742
 21
234.97518781481719
 31
0.0
  0
LINE
  5
EF26
  8
0
  6
CENTER
 62
     2
 10
288.00477544185492
 20
235.78509718508391
 30
0.0
 11
288.00477544185492
 21
230.54697199171761
 31
0.0
  0
ARC
  5
EF27
  8
0
  6
CONTINUOUS
 62
     7
 10
301.9100313301808
 20
233.7751878148172
 30
0.0
 40
1.1999999999999991
 50
90.0
 51
149.99999999998471
  0
LINE
  5
EF28
  8
0
  6
CONTINUOUS
 62
     7
 10
300.52439068412542
 20
233.775187814817
 30
0.0
 11
300.87080084563968
 21
234.37518781481739
 31
0.0
  0
ARC
  5
EF29
  8
0
  6
CONTINUOUS
 62
     7
 10
300.00477544185452
 20
234.07518781481721
 30
0.0
 40
0.6000000000000001
 50
270.0
 51
329.99999999999721
  0
LINE
  5
EF2A
  8
0
  6
CENTER
 62
     2
 10
300.00477544185492
 20
235.78509718508391
 30
0.0
 11
300.00477544185492
 21
230.54697199171761
 31
0.0
  0
LINE
  5
EF2B
  8
0
  6
CONTINUOUS
 10
315.00477544185429
 20
233.47518781481719
 30
0.0
 11
321.00477544185429
 21
233.47518781481719
 31
0.0
  0
LINE
  5
EF2C
  8
0
  6
CENTER
 62
     2
 10
315.00477544185492
 20
235.78509718508391
 30
0.0
 11
315.00477544185492
 21
230.54697199171761
 31
0.0
  0
ARC
  5
EF2D
  8
0
  6
CONTINUOUS
 62
     7
 10
313.09951955352858
 20
233.77518781481729
 30
0.0
 40
1.1999999999999991
 50
30.000000000002121
 51
90.0
  0
LINE
  5
EF2E
  8
0
  6
CONTINUOUS
 62
     7
 10
314.48516019958379
 20
233.775187814817
 30
0.0
 11
314.13875003806982
 21
234.37518781481731
 31
0.0
  0
ARC
  5
EF2F
  8
0
  6
CONTINUOUS
 62
     7
 10
315.00477544185452
 20
234.07518781481721
 30
0.0
 40
0.6000000000000001
 50
209.9999999999894
 51
270.0
  0
ARC
  5
EF30
  8
0
  6
CONTINUOUS
 62
     7
 10
321.00477544185452
 20
234.07518781481721
 30
0.0
 40
0.6000000000000001
 50
270.0
 51
329.99999999999721
  0
LINE
  5
EF31
  8
0
  6
CONTINUOUS
 62
     7
 10
321.52439068412542
 20
233.775187814817
 30
0.0
 11
321.87080084563951
 21
234.3751878148172
 31
0.0
  0
POLYLINE
  5
EF32
  8
0
  6
CONTINUOUS
 62
     7
 66
     1
 10
0.0
 20
0.0
 30
0.0
 70
     1
 40
0.5
 41
0.5
  0
VERTEX
  5
2750D
  8
0
  6
CONTINUOUS
 62
     7
 10
320.8515270460706
 20
229.42287727728441
 30
0.0
 42
-1.0
  0
VERTEX
  5
2750E
  8
0
  6
CONTINUOUS
 62
     7
 10
321.3515270460706
 20
229.42287727728441
 30
0.0
 42
-1.0
  0
SEQEND
  5
2750F
  8
0
  6
CONTINUOUS
 62
     7
  0
LINE
  5
EF33
  8
0
  6
CENTER
 62
     2
 10
321.00477544185492
 20
235.78509718508391
 30
0.0
 11
321.00477544185492
 21
230.54697199171761
 31
0.0
  0
LINE
  5
EF34
  8
0
  6
CONTINUOUS
 62
     7
 10
322.91003133018057
 20
234.97518781481699
 30
0.0
 11
327.02879804140463
 21
234.97518781481699
 31
0.0
  0
LINE
  5
EF35
  8
0
  6
CONTINUOUS
 62
     3
 10
326.45348666359467
 20
232.444780835915
 30
0.0
 11
327.02879804140463
 21
234.97518781481719
 31
0.0
  0
LINE
  5
EF36
  8
0
  6
CONTINUOUS
 62
     3
 10
323.84026845397528
 20
229.42439517376991
 30
0.0
 11
326.45348666359467
 21
232.444780835915
 31
0.0
  0
ENDBLK
  5
EF0D
  8
0
  0
BLOCK
  8
0
  2
ZFGG
 70
     0
 10
0.0
 20
0.0
 30
0.0
  3
ZFGG
  1

  0
DIMENSION
  5
EF3B
  8
0
  6
CONTINUOUS
  2
*D2
 10
296.39011558445139
 20
190.44984959773331
 30
0.0
 11
304.12216639202251
 21
209.65138293028139
 31
0.0
 70
     2
  3
ISO-25
 13
311.16139687656261
 23
189.24984959773269
 33
0.0
 14
311.85421719959061
 24
190.44984959773291
 34
0.0
 15
297.0829359074794
 25
189.24984959773269
 35
0.0
 16
309.41736582169648
 26
207.0881130090753
 36
0.0
1001
ACAD
1000
DSTYLE
1002
{
1070
   287
1070
     2
1070
   271
1070
     0
1070
    42
1040
0.6
1070
    43
1040
1.0
1070
    44
1040
1.0
1070
    47
1040
0.1
1070
    48
1040
0.1
1070
    73
1070
     0
1070
   140
1040
3.0
1070
   141
1040
-0.5
1070
   146
1040
0.7
1070
   147
1040
0.6
1070
   178
1070
     3
1070
   271
1070
     8
1070
   272
1070
     8
1070
   275
1070
     1
1070
   283
1070
     0
1070
   284
1070
     8
1070
   289
1070
     2
1002
}
  0
CIRCLE
  5
EF3C
  8
0
  6
PHANTOM2
 62
     4
 10
304.12216639202143
 20
190.73438120386069
 30
0.0
 40
11.92385484453415
1001
ACAD
1000
ASC_BOUNDS
1002
{
1070
    19
1005
EF3D
1002
}
  0
INSERT
  5
EF3D
  8
0
  6
CONTINUOUS
 62
     2
  2
*X34
 10
0.0
 20
0.0
 30
0.0
1001
ACAD
1000
HATCH
1002
{
1070
    19
1000
ANSI31
1040
20.0
1040
1.5707963267948959
1000
ASC_BOUNDS
1070
     1
1070
     1
1070
    10
1005
EF41
1005
EF4C
1005
EF4B
1005
EF4A
1005
EF4D
1005
EF3C
1005
EF44
1005
EF47
1005
EF45
1005
EF46
1000
ASC_SEEDPOINT
1011
297.11545279934569
1021
0.0
1031
-1.8492665278881001E+209
1021
187.7586648973346
1031
0.0
1000
R14_HATCH_DATA
1000
EF3D
1011
1.0
1021
0.0
1031
-1.8492665278881001E+209
1021
0.0
1031
0.0
1011
0.0
1021
0.0
1031
-1.8492665278881001E+209
1021
1.0
1031
0.0
1011
0.0
1021
0.0
1031
-1.8492665278881001E+209
1021
0.0
1031
1.0
1040
0.0
1010
0.0
1020
0.0
1030
1.0
1000
ANSI31
1070
     0
1070
     1
1071
        1
1071
        7
1070
     1
1070
     1
1071
       12
1040
297.0829359074794
1040
189.24984959773269
1040
0.0
1040
296.39011558445139
1040
190.44984959773331
1040
0.2679491924311064
1040
294.31165461536892
1040
191.64984959773309
1040
0.0
1040
292.23350658641931
1040
191.64984959773309
1040
0.0192153241715224
1040
292.19831154748732
1040
190.73438120386069
1040
1.0
1040
316.04602123655559
1040
190.73438120386069
1040
0.019215324171508
1040
316.01082619762371
1040
191.64984959773241
1040
0.0
1040
313.93267816867302
1040
191.64984959773241
1040
0.2679491924310578
1040
311.85421719959061
1040
190.44984959773291
1040
0.0
1040
311.16139687656261
1040
189.24984959773269
1040
-0.2679491924312416
1040
310.12216639202052
1040
188.64984959773301
1040
0.0
1040
298.12216639202052
1040
188.64984959773301
1040
-0.2679491924310311
1071
       10
1005
EF46
1005
EF45
1005
EF47
1005
EF44
1005
EF3C
1005
EF4D
1005
EF4A
1005
EF4B
1005
EF4C
1005
EF41
1070
     0
1070
     1
1040
1.5707963267948959
1040
20.0
1070
     0
1070
     1
1040
2.3561944901923439
1040
-62.53517267881341
1040
-1.82497761517574
1040
-1.767766952966368
1040
-1.767766952966368
1070
     0
1040
0.0658359499010995
1071
        1
1040
297.11545279934569
1040
187.7586648973346
1040
0.0
1002
}
  0
LINE
  5
EF3E
  8
0
  6
CONTINUOUS
 62
     3
 10
295.80364718365621
 20
172.83889030593329
 30
0.0
 11
312.59692796036279
 21
172.83889030593329
 31
0.0
  0
TEXT
  5
EF3F
  8
0
  6
CONTINUOUS
 62
     7
 10
295.82559904912978
 20
173.50176220851259
 30
0.0
 40
3.0
  1
DETAIL Y
  0
LINE
  5
EF40
  8
0
  6
CONTINUOUS
 62
     7
 10
295.80364718365621
 20
171.83889030593329
 30
0.0
 11
312.59692796036279
 21
171.83889030593329
 31
0.0
  0
LINE
  5
EF41
  8
0
  6
CONTINUOUS
 10
298.12216639202052
 20
188.64984959773301
 30
0.0
 11
310.12216639202052
 21
188.64984959773301
 31
0.0
1001
ACAD
1000
ASC_BOUNDS
1002
{
1070
    19
1005
EF3D
1002
}
  0
DIMENSION
  5
EF42
  8
0
  6
CONTINUOUS
 62
     7
  2
*D3
 10
310.12216639202171
 20
197.44590706145141
 30
0.0
 11
304.12216639202171
 21
197.44590706145141
 31
0.0
 70
   128
  1
2
  3
KSM
 13
298.12216639202171
 23
194.63417194603281
 33
0.0
 14
310.12216639202171
 24
194.63417194603281
 34
0.0
1001
ACAD
1000
DSTYLE
1002
{
1070
    47
1040
0.1
1070
    71
1070
     0
1070
    48
1040
-0.02
1070
   146
1040
0.7
1070
   272
1070
     3
1070
   271
1070
     3
1070
    41
1040
2.5
1002
}
  0
LINE
  5
EF43
  8
0
  6
CENTER
 62
     2
 10
298.12216639202171
 20
193.26966833826631
 30
0.0
 11
298.12216639202171
 21
182.79341795153351
 31
0.0
  0
LINE
  5
EF44
  8
0
  6
CONTINUOUS
 62
     7
 10
292.23350658641931
 20
191.64984959773309
 30
0.0
 11
294.31165461536892
 21
191.64984959773309
 31
0.0
1001
ACAD
1000
ASC_BOUNDS
1002
{
1070
    19
1005
EF3D
1002
}
  0
LINE
  5
EF45
  8
0
  6
CONTINUOUS
 62
     7
 10
297.0829359074794
 20
189.24984959773269
 30
0.0
 11
296.39011558445139
 21
190.44984959773331
 31
0.0
1001
ACAD
1000
ASC_BOUNDS
1002
{
1070
    19
1005
EF3D
1002
}
  0
ARC
  5
EF46
  8
0
  6
CONTINUOUS
 62
     7
 10
298.12216639202069
 20
189.849849597733
 30
0.0
 40
1.2
 50
209.9999999999892
 51
270.0
1001
ACAD
1000
ASC_BOUNDS
1002
{
1070
    19
1005
EF3D
1002
}
  0
ARC
  5
EF47
  8
0
  6
CONTINUOUS
 62
     7
 10
294.31165461536892
 20
189.24984959773309
 30
0.0
 40
2.399999999999999
 50
30.000000000001929
 51
90.0
1001
ACAD
1000
ASC_BOUNDS
1002
{
1070
    19
1005
EF3D
1002
}
  0
LINE
  5
EF48
  8
0
  6
CENTER
 62
     2
 10
310.12216639202171
 20
193.26966833826631
 30
0.0
 11
310.12216639202171
 21
182.79341795153351
 31
0.0
  0
DIMENSION
  5
EF49
  8
0
  6
CONTINUOUS
  2
*D7
 10
323.41430971703772
 20
188.64984959773301
 30
0.0
 11
321.31430971703759
 21
180.8865364610148
 31
0.0
  1
0.5
  3
ISO-25
 13
316.0108261976236
 23
191.64984959773241
 33
0.0
 14
310.12216639202052
 24
188.64984959773301
 34
0.0
 50
90.0
1001
ACAD
1000
DSTYLE
1002
{
1070
   287
1070
     2
1070
    42
1040
0.6
1070
    43
1040
1.0
1070
    44
1040
1.0
1070
    47
1040
0.1
1070
    48
1040
0.1
1070
    73
1070
     0
1070
   140
1040
3.0
1070
   141
1040
-0.5
1070
   146
1040
0.7
1070
   147
1040
0.6
1070
   178
1070
     3
1070
   271
1070
     8
1070
   272
1070
     8
1070
   275
1070
     1
1070
   283
1070
     0
1070
   284
1070
     8
1070
   289
1070
     2
1002
}
  0
ARC
  5
EF4A
  8
0
  6
CONTINUOUS
 62
     7
 10
313.93267816867302
 20
189.24984959773241
 30
0.0
 40
2.399999999999999
 50
90.0
 51
149.99999999998491
1001
ACAD
1000
ASC_BOUNDS
1002
{
1070
    19
1005
EF3D
1002
}
  0
LINE
  5
EF4B
  8
0
  6
CONTINUOUS
 62
     7
 10
311.16139687656261
 20
189.24984959773269
 30
0.0
 11
311.85421719959061
 21
190.44984959773291
 31
0.0
1001
ACAD
1000
ASC_BOUNDS
1002
{
1070
    19
1005
EF3D
1002
}
  0
ARC
  5
EF4C
  8
0
  6
CONTINUOUS
 62
     7
 10
310.12216639202069
 20
189.849849597733
 30
0.0
 40
1.2
 50
270.0
 51
329.99999999999721
1001
ACAD
1000
ASC_BOUNDS
1002
{
1070
    19
1005
EF3D
1002
}
  0
LINE
  5
EF4D
  8
0
  6
CONTINUOUS
 62
     7
 10
313.93267816867302
 20
191.64984959773241
 30
0.0
 11
316.0108261976236
 21
191.64984959773241
 31
0.0
1001
ACAD
1000
ASC_BOUNDS
1002
{
1070
    19
1005
EF3D
1002
}
  0
ENDBLK
  5
EF3A
  8
0
  0
BLOCK
  8
0
  2
_OBLIQUE
 70
     0
 10
0.0
 20
0.0
 30
0.0
  3
_OBLIQUE
  1

  0
LINE
  5
1ABA5
  8
0
  6
BYBLOCK
 62
     0
 10
-0.5
 20
-0.5
 30
0.0
 11
0.5
 21
0.5
 31
0.0
  0
ENDBLK
  5
1ABA6
  8
0
  0
BLOCK
  8
0
  2
_CLOSEDBLANK
 70
     0
 10
0.0
 20
0.0
 30
0.0
  3
_CLOSEDBLANK
  1

  0
LINE
  5
1EAB1
  8
0
  6
BYBLOCK
 62
     0
 10
-1.0
 20
0.1666666666666666
 30
0.0
 11
0.0
 21
0.0
 31
0.0
  0
LINE
  5
1EAB2
  8
0
  6
BYBLOCK
 62
     0
 10
0.0
 20
0.0
 30
0.0
 11
-1.0
 21
-0.1666666666666666
 31
0.0
  0
LINE
  5
1EAB3
  8
0
  6
BYBLOCK
 62
     0
 10
-1.0
 20
0.1666666666666666
 30
0.0
 11
-1.0
 21
-0.1666666666666666
 31
0.0
  0
ENDBLK
  5
1EAB4
  8
0
  0
BLOCK
  8
0
  2
SZDGSG
 70
     0
 10
0.0
 20
0.0
 30
0.0
  3
SZDGSG
  1

  0
LINE
  5
231C6
  8
0
  6
BYBLOCK
 62
     4
 10
526.9762325776959
 20
202.6686871284642
 30
0.0
 11
526.97623257769601
 21
200.4186871284642
 31
0.0
  0
LINE
  5
231C7
  8
0
  6
BYBLOCK
 62
     4
 10
541.47623257769601
 20
202.6686871284642
 30
0.0
 11
541.47623257769601
 21
200.4186871284642
 31
0.0
  0
LINE
  5
231C8
  8
0
  6
BYBLOCK
 62
     4
 10
527.72623257769578
 20
203.4186871284642
 30
0.0
 11
540.72623257769601
 21
203.4186871284642
 31
0.0
  0
LINE
  5
231C9
  8
0
  6
BYBLOCK
 62
     4
 10
537.47623257769578
 20
202.1507379360331
 30
0.0
 11
537.47623257769601
 21
200.4186871284642
 31
0.0
  0
LINE
  5
231CA
  8
0
  6
BYBLOCK
 62
     4
 10
541.47623257769578
 20
202.1507379360331
 30
0.0
 11
537.47623257769578
 21
202.1507379360331
 31
0.0
  0
LINE
  5
231CB
  8
0
  6
BYBLOCK
 62
     4
 10
541.47623257769578
 20
201.28471253224859
 30
0.0
 11
537.47623257769578
 21
201.28471253224859
 31
0.0
  0
LINE
  5
231CC
  8
0
  6
BYBLOCK
 62
     4
 10
537.47623257769578
 20
201.9186871284642
 30
0.0
 11
526.9762325776959
 21
201.9186871284642
 31
0.0
  0
LINE
  5
231CD
  8
0
  6
BYBLOCK
 62
     4
 10
527.18473257769585
 20
202.87718712846419
 30
0.0
 11
541.26773257769605
 21
202.87718712846419
 31
0.0
  0
LINE
  5
231CE
  8
0
  6
BYBLOCK
 62
     4
 10
526.9762325776959
 20
202.6686871284642
 30
0.0
 11
527.72623257769578
 21
203.4186871284642
 31
0.0
  0
LINE
  5
231CF
  8
0
  6
BYBLOCK
 62
     4
 10
540.72623257769601
 20
203.4186871284642
 30
0.0
 11
541.47623257769601
 21
202.6686871284642
 31
0.0
  0
LINE
  5
231D0
  8
0
  6
BYBLOCK
 62
     4
 10
527.72623257769578
 20
203.4186871284642
 30
0.0
 11
527.72623257769578
 21
200.4186871284642
 31
0.0
  0
LINE
  5
231D1
  8
0
  6
BYBLOCK
 62
     4
 10
540.72623257769601
 20
203.4186871284642
 30
0.0
 11
540.72623257769601
 21
200.4186871284642
 31
0.0
  0
ENDBLK
  5
231D2
  8
0
  0
BLOCK
  8
0
  2
SRRQWWWW
 70
     0
 10
0.0
 20
0.0
 30
0.0
  3
SRRQWWWW
  1

  0
LINE
  5
241A3
  8
0
  6
CONTINUOUS
 62
     4
 10
150.1202159392507
 20
-105.68590324070171
 30
0.0
 11
151.08439735378039
 21
-104.53683657602311
 31
0.0
  0
LINE
  5
241A4
  8
0
  6
CONTINUOUS
 62
     4
 10
145.27743561367191
 20
-99.011513476971444
 30
0.0
 11
151.0227689370642
 21
-103.83242054962029
 31
0.0
  0
LINE
  5
241A5
  8
0
  6
CONTINUOUS
 62
     4
 10
144.57301958726919
 20
-99.073141893687762
 30
0.0
 11
151.08439735378039
 21
-104.53683657602311
 31
0.0
  0
LINE
  5
241A6
  8
0
  6
CONTINUOUS
 62
     4
 10
143.6615256340271
 20
-112.9941396586899
 30
0.0
 11
148.0967601408644
 21
-107.7084330011691
 31
0.0
  0
LINE
  5
241A7
  8
0
  6
CONTINUOUS
 62
     4
 10
142.70845075030411
 20
-113.0775229065068
 30
0.0
 11
148.01337689304719
 21
-106.75535811744641
 31
0.0
  0
LINE
  5
241A8
  8
0
  6
CONTINUOUS
 62
     4
 10
143.16591184079721
 20
-102.4613638152592
 30
0.0
 11
147.9919918324467
 21
-106.51092575628449
 31
0.0
  0
LINE
  5
241A9
  8
0
  6
CONTINUOUS
 62
     4
 10
148.0967601408644
 20
-107.7084330011691
 30
0.0
 11
141.96840459591249
 21
-102.5661321236767
 31
0.0
  0
LINE
  5
241AA
  8
0
  6
CONTINUOUS
 62
     4
 10
143.60883817273941
 20
-100.22220855836591
 30
0.0
 11
150.1202159392507
 21
-105.68590324070171
 31
0.0
  0
LINE
  5
241AB
  8
0
  6
CONTINUOUS
 62
     4
 10
147.99199183244659
 20
-106.51092575628449
 30
0.0
 11
149.27756705181989
 21
-104.97883687004639
 31
0.0
  0
LINE
  5
241AC
  8
0
  6
CONTINUOUS
 62
     4
 10
147.99199183244659
 20
-106.51092575628449
 30
0.0
 11
148.0967601408644
 21
-107.7084330011691
 31
0.0
  0
POINT
  5
241AD
  8
DEFPOINTS
  6
BYBLOCK
 62
     4
 10
150.1202159392507
 20
-105.68590324070171
 30
0.0
 50
80.000000000000625
  0
POINT
  5
241AE
  8
DEFPOINTS
  6
BYBLOCK
 62
     4
 10
150.1202159392507
 20
-105.68590324070171
 30
0.0
 50
80.000000000000625
  0
LINE
  5
241AF
  8
0
  6
HIDDEN2
 62
     4
 10
149.91920613715189
 20
-102.9064214112329
 30
0.0
 11
146.70526808871929
 21
-106.7366436268278
 31
0.0
  0
LINE
  5
241B0
  8
0
  6
HIDDEN2
 62
     4
 10
149.03465420625989
 20
-102.16419421226441
 30
0.0
 11
145.82071615782721
 21
-105.99441642785941
 31
0.0
  0
LINE
  5
241B1
  8
0
  6
CONTINUOUS
 62
     4
 10
151.0227689370642
 20
-103.83242054962029
 30
0.0
 11
151.08439735378039
 21
-104.53683657602311
 31
0.0
  0
POINT
  5
241B2
  8
DEFPOINTS
  6
BYBLOCK
 62
     4
 10
151.0227689370642
 20
-103.83242054962029
 30
0.0
 50
80.000000000000625
  0
LINE
  5
241B3
  8
0
  6
CONTINUOUS
 62
     4
 10
137.53317008907541
 20
-107.8518387811978
 30
0.0
 11
141.96840459591249
 21
-102.5661321236767
 31
0.0
  0
LINE
  5
241B4
  8
0
  6
CONTINUOUS
 62
     4
 10
137.61630276541129
 20
-108.8020496197873
 30
0.0
 11
142.9186154345023
 21
-102.4829994473407
 31
0.0
  0
LINE
  5
241B5
  8
0
  6
CENTER
 62
     4
 10
137.7772502393139
 20
-108.613402554141
 30
0.0
 11
142.92147947963539
 21
-102.4827488758596
 31
0.0
  0
LINE
  5
241B6
  8
0
  6
CONTINUOUS
 62
     4
 10
144.57301958726919
 20
-99.073141893687762
 30
0.0
 11
145.27743561367191
 21
-99.011513476971444
 31
0.0
  0
LINE
  5
241B7
  8
0
  6
HIDDEN2
 62
     4
 10
147.2655503444762
 20
-100.67973981432731
 30
0.0
 11
144.05161229604349
 21
-104.50996202992221
 31
0.0
  0
LINE
  5
241B8
  8
0
  6
HIDDEN2
 62
     4
 10
146.38099841358431
 20
-99.937512615358756
 30
0.0
 11
143.1670603651514
 21
-103.7677348309535
 31
0.0
  0
LINE
  5
241B9
  8
0
  6
CONTINUOUS
 62
     4
 10
143.60883817273941
 20
-100.22220855836591
 30
0.0
 11
144.57301958726919
 21
-99.073141893687762
 31
0.0
  0
LINE
  5
241BA
  8
0
  6
CONTINUOUS
 62
     4
 10
143.16591184079709
 20
-102.4613638152592
 30
0.0
 11
144.45148706017019
 21
-100.9292749290212
 31
0.0
  0
LINE
  5
241BB
  8
0
  6
CONTINUOUS
 62
     4
 10
141.96840459591249
 20
-102.5661321236767
 30
0.0
 11
143.16591184079709
 21
-102.4613638152592
 31
0.0
  0
LINE
  5
241BC
  8
0
  6
CONTINUOUS
 62
     4
 10
136.9678490768674
 20
-110.3146445293546
 30
0.0
 11
137.93203049139709
 21
-109.16557786467639
 31
0.0
  0
LINE
  5
241BD
  8
0
  6
CONTINUOUS
 62
     4
 10
136.9678490768674
 20
-110.3146445293546
 30
0.0
 11
137.0294774935837
 21
-111.01906055575751
 31
0.0
  0
LINE
  5
241BE
  8
0
  6
CONTINUOUS
 62
     4
 10
137.6256127141497
 20
-108.9084628208018
 30
0.0
 11
137.53317008907541
 21
-107.8518387811978
 31
0.0
  0
LINE
  5
241BF
  8
0
  6
HIDDEN2
 62
     4
 10
143.1670603651514
 20
-103.7677348309535
 30
0.0
 11
146.70526808871929
 21
-106.7366436268278
 31
0.0
  0
LINE
  5
241C0
  8
0
  6
HIDDEN2
 62
     4
 10
146.4682531131732
 20
-106.5377644482637
 30
0.0
 11
145.1826778938001
 21
-108.0698533345017
 31
0.0
  0
LINE
  5
241C1
  8
0
  6
HIDDEN2
 62
     4
 10
145.1826778938001
 20
-108.0698533345017
 30
0.0
 11
142.90836180859381
 21
-107.6688300460205
 31
0.0
  0
LINE
  5
241C2
  8
0
  6
HIDDEN2
 62
     4
 10
142.11850012132419
 20
-105.4987028957555
 30
0.0
 11
145.1826778938001
 21
-108.0698533345017
 31
0.0
  0
LINE
  5
241C3
  8
0
  6
HIDDEN2
 62
     4
 10
143.40407534069749
 20
-103.9666140095178
 30
0.0
 11
142.11850012132419
 21
-105.4987028957555
 31
0.0
  0
LINE
  5
241C4
  8
0
  6
HIDDEN2
 62
     4
 10
142.11850012132419
 20
-105.4987028957555
 30
0.0
 11
142.90836180859381
 21
-107.6688300460205
 31
0.0
  0
POLYLINE
  5
241C5
  8
0
  6
CONTINUOUS
 62
     4
 66
     1
 10
0.0
 20
0.0
 30
0.0
 70
     1
  0
VERTEX
  5
27524
  8
0
  6
CONTINUOUS
 62
     4
 10
128.09738006319341
 20
-120.88605784439611
 30
0.0
  0
VERTEX
  5
27525
  8
0
  6
CONTINUOUS
 62
     4
 10
127.60135111606969
 20
-121.1660573587891
 30
0.0
  0
VERTEX
  5
27526
  8
0
  6
CONTINUOUS
 62
     4
 10
127.1065489251536
 20
-121.755739647437
 30
0.0
  0
VERTEX
  5
27527
  8
0
  6
CONTINUOUS
 62
     4
 10
127.00691647194461
 20
-122.32078336796521
 30
0.0
  0
VERTEX
  5
27528
  8
0
  6
CONTINUOUS
 62
     4
 10
127.5562963008373
 20
-122.7817677797655
 30
0.0
  0
VERTEX
  5
27529
  8
0
  6
CONTINUOUS
 62
     4
 10
127.0103409494385
 20
-124.2817677797656
 30
0.0
  0
VERTEX
  5
2752A
  8
0
  6
CONTINUOUS
 62
     4
 10
128.15940761411699
 20
-125.24594919429541
 30
0.0
  0
VERTEX
  5
2752B
  8
0
  6
CONTINUOUS
 62
     4
 10
129.3084742787953
 20
-126.21013060882539
 30
0.0
  0
VERTEX
  5
2752C
  8
0
  6
CONTINUOUS
 62
     4
 10
130.69088175645581
 20
-125.4119972794682
 30
0.0
  0
VERTEX
  5
2752D
  8
0
  6
CONTINUOUS
 62
     4
 10
131.24026158534849
 20
-125.87298169126861
 30
0.0
  0
VERTEX
  5
2752E
  8
0
  6
CONTINUOUS
 62
     4
 10
131.7794200281792
 20
-125.6767440665248
 30
0.0
  0
VERTEX
  5
2752F
  8
0
  6
CONTINUOUS
 62
     4
 10
132.27422221909569
 20
-125.0870617778769
 30
0.0
  0
VERTEX
  5
27530
  8
0
  6
CONTINUOUS
 62
     4
 10
132.4638333889713
 20
-124.54994721960939
 30
0.0
  0
VERTEX
  5
27531
  8
0
  6
CONTINUOUS
 62
     4
 10
134.58503250093679
 20
-122.0220005573168
 30
0.0
  0
VERTEX
  5
27532
  8
0
  6
CONTINUOUS
 62
     4
 10
132.40180583804761
 20
-120.19005586971021
 30
0.0
  0
VERTEX
  5
27533
  8
0
  6
CONTINUOUS
 62
     4
 10
130.21857917515899
 20
-118.3581111821036
 30
0.0
  0
SEQEND
  5
27534
  8
0
  6
CONTINUOUS
 62
     4
  0
LINE
  5
241C6
  8
0
  6
CONTINUOUS
 62
     4
 10
127.1065489251536
 20
-121.755739647437
 30
0.0
 11
131.7794200281792
 21
-125.6767440665248
 31
0.0
  0
LINE
  5
241C7
  8
0
  6
CONTINUOUS
 62
     4
 10
127.5562963008373
 20
-122.7817677797655
 30
0.0
 11
130.69088175645581
 21
-125.4119972794682
 31
0.0
  0
LINE
  5
241C8
  8
0
  6
CONTINUOUS
 62
     4
 10
127.60135111606969
 20
-121.1660573587891
 30
0.0
 11
132.27422221909569
 21
-125.0870617778769
 31
0.0
  0
LINE
  5
241C9
  8
0
  6
CONTINUOUS
 62
     4
 10
128.09738006319341
 20
-120.88605784439611
 30
0.0
 11
132.4638333889713
 21
-124.54994721960939
 31
0.0
  0
LINE
  5
241CA
  8
0
  6
CONTINUOUS
 62
     4
 10
137.6256127141497
 20
-108.9084628208018
 30
0.0
 11
142.60490159442301
 21
-113.0865822837642
 31
0.0
  0
LINE
  5
241CB
  8
0
  6
CONTINUOUS
 62
     4
 10
140.62988637624269
 20
-114.0401623212845
 30
0.0
 11
141.33430240264551
 21
-113.9785339045681
 31
0.0
  0
LINE
  5
241CC
  8
0
  6
CONTINUOUS
 62
     4
 10
136.9678490768674
 20
-110.3146445293546
 30
0.0
 11
141.33430240264551
 21
-113.9785339045681
 31
0.0
  0
LINE
  5
241CD
  8
0
  6
CONTINUOUS
 62
     4
 10
137.53317008907541
 20
-107.8518387811978
 30
0.0
 11
143.6615256340271
 21
-112.9941396586899
 31
0.0
  0
POLYLINE
  5
241CE
  8
0
  6
CONTINUOUS
 62
     4
 66
     1
 10
0.0
 20
0.0
 30
0.0
 70
     1
  0
VERTEX
  5
27535
  8
0
  6
CONTINUOUS
 62
     4
 10
130.23223003062799
 20
-118.1084841520268
 30
0.0
  0
VERTEX
  5
27536
  8
0
  6
CONTINUOUS
 62
     4
 10
130.256881397315
 20
-118.3902505625878
 30
0.0
  0
VERTEX
  5
27537
  8
0
  6
CONTINUOUS
 62
     4
 10
134.5467302787807
 20
-121.9898611768326
 30
0.0
  0
VERTEX
  5
27538
  8
0
  6
CONTINUOUS
 62
     4
 10
134.8284966893421
 20
-121.96520981014601
 30
0.0
  0
VERTEX
  5
27539
  8
0
  6
CONTINUOUS
 62
     4
 10
140.99925774233259
 20
-114.61118315620421
 30
0.0
  0
VERTEX
  5
2753A
  8
0
  6
CONTINUOUS
 62
     4
 10
140.974606375646
 20
-114.329416745643
 30
0.0
  0
VERTEX
  5
2753B
  8
0
  6
CONTINUOUS
 62
     4
 10
136.68475749417971
 20
-110.7298061313985
 30
0.0
  0
VERTEX
  5
2753C
  8
0
  6
CONTINUOUS
 62
     4
 10
136.40299108361901
 20
-110.754457498085
 30
0.0
  0
SEQEND
  5
2753D
  8
0
  6
CONTINUOUS
 62
     4
  0
LINE
  5
241CF
  8
0
  6
CONTINUOUS
 62
     4
 10
130.23223003062799
 20
-118.1084841520268
 30
0.0
 11
134.8284966893421
 21
-121.96520981014601
 31
0.0
  0
LINE
  5
241D0
  8
0
  6
CONTINUOUS
 62
     4
 10
136.40299108361901
 20
-110.754457498085
 30
0.0
 11
140.9992577423329
 21
-114.61118315620411
 31
0.0
  0
LINE
  5
241D1
  8
0
  6
CONTINUOUS
 62
     4
 10
137.0294774935837
 20
-111.01906055575751
 30
0.0
 11
140.62988637624269
 21
-114.0401623212845
 31
0.0
  0
LINE
  5
241D2
  8
0
  6
CONTINUOUS
 62
     4
 10
141.33430240264551
 20
-113.9785339045681
 30
0.0
 11
142.29848381717539
 21
-112.82946723988969
 31
0.0
  0
LINE
  5
241D3
  8
0
  6
CONTINUOUS
 62
     4
 10
142.60490159442301
 20
-113.0865822837642
 30
0.0
 11
143.6615256340271
 21
-112.9941396586899
 31
0.0
  0
ENDBLK
  5
241D4
  8
0
  0
BLOCK
  8
0
  2
*D15
 70
     1
 10
0.0
 20
0.0
 30
0.0
  3
*D15
  1

  0
LINE
  5
2753E
  8
0
  6
CONTINUOUS
 62
     2
 10
138.7698899664141
 20
107.6143301725793
 30
0.0
 11
138.7698899664141
 21
80.247095759332524
 31
0.0
  0
LINE
  5
2753F
  8
0
  6
CONTINUOUS
 62
     2
 10
228.7698899664141
 20
98.787762781544615
 30
0.0
 11
228.7698899664141
 21
80.247095759332524
 31
0.0
  0
LINE
  5
27540
  8
0
  6
CONTINUOUS
 62
     2
 10
141.2698899664141
 20
81.247095759332524
 30
0.0
 11
226.2698899664141
 21
81.247095759332524
 31
0.0
  0
SOLID
  5
27541
  8
0
  6
CONTINUOUS
 62
     2
 10
141.2698899664141
 20
81.663762425999195
 30
0.0
 11
141.2698899664141
 21
80.830429092665867
 31
0.0
 12
138.7698899664141
 22
81.247095759332524
 32
0.0
 13
138.7698899664141
 23
81.247095759332524
 33
0.0
  0
SOLID
  5
27542
  8
0
  6
CONTINUOUS
 62
     2
 10
226.2698899664141
 20
81.663762425999195
 30
0.0
 11
226.2698899664141
 21
80.830429092665867
 31
0.0
 12
228.7698899664141
 22
81.247095759332524
 32
0.0
 13
228.7698899664141
 23
81.247095759332524
 33
0.0
  0
TEXT
  8
0
  40
3
  5
275A8
  62
3
  72
0
  71
0
 10
183.770
 20
79.4471
 30
0.000000
  1
90
  0
POINT
  5
27544
  8
DEFPOINTS
  6
CONTINUOUS
 62
     0
 10
138.7698899664141
 20
108.2143301725793
 30
0.0
  0
POINT
  5
27545
  8
DEFPOINTS
  6
CONTINUOUS
 62
     0
 10
228.7698899664141
 20
99.387762781544609
 30
0.0
  0
POINT
  5
27546
  8
DEFPOINTS
  6
CONTINUOUS
 62
     0
 10
228.7698899664141
 20
81.247095759332524
 30
0.0
  0
ENDBLK
  5
26CE7
  8
0
  0
BLOCK
  8
0
  2
*D16
 70
     1
 10
0.0
 20
0.0
 30
0.0
  3
*D16
  1

  0
LINE
  5
27547
  8
0
  6
CONTINUOUS
 62
     2
 10
90.369889966414007
 20
114.3629715380409
 30
0.0
 11
90.369889966414007
 21
72.247095759332524
 31
0.0
  0
LINE
  5
27548
  8
0
  6
CONTINUOUS
 62
     2
 10
228.7698899664141
 20
98.787762781544615
 30
0.0
 11
228.7698899664141
 21
72.247095759332524
 31
0.0
  0
LINE
  5
27549
  8
0
  6
CONTINUOUS
 62
     2
 10
92.869889966414007
 20
73.247095759332524
 30
0.0
 11
226.2698899664141
 21
73.247095759332524
 31
0.0
  0
SOLID
  5
2754A
  8
0
  6
CONTINUOUS
 62
     2
 10
92.869889966414007
 20
73.663762425999195
 30
0.0
 11
92.869889966414007
 21
72.830429092665852
 31
0.0
 12
90.369889966414007
 22
73.247095759332524
 32
0.0
 13
90.369889966414007
 23
73.247095759332524
 33
0.0
  0
SOLID
  5
2754B
  8
0
  6
CONTINUOUS
 62
     2
 10
226.2698899664141
 20
73.663762425999195
 30
0.0
 11
226.2698899664141
 21
72.830429092665852
 31
0.0
 12
228.7698899664141
 22
73.247095759332524
 32
0.0
 13
228.7698899664141
 23
73.247095759332524
 33
0.0
  0
TEXT
  8
0
  40
3
  5
275A9
  62
3
  72
0
  71
0
 10
159.570
 20
71.4471
 30
0.000000
  1
138.4
  0
POINT
  5
2754D
  8
DEFPOINTS
  6
CONTINUOUS
 62
     0
 10
90.369889966414007
 20
114.9629715380409
 30
0.0
  0
POINT
  5
2754E
  8
DEFPOINTS
  6
CONTINUOUS
 62
     0
 10
228.7698899664141
 20
99.387762781544609
 30
0.0
  0
POINT
  5
2754F
  8
DEFPOINTS
  6
CONTINUOUS
 62
     0
 10
228.7698899664141
 20
73.247095759332524
 30
0.0
  0
ENDBLK
  5
26CF3
  8
0
  0
BLOCK
  8
0
  2
*D17
 70
     1
 10
0.0
 20
0.0
 30
0.0
  3
*D17
  1

  0
LINE
  5
27550
  8
0
  6
CONTINUOUS
 62
     2
 10
90.369889966414007
 20
114.962971538041
 30
0.0
 11
90.369889966414007
 21
80.247095759332524
 31
0.0
  0
LINE
  5
27551
  8
0
  6
CONTINUOUS
 62
     2
 10
138.7698899664141
 20
107.6143301725793
 30
0.0
 11
138.7698899664141
 21
80.247095759332524
 31
0.0
  0
LINE
  5
27552
  8
0
  6
CONTINUOUS
 62
     2
 10
92.869889966414007
 20
81.247095759332524
 30
0.0
 11
136.2698899664141
 21
81.247095759332524
 31
0.0
  0
SOLID
  5
27553
  8
0
  6
CONTINUOUS
 62
     2
 10
92.869889966414007
 20
81.663762425999195
 30
0.0
 11
92.869889966414007
 21
80.830429092665867
 31
0.0
 12
90.369889966414007
 22
81.247095759332524
 32
0.0
 13
90.369889966414007
 23
81.247095759332524
 33
0.0
  0
SOLID
  5
27554
  8
0
  6
CONTINUOUS
 62
     2
 10
136.2698899664141
 20
81.663762425999195
 30
0.0
 11
136.2698899664141
 21
80.830429092665867
 31
0.0
 12
138.7698899664141
 22
81.247095759332524
 32
0.0
 13
138.7698899664141
 23
81.247095759332524
 33
0.0
  0
TEXT
  8
0
  40
3
  5
275AA
  62
3
  72
0
  71
0
 10
114.570
 20
79.4471
 30
0.000000
  1
48.4
  0
POINT
  5
27556
  8
DEFPOINTS
  6
CONTINUOUS
 62
     0
 10
90.369889966414007
 20
115.562971538041
 30
0.0
  0
POINT
  5
27557
  8
DEFPOINTS
  6
CONTINUOUS
 62
     0
 10
138.7698899664141
 20
108.2143301725793
 30
0.0
  0
POINT
  5
27558
  8
DEFPOINTS
  6
CONTINUOUS
 62
     0
 10
138.7698899664141
 20
81.247095759332524
 30
0.0
  0
ENDBLK
  5
26CFF
  8
0
  0
BLOCK
  8
0
  2
*D18
 70
     1
 10
0.0
 20
0.0
 30
0.0
  3
*D18
  1

  0
LINE
  5
27559
  8
0
  6
CONTINUOUS
 62
     2
 10
216.89306996325709
 20
103.08933017257969
 30
0.0
 11
250.01969704643241
 21
103.08933017257969
 31
0.0
  0
LINE
  5
2755A
  8
0
  6
CONTINUOUS
 62
     2
 10
216.89306996325359
 20
145.08933017257959
 30
0.0
 11
250.01969704643241
 21
145.08933017257959
 31
0.0
  0
LINE
  5
2755B
  8
0
  6
CONTINUOUS
 62
     2
 10
249.01969704643241
 20
105.58933017257969
 30
0.0
 11
249.01969704643241
 21
142.58933017257959
 31
0.0
  0
SOLID
  5
2755C
  8
0
  6
CONTINUOUS
 62
     2
 10
248.6030303797657
 20
105.58933017257969
 30
0.0
 11
249.43636371309901
 21
105.58933017257969
 31
0.0
 12
249.01969704643241
 22
103.08933017257969
 32
0.0
 13
249.01969704643241
 23
103.08933017257969
 33
0.0
  0
SOLID
  5
2755D
  8
0
  6
CONTINUOUS
 62
     2
 10
248.6030303797657
 20
142.58933017257959
 30
0.0
 11
249.43636371309901
 21
142.58933017257959
 31
0.0
 12
249.01969704643241
 22
145.08933017257959
 32
0.0
 13
249.01969704643241
 23
145.08933017257959
 33
0.0
  0
TEXT
  8
0
  40
3
  5
275AB
  62
3
  72
0
  71
0
 10
246.919
 20
120.189
 30
0.000000
  1
%%c42
  0
POINT
  5
2755F
  8
DEFPOINTS
  6
CONTINUOUS
 62
     0
 10
216.29306996325701
 20
103.08933017257969
 30
0.0
  0
POINT
  5
27560
  8
DEFPOINTS
  6
CONTINUOUS
 62
     0
 10
216.2930699632536
 20
145.08933017257959
 30
0.0
  0
POINT
  5
27561
  8
DEFPOINTS
  6
CONTINUOUS
 62
     0
 10
249.01969704643241
 20
145.08933017257959
 30
0.0
  0
ENDBLK
  5
26D17
  8
0
  0
BLOCK
  8
0
  2
*D19
 70
     1
 10
0.0
 20
0.0
 30
0.0
  3
*D19
  1

  0
LINE
  5
27562
  8
0
  6
CONTINUOUS
 62
     2
 10
180.76988996641401
 20
102.4893301725796
 30
0.0
 11
180.76988996641401
 21
88.247095759332524
 31
0.0
  0
LINE
  5
27563
  8
0
  6
CONTINUOUS
 62
     2
 10
228.76988996641401
 20
105.52842980375659
 30
0.0
 11
228.76988996641401
 21
88.247095759332524
 31
0.0
  0
LINE
  5
27564
  8
0
  6
CONTINUOUS
 62
     2
 10
183.26988996641401
 20
89.247095759332524
 30
0.0
 11
226.26988996641401
 21
89.247095759332524
 31
0.0
  0
SOLID
  5
27565
  8
0
  6
CONTINUOUS
 62
     2
 10
183.26988996641401
 20
89.663762425999195
 30
0.0
 11
183.26988996641401
 21
88.830429092665852
 31
0.0
 12
180.76988996641401
 22
89.247095759332524
 32
0.0
 13
180.76988996641401
 23
89.247095759332524
 33
0.0
  0
SOLID
  5
27566
  8
0
  6
CONTINUOUS
 62
     2
 10
226.26988996641401
 20
89.663762425999195
 30
0.0
 11
226.26988996641401
 21
88.830429092665852
 31
0.0
 12
228.76988996641401
 22
89.247095759332524
 32
0.0
 13
228.76988996641401
 23
89.247095759332524
 33
0.0
  0
TEXT
  8
0
  40
3
  5
275AC
  62
3
  72
0
  71
0
 10
204.770
 20
87.4471
 30
0.000000
  1
48
  0
POINT
  5
27568
  8
DEFPOINTS
  6
CONTINUOUS
 62
     0
 10
180.76988996641401
 20
103.08933017257959
 30
0.0
  0
POINT
  5
27569
  8
DEFPOINTS
  6
CONTINUOUS
 62
     0
 10
228.76988996641401
 20
106.1284298037566
 30
0.0
  0
POINT
  5
2756A
  8
DEFPOINTS
  6
CONTINUOUS
 62
     0
 10
228.76988996641401
 20
89.247095759332524
 30
0.0
  0
ENDBLK
  5
26DF9
  8
0
  0
BLOCK
  8
0
  2
A$C04C71908
 70
     0
 10
0.0
 20
0.0
 30
0.0
  3
A$C04C71908
  1

  0
TEXT
  5
26EF3
  8
0
 62
     7
 10
30.913515601694371
 20
6.7064138677283154
 30
0.0
 40
4.0
  1
TECHNIKS - 153750
  0
TEXT
  5
26EF4
  8
0
 62
     7
 10
26.60723250209935
 20
-0.1984252607790608
 30
0.0
 40
4.0
  1
BT30AD/B-HC3/4-3.54
  0
TEXT
  5
26EF5
  8
0
 62
     7
 10
-0.5999997599531071
 20
2.444335291661957
 30
0.0
 40
4.0
  1
MARKING :
  0
ENDBLK
  5
26EF9
  8
0
  0
BLOCK
  8
0
  2
*D21
 70
     1
 10
0.0
 20
0.0
 30
0.0
  3
*D21
  1

  0
LINE
  5
2757D
  8
0
  6
CONTINUOUS
 62
     2
 10
227.86988996641469
 20
114.5643301725794
 30
0.0
 11
242.01969704643241
 21
114.5643301725794
 31
0.0
  0
LINE
  5
2757E
  8
0
  6
CONTINUOUS
 62
     2
 10
227.86988996641469
 20
133.61433017257929
 30
0.0
 11
242.01969704643241
 21
133.61433017257929
 31
0.0
  0
LINE
  5
2757F
  8
0
  6
CONTINUOUS
 62
     2
 10
241.01969704643241
 20
117.0643301725794
 30
0.0
 11
241.01969704643241
 21
131.1143301725794
 31
0.0
  0
SOLID
  5
27580
  8
0
  6
CONTINUOUS
 62
     2
 10
240.60303037976581
 20
117.0643301725794
 30
0.0
 11
241.4363637130991
 21
117.0643301725794
 31
0.0
 12
241.01969704643241
 22
114.5643301725794
 32
0.0
 13
241.01969704643241
 23
114.5643301725794
 33
0.0
  0
SOLID
  5
27581
  8
0
  6
CONTINUOUS
 62
     2
 10
240.60303037976581
 20
131.1143301725794
 30
0.0
 11
241.4363637130991
 21
131.1143301725794
 31
0.0
 12
241.01969704643241
 22
133.61433017257929
 32
0.0
 13
241.01969704643241
 23
133.61433017257929
 33
0.0
  0
TEXT
  8
0
  40
3
  5
275AD
  62
3
  72
0
  71
0
 10
238.920
 20
120.189
 30
0.000000
  1
%%c19.05
  0
POINT
  5
27583
  8
DEFPOINTS
  6
CONTINUOUS
 62
     0
 10
227.26988996641469
 20
114.5643301725794
 30
0.0
  0
POINT
  5
27584
  8
DEFPOINTS
  6
CONTINUOUS
 62
     0
 10
227.26988996641469
 20
133.61433017257929
 30
0.0
  0
POINT
  5
27585
  8
DEFPOINTS
  6
CONTINUOUS
 62
     0
 10
241.01969704643241
 20
133.61433017257929
 30
0.0
  0
ENDBLK
  5
27121
  8
0
  0
BLOCK
  8
0
  2
*D22
 70
     1
 10
0.0
 20
0.0
 30
0.0
  3
*D22
  1

  0
LINE
  5
27586
  8
0
  6
CONTINUOUS
 62
     2
 10
186.76988996641461
 20
134.43933017257939
 30
0.0
 11
186.76988996641461
 21
159.09393740813709
 31
0.0
  0
LINE
  5
27587
  8
0
  6
CONTINUOUS
 62
     2
 10
228.76988996641381
 20
142.6502305414021
 30
0.0
 11
228.76988996641381
 21
159.09393740813709
 31
0.0
  0
LINE
  5
27588
  8
0
  6
CONTINUOUS
 62
     2
 10
189.26988996641461
 20
158.09393740813709
 30
0.0
 11
226.26988996641381
 21
158.09393740813709
 31
0.0
  0
SOLID
  5
27589
  8
0
  6
CONTINUOUS
 62
     2
 10
189.26988996641461
 20
158.51060407480381
 30
0.0
 11
189.26988996641461
 21
157.67727074147049
 31
0.0
 12
186.76988996641461
 22
158.09393740813709
 32
0.0
 13
186.76988996641461
 23
158.09393740813709
 33
0.0
  0
SOLID
  5
2758A
  8
0
  6
CONTINUOUS
 62
     2
 10
226.26988996641381
 20
158.51060407480381
 30
0.0
 11
226.26988996641381
 21
157.67727074147049
 31
0.0
 12
228.76988996641381
 22
158.09393740813709
 32
0.0
 13
228.76988996641381
 23
158.09393740813709
 33
0.0
  0
TEXT
  8
0
  40
3
  5
275AE
  62
3
  72
0
  71
0
 10
207.770
 20
156.294
 30
0.000000
  1
42
  0
POINT
  5
2758C
  8
DEFPOINTS
  6
CONTINUOUS
 62
     0
 10
186.76988996641461
 20
133.83933017257939
 30
0.0
  0
POINT
  5
2758D
  8
DEFPOINTS
  6
CONTINUOUS
 62
     0
 10
228.76988996641381
 20
142.0502305414021
 30
0.0
  0
POINT
  5
2758E
  8
DEFPOINTS
  6
CONTINUOUS
 62
     0
 10
228.76988996641381
 20
158.09393740813709
 30
0.0
  0
ENDBLK
  5
27364
  8
0
  0
BLOCK
  8
0
  2
*D23
 70
     1
 10
0.0
 20
0.0
 30
0.0
  3
*D23
  1

  0
LINE
  5
2758F
  8
0
  6
CONTINUOUS
 62
     2
 10
179.92651429343979
 20
146.58933017257939
 30
0.0
 11
258.01969704643238
 21
146.58933017257931
 31
0.0
  0
LINE
  5
27590
  8
0
  6
CONTINUOUS
 62
     2
 10
179.92651429343979
 20
101.5893301725793
 30
0.0
 11
258.01969704643238
 21
101.5893301725793
 31
0.0
  0
LINE
  5
27591
  8
0
  6
CONTINUOUS
 62
     2
 10
257.0196970464325
 20
144.08933017257931
 30
0.0
 11
257.01969704643238
 21
104.0893301725793
 31
0.0
  0
SOLID
  5
27592
  8
0
  6
CONTINUOUS
 62
     2
 10
256.60303037976581
 20
144.08933017257931
 30
0.0
 11
257.43636371309913
 21
144.08933017257931
 31
0.0
 12
257.0196970464325
 22
146.58933017257931
 32
0.0
 13
257.0196970464325
 23
146.58933017257931
 33
0.0
  0
SOLID
  5
27593
  8
0
  6
CONTINUOUS
 62
     2
 10
256.6030303797657
 20
104.0893301725793
 30
0.0
 11
257.43636371309913
 21
104.0893301725793
 31
0.0
 12
257.01969704643238
 22
101.5893301725793
 32
0.0
 13
257.01969704643238
 23
101.5893301725793
 33
0.0
  0
TEXT
  8
0
  40
3
  5
275AF
  62
3
  72
0
  71
0
 10
254.920
 20
120.189
 30
0.000000
  1
%%c45
  0
POINT
  5
27595
  8
DEFPOINTS
  6
CONTINUOUS
 62
     0
 10
179.3265142934398
 20
146.58933017257939
 30
0.0
  0
POINT
  5
27596
  8
DEFPOINTS
  6
CONTINUOUS
 62
     0
 10
179.3265142934398
 20
101.5893301725793
 30
0.0
  0
POINT
  5
27597
  8
DEFPOINTS
  6
CONTINUOUS
 62
     0
 10
257.01969704643238
 20
101.5893301725793
 30
0.0
  0
ENDBLK
  5
2737D
  8
0
  0
BLOCK
  8
0
  2
*X25
 70
     1
 10
0.0
 20
0.0
 30
0.0
  3
*X25
  1

  0
LINE
  5
2747F
  8
0
  6
CONTINUOUS
 62
     0
 10
296.9863583648297
 20
146.99461131214369
 30
0.0
 11
297.22609957894878
 21
147.09865977717971
 31
0.0
  0
LINE
  5
27480
  8
0
  6
CONTINUOUS
 62
     0
 10
296.0131104100642
 20
146.64035096079891
 30
0.0
 11
297.06910472774467
 21
147.0986559220259
 31
0.0
  0
LINE
  5
27481
  8
0
  6
CONTINUOUS
 62
     0
 10
295.0398624552987
 20
146.28609060945399
 30
0.0
 11
296.91210987654091
 21
147.09865206687221
 31
0.0
  0
LINE
  5
27482
  8
0
  6
CONTINUOUS
 62
     0
 10
294.06661450053321
 20
145.9318302581091
 30
0.0
 11
296.75511502533709
 21
147.09864821171851
 31
0.0
  0
LINE
  5
27483
  8
0
  6
CONTINUOUS
 62
     0
 10
293.09336654576771
 20
145.5775699067643
 30
0.0
 11
296.5981201741331
 21
147.09864435656471
 31
0.0
  0
LINE
  5
27484
  8
0
  6
CONTINUOUS
 62
     0
 10
292.12011859100232
 20
145.22330955541941
 30
0.0
 11
296.44112532292922
 21
147.09864050141101
 31
0.0
  0
LINE
  5
27485
  8
0
  6
CONTINUOUS
 62
     0
 10
291.30134492973377
 20
144.93609154881671
 30
0.0
 11
296.2841304717254
 21
147.09863664625729
 31
0.0
  0
LINE
  5
27486
  8
0
  6
CONTINUOUS
 62
     0
 10
291.27992819882309
 20
144.994929037905
 30
0.0
 11
296.12713562052141
 21
147.0986327911036
 31
0.0
  0
LINE
  5
27487
  8
0
  6
CONTINUOUS
 62
     0
 10
291.25851146791229
 20
145.05376652699329
 30
0.0
 11
295.97014076931748
 21
147.09862893594979
 31
0.0
  0
LINE
  5
27488
  8
0
  6
CONTINUOUS
 62
     0
 10
291.2370947370016
 20
145.11260401608149
 30
0.0
 11
295.81314591811361
 21
147.0986250807961
 31
0.0
  0
LINE
  5
27489
  8
0
  6
CONTINUOUS
 62
     0
 10
291.2156780060908
 20
145.1714415051697
 30
0.0
 11
295.65615106690962
 21
147.09862122564229
 31
0.0
  0
LINE
  5
2748A
  8
0
  6
CONTINUOUS
 62
     0
 10
291.19426127518011
 20
145.23027899425799
 30
0.0
 11
295.4991562157058
 21
147.09861737048871
 31
0.0
  0
LINE
  5
2748B
  8
0
  6
CONTINUOUS
 62
     0
 10
291.17284454426931
 20
145.28911648334619
 30
0.0
 11
295.34216136450198
 21
147.09861351533499
 31
0.0
  0
LINE
  5
2748C
  8
0
  6
CONTINUOUS
 62
     0
 10
291.15142781335862
 20
145.3479539724344
 30
0.0
 11
295.18516651329787
 21
147.0986096601811
 31
0.0
  0
LINE
  5
2748D
  8
0
  6
CONTINUOUS
 62
     0
 10
291.13001108244799
 20
145.40679146152269
 30
0.0
 11
295.028171662094
 21
147.09860580502749
 31
0.0
  0
LINE
  5
2748E
  8
0
  6
CONTINUOUS
 62
     0
 10
291.10859435153719
 20
145.46562895061089
 30
0.0
 11
294.87117681089012
 21
147.0986019498738
 31
0.0
  0
LINE
  5
2748F
  8
0
  6
CONTINUOUS
 62
     0
 10
291.08717762062628
 20
145.52446643969921
 30
0.0
 11
294.71418195968607
 21
147.09859809471999
 31
0.0
  0
LINE
  5
27490
  8
0
  6
CONTINUOUS
 62
     0
 10
291.0657608897157
 20
145.58330392878739
 30
0.0
 11
294.55718710848231
 21
147.0985942395663
 31
0.0
  0
LINE
  5
27491
  8
0
  6
CONTINUOUS
 62
     0
 10
291.04434415880502
 20
145.64214141787559
 30
0.0
 11
294.40019225727832
 21
147.0985903844126
 31
0.0
  0
LINE
  5
27492
  8
0
  6
CONTINUOUS
 62
     0
 10
291.0229274278941
 20
145.70097890696391
 30
0.0
 11
294.24319740607439
 21
147.0985865292588
 31
0.0
  0
LINE
  5
27493
  8
0
  6
CONTINUOUS
 62
     0
 10
291.00151069698347
 20
145.75981639605209
 30
0.0
 11
294.08620255487062
 21
147.0985826741051
 31
0.0
  0
LINE
  5
27494
  8
0
  6
CONTINUOUS
 62
     0
 10
290.98009396607279
 20
145.81865388514029
 30
0.0
 11
293.92920770366658
 21
147.09857881895141
 31
0.0
  0
LINE
  5
27495
  8
0
  6
CONTINUOUS
 62
     0
 10
290.9586772351621
 20
145.87749137422861
 30
0.0
 11
293.77221285246259
 21
147.0985749637976
 31
0.0
  0
LINE
  5
27496
  8
0
  6
CONTINUOUS
 62
     0
 10
290.9372605042513
 20
145.93632886331679
 30
0.0
 11
293.61521800125888
 21
147.09857110864399
 31
0.0
  0
LINE
  5
27497
  8
0
  6
CONTINUOUS
 62
     0
 10
290.9158437733405
 20
145.99516635240499
 30
0.0
 11
293.45822315005501
 21
147.09856725349019
 31
0.0
  0
LINE
  5
27498
  8
0
  6
CONTINUOUS
 62
     0
 10
290.8944270424297
 20
146.05400384149331
 30
0.0
 11
293.30122829885079
 21
147.09856339833641
 31
0.0
  0
LINE
  5
27499
  8
0
  6
CONTINUOUS
 62
     0
 10
290.8730103115189
 20
146.11284133058149
 30
0.0
 11
293.14423344764708
 21
147.0985595431828
 31
0.0
  0
LINE
  5
2749A
  8
0
  6
CONTINUOUS
 62
     0
 10
290.85159358060832
 20
146.17167881966981
 30
0.0
 11
292.98723859644309
 21
147.09855568802899
 31
0.0
  0
LINE
  5
2749B
  8
0
  6
CONTINUOUS
 62
     0
 10
290.83017684969752
 20
146.2305163087579
 30
0.0
 11
292.83024374523922
 21
147.0985518328753
 31
0.0
  0
LINE
  5
2749C
  8
0
  6
CONTINUOUS
 62
     0
 10
290.80876011878672
 20
146.28935379784619
 30
0.0
 11
292.67324889403551
 21
147.09854797772161
 31
0.0
  0
LINE
  5
2749D
  8
0
  6
CONTINUOUS
 62
     0
 10
290.78734338787598
 20
146.34819128693451
 30
0.0
 11
292.51625404283141
 21
147.09854412256789
 31
0.0
  0
LINE
  5
2749E
  8
0
  6
CONTINUOUS
 62
     0
 10
290.76592665696512
 20
146.40702877602271
 30
0.0
 11
292.35925919162742
 21
147.09854026741411
 31
0.0
  0
LINE
  5
2749F
  8
0
  6
CONTINUOUS
 62
     0
 10
290.74450992605438
 20
146.46586626511089
 30
0.0
 11
292.20226434042382
 21
147.0985364122605
 31
0.0
  0
LINE
  5
274A0
  8
0
  6
CONTINUOUS
 62
     0
 10
290.72309319514358
 20
146.52470375419909
 30
0.0
 11
292.04526948921972
 21
147.09853255710669
 31
0.0
  0
LINE
  5
274A1
  8
0
  6
CONTINUOUS
 62
     0
 10
290.701676464233
 20
146.58354124328741
 30
0.0
 11
291.88827463801579
 21
147.098528701953
 31
0.0
  0
LINE
  5
274A2
  8
0
  6
CONTINUOUS
 62
     0
 10
290.68025973332232
 20
146.64237873237559
 30
0.0
 11
291.73127978681191
 21
147.09852484679919
 31
0.0
  0
LINE
  5
274A3
  8
0
  6
CONTINUOUS
 62
     0
 10
290.65884300241152
 20
146.7012162214638
 30
0.0
 11
291.57428493560798
 21
147.0985209916455
 31
0.0
  0
LINE
  5
274A4
  8
0
  6
CONTINUOUS
 62
     0
 10
290.63742627150071
 20
146.76005371055211
 30
0.0
 11
291.41729008440421
 21
147.09851713649181
 31
0.0
  0
LINE
  5
274A5
  8
0
  6
CONTINUOUS
 62
     0
 10
290.61600954059008
 20
146.8188911996404
 30
0.0
 11
291.26029523320022
 21
147.09851328133809
 31
0.0
  0
LINE
  5
274A6
  8
0
  6
CONTINUOUS
 62
     0
 10
290.59459280967928
 20
146.8777286887285
 30
0.0
 11
291.10330038199629
 21
147.09850942618431
 31
0.0
  0
LINE
  5
274A7
  8
0
  6
CONTINUOUS
 62
     0
 10
290.5731760787686
 20
146.93656617781679
 30
0.0
 11
290.9463055307923
 21
147.0985055710305
 31
0.0
  0
LINE
  5
274A8
  8
0
  6
CONTINUOUS
 62
     0
 10
290.5517593478578
 20
146.9954036669051
 30
0.0
 11
290.78931067958843
 21
147.09850171587689
 31
0.0
  0
LINE
  5
274A9
  8
0
  6
CONTINUOUS
 62
     0
 10
290.53034261694711
 20
147.05424115599331
 30
0.0
 11
290.63231582838432
 21
147.0984978607232
 31
0.0
  0
ENDBLK
  5
274AB
  8
0
  0
BLOCK
  8
0
  2
*X26
 70
     1
 10
0.0
 20
0.0
 30
0.0
  3
*X26
  1

  0
LINE
  5
274B0
  8
0
  6
CONTINUOUS
 62
     0
 10
727.28127937195518
 20
62.861125542253831
 30
0.0
 11
727.37182273774874
 21
62.796634529899727
 31
0.0
  0
LINE
  5
274B1
  8
0
  6
CONTINUOUS
 62
     0
 10
727.31446109775072
 20
62.914224502303341
 30
0.0
 11
727.52538607324971
 21
62.763989694026911
 31
0.0
  0
LINE
  5
274B2
  8
0
  6
CONTINUOUS
 62
     0
 10
727.34764282354649
 20
62.967323462352731
 30
0.0
 11
727.6789494087509
 21
62.731344858153989
 31
0.0
  0
LINE
  5
274B3
  8
0
  6
CONTINUOUS
 62
     0
 10
727.38082454934215
 20
63.0204224224019
 30
0.0
 11
727.8325127442522
 21
62.698700022280953
 31
0.0
  0
LINE
  5
274B4
  8
0
  6
CONTINUOUS
 62
     0
 10
727.41400627513804
 20
63.073521382451418
 30
0.0
 11
727.98607607975316
 21
62.666055186408236
 31
0.0
  0
LINE
  5
274B5
  8
0
  6
CONTINUOUS
 62
     0
 10
727.44718800093358
 20
63.126620342500807
 30
0.0
 11
728.13963941525435
 21
62.633410350535421
 31
0.0
  0
LINE
  5
274B6
  8
0
  6
CONTINUOUS
 62
     0
 10
727.48036972672924
 20
63.179719302550332
 30
0.0
 11
728.29320275075565
 21
62.600765514662378
 31
0.0
  0
LINE
  5
274B7
  8
0
  6
CONTINUOUS
 62
     0
 10
727.51355145252501
 20
63.232818262599721
 30
0.0
 11
728.44676608625673
 21
62.568120678789683
 31
0.0
  0
LINE
  5
274B8
  8
0
  6
CONTINUOUS
 62
     0
 10
727.54673317832066
 20
63.285917222649232
 30
0.0
 11
728.60032942175792
 21
62.535475842916867
 31
0.0
  0
LINE
  5
274B9
  8
0
  6
CONTINUOUS
 62
     0
 10
727.57991490411655
 20
63.339016182698522
 30
0.0
 11
728.753892757259
 21
62.50283100704393
 31
0.0
  0
LINE
  5
274BA
  8
0
  6
CONTINUOUS
 62
     0
 10
727.61309662991209
 20
63.392115142747912
 30
0.0
 11
728.90745609276019
 21
62.470186171171008
 31
0.0
  0
LINE
  5
274BB
  8
0
  6
CONTINUOUS
 62
     0
 10
727.64627835570786
 20
63.445214102797422
 30
0.0
 11
729.06101942826126
 21
62.437541335298192
 31
0.0
  0
LINE
  5
274BC
  8
0
  6
CONTINUOUS
 62
     0
 10
727.67946008150352
 20
63.498313062846933
 30
0.0
 11
729.21458276376234
 21
62.404896499425377
 31
0.0
  0
LINE
  5
274BD
  8
0
  6
CONTINUOUS
 62
     0
 10
727.71264180729918
 20
63.551412022896329
 30
0.0
 11
729.36814609926353
 21
62.372251663552561
 31
0.0
  0
LINE
  5
274BE
  8
0
  6
CONTINUOUS
 62
     0
 10
727.74582353309495
 20
63.604510982945719
 30
0.0
 11
729.52170943476472
 21
62.339606827679752
 31
0.0
  0
LINE
  5
274BF
  8
0
  6
CONTINUOUS
 62
     0
 10
727.77900525889061
 20
63.657609942995236
 30
0.0
 11
729.67527277026568
 21
62.306961991806808
 31
0.0
  0
LINE
  5
274C0
  8
0
  6
CONTINUOUS
 62
     0
 10
727.81218698468626
 20
63.710708903044512
 30
0.0
 11
729.82883610576675
 21
62.274317155934
 31
0.0
  0
LINE
  5
274C1
  8
0
  6
CONTINUOUS
 62
     0
 10
727.84536871048203
 20
63.763807863093909
 30
0.0
 11
729.98239944126806
 21
62.24167232006107
 31
0.0
  0
LINE
  5
274C2
  8
0
  6
CONTINUOUS
 62
     0
 10
727.87855043627781
 20
63.81690682314332
 30
0.0
 11
730.13596277676925
 21
62.209027484188141
 31
0.0
  0
LINE
  5
274C3
  8
0
  6
CONTINUOUS
 62
     0
 10
727.91173216207346
 20
63.870005783192823
 30
0.0
 11
730.28952611227032
 21
62.176382648315439
 31
0.0
  0
LINE
  5
274C4
  8
0
  6
CONTINUOUS
 62
     0
 10
727.94491388786923
 20
63.92310474324222
 30
0.0
 11
730.4430894477714
 21
62.143737812442509
 31
0.0
  0
LINE
  5
274C5
  8
0
  6
CONTINUOUS
 62
     0
 10
727.978095613665
 20
63.976203703291503
 30
0.0
 11
730.59665278327248
 21
62.11109297656958
 31
0.0
  0
LINE
  5
274C6
  8
0
  6
CONTINUOUS
 62
     0
 10
728.01127733946066
 20
64.029302663341014
 30
0.0
 11
730.75021611877378
 21
62.078448140696651
 31
0.0
  0
LINE
  5
274C7
  8
0
  6
CONTINUOUS
 62
     0
 10
728.04445906525643
 20
64.08240162339041
 30
0.0
 11
730.90377945427485
 21
62.045803304823949
 31
0.0
  0
LINE
  5
274C8
  8
0
  6
CONTINUOUS
 62
     0
 10
728.07764079105198
 20
64.135500583439807
 30
0.0
 11
731.05734278977604
 21
62.013158468951019
 31
0.0
  0
LINE
  5
274C9
  8
0
  6
CONTINUOUS
 62
     0
 10
728.11082251684775
 20
64.188599543489303
 30
0.0
 11
731.21090612527723
 21
61.980513633078203
 31
0.0
  0
LINE
  5
274CA
  8
0
  6
CONTINUOUS
 62
     0
 10
728.14400424264363
 20
64.241698503538714
 30
0.0
 11
731.36446946077842
 21
61.947868797205381
 31
0.0
  0
LINE
  5
274CB
  8
0
  6
CONTINUOUS
 62
     0
 10
728.17718596843929
 20
64.294797463588111
 30
0.0
 11
731.51803279627927
 21
61.915223961332458
 31
0.0
  0
LINE
  5
274CC
  8
0
  6
CONTINUOUS
 62
     0
 10
728.21036769423495
 20
64.347896423637394
 30
0.0
 11
731.67159613178057
 21
61.882579125459529
 31
0.0
  0
LINE
  5
274CD
  8
0
  6
CONTINUOUS
 62
     0
 10
728.2435494200306
 20
64.400995383686904
 30
0.0
 11
731.82515946728165
 21
61.849934289586713
 31
0.0
  0
LINE
  5
274CE
  8
0
  6
CONTINUOUS
 62
     0
 10
728.27673114582637
 20
64.454094343736415
 30
0.0
 11
731.97872280278295
 21
61.81728945371389
 31
0.0
  0
LINE
  5
274CF
  8
0
  6
CONTINUOUS
 62
     0
 10
728.30991287162203
 20
64.507193303785698
 30
0.0
 11
732.13228613828403
 21
61.784644617840968
 31
0.0
  0
LINE
  5
274D0
  8
0
  6
CONTINUOUS
 62
     0
 10
728.3430945974178
 20
64.560292263835095
 30
0.0
 11
732.28584947378522
 21
61.751999781968152
 31
0.0
  0
LINE
  5
274D1
  8
0
  6
CONTINUOUS
 62
     0
 10
728.37627632321346
 20
64.613391223884605
 30
0.0
 11
732.4394128092863
 21
61.71935494609545
 31
0.0
  0
LINE
  5
274D2
  8
0
  6
CONTINUOUS
 62
     0
 10
728.40945804900912
 20
64.666490183934002
 30
0.0
 11
732.59297614478737
 21
61.686710110222521
 31
0.0
  0
LINE
  5
274D3
  8
0
  6
CONTINUOUS
 62
     0
 10
728.44263977480489
 20
64.719589143983399
 30
0.0
 11
732.74653948028845
 21
61.654065274349591
 31
0.0
  0
LINE
  5
274D4
  8
0
  6
CONTINUOUS
 62
     0
 10
728.47582150060055
 20
64.772688104032909
 30
0.0
 11
732.90010281578964
 21
61.621420438476768
 31
0.0
  0
LINE
  5
274D5
  8
0
  6
CONTINUOUS
 62
     0
 10
729.21698701151149
 20
64.321513883687643
 30
0.0
 11
733.05366615129083
 21
61.58877560260396
 31
0.0
  0
LINE
  5
274D6
  8
0
  6
CONTINUOUS
 62
     0
 10
730.09531229474635
 20
63.772645343124282
 30
0.0
 11
733.2072294867919
 21
61.556130766731137
 31
0.0
  0
LINE
  5
274D7
  8
0
  6
CONTINUOUS
 62
     0
 10
730.97363757798166
 20
63.223776802561019
 30
0.0
 11
733.36079282229321
 21
61.523485930858101
 31
0.0
  0
LINE
  5
274D8
  8
0
  6
CONTINUOUS
 62
     0
 10
731.85196286121675
 20
62.674908261997651
 30
0.0
 11
733.51435615779428
 21
61.490841094985278
 31
0.0
  0
LINE
  5
274D9
  8
0
  6
CONTINUOUS
 62
     0
 10
732.73028814445195
 20
62.126039721434381
 30
0.0
 11
733.66791949329547
 21
61.458196259112469
 31
0.0
  0
LINE
  5
274DA
  8
0
  6
CONTINUOUS
 62
     0
 10
733.60861342768703
 20
61.577171180871119
 30
0.0
 11
733.82148282879655
 21
61.42555142323954
 31
0.0
  0
ENDBLK
  5
274DC
  8
0
  0
BLOCK
  8
0
  2
*U27
 70
     1
 10
0.0
 20
0.0
 30
0.0
  3
*U27
  1

  0
TEXT
  5
274DE
  8
0
  6
CONTINUOUS
 62
     3
 10
301.21193017155002
 20
208.15138293028139
 30
0.0
 40
3.0
  1
60∑
  0
ENDBLK
  5
274E0
  8
0
  0
BLOCK
  8
0
  2
*U28
 70
     1
 10
0.0
 20
0.0
 30
0.0
  3
*U28
  1

  0
TEXT
  5
274E2
  8
0
  6
CONTINUOUS
 62
     3
 10
303.02016836052559
 20
198.44590706145149
 30
0.0
 40
3.0
  1
2
  0
ENDBLK
  5
274E4
  8
0
  0
BLOCK
  8
0
  2
*U29
 70
     1
 10
0.0
 20
0.0
 30
0.0
  3
*U29
  1

  0
TEXT
  5
274E6
  8
0
  6
CONTINUOUS
 62
     3
 10
316.90277741035891
 20
242.63094854437099
 30
0.0
 40
3.0
  1
2
  0
ENDBLK
  5
274E8
  8
0
  0
BLOCK
  8
0
  2
*U30
 70
     1
 10
0.0
 20
0.0
 30
0.0
  3
*U30
  1

  0
TEXT
  5
274EA
  8
0
  6
CONTINUOUS
 62
     3
 10
306.39264340749901
 20
242.63094854437099
 30
0.0
 40
3.0
  1
5
  0
ENDBLK
  5
274EC
  8
0
  0
BLOCK
  8
0
  2
*U31
 70
     1
 10
0.0
 20
0.0
 30
0.0
  3
*U31
  1

  0
TEXT
  5
274EE
  8
0
  6
CONTINUOUS
 62
     3
 10
292.80477544185487
 20
242.23094854437099
 30
0.0
 40
3.0
  1
4
  0
ENDBLK
  5
274F0
  8
0
  0
BLOCK
  8
0
  2
*U32
 70
     1
 10
0.0
 20
0.0
 30
0.0
  3
*U32
  1

  0
TEXT
  5
274F2
  8
0
  6
CONTINUOUS
 62
     3
 10
322.81430971703759
 20
178.2755855290211
 30
0.0
 40
3.0
  1
0.5
 50
90.0
  0
ENDBLK
  5
274F4
  8
0
  0
BLOCK
  8
0
  2
*X33
 70
     1
 10
0.0
 20
0.0
 30
0.0
  3
*X33
  1

  0
LINE
  5
274F9
  8
0
  6
CONTINUOUS
 62
     0
 10
326.65017246630242
 20
233.30986911161949
 30
0.0
 11
324.98485376310498
 21
234.97518781481699
 31
0.0
  0
LINE
  5
274FA
  8
0
  6
CONTINUOUS
 62
     0
 10
323.69293825637379
 20
232.7315694156153
 30
0.0
 11
321.94122023889582
 21
234.48328743309349
 31
0.0
  0
LINE
  5
274FB
  8
0
  6
CONTINUOUS
 62
     0
 10
325.30600196735952
 20
231.1185057046298
 30
0.0
 11
323.69293825637391
 21
232.7315694156153
 31
0.0
  0
LINE
  5
274FC
  8
0
  6
CONTINUOUS
 62
     0
 10
322.39987711612378
 20
230.4890966499328
 30
0.0
 11
319.41378595123928
 21
233.47518781481719
 31
0.0
  0
LINE
  5
274FD
  8
0
  6
CONTINUOUS
 62
     0
 10
323.55239961026831
 20
229.33657415578821
 30
0.0
 11
322.39987711612378
 21
230.48909664993269
 31
0.0
  0
LINE
  5
274FE
  8
0
  6
CONTINUOUS
 62
     0
 10
320.32703965058261
 20
229.02640020954121
 30
0.0
 11
315.87825204530662
 21
233.47518781481719
 31
0.0
  0
LINE
  5
274FF
  8
0
  6
CONTINUOUS
 62
     0
 10
320.84332981314083
 20
228.51011004698299
 30
0.0
 11
320.32703965058261
 21
229.02640020954109
 31
0.0
  0
LINE
  5
27500
  8
0
  6
CONTINUOUS
 62
     0
 10
317.20903760558639
 20
228.6088683486046
 30
0.0
 11
312.0961901725783
 21
233.7217157816128
 31
0.0
  0
LINE
  5
27501
  8
0
  6
CONTINUOUS
 62
     0
 10
312.09619017257819
 20
233.7217157816128
 30
0.0
 11
310.8427181393738
 21
234.9751878148173
 31
0.0
  0
LINE
  5
27502
  8
0
  6
CONTINUOUS
 62
     0
 10
318.13426001601329
 20
227.68364593817779
 30
0.0
 11
317.20903760558639
 21
228.6088683486046
 31
0.0
  0
LINE
  5
27503
  8
0
  6
CONTINUOUS
 62
     0
 10
315.26009725128898
 20
227.0222747969693
 30
0.0
 11
307.30718423344098
 21
234.97518781481719
 31
0.0
  0
LINE
  5
27504
  8
0
  6
CONTINUOUS
 62
     0
 10
311.91694806042278
 20
226.8298900819027
 30
0.0
 11
303.77165032750833
 21
234.97518781481719
 31
0.0
  0
LINE
  5
27505
  8
0
  6
CONTINUOUS
 62
     0
 10
308.57379886955681
 20
226.637505366836
 30
0.0
 11
300.8581054653165
 21
234.35319877107631
 31
0.0
  0
LINE
  5
27506
  8
0
  6
CONTINUOUS
 62
     0
 10
304.92980287153478
 20
226.74596745892529
 30
0.0
 11
298.20058251564291
 21
233.47518781481719
 31
0.0
  0
LINE
  5
27507
  8
0
  6
CONTINUOUS
 62
     0
 10
301.2752270277644
 20
226.86500939676301
 30
0.0
 11
294.66504860971008
 21
233.4751878148173
 31
0.0
  0
LINE
  5
27508
  8
0
  6
CONTINUOUS
 62
     0
 10
297.62065118399391
 20
226.98405133460071
 30
0.0
 11
291.12951470377737
 21
233.47518781481719
 31
0.0
  0
LINE
  5
27509
  8
0
  6
CONTINUOUS
 62
     0
 10
293.6516543512061
 20
227.41751426145569
 30
0.0
 11
286.09398079784461
 21
234.9751878148173
 31
0.0
  0
LINE
  5
2750A
  8
0
  6
CONTINUOUS
 62
     0
 10
288.77899297421942
 20
228.7546417325097
 30
0.0
 11
283.37742642255807
 21
234.15620828417099
 31
0.0
  0
ENDBLK
  5
2750C
  8
0
  0
BLOCK
  8
0
  2
*X34
 70
     1
 10
0.0
 20
0.0
 30
0.0
  3
*X34
  1

  0
LINE
  5
27514
  8
0
  6
CONTINUOUS
 62
     0
 10
315.91162682180851
 20
188.9491817393731
 30
0.0
 11
313.29674453623358
 21
191.56406402494801
 31
0.0
  0
LINE
  5
27515
  8
0
  6
CONTINUOUS
 62
     0
 10
315.14293151259483
 20
186.18234314265399
 30
0.0
 11
311.49595441056658
 21
189.82932024468221
 31
0.0
  0
LINE
  5
27516
  8
0
  6
CONTINUOUS
 62
     0
 10
313.89166918631798
 20
183.8980715629981
 30
0.0
 11
309.13989115158319
 21
188.64984959773301
 31
0.0
  0
LINE
  5
27517
  8
0
  6
CONTINUOUS
 62
     0
 10
312.24705402537711
 20
182.0071528180062
 30
0.0
 11
305.60435724565042
 21
188.64984959773301
 31
0.0
  0
LINE
  5
27518
  8
0
  6
CONTINUOUS
 62
     0
 10
310.22688525232928
 20
180.4917876851213
 30
0.0
 11
302.0688233397176
 21
188.64984959773301
 31
0.0
  0
LINE
  5
27519
  8
0
  6
CONTINUOUS
 62
     0
 10
307.7933817569749
 20
179.38975727454289
 30
0.0
 11
298.53328943378489
 21
188.64984959773301
 31
0.0
  0
LINE
  5
2751A
  8
0
  6
CONTINUOUS
 62
     0
 10
304.81682679156302
 20
178.83077833402211
 30
0.0
 11
292.21856352218282
 21
191.4290416034024
 31
0.0
  0
LINE
  5
2751B
  8
0
  6
CONTINUOUS
 62
     0
 10
300.84129243536552
 20
179.27077878428699
 30
0.0
 11
292.65856397244772
 21
187.4535072472047
 31
0.0
  0
ENDBLK
  5
2751D
  8
0
  0
BLOCK
  8
0
  2
*U35
 70
     1
 10
0.0
 20
0.0
 30
0.0
  3
*U35
  1

  0
TEXT
  5
27599
  8
0
  6
CONTINUOUS
 10
-0.4500003972179459
 20
19.861581534219312
 30
0.0
 40
3.0
  1
Techniks Inc.
  0
TEXT
  5
2759A
  8
0
  6
CONTINUOUS
 10
-0.0000003972179456
 20
14.86158153421931
 30
0.0
 40
3.0
  1
     9930 East 56th Street
  0
TEXT
  5
2759B
  8
0
  6
CONTINUOUS
 10
-0.0000003972179456
 20
9.8534909830382116
 30
0.0
 40
3.0
  1
     Indianapolis, IN 46236
  0
TEXT
  5
2759C
  8
0
  6
CONTINUOUS
 10
-0.0000003972179456
 20
4.850000277738963
 30
0.0
 40
3.0
  1
     800.597.3921
  0
TEXT
  5
2759D
  8
0
  6
CONTINUOUS
 10
-0.0000003972179456
 20
-0.149999722261037
 30
0.0
 40
3.0
  1
     www.techniksusa.com
  0
ENDBLK
  5
2759F
  8
0
  0
BLOCK
  8
0
  2
*U36
 70
     1
 10
0.0
 20
0.0
 30
0.0
  3
*U36
  1

  0
TEXT
  5
275A1
  8
0
  6
CONTINUOUS
 10
134.19170142874671
 20
47.551041022853639
 30
0.0
 40
3.0
  1
Techniks Inc.
  0
TEXT
  5
275A2
  8
0
  6
CONTINUOUS
 10
134.6417014287467
 20
42.551041022853639
 30
0.0
 40
3.0
  1
     9930 East 56th Street
  0
TEXT
  5
275A3
  8
0
  6
CONTINUOUS
 10
134.6417014287467
 20
37.54295047167254
 30
0.0
 40
3.0
  1
     Indianapolis, IN 46236
  0
TEXT
  5
275A4
  8
0
  6
CONTINUOUS
 10
134.6417014287467
 20
32.539459766373291
 30
0.0
 40
3.0
  1
     800.597.3921
  0
TEXT
  5
275A5
  8
0
  6
CONTINUOUS
 10
134.6417014287467
 20
27.539459766373291
 30
0.0
 40
3.0
  1
     www.techniksusa.com
  0
ENDBLK
  5
275A7
  8
0
  0
ENDSEC
  0
SECTION
  2
ENTITIES
  0
LINE
  5
26B8B
  8
0
  6
CONTINUOUS
 62
     7
 10
141.76988996641401
 20
147.08933017257931
 30
0.0
 11
148.08133216687361
 21
147.08933017257931
 31
0.0
  0
LINE
  5
26B8C
  8
0
  6
CONTINUOUS
 62
     7
 10
141.76988996641401
 20
101.0893301725793
 30
0.0
 11
148.08133216687361
 21
101.0893301725793
 31
0.0
  0
LINE
  5
26B8D
  8
0
  6
CONTINUOUS
 10
142.36988996641469
 20
116.0393301725793
 30
0.0
 11
149.71988996641471
 21
116.0393301725793
 31
0.0
  0
DIMENSION
  5
26B8E
  8
0
  6
CONTINUOUS
  2
*D15
 10
228.7698899664141
 20
81.247095759332524
 30
0.0
 11
183.7698899664141
 21
83.347095759332504
 31
0.0
 70
     0
 13
138.7698899664141
 23
108.2143301725793
 33
0.0
 14
228.7698899664141
 24
99.387762781544609
 34
0.0
1001
ACAD
1000
DSTYLE
1002
{
1070
   287
1070
     2
1070
    42
1040
0.6
1070
    43
1040
1.0
1070
    44
1040
1.0
1070
    47
1040
0.1
1070
    48
1040
0.1
1070
    73
1070
     0
1070
   140
1040
3.0
1070
   141
1040
-0.5
1070
   146
1040
0.7
1070
   147
1040
0.6
1070
   178
1070
     3
1070
   179
1070
     8
1070
   271
1070
     8
1070
   272
1070
     8
1070
   275
1070
     1
1070
   283
1070
     0
1070
   284
1070
     8
1070
   289
1070
     2
1002
}
  0
DIMENSION
  5
26B8F
  8
0
  6
CONTINUOUS
  2
*D16
 10
228.7698899664141
 20
73.247095759332524
 30
0.0
 11
159.569889966414
 21
75.347095759332518
 31
0.0
 70
     0
 13
90.369889966414007
 23
114.9629715380409
 33
0.0
 14
228.7698899664141
 24
99.387762781544609
 34
0.0
1001
ACAD
1000
DSTYLE
1002
{
1070
   287
1070
     2
1070
    42
1040
0.6
1070
    43
1040
1.0
1070
    44
1040
1.0
1070
    47
1040
0.1
1070
    48
1040
0.1
1070
    73
1070
     0
1070
   140
1040
3.0
1070
   141
1040
-0.5
1070
   146
1040
0.7
1070
   147
1040
0.6
1070
   178
1070
     3
1070
   271
1070
     8
1070
   272
1070
     8
1070
   275
1070
     1
1070
   283
1070
     0
1070
   284
1070
     8
1070
   289
1070
     2
1002
}
  0
LINE
  5
26B90
  8
0
  6
CENTER
 62
     2
 10
89.106987639678437
 20
124.0893301725793
 30
0.0
 11
230.76988996641401
 21
124.0893301725793
 31
0.0
  0
LINE
  5
26B92
  8
0
  6
HIDDEN
 62
     3
 10
124.36988996641431
 20
129.08933017257931
 30
0.0
 11
130.36988996641429
 21
129.08933017257931
 31
0.0
  0
DIMENSION
  5
26B93
  8
0
  6
CONTINUOUS
  2
*D17
 10
138.7698899664141
 20
81.247095759332524
 30
0.0
 11
114.569889966414
 21
83.347095759332504
 31
0.0
 70
     0
 13
90.369889966414007
 23
115.562971538041
 33
0.0
 14
138.7698899664141
 24
108.2143301725793
 34
0.0
1001
ACAD
1000
DSTYLE
1002
{
1070
   287
1070
     2
1070
    42
1040
0.6
1070
    43
1040
1.0
1070
    44
1040
1.0
1070
    47
1040
0.1
1070
    48
1040
0.1
1070
    73
1070
     0
1070
   140
1040
3.0
1070
   141
1040
-0.5
1070
   146
1040
0.7
1070
   147
1040
0.6
1070
   178
1070
     3
1070
   179
1070
     8
1070
   271
1070
     8
1070
   272
1070
     8
1070
   275
1070
     1
1070
   283
1070
     0
1070
   284
1070
     8
1070
   289
1070
     2
1002
}
  0
LINE
  5
26B95
  8
0
  6
HIDDEN
 62
     3
 10
97.512665039578451
 20
130.08933017257931
 30
0.0
 11
115.36988996641431
 21
130.08933017257931
 31
0.0
1001
ACAD
1000
ASC_BOUNDS
1002
{
1070
    19
1005
0
1002
}
  0
LINE
  5
26B96
  8
0
  6
CONTINUOUS
 62
     7
 10
138.76988996641401
 20
108.2143301725793
 30
0.0
 11
90.797736524485344
 21
115.2102687599869
 31
0.0
1001
ACAD
1000
ASC_BOUNDS
1002
{
1070
    19
1002
}
  0
LINE
  5
26B97
  8
0
  6
HIDDEN
 62
     3
 10
97.912435244438939
 20
129.38933017257941
 30
0.0
 11
124.36988996641431
 21
129.38933017257941
 31
0.0
  0
LINE
  5
26B99
  8
0
  6
CONTINUOUS
 62
     7
 10
138.76988996641401
 20
139.96433017257931
 30
0.0
 11
90.797736524485344
 21
132.96839158517179
 31
0.0
1001
ACAD
1000
ASC_BOUNDS
1002
{
1070
    19
1002
}
  0
ARC
  5
26B9A
  8
0
  6
CONTINUOUS
 62
     7
 10
90.869889966414348
 20
132.4736250939682
 30
0.0
 40
0.5
 50
98.297144436305786
 51
180.0
1001
ACAD
1000
ASC_BOUNDS
1002
{
1070
    19
1002
}
  0
LINE
  5
26B9B
  8
0
  6
HIDDEN
 62
     3
 10
91.369889966414334
 20
130.3393301725792
 30
0.0
 11
94.936877264521854
 21
130.33933017257931
 31
0.0
1001
ACAD
1000
ASC_BOUNDS
1002
{
1070
    19
1002
}
  0
LINE
  5
26B9C
  8
0
  6
HIDDEN
 62
     3
 10
90.662783185227667
 20
130.63222339139281
 30
0.0
 11
90.662783185227667
 21
124.0893301725793
 31
0.0
  0
LINE
  5
26B9D
  8
0
  6
HIDDEN
 62
     3
 10
91.111070921311466
 20
130.3734043462903
 30
0.0
 11
91.111070921311466
 21
124.0893301725793
 31
0.0
  0
LINE
  5
26B9E
  8
0
  6
CONTINUOUS
 62
     7
 10
90.369889966414348
 20
124.0893301725793
 30
0.0
 11
90.369889966413879
 21
115.7050352511904
 31
0.0
1001
ACAD
1000
ASC_BOUNDS
1002
{
1070
    19
1002
}
  0
POINT
  5
26B9F
  8
DEFPOINTS
  6
BYBLOCK
 62
     0
 10
90.369889966414348
 20
116.2802542689646
 30
0.0
  0
POINT
  5
26BA0
  8
DEFPOINTS
  6
BYBLOCK
 62
     0
 10
90.369889966414348
 20
116.2802542689646
 30
0.0
  0
ARC
  5
26BA1
  8
0
  6
CONTINUOUS
 62
     7
 10
90.869889966413893
 20
115.7050352511904
 30
0.0
 40
0.5
 50
180.0
 51
261.70285556369419
1001
ACAD
1000
ASC_BOUNDS
1002
{
1070
    19
1002
}
  0
POINT
  5
26BA2
  8
DEFPOINTS
  6
BYBLOCK
 62
     0
 10
90.369889966414348
 20
117.1711973696972
 30
0.0
  0
POINT
  5
26BA3
  8
DEFPOINTS
  6
BYBLOCK
 62
     0
 10
90.369889966414348
 20
117.1711973696972
 30
0.0
  0
POINT
  5
26BA4
  8
DEFPOINTS
  6
BYBLOCK
 62
     0
 10
90.369889966413879
 20
117.5755681669479
 30
0.0
  0
ARC
  5
26BA5
  8
0
  6
HIDDEN
 62
     3
 10
91.369889966414334
 20
131.3393301725792
 30
0.0
 40
1.0
 50
255.0000000000056
 51
270.0
1001
ACAD
1000
ASC_BOUNDS
1002
{
1070
    19
1002
}
  0
LINE
  5
26BA6
  8
0
  6
HIDDEN
 62
     3
 10
90.662783185227667
 20
130.63222339139281
 30
0.0
 11
91.111070921311466
 21
130.3734043462903
 31
0.0
  0
ARC
  5
26BA7
  8
0
  6
HIDDEN
 62
     3
 10
91.369889966414334
 20
131.3393301725792
 30
0.0
 40
1.0
 50
180.0
 51
225.00000000000921
1001
ACAD
1000
ASC_BOUNDS
1002
{
1070
    19
1002
}
  0
LINE
  5
26BA8
  8
0
  6
CONTINUOUS
 62
     7
 10
90.369889966414348
 20
124.0893301725793
 30
0.0
 11
90.369889966414348
 21
132.4736250939682
 31
0.0
1001
ACAD
1000
ASC_BOUNDS
1002
{
1070
    19
1002
}
  0
LINE
  5
26BA9
  8
0
  6
HIDDEN
 62
     3
 10
130.36988996641429
 20
124.0893301725793
 30
0.0
 11
130.36988996641429
 21
129.08933017257931
 31
0.0
1001
ACAD
1000
ASC_BOUNDS
1002
{
1070
    19
1002
}
  0
LINE
  5
26BAA
  8
0
  6
HIDDEN
 62
     3
 10
97.912435244438939
 20
129.38933017257941
 30
0.0
 11
97.912435244438939
 21
124.0893301725793
 31
0.0
  0
LINE
  5
26BAB
  8
0
  6
HIDDEN
 62
     3
 10
97.369889966414362
 20
130.33933017257931
 30
0.0
 11
97.369889966414362
 21
124.0893301725793
 31
0.0
  0
LINE
  5
26BAC
  8
0
  6
HIDDEN
 62
     3
 10
94.936877264521854
 20
130.33933017257931
 30
0.0
 11
94.936877264521854
 21
124.0893301725793
 31
0.0
  0
LINE
  5
26BAD
  8
0
  6
HIDDEN
 62
     3
 10
95.869889966413893
 20
130.58933017257931
 30
0.0
 11
95.869889966414348
 21
124.0893301725793
 31
0.0
1001
ACAD
1000
ASC_BOUNDS
1002
{
1070
    19
1002
}
  0
POINT
  5
26BAE
  8
DEFPOINTS
  6
HIDDEN
 62
     3
 10
97.369889966413893
 20
130.58933017257931
 30
0.0
  0
POINT
  5
26BAF
  8
DEFPOINTS
  6
HIDDEN
 62
     3
 10
95.869889966413893
 20
130.58933017257931
 30
0.0
  0
LINE
  5
26BB0
  8
0
  6
HIDDEN
 62
     3
 10
97.369889966414362
 20
130.33933017257931
 30
0.0
 11
97.912435244438939
 21
129.38933017257941
 31
0.0
1001
ACAD
1000
ASC_BOUNDS
1002
{
1070
    19
1005
0
1002
}
  0
LINE
  5
26BB1
  8
0
  6
HIDDEN
 62
     3
 10
97.369889966414362
 20
130.33933017257931
 30
0.0
 11
97.369889966413893
 21
130.58933017257931
 31
0.0
1001
ACAD
1000
ASC_BOUNDS
1002
{
1070
    19
1002
}
  0
LINE
  5
26BB2
  8
0
  6
HIDDEN
 62
     3
 10
97.369889966413893
 20
130.58933017257931
 30
0.0
 11
95.869889966413893
 21
130.58933017257931
 31
0.0
1001
ACAD
1000
ASC_BOUNDS
1002
{
1070
    19
1002
}
  0
LINE
  5
26BB3
  8
0
  6
HIDDEN
 62
     3
 10
95.869889966413893
 20
130.58933017257931
 30
0.0
 11
94.936877264521854
 21
130.33933017257931
 31
0.0
  0
LINE
  5
26BB4
  8
0
  6
HIDDEN
 62
     3
 10
124.36988996641431
 20
124.0893301725793
 30
0.0
 11
124.36988996641431
 21
129.3893301725798
 31
0.0
1001
ACAD
1000
ASC_BOUNDS
1002
{
1070
    19
1002
}
  0
LINE
  5
26BB9
  8
0
  6
HIDDEN
 62
     3
 10
115.36988996641431
 20
130.08933017257931
 30
0.0
 11
115.36988996641431
 21
124.0893301725793
 31
0.0
1001
ACAD
1000
ASC_BOUNDS
1002
{
1070
    19
1005
0
1002
}
  0
LINE
  5
26BBA
  8
0
  6
HIDDEN
 62
     3
 10
115.36988996641431
 20
130.08933017257931
 30
0.0
 11
116.5949252299413
 21
129.38933017257941
 31
0.0
1001
ACAD
1000
ASC_BOUNDS
1002
{
1070
    19
1005
0
1002
}
  0
LINE
  5
26BBE
  8
0
  6
CONTINUOUS
 62
     7
 10
140.76988996641401
 20
102.0893301725793
 30
0.0
 11
140.76988996641489
 21
124.0893301725793
 31
0.0
  0
POINT
  5
26BBF
  8
DEFPOINTS
  6
BYBLOCK
 62
     0
 10
141.76988996641401
 20
101.0893301725793
 30
0.0
  0
ARC
  5
26BC0
  8
0
  6
CONTINUOUS
 62
     7
 10
141.76988996641401
 20
102.0893301725793
 30
0.0
 40
1.0
 50
180.0
 51
270.0
  0
ARC
  5
26BC1
  8
0
  6
CONTINUOUS
 10
140.36988996641429
 20
108.08933017257939
 30
0.0
 40
0.4
 50
0.0
 51
90.0
  0
LINE
  5
26BC2
  8
0
  6
CONTINUOUS
 10
139.24620393849571
 20
108.4893301725793
 30
0.0
 11
139.24620393849571
 21
124.0893301725793
 31
0.0
  0
LINE
  5
26BC3
  8
0
  6
CONTINUOUS
 62
     7
 10
138.76988996641401
 20
124.0893301725793
 30
0.0
 11
138.76988996641401
 21
108.2143301725793
 31
0.0
  0
LINE
  5
26BC4
  8
0
  6
CONTINUOUS
 62
     7
 10
138.76988996641401
 20
124.0893301725793
 30
0.0
 11
138.76988996641401
 21
108.2143301725793
 31
0.0
  0
LINE
  5
26BC5
  8
0
  6
CONTINUOUS
 10
138.76988996641401
 20
108.2143301725793
 30
0.0
 11
139.24620393849571
 21
108.4893301725793
 31
0.0
  0
LINE
  5
26BC6
  8
0
  6
BYBLOCK
 62
     0
 10
139.24620393849571
 20
108.4893301725793
 30
0.0
 11
140.36988996641429
 21
108.4893301725793
 31
0.0
  0
POINT
  5
26BC8
  8
DEFPOINTS
  6
BYBLOCK
 62
     0
 10
141.76988996641401
 20
147.08933017257931
 30
0.0
  0
ARC
  5
26BC9
  8
0
  6
CONTINUOUS
 10
140.36988996641429
 20
140.08933017257931
 30
0.0
 40
0.4
 50
270.0
 51
0.0
  0
LINE
  5
26BCA
  8
0
  6
CONTINUOUS
 10
140.76988996641401
 20
146.08933017257931
 30
0.0
 11
140.76988996641549
 21
124.0893301725793
 31
0.0
  0
ARC
  5
26BCB
  8
0
  6
CONTINUOUS
 62
     7
 10
141.76988996641401
 20
146.08933017257931
 30
0.0
 40
1.0
 50
90.0
 51
180.0
  0
LINE
  5
26BD0
  8
0
  6
CONTINUOUS
 10
138.76988996641401
 20
139.96433017257931
 30
0.0
 11
139.24620393849571
 21
139.68933017257939
 31
0.0
  0
LINE
  5
26BD1
  8
0
  6
BYBLOCK
 62
     0
 10
139.24620393849571
 20
139.68933017257939
 30
0.0
 11
140.36988996641429
 21
139.68933017257939
 31
0.0
  0
LINE
  5
26BD8
  8
0
  6
CONTINUOUS
 62
     7
 10
160.76988996641401
 20
101.3754815503368
 30
0.0
 11
160.76988996641401
 21
124.0893301725793
 31
0.0
  0
ARC
  5
26BD9
  8
0
  6
CONTINUOUS
 62
     7
 10
160.2698899664139
 20
101.5893301725793
 30
0.0
 40
0.5
 50
270.0
 51
318.18968510422042
  0
ARC
  5
26BDA
  8
0
  6
CONTINUOUS
 10
161.38792395516381
 20
100.5893301725793
 30
0.0
 40
1.0
 50
90.0
 51
138.18968510422491
  0
POINT
  5
26BDB
  8
DEFPOINTS
  6
BYBLOCK
 62
     0
 10
159.76988996641401
 20
101.0893301725793
 30
0.0
  0
LINE
  5
26BDC
  8
0
  6
CONTINUOUS
 62
     7
 10
156.36977263135961
 20
117.0963650974151
 30
0.0
 11
156.36977263136009
 21
101.18108188211539
 31
0.0
  0
LINE
  5
26BDD
  8
0
  6
CONTINUOUS
 62
     7
 10
148.37000730146809
 20
101.18108188211551
 30
0.0
 11
148.37000730146809
 21
114.4393301725793
 31
0.0
  0
LINE
  5
26BDE
  8
0
  6
CONTINUOUS
 10
154.36988996641429
 20
104.5532285574417
 30
0.0
 11
154.36988996641429
 21
117.5181811102003
 31
0.0
  0
LINE
  5
26BDF
  8
0
  6
CONTINUOUS
 10
150.36988996641429
 20
104.5532285574419
 30
0.0
 11
150.36988996641429
 21
116.0656153222123
 31
0.0
  0
LINE
  5
26BE0
  8
0
  6
CONTINUOUS
 62
     7
 10
156.22543506406259
 20
101.3393301725793
 30
0.0
 11
154.36988996641429
 21
104.5532285574417
 31
0.0
  0
LINE
  5
26BE1
  8
0
  6
CONTINUOUS
 62
     7
 10
148.51434486876559
 20
101.3393301725793
 30
0.0
 11
150.36988996641429
 21
104.5532285574419
 31
0.0
  0
ARC
  5
26BE2
  8
0
  6
CONTINUOUS
 62
     7
 10
156.65844776595461
 20
101.5893301725793
 30
0.0
 40
0.5
 50
210.00000000000051
 51
270.0
  0
ARC
  5
26BE3
  8
0
  6
CONTINUOUS
 62
     7
 10
148.08133216687361
 20
101.5893301725793
 30
0.0
 40
0.5
 50
270.0
 51
329.99999999999949
  0
LINE
  5
26BE4
  8
0
  6
CONTINUOUS
 62
     7
 10
150.36988996641429
 20
106.0893301725793
 30
0.0
 11
152.36988996641429
 21
106.0893301725793
 31
0.0
  0
LINE
  5
26BE5
  8
0
  6
CONTINUOUS
 62
     7
 10
154.36988996641429
 20
106.0893301725793
 30
0.0
 11
152.36988996641429
 21
106.0893301725793
 31
0.0
  0
ARC
  5
26BE6
  8
0
  6
CONTINUOUS
 10
149.71988996641471
 20
124.0893301725793
 30
0.0
 40
8.0500000000000114
 50
270.0
 51
0.0
  0
LINE
  5
26BE7
  8
0
  6
CONTINUOUS
 62
     7
 10
156.65844776595461
 20
101.0893301725793
 30
0.0
 11
160.2698899664139
 21
101.0893301725793
 31
0.0
  0
ARC
  5
26BE8
  8
0
  6
CONTINUOUS
 62
     7
 10
148.08133216687361
 20
146.58933017257939
 30
0.0
 40
0.5
 50
30.000000000000551
 51
90.0
  0
LINE
  5
26BE9
  8
0
  6
CONTINUOUS
 62
     7
 10
148.5143448687661
 20
146.83933017257931
 30
0.0
 11
150.36988996641429
 21
143.62543178771679
 31
0.0
  0
LINE
  5
26BEA
  8
0
  6
CONTINUOUS
 10
150.36988996641429
 20
143.62543178771679
 30
0.0
 11
150.36988996641429
 21
142.08933017257931
 31
0.0
  0
LINE
  5
26BEB
  8
0
  6
CONTINUOUS
 62
     7
 10
150.36988996641429
 20
142.08933017257931
 30
0.0
 11
152.36988996641429
 21
142.08933017257931
 31
0.0
  0
LINE
  5
26BEC
  8
0
  6
CONTINUOUS
 62
     7
 10
154.36988996641429
 20
142.08933017257931
 30
0.0
 11
152.36988996641429
 21
142.08933017257931
 31
0.0
  0
LINE
  5
26BED
  8
0
  6
CONTINUOUS
 10
154.36988996641429
 20
143.62543178771699
 30
0.0
 11
154.36988996641429
 21
142.08933017257931
 31
0.0
  0
LINE
  5
26BEF
  8
0
  6
CONTINUOUS
 62
     7
 10
156.22543506406211
 20
146.83933017257931
 30
0.0
 11
154.36988996641429
 21
143.62543178771699
 31
0.0
  0
ARC
  5
26BF0
  8
0
  6
CONTINUOUS
 62
     7
 10
156.65844776595461
 20
146.58933017257939
 30
0.0
 40
0.5
 50
90.0
 51
149.9999999999994
  0
LINE
  5
26BF1
  8
0
  6
CONTINUOUS
 62
     7
 10
156.65844776595461
 20
147.08933017257931
 30
0.0
 11
160.2698899664139
 21
147.08933017257931
 31
0.0
  0
LINE
  5
26BF2
  8
0
  6
HIDDEN
 62
     3
 10
157.3088587497011
 20
135.58393635720091
 30
0.0
 11
157.1377728184757
 21
133.62841521503231
 31
0.0
  0
LINE
  5
26BF3
  8
0
  6
HIDDEN
 62
     3
 10
155.3586988661082
 20
132.79881940661829
 30
0.0
 11
157.3088587497013
 21
135.5839363572006
 31
0.0
  0
LINE
  5
26BF4
  8
0
  6
HIDDEN
 62
     3
 10
150.36988996641409
 20
141.88933017257921
 30
0.0
 11
154.36988996641409
 21
141.88933017257941
 31
0.0
  0
LINE
  5
26BF5
  8
0
  6
HIDDEN
 62
     3
 10
155.35869886610789
 20
132.79881940661809
 30
0.0
 11
157.1377728184757
 21
133.62841521503231
 31
0.0
  0
LINE
  5
26BF6
  8
0
  6
HIDDEN
 62
     3
 10
154.06988996641419
 20
141.5893301725792
 30
0.0
 11
154.36988996641409
 21
141.88933017257941
 31
0.0
  0
LINE
  5
26BF7
  8
0
  6
HIDDEN
 62
     3
 10
150.26988996641421
 20
141.88933017257929
 30
0.0
 11
152.36988996641409
 21
141.88933017257929
 31
0.0
  0
LINE
  5
26BFE
  8
0
  6
HIDDEN
 62
     3
 10
140.76988996641401
 20
142.64778099505631
 30
0.0
 11
140.8514651601451
 21
142.59066142947449
 31
0.0
  0
LINE
  5
26BFF
  8
0
  6
HIDDEN
 62
     3
 10
140.85146516014561
 20
142.5906614294752
 30
0.0
 11
141.26928370433731
 21
142.66433411185631
 31
0.0
1001
ACAD
1000
ASC_BOUNDS
1002
{
1070
    19
1002
}
  0
LINE
  5
26C00
  8
0
  6
HIDDEN
 62
     3
 10
145.35680140373501
 20
139.43599102954431
 30
0.0
 11
140.85146516014561
 21
142.5906614294752
 31
0.0
1001
ACAD
1000
ASC_BOUNDS
1002
{
1070
    19
1002
}
  0
LINE
  5
26C01
  8
0
  6
HIDDEN
 62
     3
 10
143.21944358793101
 20
145.44945106243881
 30
0.0
 11
150.6698899664141
 21
140.2325923451981
 31
0.0
  0
LINE
  5
26C02
  8
0
  6
HIDDEN
 62
     3
 10
141.26928370433711
 20
142.66433411185611
 30
0.0
 11
150.6698899664141
 21
136.08195874340851
 31
0.0
  0
LINE
  5
26C03
  8
0
  6
CENTER
 62
     2
 10
139.76988996641401
 20
145.78953771078909
 30
0.0
 11
157.8398944166147
 21
133.13678437927561
 31
0.0
  0
LINE
  5
26C04
  8
0
  6
HIDDEN
 62
     3
 10
143.21944358793101
 20
145.44945106243881
 30
0.0
 11
142.2443636461341
 21
144.0568925871475
 31
0.0
  0
LINE
  5
26C05
  8
0
  6
HIDDEN
 62
     3
 10
141.26928370433731
 20
142.66433411185631
 30
0.0
 11
142.2443636461341
 21
144.0568925871475
 31
0.0
  0
LINE
  5
26C06
  8
0
  6
HIDDEN
 62
     3
 10
140.8514651601453
 20
142.59066142947469
 30
0.0
 11
143.1457709055496
 21
145.86726960663071
 31
0.0
  0
LINE
  5
26C07
  8
0
  6
HIDDEN
 62
     3
 10
147.65110714913899
 20
142.71259920669991
 30
0.0
 11
143.1457709055494
 21
145.86726960663049
 31
0.0
1001
ACAD
1000
ASC_BOUNDS
1002
{
1070
    19
1002
}
  0
LINE
  5
26C08
  8
0
  6
HIDDEN
 62
     3
 10
141.46739491415201
 20
147.04248112775761
 30
0.0
 11
143.1457709055496
 21
145.86726960663071
 31
0.0
  0
LINE
  5
26C09
  8
0
  6
HIDDEN
 62
     3
 10
143.1457709055494
 20
145.86726960663049
 30
0.0
 11
143.21944358793101
 21
145.44945106243881
 31
0.0
1001
ACAD
1000
ASC_BOUNDS
1002
{
1070
    19
1002
}
  0
LINE
  5
26C0A
  8
0
  6
HIDDEN
 62
     3
 10
147.65110714913899
 20
142.71259920670011
 30
0.0
 11
147.90467810618361
 21
142.1688145344778
 31
0.0
1001
ACAD
1000
ASC_BOUNDS
1002
{
1070
    19
1002
}
  0
LINE
  5
26C0B
  8
0
  6
HIDDEN
 62
     3
 10
146.50395427643679
 20
141.07429511812211
 30
0.0
 11
147.65110714913899
 21
142.71259920670011
 31
0.0
1001
ACAD
1000
ASC_BOUNDS
1002
{
1070
    19
1002
}
  0
LINE
  5
26C0C
  8
0
  6
HIDDEN
 62
     3
 10
145.35680140373481
 20
139.43599102954431
 30
0.0
 11
145.9545182225902
 21
139.38369758389561
 31
0.0
1001
ACAD
1000
ASC_BOUNDS
1002
{
1070
    19
1002
}
  0
LINE
  5
26C0D
  8
0
  6
HIDDEN
 62
     3
 10
146.5039542764371
 20
141.07429511812211
 30
0.0
 11
145.35680140373481
 21
139.43599102954431
 31
0.0
1001
ACAD
1000
ASC_BOUNDS
1002
{
1070
    19
1002
}
  0
LINE
  5
26C0E
  8
0
  6
CENTER
 62
     2
 10
152.36988996641409
 20
143.08933017257931
 30
0.0
 11
152.36988996641409
 21
128.08933017257931
 31
0.0
  0
LINE
  5
26C0F
  8
0
  6
HIDDEN
 62
     3
 10
150.6698899664141
 20
136.08195874340851
 30
0.0
 11
150.6698899664139
 21
128.08933017257931
 31
0.0
  0
LINE
  5
26C10
  8
0
  6
HIDDEN
 62
     3
 10
154.06988996641419
 20
133.7012531134954
 30
0.0
 11
154.06988996641431
 21
128.08933017257931
 31
0.0
  0
LINE
  5
26C11
  8
0
  6
HIDDEN
 62
     3
 10
154.06988996641419
 20
133.7012531134954
 30
0.0
 11
155.35869886610789
 21
132.79881940661809
 31
0.0
  0
LINE
  5
26C12
  8
0
  6
HIDDEN
 62
     3
 10
154.06988996641419
 20
137.8518867152838
 30
0.0
 11
157.3088587497013
 21
135.58393635720091
 31
0.0
  0
LINE
  5
26C13
  8
0
  6
HIDDEN
 62
     3
 10
150.6698899664141
 20
140.2325923451981
 30
0.0
 11
152.36988996641409
 21
136.96692272934661
 31
0.0
  0
LINE
  5
26C14
  8
0
  6
HIDDEN
 62
     3
 10
152.36988996641409
 20
136.96692272934661
 30
0.0
 11
154.06988996641419
 21
137.8518867152838
 31
0.0
  0
LINE
  5
26C15
  8
0
  6
HIDDEN
 62
     3
 10
152.36988996641409
 20
136.96692272934661
 30
0.0
 11
154.06988996641419
 21
133.7012531134954
 31
0.0
  0
LINE
  5
26C16
  8
0
  6
HIDDEN
 62
     3
 10
150.6698899664141
 20
136.08195874340851
 30
0.0
 11
152.36988996641409
 21
136.96692272934661
 31
0.0
  0
LINE
  5
26C17
  8
0
  6
HIDDEN
 62
     3
 10
154.06988996641419
 20
141.58933017257951
 30
0.0
 11
154.06988996641419
 21
137.8518867152838
 31
0.0
  0
LINE
  5
26C18
  8
0
  6
HIDDEN
 62
     3
 10
154.36988996641409
 20
141.88933017257941
 30
0.0
 11
154.36988996641409
 21
137.64182445382119
 31
0.0
  0
LINE
  5
26C19
  8
0
  6
HIDDEN
 62
     3
 10
154.469889966414
 20
141.88933017257929
 30
0.0
 11
152.36988996641409
 21
141.88933017257929
 31
0.0
  0
LINE
  5
26C1A
  8
0
  6
HIDDEN
 62
     3
 10
150.26988996641421
 20
143.79863686847349
 30
0.0
 11
150.26988996641421
 21
141.88933017257929
 31
0.0
  0
LINE
  5
26C1B
  8
0
  6
HIDDEN
 62
     3
 10
150.6698899664143
 20
141.58933017257911
 30
0.0
 11
154.06988996641419
 21
141.5893301725792
 31
0.0
  0
LINE
  5
26C1C
  8
0
  6
HIDDEN
 62
     3
 10
150.36988996641409
 20
141.88933017257921
 30
0.0
 11
150.36988996641409
 21
140.44265460666099
 31
0.0
  0
LINE
  5
26C1D
  8
0
  6
HIDDEN
 62
     3
 10
150.6698899664141
 20
141.5893301725792
 30
0.0
 11
150.36988996641409
 21
141.88933017257921
 31
0.0
  0
LINE
  5
26C1E
  8
0
  6
HIDDEN
 62
     3
 10
150.6698899664141
 20
141.5893301725792
 30
0.0
 11
150.6698899664141
 21
140.2325923451981
 31
0.0
  0
LINE
  5
26C1F
  8
0
  6
HIDDEN
 62
     3
 10
154.469889966414
 20
143.79863686847389
 30
0.0
 11
154.469889966414
 21
141.88933017257929
 31
0.0
  0
LINE
  5
26C2B
  8
0
  6
HIDDEN
 62
     3
 10
130.36988996641429
 20
129.08933017257931
 30
0.0
 11
130.947240235604
 21
128.08933017257931
 31
0.0
  0
LINE
  5
26C2C
  8
0
 62
     0
 10
161.38792395516381
 20
146.58933017257939
 30
0.0
 11
179.3265142934398
 21
146.58933017257939
 31
0.0
  0
ARC
  5
26C2E
  8
0
  6
CONTINUOUS
 62
     7
 10
160.2698899664139
 20
146.58933017257939
 30
0.0
 40
0.5
 50
41.810314895779626
 51
90.0
  0
ARC
  5
26C2F
  8
0
  6
CONTINUOUS
 10
161.38792395516381
 20
147.58933017257931
 30
0.0
 40
1.0
 50
221.81031489577501
 51
270.0
  0
POINT
  5
26C30
  8
DEFPOINTS
  6
BYBLOCK
 62
     0
 10
159.76988996641401
 20
147.08933017257931
 30
0.0
  0
LINE
  5
26C31
  8
0
  6
HIDDEN
 62
     3
 10
177.76988996641401
 20
124.0893301725793
 30
0.0
 11
177.7698899664141
 21
133.7893301725793
 31
0.0
  0
DIMENSION
  5
26C40
  8
0
  6
CONTINUOUS
  2
*D18
 10
249.01969704643241
 20
145.08933017257959
 30
0.0
 11
246.9194017708418
 21
124.08933017257969
 31
0.0
 70
     0
 13
216.29306996325701
 23
103.08933017257969
 33
0.0
 14
216.2930699632536
 24
145.08933017257959
 34
0.0
 50
90.0
1001
ACAD
1000
DSTYLE
1002
{
1070
   287
1070
     2
1070
     3
1000
%%c<>
1070
    42
1040
0.6
1070
    43
1040
1.0
1070
    44
1040
1.0
1070
    47
1040
0.1
1070
    48
1040
0.1
1070
    73
1070
     0
1070
   140
1040
3.0
1070
   141
1040
-1.0
1070
   146
1040
0.7
1070
   147
1040
0.6
1070
   178
1070
     3
1070
   179
1070
     8
1070
   271
1070
     8
1070
   272
1070
     8
1070
   275
1070
     1
1070
   283
1070
     0
1070
   284
1070
     8
1070
   289
1070
     2
1002
}
  0
LINE
  5
26C57
  8
0
  6
CONTINUOUS
 10
227.94353814408089
 20
105.1436220507444
 30
0.0
 11
216.29306996325701
 21
103.08933017257969
 31
0.0
  0
LINE
  5
26C58
  8
CT
  6
BYBLOCK
 62
     0
 10
202.1348046703049
 20
103.08933017257949
 30
0.0
 11
181.34724023560361
 21
103.08933017257959
 31
0.0
1001
ACAD
1000
ASC_BOUNDS
1002
{
1070
    19
1002
}
  0
ARC
  5
26C59
  8
0
  6
CONTINUOUS
 10
181.34724023560361
 20
102.08933017257959
 30
0.0
 40
1.0
 50
90.0
 51
149.99999999999659
1001
ACAD
1000
ASC_BOUNDS
1002
{
1070
    19
1002
}
  0
LINE
  5
26C5A
  8
CT
  6
BYBLOCK
 62
     0
 10
216.29306996325701
 20
103.08933017257969
 30
0.0
 11
212.4049752625219
 21
103.0893301725803
 31
0.0
1001
ACAD
1000
ASC_BOUNDS
1002
{
1070
    19
1002
}
  0
LINE
  5
26C5E
  8
CT
  6
BYBLOCK
 62
     0
 10
202.1348046703049
 20
145.08933017257951
 30
0.0
 11
181.34724023560361
 21
145.08933017257959
 31
0.0
1001
ACAD
1000
ASC_BOUNDS
1002
{
1070
    19
1002
}
  0
LINE
  5
26C5F
  8
0
  6
CONTINUOUS
 10
202.7698899664135
 20
144.58933017257999
 30
0.0
 11
204.7698899664135
 21
144.58933017257999
 31
0.0
  0
LINE
  5
26C60
  8
0
  6
CONTINUOUS
 10
209.7698899664135
 20
144.58933017257999
 30
0.0
 11
211.7698899664135
 21
144.58933017257999
 31
0.0
  0
ARC
  5
26C61
  8
0
  6
CONTINUOUS
 62
     7
 10
209.7698899664135
 20
144.78933017258001
 30
0.0
 40
0.2
 50
209.9999999999888
 51
270.0
  0
LINE
  5
26C62
  8
0
  6
CONTINUOUS
 62
     7
 10
209.59668488565671
 20
144.6893301725799
 30
0.0
 11
209.48121483181851
 21
144.88933017257989
 31
0.0
  0
ARC
  5
26C63
  8
0
  6
CONTINUOUS
 62
     7
 10
209.1348046703049
 20
144.68933017257999
 30
0.0
 40
0.4
 50
29.99999999998883
 51
90.0
  0
LINE
  5
26C64
  8
0
  6
CONTINUOUS
 62
     7
 10
205.40497526252221
 20
145.08933017257999
 30
0.0
 11
209.1348046703049
 21
145.08933017257999
 31
0.0
  0
ARC
  5
26C65
  8
0
  6
CONTINUOUS
 62
     7
 10
205.40497526252221
 20
144.68933017257999
 30
0.0
 40
0.4
 50
90.0
 51
149.99999999998491
  0
LINE
  5
26C66
  8
0
  6
CONTINUOUS
 62
     7
 10
204.9430950471704
 20
144.6893301725799
 30
0.0
 11
205.0585651010085
 21
144.88933017258
 31
0.0
  0
ARC
  5
26C67
  8
0
  6
CONTINUOUS
 62
     7
 10
204.7698899664135
 20
144.78933017258001
 30
0.0
 40
0.2
 50
270.0
 51
329.99999999998488
  0
ARC
  5
26C68
  8
0
  6
CONTINUOUS
 10
212.4049752625221
 20
144.68933017257979
 30
0.0
 40
0.4
 50
90.000000000065128
 51
149.99999999998491
  0
LINE
  5
26C69
  8
0
  6
CONTINUOUS
 62
     7
 10
211.94309504717029
 20
144.6893301725799
 30
0.0
 11
212.0585651010085
 21
144.88933017257989
 31
0.0
  0
ARC
  5
26C6A
  8
0
  6
CONTINUOUS
 62
     7
 10
211.7698899664135
 20
144.78933017258001
 30
0.0
 40
0.2
 50
270.0
 51
329.99999999998488
  0
LINE
  5
26C6B
  8
CT
  6
BYBLOCK
 62
     0
 10
216.2930699632536
 20
145.08933017257959
 30
0.0
 11
212.4049752625221
 21
145.08933017257979
 31
0.0
1001
ACAD
1000
ASC_BOUNDS
1002
{
1070
    19
1002
}
  0
LINE
  5
26C6C
  8
0
  6
CONTINUOUS
 10
228.76988996641401
 20
106.1284298037566
 30
0.0
 11
228.76988996641401
 21
124.0893301725793
 31
0.0
  0
LINE
  5
26C6D
  8
0
  6
CONTINUOUS
 10
180.76988996641401
 20
102.9058267535073
 30
0.0
 11
180.76988996641401
 21
124.08933017257949
 31
0.0
  0
ARC
  5
26C6E
  8
0
  6
CONTINUOUS
 10
227.76988996641401
 20
106.1284298037566
 30
0.0
 40
1.0
 50
279.99999999999858
 51
0.0
  0
LINE
  5
26C70
  8
0
  6
CONTINUOUS
 10
228.76988996641381
 20
142.05023054140219
 30
0.0
 11
228.76988996641461
 21
124.0893301725793
 31
0.0
  0
ARC
  5
26C71
  8
0
  6
CONTINUOUS
 10
227.7698899664137
 20
142.0502305414021
 30
0.0
 40
1.0
 50
0.0000000000032569
 51
79.999999999998195
  0
LINE
  5
26C98
  8
0
  6
CONTINUOUS
 10
202.7698899664135
 20
103.5893301725787
 30
0.0
 11
204.7698899664135
 21
103.5893301725787
 31
0.0
  0
LINE
  5
26C99
  8
0
  6
CONTINUOUS
 10
209.7698899664135
 20
103.5893301725787
 30
0.0
 11
211.7698899664135
 21
103.5893301725787
 31
0.0
  0
ARC
  5
26C9A
  8
0
  6
CONTINUOUS
 62
     7
 10
209.7698899664135
 20
103.3893301725787
 30
0.0
 40
0.2
 50
90.0
 51
150.00000000000671
  0
LINE
  5
26C9B
  8
0
  6
CONTINUOUS
 62
     7
 10
209.59668488565671
 20
103.4893301725788
 30
0.0
 11
209.48121483181851
 21
103.2893301725788
 31
0.0
  0
ARC
  5
26C9C
  8
0
  6
CONTINUOUS
 62
     7
 10
209.1348046703049
 20
103.4893301725787
 30
0.0
 40
0.4
 50
270.0
 51
330.0000000000112
  0
LINE
  5
26C9D
  8
0
  6
CONTINUOUS
 62
     7
 10
205.40497526252221
 20
103.0893301725787
 30
0.0
 11
209.1348046703049
 21
103.0893301725787
 31
0.0
  0
ARC
  5
26C9E
  8
0
  6
CONTINUOUS
 62
     7
 10
205.40497526252221
 20
103.4893301725787
 30
0.0
 40
0.4
 50
210.00000000001509
 51
270.0
  0
LINE
  5
26C9F
  8
0
  6
CONTINUOUS
 62
     7
 10
204.9430950471704
 20
103.4893301725788
 30
0.0
 11
205.0585651010085
 21
103.2893301725786
 31
0.0
  0
ARC
  5
26CA0
  8
0
  6
CONTINUOUS
 62
     7
 10
204.7698899664135
 20
103.3893301725787
 30
0.0
 40
0.2
 50
30.00000000001064
 51
90.0
  0
ARC
  5
26CA1
  8
0
  6
CONTINUOUS
 10
212.4049752625221
 20
103.4893301725789
 30
0.0
 40
0.4
 50
210.00000000001509
 51
269.99999999993491
  0
LINE
  5
26CA2
  8
0
  6
CONTINUOUS
 62
     7
 10
211.94309504717029
 20
103.4893301725788
 30
0.0
 11
212.0585651010085
 21
103.2893301725788
 31
0.0
  0
ARC
  5
26CA3
  8
0
  6
CONTINUOUS
 62
     7
 10
211.7698899664135
 20
103.3893301725787
 30
0.0
 40
0.2
 50
30.00000000001064
 51
90.0
  0
LINE
  5
26CA4
  8
0
  6
CONTINUOUS
 10
227.94353814408069
 20
143.03503829441431
 30
0.0
 11
216.29306996325701
 21
145.089330172579
 31
0.0
  0
LINE
  5
26CA6
  8
0
  6
HIDDEN
 62
     3
 10
190.38232553171181
 20
136.08933017257931
 30
0.0
 11
223.2698899664145
 21
136.08933017257931
 31
0.0
1001
ACAD
1000
ASC_BOUNDS
1002
{
1070
    19
1005
0
1005
0
1002
}
  0
LINE
  5
26CA9
  8
0
  6
HIDDEN
 62
     3
 10
182.83687726452149
 20
135.08933017257931
 30
0.0
 11
182.83687726452149
 21
124.0893301725793
 31
0.0
  0
LINE
  5
26CAB
  8
0
  6
HIDDEN
 62
     3
 10
180.2698899664137
 20
124.0893301725793
 30
0.0
 11
180.2698899664137
 21
134.58933017257931
 31
0.0
1001
ACAD
1000
ASC_BOUNDS
1002
{
1070
    19
1002
}
  0
LINE
  5
26CAC
  8
0
  6
HIDDEN
 62
     3
 10
177.7698899664137
 20
133.7893301725793
 30
0.0
 11
180.2698899664137
 21
133.7893301725793
 31
0.0
  0
LINE
  5
26CAE
  8
0
  6
HIDDEN
 62
     3
 10
183.26988996641461
 20
134.97330476879469
 30
0.0
 11
182.83687726452149
 21
135.08933017257931
 31
0.0
1001
ACAD
1000
ASC_BOUNDS
1002
{
1070
    19
1002
}
  0
ARC
  5
26CAF
  8
0
  6
HIDDEN
 62
     3
 10
180.7698899664137
 20
134.58933017257931
 30
0.0
 40
0.5
 50
90.0
 51
180.0
1001
ACAD
1000
ASC_BOUNDS
1002
{
1070
    19
1002
}
  0
LINE
  5
26CB0
  8
0
  6
HIDDEN
 62
     3
 10
180.7698899664137
 20
135.08933017257931
 30
0.0
 11
182.83687726452149
 21
135.08933017257931
 31
0.0
1001
ACAD
1000
ASC_BOUNDS
1002
{
1070
    19
1002
}
  0
LINE
  5
26CB4
  8
0
  6
HIDDEN
 62
     3
 10
190.38232553171181
 20
136.08933017257931
 30
0.0
 11
190.38232553171181
 21
135.71433017257931
 31
0.0
  0
LINE
  5
26CC2
  8
0
  6
CONTINUOUS
 10
180.48121483181919
 20
102.58933017257959
 30
0.0
 11
180.19253969722419
 21
102.0893301725793
 31
0.0
  0
ARC
  5
26CC3
  8
0
  6
CONTINUOUS
 10
179.3265142934398
 20
102.5893301725793
 30
0.0
 40
1.0
 50
270.0
 51
329.99999999999659
  0
LINE
  5
26CC4
  8
0
  6
CONTINUOUS
 10
179.90386456262939
 20
101.7728335916516
 30
0.0
 11
179.90386456262939
 21
124.0893301725793
 31
0.0
  0
DIMENSION
  5
26CC5
  8
0
  6
CONTINUOUS
  2
*D19
 10
228.76988996641401
 20
89.247095759332524
 30
0.0
 11
204.76988996641401
 21
91.347095759332518
 31
0.0
 70
     0
 13
180.76988996641401
 23
103.08933017257959
 33
0.0
 14
228.76988996641401
 24
106.1284298037566
 34
0.0
1001
ACAD
1000
DSTYLE
1002
{
1070
   287
1070
     2
1070
    42
1040
0.6
1070
    43
1040
1.0
1070
    44
1040
1.0
1070
    47
1040
0.1
1070
    48
1040
0.1
1070
   141
1040
-1.0
1070
   146
1040
0.7
1070
   147
1040
0.6
1070
   271
1070
     8
1070
   272
1070
     8
1070
   275
1070
     1
1070
   283
1070
     0
1070
   284
1070
     8
1070
   289
1070
     2
1002
}
  0
ARC
  5
26CC6
  8
0
  6
CONTINUOUS
 10
181.34724023560361
 20
146.08933017257939
 30
0.0
 40
1.0
 50
210.00000000000341
 51
270.0
1001
ACAD
1000
ASC_BOUNDS
1002
{
1070
    19
1002
}
  0
LINE
  5
26CC7
  8
0
  6
CONTINUOUS
 10
180.48121483181919
 20
145.58933017257939
 30
0.0
 11
180.19253969722419
 21
146.08933017257971
 31
0.0
  0
ARC
  5
26CC8
  8
0
  6
CONTINUOUS
 10
179.3265142934398
 20
145.58933017257971
 30
0.0
 40
1.0
 50
30.000000000003372
 51
90.0
  0
LINE
  5
26CCA
  8
0
  6
HIDDEN
 62
     3
 10
130.947240235604
 20
128.08933017257931
 30
0.0
 11
130.947240235604
 21
124.0893301725793
 31
0.0
  0
LINE
  5
26CCB
  8
0
  6
HIDDEN
 62
     3
 10
130.947240235604
 20
128.08933017257931
 30
0.0
 11
166.36988996641409
 21
128.08933017257931
 31
0.0
1001
ACAD
1000
ASC_BOUNDS
1002
{
1070
    19
1002
}
  0
LINE
  5
26CCC
  8
0
  6
HIDDEN
 62
     3
 10
167.264782883658
 20
126.5393301725794
 30
0.0
 11
177.01988996641489
 21
126.5393301725794
 31
0.0
1001
ACAD
1000
ASC_BOUNDS
1002
{
1070
    19
1005
0
1005
0
1005
0
1005
0
1005
0
1005
0
1002
}
  0
LINE
  5
26CCD
  8
0
  6
HIDDEN
 62
     3
 10
166.9472402356032
 20
127.0893301725792
 30
0.0
 11
177.56988996641411
 21
127.0893301725793
 31
0.0
1001
ACAD
1000
ASC_BOUNDS
1002
{
1070
    19
1005
0
1005
0
1005
0
1005
0
1005
0
1005
0
1002
}
  0
LINE
  5
26CCE
  8
0
  6
HIDDEN
 62
     3
 10
166.36988996641409
 20
128.08933017257931
 30
0.0
 11
167.264782883658
 21
126.5393301725794
 31
0.0
  0
LINE
  5
26CCF
  8
0
  6
HIDDEN
 62
     3
 10
167.264782883658
 20
126.5393301725794
 30
0.0
 11
167.264782883658
 21
124.0893301725793
 31
0.0
  0
LINE
  5
26CD0
  8
0
  6
HIDDEN
 62
     3
 10
177.01988996641401
 20
126.5393301725794
 30
0.0
 11
177.76988996641489
 21
127.2893301725796
 31
0.0
  0
LINE
  5
26CD1
  8
0
  6
HIDDEN
 62
     3
 10
177.01988996641489
 20
126.5393301725796
 30
0.0
 11
177.01988996641401
 21
124.0893301725793
 31
0.0
  0
LINE
  5
26CD3
  8
0
  6
HIDDEN
 62
     3
 10
166.36988996641409
 20
128.08933017257931
 30
0.0
 11
166.36988996641409
 21
124.0893301725793
 31
0.0
  0
ARC
  5
26CD4
  8
0
  6
CONTINUOUS
 62
     7
 10
202.7698899664135
 20
144.78933017257989
 30
0.0
 40
0.2
 50
209.9999999999888
 51
270.0
  0
LINE
  5
26CD5
  8
0
  6
CONTINUOUS
 62
     7
 10
202.59668488565671
 20
144.68933017257979
 30
0.0
 11
202.48121483181859
 21
144.88933017257989
 31
0.0
  0
ARC
  5
26CD6
  8
0
  6
CONTINUOUS
 62
     7
 10
202.1348046703049
 20
144.6893301725799
 30
0.0
 40
0.4
 50
29.99999999998883
 51
90.0
  0
ARC
  5
26CD8
  8
0
  6
CONTINUOUS
 62
     7
 10
202.7698899664135
 20
103.3893301725785
 30
0.0
 40
0.2
 50
90.0
 51
150.00000000001111
  0
LINE
  5
26CD9
  8
0
  6
CONTINUOUS
 62
     7
 10
202.59668488565671
 20
103.4893301725786
 30
0.0
 11
202.48121483181859
 21
103.2893301725786
 31
0.0
  0
ARC
  5
26CDA
  8
0
  6
CONTINUOUS
 62
     7
 10
202.1348046703049
 20
103.48933017257851
 30
0.0
 40
0.4
 50
270.0
 51
330.0000000000112
  0
LINE
  5
26CDB
  8
0
  6
CONTINUOUS
 10
202.669889966413
 20
103.5625352533345
 30
0.0
 11
202.669889966413
 21
124.0893301725793
 31
0.0
  0
LINE
  5
26CDC
  8
0
  6
CONTINUOUS
 10
202.33480467030461
 20
103.1429200110647
 30
0.0
 11
202.33480467030461
 21
124.0893301725783
 31
0.0
  0
ARC
  5
26CDD
  8
0
  6
CONTINUOUS
 10
149.7198899664148
 20
124.0893301725793
 30
0.0
 40
9.650000000000011
 50
313.55946262889751
 51
0.0
  0
LINE
  5
26CDE
  8
0
  6
CONTINUOUS
 10
142.3698899664148
 20
114.4393301725793
 30
0.0
 11
148.37000730146809
 21
114.4393301725793
 31
0.0
  0
ARC
  5
26CDF
  8
0
  6
CONTINUOUS
 10
142.3698899664148
 20
112.8393301725793
 30
0.0
 40
1.6000000000000001
 50
90.0
 51
180.0
  0
ARC
  5
26CE0
  8
0
  6
CONTINUOUS
 10
142.36988996641469
 20
114.4393301725793
 30
0.0
 40
1.6000000000000001
 50
90.0
 51
180.0
  0
LINE
  5
26CE1
  8
0
  6
CONTINUOUS
 10
150.36988996641429
 20
116.0656153222123
 30
0.0
 11
148.37000730146809
 21
114.4393301725793
 31
0.0
  0
LINE
  5
26CE2
  8
0
  6
CONTINUOUS
 10
154.36988996641429
 20
117.5181811102003
 30
0.0
 11
156.36977263135961
 21
117.0963650974151
 31
0.0
  0
LINE
  5
26F6E
  8
0
 62
     2
 10
150.9402968419158
 20
16.5
 30
0.0
 11
198.8597031580839
 21
16.5
 31
0.0
  0
TEXT
  5
26F6F
  8
0
 62
     3
 10
173.80660537463859
 20
18.268672151280722
 30
0.0
 40
4.0
  1
-
  0
TEXT
  5
26F70
  8
0
 62
     7
 10
174.0588535443953
 20
6.594360463105545
 30
0.0
 40
3.0
  1
-
  0
POLYLINE
  5
26F71
  8
0
 66
     1
 10
0.0
 20
0.0
 30
0.0
 40
1.0
 41
1.0
1001
ACAD
1000
ASC_BOUNDS
1002
{
1070
    19
1002
}
  0
VERTEX
  5
2756B
  8
0
 10
9.9498014649834658
 20
241.00000000000031
 30
0.0
  0
VERTEX
  5
2756C
  8
0
 10
341.5
 20
241.00000000000031
 30
0.0
  0
SEQEND
  5
2756D
  8
0
  0
POLYLINE
  5
26F72
  8
0
 66
     1
 10
0.0
 20
0.0
 30
0.0
 40
1.0
 41
1.0
  0
VERTEX
  5
2756E
  8
0
 10
0.0
 20
0.0
 30
0.0
  0
VERTEX
  5
2756F
  8
0
 10
349.80000000000001
 20
0.0
 30
0.0
  0
SEQEND
  5
27570
  8
0
  0
POLYLINE
  5
26F73
  8
0
 66
     1
 10
0.0
 20
0.0
 30
0.0
 40
0.5
 41
0.5
  0
VERTEX
  5
27571
  8
0
 10
349.2999999999999
 20
24.0
 30
0.0
  0
VERTEX
  5
27572
  8
0
 10
0.5
 20
24.0
 30
0.0
  0
SEQEND
  5
27573
  8
0
  0
POLYLINE
  5
26F74
  8
0
 66
     1
 10
0.0
 20
0.0
 30
0.0
 40
1.0
 41
1.0
  0
VERTEX
  5
27574
  8
0
 10
0.0
 20
241.00000000000011
 30
0.0
  0
VERTEX
  5
27575
  8
0
 10
349.78500327820348
 20
241.00000000000031
 30
0.0
  0
SEQEND
  5
27576
  8
0
  0
POLYLINE
  5
26F75
  8
0
 66
     1
 10
0.0
 20
0.0
 30
0.0
 40
1.0
 41
1.0
  0
VERTEX
  5
27577
  8
0
 10
0.5
 20
241.50000000000031
 30
0.0
  0
VERTEX
  5
27578
  8
0
 10
0.5
 20
-0.5
 30
0.0
  0
SEQEND
  5
27579
  8
0
  0
LINE
  5
26F76
  8
0
 62
     2
 10
150.9402968419158
 20
12.5
 30
0.0
 11
0.5
 21
12.5
 31
0.0
  0
TEXT
  5
26F77
  8
0
  6
CONTINUOUS
 62
     3
 10
19.488127647663081
 20
15.53735654761635
 30
0.0
 40
4.0
  1
HYDRAULIC CHUCK
  0
TEXT
  5
26F78
  8
0
 62
     7
 10
107.4355084051569
 20
9.4608489407828529
 30
0.0
 40
2.0
  1
ORDER MAKER
  0
TEXT
  5
26F79
  8
0
 62
     7
 10
107.6221638096294
 20
20.57165332765112
 30
0.0
 40
2.0
  1
SURFACE TREATMENT
  0
LINE
  5
26F7A
  8
0
 62
     2
 10
106.5
 20
24.0
 30
0.0
 11
106.5
 21
0.0
 31
0.0
  0
LINE
  5
26F7B
  8
0
 62
     2
 10
79.5
 20
24.0
 30
0.0
 11
79.5
 21
0.0
 31
0.0
  0
TEXT
  5
26F7C
  8
0
  6
CONTINUOUS
 62
     3
 10
90.572089549978273
 20
15.03976123407665
 30
0.0
 40
4.0
  1
-
  0
TEXT
  5
26F7D
  8
0
 62
     7
 10
80.326115960252537
 20
9.6268716546485393
 30
0.0
 40
2.0
  1
HARDNESS
  0
TEXT
  5
26F7E
  8
0
 62
     7
 10
80.390774020364447
 20
20.753906392070579
 30
0.0
 40
2.0
  1
MATERIAL
  0
LINE
  5
26F7F
  8
0
 62
     2
 10
150.9402968419158
 20
24.0
 30
0.0
 11
150.9402968419158
 21
0.0
 31
0.0
  0
TEXT
  5
26F80
  8
0
 62
     7
 10
151.84057408933469
 20
19.15847313115523
 30
0.0
 40
2.0
  1
DATE
  0
TEXT
  5
26F81
  8
0
  6
CONTINUOUS
 62
     3
 10
63.438554281229251
 20
229.0555435295031
 30
0.0
 40
2.0
  1
-0.0
  0
TEXT
  5
26F82
  8
0
  6
CONTINUOUS
 62
     3
 10
63.438554281229251
 20
231.56126401216429
 30
0.0
 40
2.0
  1
+0.35
  0
TEXT
  5
26F83
  8
0
  6
CONTINUOUS
 62
     7
 10
58.864606803455438
 20
236.15650429128829
 30
0.0
 40
3.0
  1
250-500
  0
TEXT
  5
26F84
  8
0
  6
CONTINUOUS
 62
     3
 10
63.504192757890003
 20
222.79124141525591
 30
0.0
 40
2.0
  1
-0.35
  0
TEXT
  5
26F85
  8
0
  6
CONTINUOUS
 62
     3
 10
62.041925324166407
 20
217.257775021637
 30
0.0
 40
3.0
  1
%%P0.35
  0
TEXT
  5
26F86
  8
0
  6
CONTINUOUS
 62
     3
 10
63.504192757890003
 20
225.2969618979169
 30
0.0
 40
2.0
  1
+0.0
  0
LINE
  5
26F87
  8
0
  6
CONTINUOUS
 62
     2
 10
6.6647981867797617
 20
234.60000000000019
 30
0.0
 11
74.993438436643828
 21
234.60000000000019
 31
0.0
  0
LINE
  5
26F88
  8
0
  6
CONTINUOUS
 62
     2
 10
6.6647981867797617
 20
228.2000000000001
 30
0.0
 11
74.993438436643828
 21
228.2000000000001
 31
0.0
  0
LINE
  5
26F89
  8
0
  6
CONTINUOUS
 62
     2
 10
6.6647981867797617
 20
221.8000000000003
 30
0.0
 11
74.993438436643828
 21
221.8000000000003
 31
0.0
  0
LINE
  5
26F8A
  8
0
  6
CONTINUOUS
 62
     2
 10
74.993438436643828
 20
241.00000000000031
 30
0.0
 11
6.6647981867797617
 21
241.00000000000031
 31
0.0
  0
LINE
  5
26F8B
  8
0
  6
CONTINUOUS
 62
     2
 10
0.0
 20
215.62385070146439
 30
0.0
 11
74.993438436643828
 21
215.62385070146439
 31
0.0
  0
LINE
  5
26F8C
  8
0
  6
CONTINUOUS
 62
     2
 10
6.664798186779989
 20
221.8000000000003
 30
0.0
 11
6.664798186779989
 21
241.00000000000031
 31
0.0
  0
LINE
  5
26F8D
  8
0
  6
CONTINUOUS
 62
     2
 10
0.0
 20
241.00000000000031
 30
0.0
 11
0.0
 21
215.62385070146439
 31
0.0
  0
LINE
  5
26F8E
  8
0
  6
CONTINUOUS
 62
     2
 10
6.664798186779989
 20
215.62385070146439
 30
0.0
 11
6.664798186779989
 21
221.8000000000003
 31
0.0
  0
TEXT
  5
26F8F
  8
0
  6
CONTINUOUS
 10
1.2378468086309331
 20
217.77421795343761
 30
0.0
 40
3.0
  1
mm
  0
TEXT
  5
26F90
  8
0
  6
CONTINUOUS
 10
2.289011192062389
 20
221.7461905260555
 30
0.0
 40
3.0
  1
瞒
  0
TEXT
  5
26F91
  8
0
  6
CONTINUOUS
 10
2.289011192062389
 20
235.2461905260555
 30
0.0
 40
3.0
  1
扁
  0
TEXT
  5
26F92
  8
0
  6
CONTINUOUS
 10
2.289011192062389
 20
226.2461905260555
 30
0.0
 40
3.0
  1
傍
  0
TEXT
  5
26F93
  8
0
  6
CONTINUOUS
 10
2.289011192062389
 20
230.7461905260555
 30
0.0
 40
3.0
  1
夯
  0
LINE
  5
26F94
  8
0
  6
CONTINUOUS
 62
     2
 10
6.6647981867797617
 20
241.00000000000031
 30
0.0
 11
0.0
 21
241.00000000000031
 31
0.0
  0
TEXT
  5
26F95
  8
0
  6
CONTINUOUS
 62
     7
 10
28.853706141723482
 20
236.15650429128829
 30
0.0
 40
3.0
  1
50-100
  0
TEXT
  5
26F96
  8
0
  6
CONTINUOUS
 62
     3
 10
32.065439160974158
 20
229.0555435295031
 30
0.0
 40
2.0
  1
-0.0
  0
TEXT
  5
26F97
  8
0
  6
CONTINUOUS
 62
     3
 10
32.065439160974158
 20
231.56126401216429
 30
0.0
 40
2.0
  1
+0.15
  0
TEXT
  5
26F98
  8
0
  6
CONTINUOUS
 62
     3
 10
32.065439160974158
 20
222.6868365716216
 30
0.0
 40
2.0
  1
-0.15
  0
TEXT
  5
26F99
  8
0
  6
CONTINUOUS
 62
     3
 10
30.812067194666952
 20
217.257775021637
 30
0.0
 40
3.0
  1
%%P0.15
  0
TEXT
  5
26F9A
  8
0
  6
CONTINUOUS
 62
     3
 10
32.065439160974158
 20
225.1925570542829
 30
0.0
 40
2.0
  1
+0.0
  0
LINE
  5
26F9B
  8
0
  6
CONTINUOUS
 62
     2
 10
28.096426956445612
 20
241.00000000000031
 30
0.0
 11
28.096426956445612
 21
215.62385070146439
 31
0.0
  0
TEXT
  5
26F9C
  8
0
  6
CONTINUOUS
 62
     3
 10
20.993984417053071
 20
225.1925570542829
 30
0.0
 40
2.0
  1
+0.0
  0
TEXT
  5
26F9D
  8
0
  6
CONTINUOUS
 10
9.1748491995331278
 20
223.52224636897429
 30
0.0
 40
3.0
  1
寇版
  0
LINE
  5
26F9E
  8
0
  6
CONTINUOUS
 62
     2
 10
18.664798186779759
 20
241.00000000000031
 30
0.0
 11
18.664798186779759
 21
221.8000000000003
 31
0.0
  0
LINE
  5
26F9F
  8
0
  6
CONTINUOUS
 62
     2
 10
18.664798186779759
 20
228.4238507014646
 30
0.0
 11
18.664798186779759
 21
215.62385070146439
 31
0.0
  0
TEXT
  5
26FA0
  8
0
  6
CONTINUOUS
 62
     3
 10
20.993984417053071
 20
222.6868365716216
 30
0.0
 40
2.0
  1
-0.1
  0
TEXT
  5
26FA1
  8
0
  6
CONTINUOUS
 62
     3
 10
19.949507918161999
 20
217.257775021637
 30
0.0
 40
3.0
  1
%%P0.1
  0
TEXT
  5
26FA2
  8
0
  6
CONTINUOUS
 10
9.1748491995331278
 20
217.35439130880519
 30
0.0
 40
3.0
  1
傈厘
  0
TEXT
  5
26FA3
  8
0
  6
CONTINUOUS
 62
     3
 10
20.88953668334489
 20
231.56126401216429
 30
0.0
 40
2.0
  1
+0.1
  0
TEXT
  5
26FA4
  8
0
  6
CONTINUOUS
 62
     3
 10
20.993984417053071
 20
229.0555435295031
 30
0.0
 40
2.0
  1
-0.0
  0
TEXT
  5
26FA5
  8
0
  6
CONTINUOUS
 62
     7
 10
19.291584210295241
 20
236.15650429128829
 30
0.0
 40
3.0
  1
1-50
  0
TEXT
  5
26FA6
  8
0
  6
CONTINUOUS
 10
9.1748491995331278
 20
229.76335097000751
 30
0.0
 40
3.0
  1
郴版
  0
TEXT
  5
26FA7
  8
0
  6
CONTINUOUS
 10
9.1748491995331278
 20
236.00445557104089
 30
0.0
 40
3.0
  1
备盒 
  0
LINE
  5
26FA8
  8
0
  6
CONTINUOUS
 62
     2
 10
57.968465385929441
 20
241.00000000000031
 30
0.0
 11
57.968465385929441
 21
215.62385070146439
 31
0.0
  0
LINE
  5
26FA9
  8
0
  6
CONTINUOUS
 62
     2
 10
42.092417406004408
 20
241.00000000000031
 30
0.0
 11
42.092417406004408
 21
215.62385070146439
 31
0.0
  0
TEXT
  5
26FAA
  8
0
  6
CONTINUOUS
 62
     3
 10
46.688116012782068
 20
225.2969618979169
 30
0.0
 40
2.0
  1
+0.0
  0
TEXT
  5
26FAB
  8
0
  6
CONTINUOUS
 62
     3
 10
46.688116012782068
 20
222.79124141525591
 30
0.0
 40
2.0
  1
-0.25
  0
TEXT
  5
26FAC
  8
0
  6
CONTINUOUS
 62
     3
 10
45.33029547457636
 20
217.257775021637
 30
0.0
 40
3.0
  1
%%P0.25
  0
TEXT
  5
26FAD
  8
0
  6
CONTINUOUS
 62
     7
 10
40.571351574260689
 20
236.15650429128829
 30
0.0
 40
3.0
  1
 100-250
  0
TEXT
  5
26FAE
  8
0
  6
CONTINUOUS
 62
     3
 10
46.479220545365934
 20
229.0555435295031
 30
0.0
 40
2.0
  1
-0.0
  0
TEXT
  5
26FAF
  8
0
  6
CONTINUOUS
 62
     3
 10
46.479220545365934
 20
231.56126401216429
 30
0.0
 40
2.0
  1
+0.25
  0
LINE
  5
26FB0
  8
0
  6
CONTINUOUS
 62
     2
 10
74.993438436643828
 20
241.00000000000031
 30
0.0
 11
74.993438436643828
 21
215.62385070146439
 31
0.0
  0
POLYLINE
  5
26FB1
  8
0
 66
     1
 10
0.0
 20
0.0
 30
0.0
 40
1.0
 41
1.0
  0
VERTEX
  5
2757A
  8
0
 10
349.2999999999999
 20
0.0
 30
0.0
  0
VERTEX
  5
2757B
  8
0
 10
349.2999999999999
 20
241.50000000000031
 30
0.0
  0
SEQEND
  5
2757C
  8
0
  0
TEXT
  5
26FB2
  8
0
 62
     3
 10
265.187548430493
 20
27.127590477055271
 30
0.0
 40
3.0
  1
3.ANGLES  %%P0%%D15'
  0
TEXT
  5
26FB3
  8
0
 62
     3
 10
265.187548430493
 20
38.051021325782813
 30
0.0
 40
3.0
  1
1.ROUND  R=1.0
  0
TEXT
  5
26FB4
  8
0
 62
     3
 10
265.187548430493
 20
32.510087232807336
 30
0.0
 40
3.0
  1
2.BREAK SHARP CORNERS  1.0*45%%D
  0
LINE
  5
26FB5
  8
0
 62
     2
 10
281.30000000000001
 20
6.5
 30
0.0
 11
349.2999999999999
 21
6.5
 31
0.0
  0
TEXT
  5
26FB6
  8
0
 62
     3
 10
264.54916131191339
 20
44.000081334326978
 30
0.0
 40
4.0
  1
NOTE
  0
LINE
  5
26FB7
  8
0
 62
     2
 10
198.8597031580841
 20
16.5
 30
0.0
 11
289.30000000000001
 21
16.5
 31
0.0
  0
LINE
  5
26FB8
  8
0
 62
     2
 10
281.30000000000001
 20
6.5
 30
0.0
 11
198.8597031580841
 21
6.5
 31
0.0
  0
TEXT
  5
26FB9
  8
0
  6
CONTINUOUS
 62
     7
 10
214.0501246930346
 20
17.658983523781899
 30
0.0
 40
4.0
  1
SSK CONTROL NUMBER
  0
LINE
  5
26FBA
  8
0
 62
     2
 10
198.8597031580839
 20
24.0
 30
0.0
 11
198.8597031580839
 21
0.0
 31
0.0
  0
TEXT
  5
26FBB
  8
0
 62
     7
 10
199.72929511267941
 20
2.2574114378330701
 30
0.0
 40
2.0
  1
Q'TY
  0
TEXT
  5
26FBC
  8
0
 62
     7
 10
234.13498021523631
 20
2.269955000430854
 30
0.0
 40
2.0
  1
SCALE
  0
LINE
  5
26FBD
  8
0
 62
     2
 10
233.8597031580839
 20
6.5
 30
0.0
 11
233.8597031580839
 21
0.0
 31
0.0
  0
TEXT
  5
26FBE
  8
0
 62
     7
 10
249.69651417353521
 20
0.9519807885211548
 30
0.0
 40
4.0
  1
1 : 1
  0
TEXT
  5
26FBF
  8
0
 62
     7
 10
270.10520091895279
 20
2.2574114378329559
 30
0.0
 40
2.0
  1
CUTTING SIZE :
  0
LINE
  5
26FC0
  8
0
 62
     2
 10
268.8597031580839
 20
6.5
 30
0.0
 11
268.8597031580839
 21
0.0
 31
0.0
  0
LINE
  5
26FC1
  8
0
 62
     2
 10
289.30000000000001
 20
24.25
 30
0.0
 11
289.30000000000001
 21
6.75
 31
0.0
  0
TEXT
  5
26FC2
  8
0
 62
     7
 10
289.3406550879472
 20
0.9519807885211548
 30
0.0
 40
4.0
  1
-
  0
TEXT
  5
26FC3
  8
0
 62
     7
 10
290.83722662870952
 20
20.7469419072163
 30
0.0
 40
2.0
  1
DESIGN
  0
LINE
  5
26FC4
  8
0
 62
     2
 10
309.2999999999999
 20
24.25
 30
0.0
 11
309.2999999999999
 21
6.75
 31
0.0
  0
TEXT
  5
26FC5
  8
0
 62
     7
 10
310.26938148685667
 20
20.8838933210493
 30
0.0
 40
2.0
  1
CHECK
  0
TEXT
  5
26FC6
  8
0
 62
     7
 10
330.49033471004373
 20
20.8838933210493
 30
0.0
 40
2.0
  1
APPROVE
  0
LINE
  5
26FC7
  8
0
 62
     2
 10
329.30000000000001
 20
24.25
 30
0.0
 11
329.30000000000001
 21
6.75
 31
0.0
  0
TEXT
  5
26FC8
  8
0
 62
     7
 10
287.87643544357428
 20
236.0401664710821
 30
0.0
 40
2.5
  1
REVISIONS
  0
LINE
  5
26FC9
  8
0
  6
CONTINUOUS
 62
     2
 10
269.30000000000001
 20
221.8000000000003
 30
0.0
 11
349.2999999999999
 21
221.80000000000001
 31
0.0
  0
LINE
  5
26FCA
  8
0
  6
CONTINUOUS
 62
     2
 10
269.30000000000001
 20
228.19999999999939
 30
0.0
 11
349.2999999999999
 21
228.19999999999919
 31
0.0
  0
LINE
  5
26FCB
  8
0
  6
CONTINUOUS
 62
     2
 10
269.30000000000001
 20
234.60000000000019
 30
0.0
 11
349.2999999999999
 21
234.60000000000019
 31
0.0
  0
LINE
  5
26FCC
  8
0
  6
CONTINUOUS
 62
     2
 10
269.30000000000001
 20
215.62385070146439
 30
0.0
 11
349.2999999999999
 21
215.62385070146439
 31
0.0
  0
LINE
  5
26FCD
  8
0
 62
     2
 10
275.30000000000001
 20
241.00000000000031
 30
0.0
 11
275.29999999999973
 21
215.62385070146439
 31
0.0
  0
TEXT
  5
26FCE
  8
0
 62
     7
 10
271.36049426856789
 20
223.5855929990733
 30
0.0
 40
2.5
  1
2.
  0
LINE
  5
26FCF
  8
0
 62
     2
 10
269.30000000000001
 20
241.00000000000031
 30
0.0
 11
269.30000000000001
 21
215.62385070146439
 31
0.0
  0
TEXT
  5
26FD0
  8
0
 62
     7
 10
271.36049426856789
 20
217.74007257054271
 30
0.0
 40
2.5
  1
3.
  0
TEXT
  5
26FD1
  8
0
 62
     7
 10
271.36049426856789
 20
230.294868075549
 30
0.0
 40
2.5
  1
1.
  0
TEXT
  5
26FD2
  8
0
 62
     7
 10
270.34697788810348
 20
236.25014875277051
 30
0.0
 40
2.5
  1
NO.
  0
TEXT
  5
26FD3
  8
0
 62
     7
 10
333.83882714560201
 20
236.14515597642301
 30
0.0
 40
2.5
  1
DEVISER
  0
LINE
  5
26FD4
  8
0
 62
     2
 10
317.30000000000001
 20
241.00000000000031
 30
0.0
 11
317.30000000000001
 21
215.62385070146439
 31
0.0
  0
LINE
  5
26FD5
  8
0
 62
     2
 10
331.30000000000001
 20
241.00000000000031
 30
0.0
 11
331.30000000000001
 21
215.62385070146439
 31
0.0
  0
TEXT
  5
26FD6
  8
0
 62
     7
 10
320.14935744422269
 20
236.0401664710821
 30
0.0
 40
2.5
  1
DATE
  0
TEXT
  5
26FD7
  8
0
  6
CONTINUOUS
 62
     3
 10
90.572089549978273
 20
3.8493427474586488
 30
0.0
 40
4.0
  1
-
  0
TEXT
  5
26FD8
  8
0
  6
CONTINUOUS
 62
     3
 10
111.6207144487865
 20
14.767562434813501
 30
0.0
 40
4.0
  1
SHOT BLAST
  0
TEXT
  5
26FD9
  8
0
  6
CONTINUOUS
 62
     3
 10
125.1005583045346
 20
3.8493427474586488
 30
0.0
 40
4.0
  1
-
  0
TEXT
  5
26FDA
  8
0
  6
CONTINUOUS
 62
     3
 10
16.369062988328661
 20
4.3566675434232129
 30
0.0
 40
4.0
  1
JIS B 6339-2 : 2011
  0
TEXT
  5
26FDB
  8
0
  6
CONTINUOUS
 62
     3
 10
210.10918743548689
 20
9.1725713732117811
 30
0.0
 40
4.0
  1
BT30AD/B-HC19.05-90-PB25
  0
LINE
  5
26FE0
  8
0
  6
CONTINUOUS
 10
161.38792395516381
 20
101.5893301725793
 30
0.0
 11
179.3265142934398
 21
101.5893301725793
 31
0.0
  0
LINE
  5
26FE1
  8
0
  6
CONTINUOUS
 10
204.88294188719141
 20
103.5625352533345
 30
0.0
 11
204.88294188719141
 21
124.0893301725793
 31
0.0
  0
LINE
  5
26FE2
  8
0
  6
CONTINUOUS
 10
205.2180271832998
 20
103.1429200110647
 30
0.0
 11
205.2180271832998
 21
124.0893301725783
 31
0.0
  0
LINE
  5
26FE3
  8
0
  6
CONTINUOUS
 10
209.66988996641311
 20
103.5625352533345
 30
0.0
 11
209.66988996641311
 21
124.0893301725793
 31
0.0
  0
LINE
  5
26FE4
  8
0
  6
CONTINUOUS
 10
209.33480467030461
 20
103.1429200110647
 30
0.0
 11
209.33480467030461
 21
124.0893301725783
 31
0.0
  0
LINE
  5
26FE5
  8
0
  6
CONTINUOUS
 10
211.88294188719129
 20
103.5625352533345
 30
0.0
 11
211.88294188719129
 21
124.0893301725793
 31
0.0
  0
LINE
  5
26FE6
  8
0
  6
CONTINUOUS
 10
212.2180271832998
 20
103.1429200110647
 30
0.0
 11
212.2180271832998
 21
124.0893301725783
 31
0.0
  0
LINE
  5
26FE7
  8
0
  6
HIDDEN
 62
     3
 10
163.26988996641401
 20
126.33933017257939
 30
0.0
 11
163.26988996641401
 21
124.08933017257939
 31
0.0
  0
LINE
  5
26FE8
  8
0
  6
HIDDEN
 62
     3
 10
177.76988996641401
 20
126.33933017257939
 30
0.0
 11
177.76988996641401
 21
124.08933017257939
 31
0.0
  0
LINE
  5
26FE9
  8
0
  6
HIDDEN
 62
     3
 10
164.01988996641401
 20
127.08933017257939
 30
0.0
 11
177.01988996641401
 21
127.08933017257939
 31
0.0
  0
LINE
  5
26FEA
  8
0
  6
HIDDEN
 62
     3
 10
173.76988996641401
 20
125.82138098014821
 30
0.0
 11
173.76988996641401
 21
124.08933017257939
 31
0.0
  0
LINE
  5
26FEB
  8
0
  6
HIDDEN
 62
     3
 10
177.76988996641401
 20
125.82138098014821
 30
0.0
 11
173.76988996641401
 21
125.82138098014821
 31
0.0
  0
LINE
  5
26FEC
  8
0
  6
HIDDEN
 62
     3
 10
177.76988996641401
 20
124.9553555763638
 30
0.0
 11
173.76988996641401
 21
124.9553555763638
 31
0.0
  0
LINE
  5
26FED
  8
0
  6
HIDDEN
 62
     3
 10
173.76988996641401
 20
125.58933017257939
 30
0.0
 11
163.26988996641401
 21
125.58933017257939
 31
0.0
  0
LINE
  5
26FEE
  8
0
  6
HIDDEN
 62
     3
 10
163.47838996641391
 20
126.5478301725794
 30
0.0
 11
177.561389966414
 21
126.5478301725794
 31
0.0
  0
LINE
  5
26FEF
  8
0
  6
HIDDEN
 62
     3
 10
163.26988996641401
 20
126.33933017257939
 30
0.0
 11
164.01988996641401
 21
127.08933017257939
 31
0.0
  0
LINE
  5
26FF0
  8
0
  6
HIDDEN
 62
     3
 10
177.01988996641401
 20
127.08933017257939
 30
0.0
 11
177.76988996641401
 21
126.33933017257939
 31
0.0
  0
LINE
  5
26FF1
  8
0
  6
HIDDEN
 62
     3
 10
164.01988996641401
 20
127.08933017257939
 30
0.0
 11
164.01988996641401
 21
124.08933017257939
 31
0.0
  0
LINE
  5
26FF2
  8
0
  6
HIDDEN
 62
     3
 10
177.01988996641401
 20
127.08933017257939
 30
0.0
 11
177.01988996641401
 21
124.08933017257939
 31
0.0
  0
LINE
  5
26FF3
  8
0
  6
CONTINUOUS
 10
142.36988996641469
 20
132.13933017257941
 30
0.0
 11
149.71988996641471
 21
132.13933017257941
 31
0.0
  0
LINE
  5
26FF4
  8
0
  6
HIDDEN
 62
     3
 10
124.36988996641431
 20
119.08933017257939
 30
0.0
 11
130.36988996641429
 21
119.0893301725793
 31
0.0
  0
LINE
  5
26FF5
  8
0
  6
HIDDEN
 62
     3
 10
97.512665039578451
 20
118.0893301725793
 30
0.0
 11
115.36988996641431
 21
118.0893301725793
 31
0.0
1001
ACAD
1000
ASC_BOUNDS
1002
{
1070
    19
1005
0
1002
}
  0
LINE
  5
26FF6
  8
0
  6
HIDDEN
 62
     3
 10
97.912435244438939
 20
118.7893301725793
 30
0.0
 11
124.36988996641431
 21
118.7893301725793
 31
0.0
  0
LINE
  5
26FF7
  8
0
  6
HIDDEN
 62
     3
 10
91.369889966414334
 20
117.83933017257949
 30
0.0
 11
94.936877264521854
 21
117.8393301725793
 31
0.0
1001
ACAD
1000
ASC_BOUNDS
1002
{
1070
    19
1002
}
  0
LINE
  5
26FF8
  8
0
  6
HIDDEN
 62
     3
 10
90.662783185227667
 20
117.54643695376591
 30
0.0
 11
90.662783185227667
 21
124.0893301725793
 31
0.0
  0
LINE
  5
26FF9
  8
0
  6
HIDDEN
 62
     3
 10
91.111070921311466
 20
117.8052559988684
 30
0.0
 11
91.111070921311466
 21
124.0893301725793
 31
0.0
  0
ARC
  5
26FFA
  8
0
  6
HIDDEN
 62
     3
 10
91.369889966414334
 20
116.83933017257949
 30
0.0
 40
1.0
 50
90.0
 51
104.9999999999944
1001
ACAD
1000
ASC_BOUNDS
1002
{
1070
    19
1002
}
  0
LINE
  5
26FFB
  8
0
  6
HIDDEN
 62
     3
 10
90.662783185227667
 20
117.54643695376591
 30
0.0
 11
91.111070921311466
 21
117.8052559988684
 31
0.0
  0
ARC
  5
26FFC
  8
0
  6
HIDDEN
 62
     3
 10
91.369889966414334
 20
116.83933017257949
 30
0.0
 40
1.0
 50
134.99999999999079
 51
180.0
1001
ACAD
1000
ASC_BOUNDS
1002
{
1070
    19
1002
}
  0
LINE
  5
26FFD
  8
0
  6
HIDDEN
 62
     3
 10
130.36988996641429
 20
124.0893301725793
 30
0.0
 11
130.36988996641429
 21
119.0893301725793
 31
0.0
1001
ACAD
1000
ASC_BOUNDS
1002
{
1070
    19
1002
}
  0
LINE
  5
26FFE
  8
0
  6
HIDDEN
 62
     3
 10
97.912435244438939
 20
118.7893301725793
 30
0.0
 11
97.912435244438939
 21
124.0893301725793
 31
0.0
  0
LINE
  5
26FFF
  8
0
  6
HIDDEN
 62
     3
 10
97.369889966414362
 20
117.8393301725793
 30
0.0
 11
97.369889966414362
 21
124.0893301725793
 31
0.0
  0
LINE
  5
27000
  8
0
  6
HIDDEN
 62
     3
 10
94.936877264521854
 20
117.8393301725793
 30
0.0
 11
94.936877264521854
 21
124.0893301725793
 31
0.0
  0
LINE
  5
27001
  8
0
  6
HIDDEN
 62
     3
 10
95.869889966413893
 20
117.5893301725793
 30
0.0
 11
95.869889966414348
 21
124.0893301725793
 31
0.0
1001
ACAD
1000
ASC_BOUNDS
1002
{
1070
    19
1002
}
  0
POINT
  5
27002
  8
DEFPOINTS
  6
HIDDEN
 62
     3
 10
97.369889966413893
 20
117.5893301725793
 30
0.0
  0
POINT
  5
27003
  8
DEFPOINTS
  6
HIDDEN
 62
     3
 10
95.869889966413893
 20
117.5893301725793
 30
0.0
  0
LINE
  5
27004
  8
0
  6
HIDDEN
 62
     3
 10
97.369889966414362
 20
117.8393301725793
 30
0.0
 11
97.912435244438939
 21
118.7893301725793
 31
0.0
1001
ACAD
1000
ASC_BOUNDS
1002
{
1070
    19
1005
0
1002
}
  0
LINE
  5
27005
  8
0
  6
HIDDEN
 62
     3
 10
97.369889966414362
 20
117.8393301725793
 30
0.0
 11
97.369889966413893
 21
117.5893301725793
 31
0.0
1001
ACAD
1000
ASC_BOUNDS
1002
{
1070
    19
1002
}
  0
LINE
  5
27006
  8
0
  6
HIDDEN
 62
     3
 10
97.369889966413893
 20
117.5893301725793
 30
0.0
 11
95.869889966413893
 21
117.5893301725793
 31
0.0
1001
ACAD
1000
ASC_BOUNDS
1002
{
1070
    19
1002
}
  0
LINE
  5
27007
  8
0
  6
HIDDEN
 62
     3
 10
95.869889966413893
 20
117.5893301725793
 30
0.0
 11
94.936877264521854
 21
117.8393301725793
 31
0.0
  0
LINE
  5
27008
  8
0
  6
HIDDEN
 62
     3
 10
124.36988996641431
 20
124.0893301725793
 30
0.0
 11
124.36988996641431
 21
118.7893301725789
 31
0.0
1001
ACAD
1000
ASC_BOUNDS
1002
{
1070
    19
1002
}
  0
LINE
  5
27009
  8
0
  6
HIDDEN
 62
     3
 10
115.36988996641431
 20
118.0893301725793
 30
0.0
 11
115.36988996641431
 21
124.0893301725793
 31
0.0
1001
ACAD
1000
ASC_BOUNDS
1002
{
1070
    19
1005
0
1002
}
  0
LINE
  5
2700A
  8
0
  6
HIDDEN
 62
     3
 10
115.36988996641431
 20
118.0893301725793
 30
0.0
 11
116.5949252299413
 21
118.7893301725793
 31
0.0
1001
ACAD
1000
ASC_BOUNDS
1002
{
1070
    19
1005
0
1002
}
  0
LINE
  5
2700B
  8
0
  6
CONTINUOUS
 10
139.24620393849571
 20
139.68933017257939
 30
0.0
 11
139.24620393849571
 21
124.0893301725793
 31
0.0
  0
LINE
  5
2700C
  8
0
  6
CONTINUOUS
 62
     7
 10
138.76988996641401
 20
124.0893301725793
 30
0.0
 11
138.76988996641401
 21
139.96433017257931
 31
0.0
  0
LINE
  5
2700D
  8
0
  6
CONTINUOUS
 62
     7
 10
156.36977263135961
 20
131.0822952477435
 30
0.0
 11
156.36977263136009
 21
146.99757846304331
 31
0.0
  0
LINE
  5
2700E
  8
0
  6
CONTINUOUS
 62
     7
 10
148.37000730146809
 20
146.99757846304311
 30
0.0
 11
148.37000730146809
 21
133.7393301725794
 31
0.0
  0
ARC
  5
2700F
  8
0
  6
CONTINUOUS
 10
149.71988996641471
 20
124.0893301725793
 30
0.0
 40
8.0500000000000114
 50
0.0
 51
90.0
  0
LINE
  5
27010
  8
0
  6
HIDDEN
 62
     3
 10
157.3088587497011
 20
112.59472398795771
 30
0.0
 11
157.1377728184757
 21
114.5502451301264
 31
0.0
  0
LINE
  5
27011
  8
0
  6
HIDDEN
 62
     3
 10
155.3586988661082
 20
115.3798409385404
 30
0.0
 11
157.3088587497013
 21
112.5947239879581
 31
0.0
  0
LINE
  5
27012
  8
0
  6
HIDDEN
 62
     3
 10
150.36988996641409
 20
106.2893301725795
 30
0.0
 11
154.36988996641409
 21
106.2893301725793
 31
0.0
  0
LINE
  5
27013
  8
0
  6
HIDDEN
 62
     3
 10
155.35869886610789
 20
115.3798409385406
 30
0.0
 11
157.1377728184757
 21
114.5502451301263
 31
0.0
  0
LINE
  5
27014
  8
0
  6
HIDDEN
 62
     3
 10
154.06988996641419
 20
106.58933017257939
 30
0.0
 11
154.36988996641409
 21
106.2893301725793
 31
0.0
  0
LINE
  5
27015
  8
0
  6
HIDDEN
 62
     3
 10
150.26988996641421
 20
106.2893301725794
 30
0.0
 11
152.36988996641409
 21
106.2893301725794
 31
0.0
  0
LINE
  5
27016
  8
0
  6
HIDDEN
 62
     3
 10
140.76988996641401
 20
105.5308793501024
 30
0.0
 11
140.8514651601451
 21
105.5879989156842
 31
0.0
  0
LINE
  5
27017
  8
0
  6
HIDDEN
 62
     3
 10
140.85146516014561
 20
105.5879989156835
 30
0.0
 11
141.26928370433731
 21
105.5143262333024
 31
0.0
1001
ACAD
1000
ASC_BOUNDS
1002
{
1070
    19
1002
}
  0
LINE
  5
27018
  8
0
  6
HIDDEN
 62
     3
 10
145.35680140373501
 20
108.74266931561441
 30
0.0
 11
140.85146516014561
 21
105.5879989156835
 31
0.0
1001
ACAD
1000
ASC_BOUNDS
1002
{
1070
    19
1002
}
  0
LINE
  5
27019
  8
0
  6
HIDDEN
 62
     3
 10
143.21944358793101
 20
102.72920928271991
 30
0.0
 11
150.6698899664141
 21
107.9460679999606
 31
0.0
  0
LINE
  5
2701A
  8
0
  6
HIDDEN
 62
     3
 10
141.26928370433711
 20
105.5143262333026
 30
0.0
 11
150.6698899664141
 21
112.0967016017502
 31
0.0
  0
LINE
  5
2701B
  8
0
  6
HIDDEN
 62
     3
 10
143.21944358793101
 20
102.72920928271991
 30
0.0
 11
142.2443636461341
 21
104.1217677580112
 31
0.0
  0
LINE
  5
2701C
  8
0
  6
HIDDEN
 62
     3
 10
141.26928370433731
 20
105.5143262333024
 30
0.0
 11
142.2443636461341
 21
104.1217677580112
 31
0.0
  0
LINE
  5
2701D
  8
0
  6
HIDDEN
 62
     3
 10
140.8514651601453
 20
105.587998915684
 30
0.0
 11
143.1457709055496
 21
102.3113907385279
 31
0.0
  0
LINE
  5
2701E
  8
0
  6
HIDDEN
 62
     3
 10
147.65110714913899
 20
105.4660611384588
 30
0.0
 11
143.1457709055494
 21
102.3113907385282
 31
0.0
1001
ACAD
1000
ASC_BOUNDS
1002
{
1070
    19
1002
}
  0
LINE
  5
2701F
  8
0
  6
HIDDEN
 62
     3
 10
141.46739491415201
 20
101.13617921740109
 30
0.0
 11
143.1457709055496
 21
102.3113907385279
 31
0.0
  0
LINE
  5
27020
  8
0
  6
HIDDEN
 62
     3
 10
143.1457709055494
 20
102.3113907385282
 30
0.0
 11
143.21944358793101
 21
102.72920928271991
 31
0.0
1001
ACAD
1000
ASC_BOUNDS
1002
{
1070
    19
1002
}
  0
LINE
  5
27021
  8
0
  6
HIDDEN
 62
     3
 10
147.65110714913899
 20
105.4660611384586
 30
0.0
 11
147.90467810618361
 21
106.0098458106808
 31
0.0
1001
ACAD
1000
ASC_BOUNDS
1002
{
1070
    19
1002
}
  0
LINE
  5
27022
  8
0
  6
HIDDEN
 62
     3
 10
146.50395427643679
 20
107.1043652270366
 30
0.0
 11
147.65110714913899
 21
105.4660611384586
 31
0.0
1001
ACAD
1000
ASC_BOUNDS
1002
{
1070
    19
1002
}
  0
LINE
  5
27023
  8
0
  6
HIDDEN
 62
     3
 10
145.35680140373481
 20
108.74266931561441
 30
0.0
 11
145.9545182225902
 21
108.79496276126309
 31
0.0
1001
ACAD
1000
ASC_BOUNDS
1002
{
1070
    19
1002
}
  0
LINE
  5
27024
  8
0
  6
HIDDEN
 62
     3
 10
146.5039542764371
 20
107.1043652270366
 30
0.0
 11
145.35680140373481
 21
108.74266931561441
 31
0.0
1001
ACAD
1000
ASC_BOUNDS
1002
{
1070
    19
1002
}
  0
LINE
  5
27025
  8
0
  6
HIDDEN
 62
     3
 10
150.6698899664141
 20
112.0967016017502
 30
0.0
 11
150.6698899664139
 21
120.0893301725793
 31
0.0
  0
LINE
  5
27026
  8
0
  6
HIDDEN
 62
     3
 10
154.06988996641419
 20
114.47740723166331
 30
0.0
 11
154.06988996641431
 21
120.0893301725793
 31
0.0
  0
LINE
  5
27027
  8
0
  6
HIDDEN
 62
     3
 10
154.06988996641419
 20
114.47740723166331
 30
0.0
 11
155.35869886610789
 21
115.3798409385406
 31
0.0
  0
LINE
  5
27028
  8
0
  6
HIDDEN
 62
     3
 10
154.06988996641419
 20
110.32677362987491
 30
0.0
 11
157.3088587497013
 21
112.59472398795771
 31
0.0
  0
LINE
  5
27029
  8
0
  6
HIDDEN
 62
     3
 10
150.6698899664141
 20
107.9460679999606
 30
0.0
 11
152.36988996641409
 21
111.2117376158121
 31
0.0
  0
LINE
  5
2702A
  8
0
  6
HIDDEN
 62
     3
 10
152.36988996641409
 20
111.2117376158121
 30
0.0
 11
154.06988996641419
 21
110.32677362987491
 31
0.0
  0
LINE
  5
2702B
  8
0
  6
HIDDEN
 62
     3
 10
152.36988996641409
 20
111.2117376158121
 30
0.0
 11
154.06988996641419
 21
114.47740723166331
 31
0.0
  0
LINE
  5
2702C
  8
0
  6
HIDDEN
 62
     3
 10
150.6698899664141
 20
112.0967016017502
 30
0.0
 11
152.36988996641409
 21
111.2117376158121
 31
0.0
  0
LINE
  5
2702D
  8
0
  6
HIDDEN
 62
     3
 10
154.06988996641419
 20
106.5893301725792
 30
0.0
 11
154.06988996641419
 21
110.32677362987491
 31
0.0
  0
LINE
  5
2702E
  8
0
  6
HIDDEN
 62
     3
 10
154.36988996641409
 20
106.2893301725793
 30
0.0
 11
154.36988996641409
 21
110.5368358913375
 31
0.0
  0
LINE
  5
2702F
  8
0
  6
HIDDEN
 62
     3
 10
154.469889966414
 20
106.2893301725794
 30
0.0
 11
152.36988996641409
 21
106.2893301725794
 31
0.0
  0
LINE
  5
27030
  8
0
  6
HIDDEN
 62
     3
 10
150.26988996641421
 20
104.3800234766852
 30
0.0
 11
150.26988996641421
 21
106.2893301725794
 31
0.0
  0
LINE
  5
27031
  8
0
  6
HIDDEN
 62
     3
 10
150.6698899664143
 20
106.58933017257959
 30
0.0
 11
154.06988996641419
 21
106.58933017257939
 31
0.0
  0
LINE
  5
27032
  8
0
  6
HIDDEN
 62
     3
 10
150.36988996641409
 20
106.2893301725795
 30
0.0
 11
150.36988996641409
 21
107.7360057384977
 31
0.0
  0
LINE
  5
27033
  8
0
  6
HIDDEN
 62
     3
 10
150.6698899664141
 20
106.58933017257939
 30
0.0
 11
150.36988996641409
 21
106.2893301725795
 31
0.0
  0
LINE
  5
27034
  8
0
  6
HIDDEN
 62
     3
 10
150.6698899664141
 20
106.58933017257939
 30
0.0
 11
150.6698899664141
 21
107.9460679999606
 31
0.0
  0
LINE
  5
27035
  8
0
  6
HIDDEN
 62
     3
 10
154.469889966414
 20
104.3800234766848
 30
0.0
 11
154.469889966414
 21
106.2893301725794
 31
0.0
  0
LINE
  5
27036
  8
0
  6
HIDDEN
 62
     3
 10
130.36988996641429
 20
119.08933017257939
 30
0.0
 11
130.947240235604
 21
120.0893301725793
 31
0.0
  0
LINE
  5
27037
  8
0
  6
HIDDEN
 62
     3
 10
177.76988996641401
 20
124.0893301725793
 30
0.0
 11
177.7698899664141
 21
114.38933017257941
 31
0.0
  0
LINE
  5
27038
  8
0
  6
CONTINUOUS
 10
180.76988996641401
 20
145.27283359165131
 30
0.0
 11
180.76988996641401
 21
124.0893301725792
 31
0.0
  0
LINE
  5
27042
  8
0
  6
HIDDEN
 62
     3
 10
182.83687726452149
 20
113.0893301725793
 30
0.0
 11
182.83687726452149
 21
124.0893301725793
 31
0.0
  0
LINE
  5
27044
  8
0
  6
HIDDEN
 62
     3
 10
180.2698899664137
 20
124.0893301725793
 30
0.0
 11
180.2698899664137
 21
113.5893301725793
 31
0.0
1001
ACAD
1000
ASC_BOUNDS
1002
{
1070
    19
1002
}
  0
LINE
  5
27045
  8
0
  6
HIDDEN
 62
     3
 10
177.7698899664137
 20
114.38933017257941
 30
0.0
 11
180.2698899664137
 21
114.38933017257941
 31
0.0
  0
ARC
  5
27048
  8
0
  6
HIDDEN
 62
     3
 10
180.7698899664137
 20
113.5893301725793
 30
0.0
 40
0.5
 50
180.0
 51
270.0
1001
ACAD
1000
ASC_BOUNDS
1002
{
1070
    19
1002
}
  0
LINE
  5
27049
  8
0
  6
HIDDEN
 62
     3
 10
180.7698899664137
 20
113.0893301725793
 30
0.0
 11
182.83687726452149
 21
113.0893301725793
 31
0.0
1001
ACAD
1000
ASC_BOUNDS
1002
{
1070
    19
1002
}
  0
LINE
  5
2704E
  8
0
  6
CONTINUOUS
 10
179.90386456262939
 20
146.40582675350711
 30
0.0
 11
179.90386456262939
 21
124.0893301725793
 31
0.0
  0
LINE
  5
2704F
  8
0
  6
HIDDEN
 62
     3
 10
130.947240235604
 20
120.0893301725793
 30
0.0
 11
130.947240235604
 21
124.0893301725793
 31
0.0
  0
LINE
  5
27050
  8
0
  6
HIDDEN
 62
     3
 10
130.947240235604
 20
120.0893301725793
 30
0.0
 11
166.36988996641409
 21
120.0893301725793
 31
0.0
1001
ACAD
1000
ASC_BOUNDS
1002
{
1070
    19
1002
}
  0
LINE
  5
27051
  8
0
  6
HIDDEN
 62
     3
 10
167.264782883658
 20
121.63933017257931
 30
0.0
 11
177.01988996641489
 21
121.63933017257931
 31
0.0
1001
ACAD
1000
ASC_BOUNDS
1002
{
1070
    19
1005
0
1005
0
1005
0
1005
0
1005
0
1005
0
1002
}
  0
LINE
  5
27052
  8
0
  6
HIDDEN
 62
     3
 10
166.9472402356032
 20
121.08933017257949
 30
0.0
 11
177.56988996641411
 21
121.0893301725793
 31
0.0
1001
ACAD
1000
ASC_BOUNDS
1002
{
1070
    19
1005
0
1005
0
1005
0
1005
0
1005
0
1005
0
1002
}
  0
LINE
  5
27053
  8
0
  6
HIDDEN
 62
     3
 10
166.36988996641409
 20
120.0893301725793
 30
0.0
 11
167.264782883658
 21
121.63933017257931
 31
0.0
  0
LINE
  5
27054
  8
0
  6
HIDDEN
 62
     3
 10
167.264782883658
 20
121.63933017257931
 30
0.0
 11
167.264782883658
 21
124.0893301725793
 31
0.0
  0
LINE
  5
27055
  8
0
  6
HIDDEN
 62
     3
 10
177.01988996641401
 20
121.63933017257931
 30
0.0
 11
177.76988996641489
 21
120.88933017257909
 31
0.0
  0
LINE
  5
27056
  8
0
  6
HIDDEN
 62
     3
 10
177.01988996641489
 20
121.63933017257909
 30
0.0
 11
177.01988996641401
 21
124.0893301725793
 31
0.0
  0
LINE
  5
27057
  8
0
  6
HIDDEN
 62
     3
 10
177.76988996641401
 20
121.8393301725793
 30
0.0
 11
177.76988996641401
 21
124.0893301725793
 31
0.0
  0
LINE
  5
27058
  8
0
  6
HIDDEN
 62
     3
 10
164.01988996641401
 20
121.0893301725793
 30
0.0
 11
177.01988996641401
 21
121.0893301725793
 31
0.0
  0
LINE
  5
27059
  8
0
  6
HIDDEN
 62
     3
 10
173.76988996641401
 20
122.3572793650104
 30
0.0
 11
173.76988996641401
 21
124.0893301725793
 31
0.0
  0
LINE
  5
2705A
  8
0
  6
HIDDEN
 62
     3
 10
177.76988996641401
 20
122.3572793650104
 30
0.0
 11
173.76988996641401
 21
122.3572793650104
 31
0.0
  0
LINE
  5
2705B
  8
0
  6
HIDDEN
 62
     3
 10
177.76988996641401
 20
123.2233047687949
 30
0.0
 11
173.76988996641401
 21
123.2233047687949
 31
0.0
  0
LINE
  5
2705C
  8
0
  6
HIDDEN
 62
     3
 10
173.76988996641401
 20
122.5893301725793
 30
0.0
 11
163.26988996641401
 21
122.5893301725793
 31
0.0
  0
LINE
  5
2705D
  8
0
  6
HIDDEN
 62
     3
 10
163.47838996641391
 20
121.63083017257929
 30
0.0
 11
177.561389966414
 21
121.63083017257929
 31
0.0
  0
LINE
  5
2705E
  8
0
  6
HIDDEN
 62
     3
 10
177.01988996641401
 20
121.0893301725793
 30
0.0
 11
177.76988996641401
 21
121.8393301725793
 31
0.0
  0
LINE
  5
2705F
  8
0
  6
HIDDEN
 62
     3
 10
177.01988996641401
 20
121.0893301725793
 30
0.0
 11
177.01988996641401
 21
124.0893301725793
 31
0.0
  0
LINE
  5
27060
  8
0
  6
HIDDEN
 62
     3
 10
166.36988996641409
 20
120.0893301725793
 30
0.0
 11
166.36988996641409
 21
124.0893301725793
 31
0.0
  0
LINE
  5
27061
  8
0
  6
CONTINUOUS
 10
202.669889966413
 20
144.61612509182419
 30
0.0
 11
202.669889966413
 21
124.0893301725793
 31
0.0
  0
LINE
  5
27062
  8
0
  6
CONTINUOUS
 10
202.33480467030461
 20
145.03574033409399
 30
0.0
 11
202.33480467030461
 21
124.0893301725804
 31
0.0
  0
ARC
  5
27063
  8
0
  6
CONTINUOUS
 10
149.7198899664148
 20
124.0893301725793
 30
0.0
 40
9.650000000000011
 50
0.0
 51
46.440537371104931
  0
LINE
  5
27064
  8
0
  6
CONTINUOUS
 10
142.3698899664148
 20
133.7393301725794
 30
0.0
 11
148.37000730146809
 21
133.7393301725794
 31
0.0
  0
ARC
  5
27065
  8
0
  6
CONTINUOUS
 10
142.3698899664148
 20
135.33933017257939
 30
0.0
 40
1.6000000000000001
 50
180.0
 51
270.0
  0
ARC
  5
27066
  8
0
  6
CONTINUOUS
 10
142.36988996641469
 20
133.73933017257929
 30
0.0
 40
1.6000000000000001
 50
180.0
 51
270.0
  0
LINE
  5
27067
  8
0
  6
CONTINUOUS
 10
150.36988996641429
 20
132.11304502294641
 30
0.0
 11
148.37000730146809
 21
133.7393301725794
 31
0.0
  0
LINE
  5
27068
  8
0
  6
CONTINUOUS
 10
154.36988996641429
 20
130.66047923495839
 30
0.0
 11
156.36977263135961
 21
131.0822952477435
 31
0.0
  0
LINE
  5
27069
  8
0
  6
CONTINUOUS
 10
204.88294188719141
 20
144.61612509182419
 30
0.0
 11
204.88294188719141
 21
124.0893301725793
 31
0.0
  0
LINE
  5
2706A
  8
0
  6
CONTINUOUS
 10
205.2180271832998
 20
145.03574033409399
 30
0.0
 11
205.2180271832998
 21
124.0893301725804
 31
0.0
  0
LINE
  5
2706B
  8
0
  6
CONTINUOUS
 10
209.66988996641311
 20
144.61612509182419
 30
0.0
 11
209.66988996641311
 21
124.0893301725793
 31
0.0
  0
LINE
  5
2706C
  8
0
  6
CONTINUOUS
 10
209.33480467030461
 20
145.03574033409399
 30
0.0
 11
209.33480467030461
 21
124.0893301725804
 31
0.0
  0
LINE
  5
2706D
  8
0
  6
CONTINUOUS
 10
211.88294188719129
 20
144.61612509182419
 30
0.0
 11
211.88294188719129
 21
124.0893301725793
 31
0.0
  0
LINE
  5
2706E
  8
0
  6
CONTINUOUS
 10
212.2180271832998
 20
145.03574033409399
 30
0.0
 11
212.2180271832998
 21
124.0893301725804
 31
0.0
  0
LINE
  5
2706F
  8
0
  6
HIDDEN
 62
     3
 10
163.26988996641381
 20
121.83933017257939
 30
0.0
 11
163.26988996641401
 21
124.08933017257939
 31
0.0
  0
LINE
  5
27070
  8
0
  6
HIDDEN
 62
     3
 10
164.0198899664139
 20
121.08933017257939
 30
0.0
 11
164.01988996641401
 21
124.08933017257939
 31
0.0
  0
LINE
  5
27071
  8
0
  6
HIDDEN
 62
     3
 10
163.26988996641401
 20
121.8393301725793
 30
0.0
 11
164.01988996641401
 21
121.0893301725793
 31
0.0
  0
LINE
  5
27072
  8
0
  6
CENTER
 62
     2
 10
139.76988996641401
 20
102.3891226343729
 30
0.0
 11
157.8398944166147
 21
115.0418759658864
 31
0.0
  0
LINE
  5
27073
  8
0
  6
CENTER
 62
     2
 10
152.36988996641409
 20
105.08933017258261
 30
0.0
 11
152.36988996641409
 21
120.08933017258261
 31
0.0
  0
LINE
  5
27074
  8
0
  6
CONTINUOUS
 62
     7
 10
160.76988996641401
 20
146.80317879482189
 30
0.0
 11
160.76988996641401
 21
124.0893301725793
 31
0.0
  0
LINE
  5
27077
  8
0
  6
HIDDEN
 62
     3
 10
186.89979377698251
 20
133.61433017257929
 30
0.0
 11
227.26988996641469
 21
133.61433017257929
 31
0.0
1001
ACAD
1000
ASC_BOUNDS
1002
{
1070
    19
1005
0
1005
0
1005
0
1002
}
  0
LINE
  5
27079
  8
0
  6
HIDDEN
 62
     3
 10
186.89979377698251
 20
133.61433017257929
 30
0.0
 11
186.89979377698251
 21
124.0893301725793
 31
0.0
  0
LINE
  5
2707A
  8
0
  6
HIDDEN
 62
     3
 10
186.76988996641461
 20
133.83933017257939
 30
0.0
 11
186.76988996641461
 21
124.08933017257939
 31
0.0
  0
LINE
  5
2707B
  8
0
  6
HIDDEN
 62
     3
 10
183.26988996641461
 20
134.97330476879469
 30
0.0
 11
183.26988996641461
 21
124.0893301725793
 31
0.0
  0
LINE
  5
2707C
  8
0
  6
HIDDEN
 62
     3
 10
183.56988996641451
 20
133.83933017257939
 30
0.0
 11
183.56988996641459
 21
124.0893301725793
 31
0.0
  0
LINE
  5
2707E
  8
0
  6
HIDDEN
 62
     3
 10
183.56988996641459
 20
133.83933017257939
 30
0.0
 11
186.76988996641461
 21
133.83933017257939
 31
0.0
  0
POINT
  5
27080
  8
0
  6
HIDDEN
 62
     3
 10
183.26988996641461
 20
134.63933017257941
 30
0.0
  0
LINE
  5
27082
  8
0
  6
HIDDEN
 62
     3
 10
213.19488996641459
 20
135.58933017257931
 30
0.0
 11
214.06988996641459
 21
134.71433017257931
 31
0.0
  0
LINE
  5
27085
  8
0
  6
HIDDEN
 62
     3
 10
223.2698899664145
 20
136.08933017257931
 30
0.0
 11
223.2698899664145
 21
135.98933017257929
 31
0.0
  0
LINE
  5
2708C
  8
0
  6
HIDDEN
 62
     3
 10
223.26988996641481
 20
136.08933017257931
 30
0.0
 11
223.26988996641469
 21
135.71433017257931
 31
0.0
  0
ARC
  5
27094
  8
0
  6
HIDDEN
 62
     3
 10
227.26988996641469
 20
135.11433017257929
 30
0.0
 40
1.5
 50
270.0
 51
0.0
1001
ACAD
1000
ASC_BOUNDS
1002
{
1070
    19
1005
0
1005
0
1005
0
1002
}
  0
DIMENSION
  5
270C5
  8
0
  6
CONTINUOUS
  2
*D21
 10
241.01969704643241
 20
133.61433017257929
 30
0.0
 11
241.01969704643241
 21
124.08933017257939
 31
0.0
 70
   128
 13
227.26988996641469
 23
114.5643301725794
 33
0.0
 14
227.26988996641469
 24
133.61433017257929
 34
0.0
 50
90.0
1001
ACAD
1000
DSTYLE
1002
{
1070
   287
1070
     2
1070
     3
1000
%%c<>
1070
    72
1070
     0
1070
    71
1070
     0
1070
    42
1040
0.6
1070
    43
1040
1.0
1070
    44
1040
1.0
1070
    47
1040
-0.02
1070
    48
1040
-0.02
1070
    73
1070
     0
1070
   140
1040
3.0
1070
   141
1040
-0.2
1070
   144
1040
1.0
1070
   146
1040
0.7
1070
   147
1040
0.6
1070
   178
1070
     3
1070
   271
1070
     5
1070
   272
1070
     5
1070
   275
1070
     1
1070
   283
1070
     0
1070
   284
1070
     8
1070
   289
1070
     2
1002
}
  0
LINE
  5
270E5
  8
0
  6
HIDDEN
 62
     3
 10
199.41988996641459
 20
135.58933017257931
 30
0.0
 11
213.19488996641459
 21
135.58933017257931
 31
0.0
  0
LINE
  5
270E6
  8
0
  6
HIDDEN
 62
     3
 10
186.76988996641461
 20
133.83933017257939
 30
0.0
 11
186.89979377698251
 21
133.61433017257929
 31
0.0
  0
LINE
  5
270E7
  8
0
  6
HIDDEN
 62
     3
 10
183.56988996641459
 20
133.83933017257939
 30
0.0
 11
183.26988996641461
 21
134.01253525333621
 31
0.0
  0
LINE
  5
270E9
  8
0
  6
HIDDEN
 62
     3
 10
214.06988996641459
 20
134.71433017257931
 30
0.0
 11
222.26988996641469
 21
134.71433017257931
 31
0.0
  0
LINE
  5
2710C
  8
0
  6
HIDDEN
 62
     3
 10
191.38232553171181
 20
134.71433017257931
 30
0.0
 11
198.5448899664147
 21
134.71433017257931
 31
0.0
1001
ACAD
1000
ASC_BOUNDS
1002
{
1070
    19
1005
0
1005
0
1005
0
1002
}
  0
LINE
  5
2710E
  8
0
  6
HIDDEN
 62
     3
 10
199.41988996641459
 20
135.58933017257931
 30
0.0
 11
198.5448899664147
 21
134.71433017257931
 31
0.0
  0
ARC
  5
27343
  8
0
  6
HIDDEN
 62
     3
 10
222.26988996641469
 20
135.71433017257931
 30
0.0
 40
1.0
 50
270.0
 51
0.0
  0
ARC
  5
27344
  8
0
  6
HIDDEN
 62
     3
 10
191.38232553171181
 20
135.71433017257931
 30
0.0
 40
1.0
 50
180.0
 51
270.0
  0
LINE
  5
27346
  8
0
  6
HIDDEN
 62
     3
 10
190.38232553171181
 20
112.0893301725793
 30
0.0
 11
223.2698899664145
 21
112.0893301725793
 31
0.0
1001
ACAD
1000
ASC_BOUNDS
1002
{
1070
    19
1005
0
1005
0
1002
}
  0
LINE
  5
27347
  8
0
  6
HIDDEN
 62
     3
 10
182.83687726452149
 20
113.0893301725793
 30
0.0
 11
182.83687726452149
 21
124.0893301725793
 31
0.0
  0
LINE
  5
2734A
  8
0
  6
HIDDEN
 62
     3
 10
183.26988996641461
 20
113.205355576364
 30
0.0
 11
182.83687726452149
 21
113.0893301725793
 31
0.0
1001
ACAD
1000
ASC_BOUNDS
1002
{
1070
    19
1002
}
  0
LINE
  5
2734D
  8
0
  6
HIDDEN
 62
     3
 10
190.38232553171181
 20
112.0893301725793
 30
0.0
 11
190.38232553171181
 21
112.4643301725793
 31
0.0
  0
ARC
  5
2734E
  8
0
  6
HIDDEN
 62
     3
 10
191.38232553171181
 20
112.4643301725793
 30
0.0
 40
1.0
 50
90.0
 51
180.0
  0
LINE
  5
2734F
  8
0
  6
HIDDEN
 62
     3
 10
186.89979377698251
 20
114.5643301725793
 30
0.0
 11
227.26988996641469
 21
114.5643301725793
 31
0.0
1001
ACAD
1000
ASC_BOUNDS
1002
{
1070
    19
1005
0
1005
0
1005
0
1002
}
  0
LINE
  5
27350
  8
0
  6
HIDDEN
 62
     3
 10
186.89979377698251
 20
114.5643301725793
 30
0.0
 11
186.89979377698251
 21
124.0893301725793
 31
0.0
  0
LINE
  5
27351
  8
0
  6
HIDDEN
 62
     3
 10
186.76988996641461
 20
114.3393301725793
 30
0.0
 11
186.76988996641461
 21
124.0893301725793
 31
0.0
  0
LINE
  5
27352
  8
0
  6
HIDDEN
 62
     3
 10
183.26988996641461
 20
113.205355576364
 30
0.0
 11
183.26988996641461
 21
124.0893301725793
 31
0.0
  0
LINE
  5
27353
  8
0
  6
HIDDEN
 62
     3
 10
183.56988996641451
 20
114.3393301725793
 30
0.0
 11
183.56988996641459
 21
124.0893301725793
 31
0.0
  0
LINE
  5
27354
  8
0
  6
HIDDEN
 62
     3
 10
183.56988996641459
 20
114.3393301725793
 30
0.0
 11
186.76988996641461
 21
114.3393301725793
 31
0.0
  0
POINT
  5
27355
  8
0
  6
HIDDEN
 62
     3
 10
183.26988996641461
 20
113.5393301725793
 30
0.0
  0
LINE
  5
27356
  8
0
  6
HIDDEN
 62
     3
 10
213.19488996641459
 20
112.58933017257939
 30
0.0
 11
214.06988996641459
 21
113.46433017257939
 31
0.0
  0
LINE
  5
27357
  8
0
  6
HIDDEN
 62
     3
 10
223.2698899664145
 20
112.0893301725793
 30
0.0
 11
223.2698899664145
 21
112.1893301725793
 31
0.0
  0
LINE
  5
27358
  8
0
  6
HIDDEN
 62
     3
 10
223.26988996641481
 20
112.0893301725793
 30
0.0
 11
223.26988996641469
 21
112.4643301725793
 31
0.0
  0
ARC
  5
27359
  8
0
  6
HIDDEN
 62
     3
 10
222.26988996641469
 20
112.4643301725793
 30
0.0
 40
1.0
 50
0.0
 51
90.0
  0
ARC
  5
2735A
  8
0
  6
HIDDEN
 62
     3
 10
227.26988996641469
 20
113.0643301725793
 30
0.0
 40
1.5
 50
0.0
 51
90.0
1001
ACAD
1000
ASC_BOUNDS
1002
{
1070
    19
1005
0
1005
0
1005
0
1002
}
  0
LINE
  5
2735B
  8
0
  6
HIDDEN
 62
     3
 10
199.41988996641459
 20
112.58933017257939
 30
0.0
 11
213.19488996641459
 21
112.58933017257939
 31
0.0
  0
LINE
  5
2735C
  8
0
  6
HIDDEN
 62
     3
 10
186.76988996641461
 20
114.3393301725793
 30
0.0
 11
186.89979377698251
 21
114.5643301725793
 31
0.0
  0
LINE
  5
2735D
  8
0
  6
HIDDEN
 62
     3
 10
183.56988996641459
 20
114.3393301725793
 30
0.0
 11
183.26988996641461
 21
114.16612509182249
 31
0.0
  0
LINE
  5
2735E
  8
0
  6
HIDDEN
 62
     3
 10
214.06988996641459
 20
113.46433017257939
 30
0.0
 11
222.26988996641469
 21
113.4643301725793
 31
0.0
  0
LINE
  5
2735F
  8
0
  6
HIDDEN
 62
     3
 10
191.38232553171181
 20
113.4643301725793
 30
0.0
 11
198.5448899664147
 21
113.4643301725793
 31
0.0
1001
ACAD
1000
ASC_BOUNDS
1002
{
1070
    19
1005
0
1005
0
1005
0
1002
}
  0
LINE
  5
27360
  8
0
  6
HIDDEN
 62
     3
 10
199.41988996641459
 20
112.58933017257939
 30
0.0
 11
198.5448899664147
 21
113.4643301725793
 31
0.0
  0
DIMENSION
  5
27361
  8
0
  6
CONTINUOUS
  2
*D22
 10
228.76988996641381
 20
158.09393740813709
 30
0.0
 11
207.76988996641421
 21
160.19423268372771
 31
0.0
 70
     0
 13
186.76988996641461
 23
133.83933017257939
 33
0.0
 14
228.76988996641381
 24
142.0502305414021
 34
0.0
1001
ACAD
1000
DSTYLE
1002
{
1070
   287
1070
     2
1070
    42
1040
0.6
1070
    43
1040
1.0
1070
    44
1040
1.0
1070
    47
1040
0.1
1070
    48
1040
0.1
1070
   141
1040
-1.0
1070
   146
1040
0.7
1070
   147
1040
0.6
1070
   271
1070
     8
1070
   272
1070
     8
1070
   275
1070
     1
1070
   283
1070
     0
1070
   284
1070
     8
1070
   289
1070
     2
1002
}
  0
DIMENSION
  5
2737A
  8
0
  6
CONTINUOUS
  2
*D23
 10
257.01969704643238
 20
101.5893301725793
 30
0.0
 11
254.91969704643239
 21
124.08933017257939
 31
0.0
 70
     0
 13
179.3265142934398
 23
146.58933017257939
 33
0.0
 14
179.3265142934398
 24
101.5893301725793
 34
0.0
 50
90.0
1001
ACAD
1000
DSTYLE
1002
{
1070
   287
1070
     2
1070
     3
1000
%%c<>
1070
    42
1040
0.6
1070
    43
1040
1.0
1070
    44
1040
1.0
1070
    47
1040
0.1
1070
    48
1040
0.1
1070
   141
1040
-1.0
1070
   146
1040
0.7
1070
   147
1040
0.6
1070
   179
1070
     8
1070
   271
1070
     8
1070
   272
1070
     8
1070
   275
1070
     1
1070
   283
1070
     0
1070
   284
1070
     8
1070
   289
1070
     2
1002
}
  0
TEXT
  5
27468
  8
0
 62
     7
 10
134.3314552758732
 20
52.625621229344858
 30
0.0
 40
4.0
  1
CODE : 153750
  0
INSERT
  5
27469
  8
0
  6
CONTINUOUS
  2
*U36
 10
0.0
 20
0.0
 30
0.0
  0
ENDSEC
  0
EOF
